osu file format v14

[General]
AudioFilename: audio.mp3
AudioLeadIn: 0
PreviewTime: 134191
Countdown: 0
SampleSet: Soft
StackLeniency: 0
Mode: 0
LetterboxInBreaks: 0
WidescreenStoryboard: 1

[Editor]
Bookmarks: 22449,43783,54449,70449,71116,81116,107824,129158,134491,139824,150491,155824,161158,171824,182491,214491,227824
DistanceSpacing: 1.3
BeatDivisor: 6
GridSize: 4
TimelineZoom: 1.5

[Metadata]
Title:Ringo Biyori ~The Wolf Whistling Song x Get Low (feat. Ying Yang Twins)
TitleUnicode:リンゴ日和 ~The Wolf Whistling Song x Get Low (feat. Ying Yang Twins)
Artist:ROCKY CHACK, Lil Jon & The East Side Boyz
ArtistUnicode:ROCKY CHACK, Lil Jon & The East Side Boyz
Creator:Deramok
Version:Low Insane
Source:狼と香辛料
Tags:nautzz spice and wolf ookami to koushinryou Rap-Bit whistle ロッキー・チャック mashup mash up hiyori hip hop anime novelty english pop jpop
BeatmapID:2538881
BeatmapSetID:1062345

[Difficulty]
HPDrainRate:4
CircleSize:5
OverallDifficulty:6
ApproachRate:5
SliderMultiplier:1.5
SliderTickRate:1

[Events]
//Background and Video events
0,0,"horo.jpg",0,0
//Break Periods
//Storyboard Layer 0 (Background)
//Storyboard Layer 1 (Fail)
//Storyboard Layer 2 (Pass)
//Storyboard Layer 3 (Foreground)
//Storyboard Layer 4 (Overlay)
//Storyboard Sound Samples

[TimingPoints]
200,666.666666666667,4,2,0,70,1,0
1200,631.578947368421,4,2,0,70,1,0
2525,666.666666666667,4,2,0,70,1,0
3828,666.666666666667,4,2,0,70,1,0
5494,720.00288001152,4,2,0,70,1,0
5854,677.966101694915,4,2,0,70,1,0
6526,666.666666666667,4,2,0,70,1,0
10548,674.157303370787,4,2,0,70,1,0
11557,645.161290322581,4,2,0,70,1,0
13199,666.666666666667,4,2,0,70,1,0
14517,666.666666666667,4,2,0,70,1,0
21392,-100,4,2,2,5,0,0
21475,-100,4,2,0,70,0,0
22517,666.666666666667,4,2,0,70,1,0
22725,-100,4,2,2,5,0,0
22809,-100,4,2,0,70,0,0
23059,-100,4,2,2,5,0,0
23142,-100,4,2,0,70,0,0
24059,-100,4,2,2,5,0,0
24142,-100,4,2,0,70,0,0
24392,-100,4,2,2,5,0,0
24475,-100,4,2,0,70,0,0
26725,-100,4,2,2,5,0,0
26809,-100,4,2,0,70,0,0
27059,-100,4,2,2,5,0,0
27142,-100,4,2,0,70,0,0
33392,-100,4,2,2,5,0,0
33475,-100,4,2,0,70,0,0
35309,-100,4,2,2,5,0,0
35475,-100,4,2,0,70,0,0
40392,-100,4,2,2,5,0,0
40475,-100,4,2,0,70,0,0
40725,-100,4,2,2,5,0,0
40809,-100,4,2,0,70,0,0
44059,-100,4,2,2,5,0,0
44142,-100,4,2,0,70,0,0
44392,-100,4,2,2,5,0,0
44475,-100,4,2,0,70,0,0
44725,-100,4,2,2,5,0,0
44809,-100,4,2,0,70,0,0
45059,-100,4,2,2,5,0,0
45142,-100,4,2,0,70,0,0
45725,-100,4,2,2,5,0,0
45809,-100,4,2,0,70,0,0
46725,-100,4,2,2,5,0,0
46809,-100,4,2,0,70,0,0
47059,-100,4,2,2,5,0,0
47142,-100,4,2,0,70,0,0
47392,-100,4,2,2,5,0,0
47475,-100,4,2,0,70,0,0
47725,-100,4,2,2,5,0,0
47809,-100,4,2,0,70,0,0
48392,-100,4,2,2,5,0,0
48475,-100,4,2,0,70,0,0
48725,-100,4,2,2,5,0,0
48809,-100,4,2,0,70,0,0
49392,-100,4,2,2,5,0,0
49475,-100,4,2,0,70,0,0
52059,-100,4,2,2,5,0,0
52142,-100,4,2,0,70,0,0
53725,-100,4,2,2,5,0,0
53809,-100,4,2,0,70,0,0
54059,-100,4,2,2,5,0,0
54142,-100,4,2,0,70,0,0
57392,-100,4,2,2,5,0,0
57475,-100,4,2,0,70,0,0
57725,-100,4,2,2,5,0,0
57809,-100,4,2,0,70,0,0
58725,-100,4,2,2,5,0,0
58809,-100,4,2,0,70,0,0
59059,-100,4,2,2,5,0,0
59142,-100,4,2,0,70,0,0
59392,-100,4,2,2,5,0,0
59475,-100,4,2,0,70,0,0
62059,-100,4,2,2,5,0,0
62142,-100,4,2,0,70,0,0
62725,-100,4,2,2,5,0,0
62809,-100,4,2,0,70,0,0
63309,-100,4,2,2,5,0,0
63392,-100,4,2,0,70,0,0
63725,-100,4,2,2,5,0,0
63809,-100,4,2,0,70,0,0
70059,-100,4,2,2,5,0,0
70142,-100,4,2,0,70,0,0
73392,-100,4,2,2,5,0,0
73475,-100,4,2,0,70,0,0
74059,-100,4,2,2,5,0,0
74142,-100,4,2,0,70,0,0
74725,-100,4,2,2,5,0,0
74809,-100,4,2,0,70,0,0
75059,-100,4,2,2,5,0,0
75142,-100,4,2,0,70,0,0
80059,-100,4,2,2,5,0,0
80142,-100,4,2,0,70,0,0
82309,-100,4,2,2,5,0,0
82475,-100,4,2,0,70,0,0
82725,-100,4,2,2,5,0,0
82809,-100,4,2,0,70,0,0
84725,-100,4,2,2,5,0,0
84809,-100,4,2,0,70,0,0
85059,-100,4,2,2,5,0,0
85142,-100,4,2,0,70,0,0
88392,-100,4,2,2,5,0,0
88475,-100,4,2,0,70,0,0
89392,-100,4,2,2,5,0,0
89475,-100,4,2,0,70,0,0
89725,-100,4,2,2,5,0,0
89809,-100,4,2,0,70,0,0
90725,-100,4,2,2,5,0,0
90809,-100,4,2,0,70,0,0
91059,-100,4,2,2,5,0,0
91142,-100,4,2,0,70,0,0
91392,-100,4,2,2,5,0,0
91475,-100,4,2,0,70,0,0
91725,-100,4,2,2,5,0,0
91809,-100,4,2,0,70,0,0
93059,-100,4,2,2,5,0,0
93142,-100,4,2,0,70,0,0
95725,-100,4,2,2,5,0,0
95809,-100,4,2,0,70,0,0
96059,-100,4,2,2,5,0,0
96142,-100,4,2,0,70,0,0
96559,-100,4,2,2,5,0,0
96642,-100,4,2,0,70,0,0
98059,-100,4,2,2,5,0,0
98142,-100,4,2,0,70,0,0
98725,-100,4,2,2,5,0,0
98809,-100,4,2,0,70,0,0
99059,-100,4,2,2,5,0,0
99142,-100,4,2,0,70,0,0
99725,-100,4,2,2,5,0,0
99809,-100,4,2,0,70,0,0
104767,-100,4,2,2,5,0,0
104850,-100,4,2,0,70,0,0
106767,-100,4,2,2,5,0,0
106850,-100,4,2,0,70,0,0
108100,-100,4,2,2,5,0,0
108184,-100,4,2,0,70,0,0
108434,-100,4,2,2,5,0,0
108517,-100,4,2,0,70,0,0
109434,-100,4,2,2,5,0,0
109517,-100,4,2,0,70,0,0
109767,-100,4,2,2,5,0,0
109850,-100,4,2,0,70,0,0
110100,-100,4,2,2,5,0,0
110184,-100,4,2,0,70,0,0
112100,-100,4,2,2,5,0,0
112184,-100,4,2,0,70,0,0
118767,-100,4,2,2,5,0,0
118850,-100,4,2,0,70,0,0
120684,-100,4,2,2,5,0,0
120850,-100,4,2,0,70,0,0
124100,-100,4,2,2,5,0,0
124184,-100,4,2,0,70,0,0
124434,-100,4,2,2,5,0,0
124517,-100,4,2,0,70,0,0
124767,-100,4,2,2,5,0,0
124850,-100,4,2,0,70,0,0
125100,-100,4,2,2,5,0,0
125184,-100,4,2,0,70,0,0
126767,-100,4,2,2,5,0,0
126850,-100,4,2,0,70,0,0
127100,-100,4,2,2,5,0,0
127184,-100,4,2,0,70,0,0
127434,-100,4,2,2,5,0,0
127517,-100,4,2,0,70,0,0
127850,645.161290322581,4,2,0,70,1,0
128817,732.600732600733,4,2,0,70,1,0
129183,666.666666666667,4,2,0,70,1,0
134767,-100,4,2,2,5,0,0
134850,-100,4,2,0,70,0,0
135100,-100,4,2,2,5,0,0
135184,-100,4,2,0,70,0,0
135434,-100,4,2,2,5,0,0
135517,-100,4,2,0,70,0,0
137434,-100,4,2,2,5,0,0
137517,-100,4,2,0,70,0,0
137767,-100,4,2,2,5,0,0
137850,-100,4,2,0,70,0,0
138100,-100,4,2,2,5,0,0
138184,-100,4,2,0,70,0,0
138434,-100,4,2,2,5,0,0
138517,-100,4,2,0,70,0,0
139100,-100,4,2,2,5,0,0
139184,-100,4,2,0,70,0,0
140434,-100,4,2,2,5,0,0
140517,-100,4,2,0,70,0,0
140767,-100,4,2,2,5,0,0
140850,-100,4,2,0,70,0,0
141100,-100,4,2,2,5,0,0
141184,-100,4,2,0,70,0,0
141434,-100,4,2,2,5,0,0
141517,-100,4,2,0,70,0,0
141767,-100,4,2,2,5,0,0
141850,-100,4,2,0,70,0,0
142100,-100,4,2,2,5,0,0
142184,-100,4,2,0,70,0,0
142767,-100,4,2,2,5,0,0
142850,-100,4,2,0,70,0,0
143434,-100,4,2,2,5,0,0
143517,-100,4,2,0,70,0,0
143767,-100,4,2,2,5,0,0
143850,-100,4,2,0,70,0,0
144100,-100,4,2,2,5,0,0
144184,-100,4,2,0,70,0,0
144434,-100,4,2,2,5,0,0
144517,-100,4,2,0,70,0,0
144767,-100,4,2,2,5,0,0
144850,-100,4,2,0,70,0,0
145767,-100,4,2,2,5,0,0
145850,-100,4,2,0,70,0,0
146434,-100,4,2,2,5,0,0
146517,-100,4,2,0,70,0,0
146767,-100,4,2,2,5,0,0
146850,-100,4,2,0,70,0,0
147100,-100,4,2,2,5,0,0
147184,-100,4,2,0,70,0,0
147434,-100,4,2,2,5,0,0
147517,-100,4,2,0,70,0,0
148100,-100,4,2,2,5,0,0
148184,-100,4,2,0,70,0,0
148767,-100,4,2,2,5,0,0
148850,-100,4,2,0,70,0,0
149100,-100,4,2,2,5,0,0
149184,-100,4,2,0,70,0,0
149434,-100,4,2,2,5,0,0
149517,-100,4,2,0,70,0,0
149767,-100,4,2,2,5,0,0
149850,-100,4,2,0,70,0,0
150100,-100,4,2,2,5,0,0
150184,-100,4,2,0,70,0,0
152767,-100,4,2,2,5,0,0
152850,-100,4,2,0,70,0,0
153434,-100,4,2,2,5,0,0
153517,-100,4,2,0,70,0,0
154100,-100,4,2,2,5,0,0
154184,-100,4,2,0,70,0,0
154767,-100,4,2,2,5,0,0
154850,-100,4,2,0,70,0,0
156100,-100,4,2,2,5,0,0
156184,-100,4,2,0,70,0,0
156434,-100,4,2,2,5,0,0
156517,-100,4,2,0,70,0,0
157434,-100,4,2,2,5,0,0
157517,-100,4,2,0,70,0,0
157767,-100,4,2,2,5,0,0
157850,-100,4,2,0,70,0,0
158100,-100,4,2,2,5,0,0
158184,-100,4,2,0,70,0,0
158767,-100,4,2,2,5,0,0
158850,-100,4,2,0,70,0,0
159434,-100,4,2,2,5,0,0
159517,-100,4,2,0,70,0,0
160100,-100,4,2,2,5,0,0
160184,-100,4,2,0,70,0,0
160434,-100,4,2,2,5,0,0
160517,-100,4,2,0,70,0,0
160767,-100,4,2,2,5,0,0
160850,-100,4,2,0,70,0,0
161100,-100,4,2,2,5,0,0
161184,-100,4,2,0,70,0,0
161434,-100,4,2,2,5,0,0
161517,-100,4,2,0,70,0,0
161767,-100,4,2,2,5,0,0
161850,-100,4,2,0,70,0,0
162392,-100,4,2,2,5,0,0
162503,-100,4,2,0,70,0,0
163100,-100,4,2,2,5,0,0
163184,-100,4,2,0,70,0,0
163767,-100,4,2,2,5,0,0
163850,-100,4,2,0,70,0,0
164100,-100,4,2,2,5,0,0
164184,-100,4,2,0,70,0,0
164434,-100,4,2,2,5,0,0
164517,-100,4,2,0,70,0,0
165059,-100,4,2,2,5,0,0
165170,-100,4,2,0,70,0,0
165767,-100,4,2,2,5,0,0
165850,-100,4,2,0,70,0,0
166434,-100,4,2,2,5,0,0
166517,-100,4,2,0,70,0,0
166767,-100,4,2,2,5,0,0
166850,-100,4,2,0,70,0,0
167100,-100,4,2,2,5,0,0
167184,-100,4,2,0,70,0,0
167767,-100,4,2,2,5,0,0
167850,-100,4,2,0,70,0,0
168434,-100,4,2,2,5,0,0
168517,-100,4,2,0,70,0,0
169100,-100,4,2,2,5,0,0
169184,-100,4,2,0,70,0,0
169434,-100,4,2,2,5,0,0
169517,-100,4,2,0,70,0,0
169767,-100,4,2,2,5,0,0
169850,-100,4,2,0,70,0,0
170434,-100,4,2,2,5,0,0
170517,-100,4,2,0,70,0,0
171100,-100,4,2,2,5,0,0
171184,-100,4,2,0,70,0,0
171767,-100,4,2,2,5,0,0
171850,-100,4,2,0,70,0,0
172100,-100,4,2,2,5,0,0
172184,-100,4,2,0,70,0,0
172434,-100,4,2,2,5,0,0
172517,-100,4,2,0,70,0,0
172767,-100,4,2,2,5,0,0
172850,-100,4,2,0,70,0,0
173100,-100,4,2,2,5,0,0
173184,-100,4,2,0,70,0,0
174100,-100,4,2,2,5,0,0
174184,-100,4,2,0,70,0,0
174434,-100,4,2,2,5,0,0
174517,-100,4,2,0,70,0,0
174767,-100,4,2,2,5,0,0
174850,-100,4,2,0,70,0,0
175100,-100,4,2,2,5,0,0
175184,-100,4,2,0,70,0,0
175434,-100,4,2,2,5,0,0
175517,-100,4,2,0,70,0,0
176767,-100,4,2,2,5,0,0
176850,-100,4,2,0,70,0,0
177100,-100,4,2,2,5,0,0
177184,-100,4,2,0,70,0,0
177434,-100,4,2,2,5,0,0
177517,-100,4,2,0,70,0,0
177767,-100,4,2,2,5,0,0
177850,-100,4,2,0,70,0,0
178100,-100,4,2,2,5,0,0
178184,-100,4,2,0,70,0,0
178434,-100,4,2,2,5,0,0
178517,-100,4,2,0,70,0,0
179434,-100,4,2,2,5,0,0
179517,-100,4,2,0,70,0,0
179767,-100,4,2,2,5,0,0
179850,-100,4,2,0,70,0,0
180100,-100,4,2,2,5,0,0
180184,-100,4,2,0,70,0,0
180434,-100,4,2,2,5,0,0
180517,-100,4,2,0,70,0,0
180767,-100,4,2,2,5,0,0
180850,-100,4,2,0,70,0,0
181100,-100,4,2,2,5,0,0
181184,-100,4,2,0,70,0,0
193434,-100,4,2,2,5,0,0
193517,-100,4,2,0,70,0,0
195350,-100,4,2,2,5,0,0
195517,-100,4,2,0,70,0,0
200434,-100,4,2,2,5,0,0
200517,-100,4,2,0,70,0,0
200767,-100,4,2,2,5,0,0
200850,-100,4,2,0,70,0,0
203434,-100,4,2,2,5,0,0
203517,-100,4,2,0,70,0,0
208434,-100,4,2,2,5,0,0
208517,-100,4,2,0,70,0,0
208767,-100,4,2,2,5,0,0
208850,-100,4,2,0,70,0,0
213767,-100,4,2,2,5,0,0
213850,-100,4,2,0,70,0,0
214100,-100,4,2,2,5,0,0
214184,-100,4,2,0,70,0,0
214550,666.666666666667,4,2,0,70,1,0
219849,666.666666666667,4,2,0,70,1,0
222516,666.666666666667,4,2,0,70,1,0

[Colours]
Combo1 : 232,189,40
Combo2 : 196,81,118
Combo3 : 137,177,78
Combo4 : 218,91,31

[HitObjects]
385,356,200,6,0,L|383:324,1,18.75
387,311,366,1,0,0:0:0:0:
385,313,450,1,0,0:0:0:0:
383,315,533,1,2,0:0:0:0:
325,281,866,1,2,0:0:0:0:
353,221,1200,2,0,P|375:204|423:195,2,75,2|0|0,0:0|0:0|0:0,0:0:0:0:
442,203,2147,5,0,0:0:0:0:
366,160,2525,2,0,P|349:138|339:87,1,75,2|0,0:0|0:0,0:0:0:0:
342,47,3191,1,2,0:0:0:0:
371,15,3525,1,0,0:0:0:0:
469,45,3828,2,0,P|447:62|397:70,2,75,2|0|0,0:0|0:0|0:0,0:0:0:0:
469,45,4828,5,0,0:0:0:0:
457,116,5161,2,0,P|423:99|399:67,1,75
402,68,5584,5,0,0:0:0:0:
404,66,5674,1,0,0:0:0:0:
406,64,5764,1,0,0:0:0:0:
408,62,5854,1,2,0:0:0:0:
469,45,6192,1,2,0:0:0:0:
457,116,6526,2,0,P|462:152|483:183,2,75,2|0|0,0:0|0:0|0:0,0:0:0:0:
473,204,7526,5,0,0:0:0:0:
438,270,7859,2,0,P|407:290|368:293,1,75,2|0,0:0|0:0,0:0:0:0:
346,336,8526,2,0,P|308:338|272:322,1,75,2|0,0:0|0:0,0:0:0:0:
186,347,9192,2,0,P|152:333|111:337,2,75,2|0|0,0:0|0:0|0:0,0:0:0:0:
104,318,10192,5,0,0:0:0:0:
40,293,10548,2,0,P|77:279|101:251,1,75,2|0,0:0|0:0,0:0:0:0:
98,250,10969,5,0,0:0:0:0:
96,248,11053,1,0,0:0:0:0:
94,246,11137,1,0,0:0:0:0:
92,244,11222,1,2,0:0:0:0:
65,185,11557,1,2,0:0:0:0:
115,144,11879,2,0,P|100:110|73:85,2,75,2|0|0,0:0|0:0|0:0,0:0:0:0:
49,91,12847,5,0,0:0:0:0:
129,72,13199,2,0,P|130:110|115:144,1,75,2|0,0:0|0:0,0:0:0:0:
78,169,13865,1,2,0:0:0:0:
34,172,14199,1,0,0:0:0:0:
115,143,14517,2,0,P|142:169|155:203,2,75,2|0|0,0:0|0:0|0:0,0:0:0:0:
178,208,15517,5,0,0:0:0:0:
198,116,15851,2,0,P|224:88|258:74,1,75
259,77,16267,5,0,0:0:0:0:
260,79,16351,1,0,0:0:0:0:
261,81,16434,1,0,0:0:0:0:
262,83,16517,2,0,P|291:106|329:113,1,75,2|0,0:0|0:0,0:0:0:0:
402,84,17183,2,0,P|441:93|470:116,2,75,2|0|0,0:0|0:0|0:0,0:0:0:0:
493,108,18183,5,0,0:0:0:0:
487,30,18516,1,2,0:0:0:0:
446,15,18850,1,0,0:0:0:0:
405,85,19183,1,2,0:0:0:0:
364,70,19516,1,0,0:0:0:0:
299,125,19850,2,0,P|262:129|230:148,3,75,2|0|2|0,0:0|0:0|0:0|0:0,0:0:0:0:
322,133,21183,5,2,0:0:0:0:
387,187,21516,1,8,3:0:0:0:
395,207,21683,1,0,3:0:0:0:
395,228,21850,2,0,L|386:269,3,37.5,0|0|0|0,3:0|3:0|3:0|3:0,0:0:0:0:
427,353,22516,5,4,0:0:0:0:
356,332,22850,1,0,0:0:0:0:
427,353,23183,2,0,P|402:340|345:333,1,75,0|0,1:0|0:0,0:0:0:0:
284,344,23850,1,0,0:0:0:0:
213,362,24183,1,0,0:0:0:0:
284,344,24516,2,0,P|249:358|212:361,1,75,0|0,1:0|0:0,0:0:0:0:
147,332,25183,5,2,0:0:0:0:
125,325,25350,1,0,0:0:0:0:
101,325,25516,1,0,0:0:0:0:
79,333,25683,1,0,0:0:0:0:
125,325,25850,1,2,1:2:0:0:
101,325,26016,1,0,0:0:0:0:
79,334,26183,1,2,0:0:0:0:
61,349,26350,1,0,0:0:0:0:
0,372,26516,1,2,0:3:0:0:
18,301,26850,1,0,0:0:0:0:
0,372,27183,2,0,P|14:337|17:300,1,75,2|0,1:2|0:0,0:0:0:0:
85,262,27850,6,0,P|71:227|68:190,2,75,2|0|0,0:0|0:0|1:0,0:0:0:0:
85,262,28851,5,0,0:0:0:0:
137,187,29184,1,2,0:0:0:0:
135,211,29517,1,0,0:0:0:0:
170,236,29851,1,2,1:2:0:0:
187,303,30184,5,0,0:0:0:0:
239,228,30517,1,2,0:0:0:0:
237,252,30851,1,0,0:0:0:0:
272,277,31184,1,2,1:2:0:0:
289,344,31517,5,0,0:0:0:0:
341,269,31851,1,2,0:3:0:0:
339,293,32184,1,0,0:0:0:0:
374,318,32517,1,2,1:2:0:0:
393,384,32851,5,2,0:0:0:0:
412,375,33017,1,2,0:0:0:0:
429,367,33184,2,0,P|438:324|444:311,1,37.5,2|0,0:0|0:0,0:0:0:0:
474,310,33517,2,2,P|378:214|523:17,1,412.5,2|0,0:0|0:0,0:0:0:0:
502,87,35517,5,2,0:0:0:0:
481,93,35684,1,2,0:0:0:0:
468,111,35851,2,0,P|444:81|414:60,1,75,2|0,0:0|0:0,0:0:0:0:
414,60,36517,1,0,1:0:0:0:
377,122,36851,1,0,0:0:0:0:
356,128,37017,1,0,0:0:0:0:
343,146,37184,2,0,P|319:116|289:95,1,75,2|0,0:3|0:0,0:0:0:0:
289,95,37851,1,0,1:2:0:0:
264,30,38184,5,0,0:0:0:0:
244,40,38351,1,0,0:0:0:0:
203,59,38517,1,2,0:0:0:0:
130,63,38851,1,0,0:0:0:0:
66,26,39184,1,0,1:0:0:0:
130,63,39517,1,0,0:0:0:0:
66,26,39851,1,2,0:0:0:0:
64,101,40184,5,0,0:0:0:0:
130,63,40517,1,0,1:0:0:0:
203,59,40851,5,0,0:0:0:0:
130,63,41184,2,0,P|180:55|226:69,1,75,2|0,0:0|1:0,0:0:0:0:
173,124,41851,2,0,P|204:163|215:210,1,75,0|0,0:0|1:0,0:0:0:0:
139,190,42517,1,2,0:3:0:0:
114,218,42851,1,0,3:0:0:0:
77,162,43184,1,0,3:0:0:0:
58,159,43351,1,0,3:0:0:0:
39,157,43517,1,0,3:0:0:0:
6,72,43851,5,6,0:0:0:0:
80,20,44184,1,0,0:0:0:0:
170,22,44517,1,2,1:2:0:0:
238,81,44851,1,0,0:0:0:0:
240,103,45017,1,0,0:0:0:0:
282,119,45184,1,2,0:0:0:0:
284,141,45351,1,2,0:0:0:0:
326,157,45517,5,0,0:0:0:0:
322,161,45684,1,0,0:0:0:0:
326,163,45851,1,0,1:0:0:0:
322,165,46017,1,0,0:0:0:0:
285,175,46184,1,0,0:0:0:0:
287,197,46351,1,0,0:0:0:0:
246,215,46517,5,2,0:0:0:0:
159,191,46851,1,0,0:0:0:0:
69,203,47184,1,2,1:2:0:0:
17,276,47517,1,0,0:0:0:0:
18,365,47851,1,0,0:0:0:0:
55,337,48017,5,2,0:0:0:0:
89,363,48184,2,0,P|121:359|147:346,1,56.25
159,328,48517,2,0,P|147:302|144:274,1,56.25,0|0,1:0|0:0,0:0:0:0:
156,250,48851,1,0,0:0:0:0:
220,313,49184,5,2,0:0:0:0:
308,326,49517,1,0,0:0:0:0:
384,278,49851,1,2,1:2:0:0:
410,191,50184,1,0,0:0:0:0:
396,173,50351,1,0,0:0:0:0:
351,173,50517,1,2,0:0:0:0:
337,155,50684,1,2,0:0:0:0:
292,155,50851,5,0,0:0:0:0:
288,153,51017,1,0,0:0:0:0:
292,153,51184,1,0,1:0:0:0:
287,152,51351,1,2,0:0:0:0:
322,123,51517,1,4,0:0:0:0:
308,105,51684,1,0,0:0:0:0:
338,73,51851,5,2,0:0:0:0:
424,127,52184,1,0,0:0:0:0:
408,216,52517,1,0,1:0:0:0:
424,127,52851,1,4,1:2:0:0:
512,98,53184,1,2,0:0:0:0:
512,55,53351,5,2,0:0:0:0:
490,17,53517,2,0,P|479:9|456:-1,1,37.5
437,64,53851,2,0,P|423:64|400:68,1,37.5
424,127,54184,5,0,3:0:0:0:
417,148,54351,1,0,3:0:0:0:
393,176,54517,2,0,P|364:177|317:159,2,75,6|0|0,0:0|0:0|1:0,0:0:0:0:
393,176,55517,5,0,0:0:0:0:
308,196,55850,1,2,0:0:0:0:
321,161,56183,1,0,0:0:0:0:
237,136,56516,1,2,1:2:0:0:
249,176,56850,5,0,0:0:0:0:
229,187,57016,1,0,0:0:0:0:
209,198,57183,2,0,P|152:204|121:194,2,75,2|2|0,0:0|0:0|1:0,0:0:0:0:
229,187,58016,1,0,0:0:0:0:
268,207,58183,1,0,0:0:0:0:
287,196,58350,1,0,0:0:0:0:
324,217,58516,2,0,P|381:211|412:221,2,75,2|2|2,0:0|0:0|1:2,0:0:0:0:
279,267,59516,5,0,0:0:0:0:
260,279,59683,1,0,0:0:0:0:
237,318,59850,2,0,P|180:324|149:314,1,75,2|0,0:0|0:0,0:0:0:0:
163,319,60516,1,0,1:0:0:0:
109,384,60850,5,0,0:0:0:0:
55,319,61183,1,2,0:0:0:0:
109,384,61516,1,0,0:0:0:0:
163,319,61850,2,0,P|220:313|251:323,1,75,2|0,1:2|0:0,0:0:0:0:
239,320,62350,5,0,0:0:0:0:
234,269,62516,2,0,P|268:279|306:278,1,75,2|0,0:0|0:0,0:0:0:0:
311,282,63016,1,0,0:0:0:0:
341,316,63183,1,2,1:2:0:0:
368,350,63516,1,2,0:0:0:0:
396,384,63850,1,0,0:0:0:0:
413,369,64016,1,0,0:0:0:0:
429,356,64183,1,2,0:0:0:0:
463,328,64516,1,2,1:2:0:0:
497,301,64850,1,4,0:0:0:0:
507,373,65183,5,0,0:0:0:0:
459,359,65405,2,0,P|429:321|431:281,1,75,2|0,0:0|0:0,0:0:0:0:
434,226,66072,1,2,0:0:0:0:
437,228,66183,1,0,0:0:0:0:
505,228,66516,2,0,P|484:179|449:164,2,75,0|0|2,0:0|0:0|1:2,0:0:0:0:
505,228,67516,1,0,0:0:0:0:
437,228,67850,1,0,0:0:0:0:
417,238,68016,5,0,0:0:0:0:
376,222,68183,2,0,P|334:211|285:221,1,75,2|0,0:0|1:0,0:0:0:0:
284,227,68683,1,2,0:0:0:0:
261,230,68850,1,2,0:0:0:0:
238,229,69016,1,0,0:0:0:0:
214,266,69183,1,2,0:0:0:0:
194,253,69350,1,0,0:0:0:0:
174,245,69516,1,2,0:0:0:0:
96,236,69850,2,0,P|126:205|142:157,1,75,2|0,1:2|1:0,0:0:0:0:
136,173,70350,1,0,1:0:0:0:
127,109,70516,1,4,0:0:0:0:
83,121,70683,5,0,0:0:0:0:
61,113,70850,2,0,L|61:139,1,25
43,97,71072,1,0,0:0:0:0:
31,76,71183,1,2,1:2:0:0:
43,97,71516,1,0,0:0:0:0:
31,75,71683,1,0,0:0:0:0:
27,52,71850,1,2,0:0:0:0:
99,6,72183,1,0,0:0:0:0:
163,61,72405,1,2,0:2:0:0:
236,12,72850,5,0,0:0:0:0:
254,28,73016,1,0,0:0:0:0:
266,49,73183,1,2,0:0:0:0:
254,28,73516,1,0,0:0:0:0:
266,49,73683,1,0,0:0:0:0:
269,73,73850,1,2,1:2:0:0:
266,49,74183,1,0,0:0:0:0:
269,73,74350,1,0,0:0:0:0:
265,97,74516,1,2,0:0:0:0:
242,176,74850,1,2,0:0:0:0:
316,229,75183,1,2,1:2:0:0:
316,229,75516,5,0,0:0:0:0:
304,246,75683,2,0,L|301:272,2,18.75,0|0|2,0:0|0:0|0:3,0:0:0:0:
307,292,76016,5,0,0:0:0:0:
301,313,76183,1,0,0:0:0:0:
288,330,76350,1,0,0:0:0:0:
244,319,76516,1,2,1:2:0:0:
223,328,76683,1,0,0:0:0:0:
201,329,76850,1,0,0:0:0:0:
179,323,77016,1,0,0:0:0:0:
151,359,77183,1,2,0:0:0:0:
130,353,77350,1,0,0:0:0:0:
108,354,77516,1,0,0:0:0:0:
87,363,77683,1,0,0:0:0:0:
42,355,77850,1,2,1:2:0:0:
42,355,78183,2,0,P|16:320|8:280,1,75
46,265,78683,5,0,0:0:0:0:
59,247,78850,1,0,0:0:0:0:
65,225,79016,1,0,0:0:0:0:
29,197,79183,1,2,1:2:0:0:
30,174,79350,1,0,0:0:0:0:
38,152,79516,1,0,0:0:0:0:
53,135,79683,1,0,1:0:0:0:
97,145,79850,1,2,1:2:0:0:
118,139,80016,1,0,0:0:0:0:
86,109,80183,1,0,1:0:0:0:
90,87,80350,1,0,0:0:0:0:
72,43,80516,5,2,1:2:0:0:
76,43,80683,1,0,3:0:0:0:
76,47,80850,1,0,1:0:0:0:
72,47,81016,1,0,3:0:0:0:
11,63,81183,5,4,0:0:0:0:
8,41,81350,1,0,0:0:0:0:
13,19,81516,1,0,0:0:0:0:
26,0,81683,2,0,P|86:-19|108:-7,2,75,2|2|0,0:0|0:0|0:0,0:0:0:0:
72,43,82516,6,0,P|131:45|147:36,1,75,2|0,0:0|0:0,0:0:0:0:
174,4,83016,2,0,P|209:-7|254:6,1,75,2|0,0:0|0:0,0:0:0:0:
328,18,83850,5,0,0:0:0:0:
311,33,84016,1,0,0:0:0:0:
300,52,84183,1,0,0:0:0:0:
296,74,84350,1,0,0:0:0:0:
330,102,84516,2,0,P|341:120|390:142,2,75,2|2|2,1:2|0:0|0:3,0:0:0:0:
410,138,85516,1,0,0:0:0:0:
420,157,85683,1,0,0:0:0:0:
422,179,85850,1,2,1:2:0:0:
369,33,86683,5,0,0:0:0:0:
390,25,86850,1,0,0:0:0:0:
412,29,87016,1,0,0:0:0:0:
442,63,87183,1,2,1:2:0:0:
504,9,87516,1,0,0:0:0:0:
442,63,87850,1,0,0:0:0:0:
459,77,88016,1,0,0:0:0:0:
481,81,88183,1,2,0:0:0:0:
509,161,88516,1,2,1:2:0:0:
464,255,89016,5,0,0:0:0:0:
485,265,89183,2,0,P|498:290|508:341,2,75,2|0|0,0:0|0:0|1:0,0:0:0:0:
464,255,90016,1,0,0:0:0:0:
441,254,90183,1,0,0:0:0:0:
419,260,90350,1,0,0:0:0:0:
376,248,90516,1,2,0:3:0:0:
362,266,90683,1,0,0:0:0:0:
359,288,90850,2,0,P|372:313|382:364,2,75,2|2|4,0:0|1:2|0:0,0:0:0:0:
292,351,91850,6,0,P|261:329|225:317,1,75,2|0,0:0|0:0,0:0:0:0:
196,350,92350,2,0,P|158:346|121:353,1,75
92,329,92850,1,0,0:0:0:0:
31,263,93183,1,2,0:0:0:0:
93,198,93517,1,2,0:0:0:0:
98,177,93683,1,0,0:0:0:0:
26,104,94184,5,0,0:0:0:0:
43,118,94351,1,0,0:0:0:0:
65,114,94517,2,0,P|118:109|149:127,1,75,2|0,0:0|0:0,0:0:0:0:
174,92,95017,2,0,P|204:135|204:171,1,75,2|0,0:0|0:0,0:0:0:0:
247,175,95517,1,2,0:0:0:0:
267,81,95850,2,0,P|310:50|346:50,1,75,2|0,0:3|0:0,0:0:0:0:
350,6,96350,2,0,P|398:28|423:83,1,112.5,2|0,0:0|0:0,0:0:0:0:
267,81,97350,5,0,0:0:0:0:
253,63,97516,1,0,0:0:0:0:
233,50,97683,1,0,0:0:0:0:
210,45,97850,1,2,1:2:0:0:
233,50,98184,1,0,0:0:0:0:
210,45,98351,1,0,0:0:0:0:
184,47,98517,6,0,B|128:39|128:39|105:20,1,75,2|2,0:0|0:0,0:0:0:0:
0,70,99517,6,0,P|42:73|75:93,1,75,0|2,0:0|0:0,0:0:0:0:
73,94,99934,1,2,0:0:0:0:
75,98,100017,1,2,0:0:0:0:
78,101,100100,2,0,P|88:130|122:148,1,56.25
150,136,100461,6,0,P|158:155|157:188,1,50,2|2,0:0|0:0,0:0:0:0:
180,218,100850,2,0,P|158:216|135:222,1,37.5,0|0,1:0|0:0,0:0:0:0:
123,230,101183,1,2,0:3:0:0:
101,234,101350,1,0,0:0:0:0:
56,231,101517,1,2,1:2:0:0:
39,215,101683,1,0,0:0:0:0:
26,172,101850,1,2,3:2:0:0:
35,151,102017,1,0,3:0:0:0:
36,149,102100,1,2,0:0:0:0:
37,147,102183,2,0,P|56:130|83:120,1,37.5,0|0,3:0|0:0,0:0:0:0:
135,139,102517,5,4,0:0:0:0:
152,152,102683,1,0,0:0:0:0:
212,21,103350,5,0,0:0:0:0:
223,39,103517,1,0,0:0:0:0:
227,59,103684,1,0,0:0:0:0:
335,34,104072,1,0,0:0:0:0:
337,37,104184,1,2,0:0:0:0:
310,95,104405,1,0,0:0:0:0:
308,98,104517,2,0,P|352:83|386:86,1,75,2|0,1:2|0:0,0:0:0:0:
434,117,105072,1,0,0:0:0:0:
435,120,105183,1,2,0:0:0:0:
499,238,105684,5,0,0:0:0:0:
484,255,105850,1,2,1:2:0:0:
464,265,106017,1,0,0:0:0:0:
441,268,106184,1,0,0:0:0:0:
418,263,106350,1,0,0:0:0:0:
383,288,106517,2,0,P|343:254|306:255,1,75,2|0,0:0|0:0,0:0:0:0:
256,272,107072,1,2,0:0:0:0:
255,275,107183,1,0,1:0:0:0:
428,356,107850,5,0,0:0:0:0:
339,345,108184,1,0,0:0:0:0:
428,356,108517,2,0,P|460:328|472:286,1,75,2|0,1:2|0:0,0:0:0:0:
339,345,109184,1,0,0:0:0:0:
250,334,109517,1,0,0:0:0:0:
339,345,109850,2,0,P|371:317|383:275,1,75,2|4,1:2|0:0,0:0:0:0:
250,334,110517,5,2,0:0:0:0:
228,338,110684,1,0,0:0:0:0:
205,334,110850,1,0,0:0:0:0:
183,338,111017,1,0,0:0:0:0:
228,338,111184,1,2,1:2:0:0:
205,334,111350,1,0,0:0:0:0:
183,338,111517,1,4,0:0:0:0:
160,334,111684,1,0,0:0:0:0:
123,360,111850,5,2,0:0:0:0:
42,318,112184,1,2,1:2:0:0:
42,314,112350,1,0,1:0:0:0:
75,288,112517,1,2,3:2:0:0:
75,283,112684,1,0,3:0:0:0:
75,279,112850,1,0,3:0:0:0:
21,199,113184,6,0,P|44:157|45:115,2,75,4|0|0,0:0|0:0|1:0,0:0:0:0:
68,120,114184,5,0,0:0:0:0:
38,35,114517,1,2,0:0:0:0:
58,49,114850,1,0,0:0:0:0:
103,45,115184,1,2,1:2:0:0:
157,90,115517,5,0,0:0:0:0:
157,0,115850,1,2,0:0:0:0:
171,19,116184,1,0,0:0:0:0:
215,31,116517,1,2,1:2:0:0:
250,92,116850,5,0,0:0:0:0:
281,8,117184,1,2,0:0:0:0:
288,30,117517,1,0,0:0:0:0:
325,56,117850,1,2,1:2:0:0:
316,124,118184,5,2,0:0:0:0:
338,126,118350,1,2,0:0:0:0:
358,134,118517,2,0,P|379:146|392:160,1,37.5,2|0,0:0|0:0,0:0:0:0:
427,182,118850,2,2,P|222:219|96:372,1,412.5,2|0,0:0|0:0,0:0:0:0:
166,369,120850,5,2,0:0:0:0:
161,346,121017,1,2,0:0:0:0:
150,326,121184,2,0,P|113:297|70:294,1,75,2|0,0:0|0:0,0:0:0:0:
86,292,121850,1,0,1:0:0:0:
207,298,122184,1,0,0:0:0:0:
202,275,122350,1,0,0:0:0:0:
191,255,122517,2,0,P|154:226|111:223,1,75,2|0,0:0|0:0,0:0:0:0:
127,221,123184,1,0,1:0:0:0:
41,199,123517,5,0,3:0:0:0:
31,178,123684,1,0,0:0:0:0:
34,132,123850,1,6,0:0:0:0:
81,55,124184,1,0,0:0:0:0:
166,27,124517,1,2,1:2:0:0:
249,59,124850,1,0,0:0:0:0:
334,30,125184,1,2,0:0:0:0:
249,59,125517,1,0,0:0:0:0:
334,30,125850,1,0,1:0:0:0:
322,113,126184,6,0,P|361:131|384:162,1,75,0|2,0:0|0:0,0:0:0:0:
395,247,126850,1,0,0:0:0:0:
346,324,127184,1,2,1:2:0:0:
258,328,127517,1,0,0:0:0:0:
254,326,127684,1,0,1:0:0:0:
221,302,127850,5,2,0:0:0:0:
217,300,128011,1,0,1:0:0:0:
213,298,128172,1,0,1:0:0:0:
209,296,128333,1,0,3:0:0:0:
240,264,128495,1,0,3:0:0:0:
236,262,128656,1,0,3:0:0:0:
231,220,128817,1,0,3:0:0:0:
298,164,129183,6,0,P|306:129|292:81,2,75,2|0|0,0:3|0:0|0:0,0:0:0:0:
310,75,130184,1,0,0:0:0:0:
298,55,130350,1,0,0:0:0:0:
253,53,130517,1,2,0:0:0:0:
241,33,130684,1,2,0:0:0:0:
206,64,130850,5,0,0:0:0:0:
204,68,131017,1,0,0:0:0:0:
202,64,131184,1,2,0:0:0:0:
200,68,131350,1,0,0:0:0:0:
161,59,131517,5,0,0:0:0:0:
149,39,131684,1,0,0:0:0:0:
104,34,131850,2,0,P|73:14|23:11,2,75,2|0|0,0:0|0:0|0:0,0:0:0:0:
110,101,132850,1,0,0:0:0:0:
60,147,133184,1,8,3:0:0:0:
85,125,133350,5,0,0:0:0:0:
110,101,133517,1,8,3:0:0:0:
106,105,133684,1,0,3:0:0:0:
112,124,133850,1,2,3:3:0:0:
108,128,134017,1,0,3:0:0:0:
147,151,134184,1,0,3:0:0:0:
190,262,134517,6,0,P|156:235|135:232,1,56.25,4|0,0:0|0:0,0:0:0:0:
121,235,134850,2,0,P|132:260|133:288,1,56.25
128,309,135184,2,0,P|115:328|81:348,1,56.25,2|0,1:2|0:0,0:0:0:0:
65,345,135517,1,0,0:0:0:0:
48,331,135684,1,0,0:0:0:0:
17,364,135850,1,2,0:0:0:0:
0,350,136017,1,0,0:0:0:0:
10,306,136184,5,0,0:0:0:0:
8,302,136350,1,0,0:0:0:0:
10,298,136517,1,2,1:2:0:0:
8,298,136684,1,0,0:0:0:0:
49,288,136850,1,2,0:0:0:0:
60,268,137017,1,0,0:0:0:0:
101,252,137184,6,0,P|123:248|165:253,1,56.25,2|0,0:0|0:0,0:0:0:0:
179,254,137517,2,0,P|209:265|237:282,1,56.25,2|0,0:0|0:0,0:0:0:0:
269,255,137850,2,0,P|287:267|313:300,1,56.25,0|0,1:0|0:0,0:0:0:0:
322,311,138184,2,0,P|335:339|343:371,1,56.25
385,375,138517,1,2,0:3:0:0:
411,337,138684,1,0,0:0:0:0:
432,329,138850,1,2,0:0:0:0:
512,375,139184,1,2,1:2:0:0:
496,359,139350,5,0,0:0:0:0:
508,340,139517,1,0,0:0:0:0:
509,317,139684,1,0,0:0:0:0:
484,276,139850,1,2,0:0:0:0:
459,235,140017,1,2,0:0:0:0:
434,194,140184,2,0,P|420:159|421:130,1,56.25
426,96,140517,1,2,1:2:0:0:
344,55,140850,6,0,P|358:90|357:119,1,56.25
347,112,141184,2,0,P|344:84|332:58,1,56.25,2|0,0:0|0:0,0:0:0:0:
334,11,141517,2,0,P|308:21|287:38,1,56.25
281,27,141850,2,0,P|302:9|329:0,1,56.25,2|0,1:2|0:0,0:0:0:0:
373,7,142184,5,2,0:0:0:0:
417,14,142350,1,2,0:0:0:0:
461,21,142517,2,0,P|478:42|488:68,1,56.25,2|0,0:0|0:0,0:0:0:0:
481,112,142850,1,0,0:0:0:0:
474,156,143017,1,0,0:0:0:0:
467,200,143184,2,0,P|445:217|419:227,1,56.25,2|0,1:2|0:0,0:0:0:0:
400,268,143517,6,0,P|378:249|352:240,1,56.25
348,251,143850,2,0,P|374:260|395:278,1,56.25,2|0,0:3|0:0,0:0:0:0:
400,305,144184,2,0,P|404:332|399:360,1,56.25
388,361,144517,2,0,P|393:333|388:305,1,56.25,2|0,1:2|0:0,0:0:0:0:
367,313,144850,5,0,0:0:0:0:
344,317,145017,1,0,0:0:0:0:
303,297,145184,1,2,0:0:0:0:
258,291,145350,1,0,0:0:0:0:
215,306,145517,2,0,P|179:303|150:287,1,56.25,2|0,0:0|0:0,0:0:0:0:
126,267,145850,1,2,1:2:0:0:
209,233,146184,6,0,P|230:215|245:191,1,56.25
244,169,146517,2,0,P|220:154|202:132,1,56.25,2|0,0:0|0:0,0:0:0:0:
158,126,146850,2,0,P|179:108|194:84,1,56.25
193,62,147184,2,0,P|169:47|151:25,1,56.25,2|0,1:2|0:0,0:0:0:0:
107,19,147517,5,0,0:0:0:0:
63,23,147684,1,0,0:0:0:0:
32,56,147850,2,0,P|49:77|73:92,1,56.25,2|0,0:0|0:0,0:0:0:0:
117,108,148184,1,2,0:0:0:0:
98,148,148350,1,0,0:0:0:0:
111,191,148517,2,0,P|138:186|163:173,1,56.25,2|0,1:2|0:0,0:0:0:0:
188,136,148850,6,0,P|212:122|240:118,1,56.25
264,122,149184,2,0,P|289:132|315:159,1,56.25,2|0,0:3|0:0,0:0:0:0:
341,186,149517,2,0,P|313:186|287:197,1,56.25
268,212,149850,2,0,P|251:234|243:261,1,56.25,2|0,1:2|0:0,0:0:0:0:
249,306,150184,5,0,0:0:0:0:
275,341,150350,1,0,0:0:0:0:
316,358,150517,1,2,0:0:0:0:
316,358,150850,1,2,0:0:0:0:
495,346,151517,5,0,0:0:0:0:
454,329,151684,1,0,0:0:0:0:
428,294,151850,1,2,0:0:0:0:
428,294,152184,1,2,0:0:0:0:
407,187,152517,1,4,1:2:0:0:
341,186,152850,5,0,0:0:0:0:
357,144,153017,1,0,0:0:0:0:
351,101,153184,1,2,0:0:0:0:
341,186,153517,1,0,1:0:0:0:
308,215,153684,1,0,0:0:0:0:
265,226,153850,1,2,0:0:0:0:
351,101,154184,1,8,3:0:0:0:
325,64,154350,1,0,0:0:0:0:
286,45,154517,1,2,0:0:0:0:
286,45,154850,5,2,3:2:0:0:
282,49,155017,1,0,0:0:0:0:
278,53,155184,1,8,3:0:0:0:
274,57,155350,1,0,3:0:0:0:
233,71,155517,5,0,3:0:0:0:
189,64,155684,1,0,3:0:0:0:
153,37,155850,2,0,P|116:24|73:28,1,75,4|0,0:0|0:0,0:0:0:0:
14,144,156517,2,0,P|51:157|94:153,1,75,0|0,1:0|0:0,0:0:0:0:
111,192,157017,1,0,0:0:0:0:
172,205,157184,5,2,0:0:0:0:
278,145,157517,1,2,0:0:0:0:
219,39,157850,1,0,1:0:0:0:
112,98,158184,5,0,0:0:0:0:
149,122,158350,1,0,0:0:0:0:
194,123,158517,1,2,0:0:0:0:
301,64,158850,1,0,0:0:0:0:
264,40,159017,1,0,0:0:0:0:
219,39,159184,1,2,1:2:0:0:
278,145,159517,1,0,0:0:0:0:
315,169,159684,1,0,0:0:0:0:
360,170,159850,5,2,0:3:0:0:
471,225,160184,1,2,0:0:0:0:
452,347,160517,1,0,1:0:0:0:
329,367,160850,1,0,0:0:0:0:
274,258,161184,6,0,P|240:243|196:240,1,75,2|2,0:0|0:0,0:0:0:0:
200,242,161850,1,0,1:2:0:0:
192,330,162072,2,0,P|226:345|270:348,1,75,2|2,0:0|0:0,0:0:0:0:
322,384,162517,1,2,0:0:0:0:
326,283,162738,1,0,0:0:0:0:
341,262,162850,1,0,0:0:0:0:
458,236,163183,1,2,1:2:0:0:
439,358,163517,1,0,0:0:0:0:
341,262,163850,6,0,P|326:213|335:178,1,75,0|2,0:0|0:0,0:0:0:0:
332,189,164516,1,0,1:2:0:0:
406,200,164739,2,0,P|421:151|412:116,1,75,2|0,0:2|0:0,0:0:0:0:
354,107,165183,1,2,0:3:0:0:
285,37,165405,1,0,0:0:0:0:
284,12,165517,1,0,0:0:0:0:
429,13,165850,1,2,1:2:0:0:
354,107,166184,1,0,0:0:0:0:
234,147,166517,5,0,0:0:0:0:
163,50,166850,1,2,0:0:0:0:
234,147,167184,1,0,1:2:0:0:
165,75,167405,1,2,0:0:0:0:
113,159,167850,1,2,0:0:0:0:
44,87,168071,1,0,0:0:0:0:
42,62,168184,1,0,0:0:0:0:
163,50,168517,1,2,1:2:0:0:
234,147,168850,1,0,0:0:0:0:
137,218,169184,5,0,0:0:0:0:
234,147,169517,1,2,0:0:0:0:
137,218,169850,1,0,1:2:0:0:
206,290,170072,1,2,0:0:0:0:
108,383,170516,1,2,0:3:0:0:
39,311,170738,1,0,0:0:0:0:
37,286,170850,1,0,0:0:0:0:
208,315,171184,1,2,1:2:0:0:
137,218,171517,1,0,0:0:0:0:
208,315,171850,6,0,P|242:320|288:317,1,75,2|0,0:0|0:0,0:0:0:0:
427,355,172517,2,0,P|393:360|347:357,1,75,2|2,1:2|0:0,0:0:0:0:
436,284,173184,1,2,0:0:0:0:
478,302,173350,1,0,0:0:0:0:
468,258,173517,1,2,0:0:0:0:
512,184,173850,2,0,P|490:149|486:104,1,75,2|0,1:2|0:0,0:0:0:0:
387,47,174517,6,0,P|380:83|359:114,1,75,2|0,0:0|0:0,0:0:0:0:
259,62,175184,2,0,P|223:74|186:72,1,75,2|0,1:2|0:0,0:0:0:0:
182,68,175684,1,0,3:0:0:0:
140,82,175850,1,2,1:3:0:0:
175,110,176017,1,0,1:0:0:0:
132,123,176184,1,2,1:2:0:0:
177,211,176517,2,0,P|139:208|104:221,1,75,2|0,1:2|0:0,0:0:0:0:
28,317,177184,5,6,0:0:0:0:
28,317,177517,1,0,0:0:0:0:
136,364,177850,1,2,1:2:0:0:
254,373,178184,1,0,0:0:0:0:
368,340,178517,1,2,0:0:0:0:
394,303,178684,1,0,0:0:0:0:
349,297,178850,1,2,0:0:0:0:
376,260,179017,1,0,0:0:0:0:
374,214,179184,1,2,1:2:0:0:
435,174,179517,1,0,0:0:0:0:
470,58,179850,5,2,0:0:0:0:
470,58,180184,1,0,1:0:0:0:
371,130,180517,1,2,0:0:0:0:
253,163,180850,1,0,3:0:0:0:
130,154,181184,1,2,0:3:0:0:
105,116,181350,1,0,0:0:0:0:
81,154,181517,1,2,3:2:0:0:
56,116,181684,1,0,0:0:0:0:
80,78,181850,5,2,0:0:0:0:
105,116,182017,1,0,0:0:0:0:
126,76,182184,1,2,3:2:0:0:
151,114,182350,1,0,0:0:0:0:
175,114,182517,6,0,P|207:121|245:156,2,75,0|0|2,0:0|0:0|0:0,0:0:0:0:
298,110,183850,2,0,P|307:141|296:191,2,75,0|0|2,0:0|0:0|0:0,0:0:0:0:
362,214,185184,5,2,0:0:0:0:
353,234,185350,1,0,0:0:0:0:
338,250,185517,1,0,0:0:0:0:
317,258,185684,1,0,0:0:0:0:
295,297,185850,1,2,0:0:0:0:
273,299,186017,1,0,0:0:0:0:
251,294,186184,1,2,0:0:0:0:
234,280,186350,1,0,0:0:0:0:
188,277,186517,2,0,P|195:244|230:206,2,75,0|0|2,0:0|0:0|0:0,0:0:0:0:
188,277,187517,5,0,0:0:0:0:
120,338,187850,1,2,0:0:0:0:
46,323,188850,5,0,0:0:0:0:
114,262,189184,1,2,0:0:0:0:
115,238,189517,1,0,0:0:0:0:
142,193,189850,1,2,0:0:0:0:
185,249,190184,5,0,0:0:0:0:
253,188,190517,1,2,0:0:0:0:
254,164,190850,1,0,0:0:0:0:
281,119,191184,1,2,0:0:0:0:
325,176,191517,5,0,0:0:0:0:
393,115,191850,1,2,0:0:0:0:
394,91,192184,1,0,0:0:0:0:
421,46,192517,1,2,0:0:0:0:
484,95,192850,5,2,0:0:0:0:
462,102,193017,1,2,0:0:0:0:
450,121,193184,2,0,P|441:152|443:168,1,37.5,2|0,0:0|0:0,0:0:0:0:
474,188,193517,2,2,P|466:258|256:174,1,412.5,2|0,0:0|0:0,0:0:0:0:
216,126,195517,5,2,0:0:0:0:
235,115,195684,1,2,0:0:0:0:
257,114,195850,2,0,P|288:120|321:162,1,75,2|0,0:0|0:0,0:0:0:0:
288,51,196850,1,0,0:0:0:0:
307,61,197017,1,0,0:0:0:0:
318,80,197184,2,0,P|328:109|308:159,1,75,2|0,0:0|0:0,0:0:0:0:
418,104,198184,5,0,0:0:0:0:
408,124,198350,1,0,0:0:0:0:
412,146,198517,1,2,0:0:0:0:
451,167,198850,1,0,0:0:0:0:
479,202,199184,1,0,0:0:0:0:
440,223,199517,1,0,0:0:0:0:
412,258,199850,1,2,0:0:0:0:
390,251,200184,5,0,0:0:0:0:
390,251,200517,1,2,0:0:0:0:
368,257,200850,6,0,P|441:278|479:346,1,150
459,379,201850,1,0,0:0:0:0:
413,376,202184,1,0,0:0:0:0:
377,349,202517,1,2,0:0:0:0:
377,349,203184,5,2,0:0:0:0:
287,349,203517,5,0,0:0:0:0:
251,376,203850,1,2,0:0:0:0:
205,379,204184,1,0,0:0:0:0:
164,356,204517,1,0,0:0:0:0:
142,315,204850,1,0,0:0:0:0:
146,292,205017,1,0,0:0:0:0:
121,257,205184,2,0,P|130:235|132:217,1,37.5,2|2,0:0|0:0,0:0:0:0:
64,221,205517,5,0,0:0:0:0:
58,215,205684,1,0,0:0:0:0:
63,212,205850,2,0,P|66:194|74:177,1,37.5
136,159,206184,5,0,0:0:0:0:
152,144,206350,1,0,0:0:0:0:
160,123,206517,1,2,0:0:0:0:
166,78,206850,1,0,0:0:0:0:
195,44,207184,1,0,0:0:0:0:
238,33,207517,1,0,0:0:0:0:
278,51,207850,1,0,0:0:0:0:
238,76,208017,5,0,0:0:0:0:
242,78,208184,1,2,0:0:0:0:
238,33,208517,1,2,0:0:0:0:
278,51,208850,5,0,0:0:0:0:
238,33,209184,1,2,0:0:0:0:
193,28,209517,1,0,0:0:0:0:
148,30,209850,1,0,0:0:0:0:
106,46,210184,1,0,0:0:0:0:
91,62,210350,1,0,0:0:0:0:
47,62,210517,2,0,P|31:73|17:91,1,37.5,2|2,0:0|0:0,0:0:0:0:
72,122,210850,5,0,0:0:0:0:
76,126,211017,1,0,0:0:0:0:
72,130,211184,2,0,P|68:148|60:165,1,37.5,2|0,0:0|0:0,0:0:0:0:
9,204,211517,5,0,0:0:0:0:
24,219,211684,1,0,0:0:0:0:
43,228,211850,1,2,0:0:0:0:
88,229,212184,1,0,0:0:0:0:
129,246,212517,1,0,0:0:0:0:
158,280,212850,1,0,0:0:0:0:
171,322,213184,1,2,0:0:0:0:
127,315,213350,5,0,0:0:0:0:
125,311,213517,1,0,0:0:0:0:
158,280,213850,1,2,0:0:0:0:
158,280,214184,1,0,0:0:0:0:
171,322,214550,6,0,P|195:343|311:356,1,150,2|0,0:0|0:0,0:0:0:0:
396,317,215883,2,0,P|322:320|259:281,1,150,2|0,0:0|0:0,0:0:0:0:
383,192,217217,2,0,P|369:226|344:254,3,75,2|0|0|0,0:0|0:0|0:0|0:0,0:0:0:0:
344,254,218550,2,0,P|369:226|365:112,1,150
387,31,219849,6,0,P|361:70|124:167,1,300,2|0,0:0|0:0,0:0:0:0:
139,168,221849,1,0,0:0:0:0:
51,172,222516,6,0,P|66:146|86:98,1,75,2|0,1:2|0:0,0:0:0:0:
84,105,223183,1,0,0:0:0:0:
151,108,223516,2,0,P|144:78|124:31,1,75,2|0,0:0|0:0,0:0:0:0:
127,37,224183,1,0,0:0:0:0:
54,15,224516,1,0,1:0:0:0:
54,15,224849,1,0,0:0:0:0:
30,44,225183,5,2,0:0:0:0:
23,88,225516,1,0,0:0:0:0:
39,137,225849,1,2,1:2:0:0:
88,171,226183,1,0,0:0:0:0:
154,181,226516,1,2,1:2:0:0:
228,169,226849,1,0,0:0:0:0:
307,146,227183,1,2,3:2:0:0:
393,169,227516,1,2,3:2:0:0:
438,255,227849,1,4,0:0:0:0:
