osu file format v14

[General]
AudioFilename: audio.mp3
AudioLeadIn: 0
PreviewTime: 134191
Countdown: 0
SampleSet: Soft
StackLeniency: 0
Mode: 0
LetterboxInBreaks: 0
WidescreenStoryboard: 1

[Editor]
Bookmarks: 22408,43741,54408,70408,81074,107741,129074,134408,139741,150408,155741,161074,171741,182408,214408,227741
DistanceSpacing: 0.6
BeatDivisor: 6
GridSize: 4
TimelineZoom: 2.1

[Metadata]
Title:Ringo Biyori ~The Wolf Whistling Song x Get Low (feat. Ying Yang Twins)
TitleUnicode:リンゴ日和 ~The Wolf Whistling Song x Get Low (feat. Ying Yang Twins)
Artist:ROCKY CHACK, Lil Jon & The East Side Boyz
ArtistUnicode:ROCKY CHACK, Lil Jon & The East Side Boyz
Creator:Deramok
Version:Insane
Source:狼と香辛料
Tags:nautzz spice and wolf ookami to koushinryou Rap-Bit whistle ロッキー・チャック mashup mash up hiyori hip hop anime novelty english pop jpop
BeatmapID:2538882
BeatmapSetID:1062345

[Difficulty]
HPDrainRate:5
CircleSize:7
OverallDifficulty:7
ApproachRate:6
SliderMultiplier:1.5
SliderTickRate:1

[Events]
//Background and Video events
0,0,"horo.jpg",0,0
//Break Periods
//Storyboard Layer 0 (Background)
//Storyboard Layer 1 (Fail)
//Storyboard Layer 2 (Pass)
//Storyboard Layer 3 (Foreground)
//Storyboard Layer 4 (Overlay)
//Storyboard Sound Samples

[TimingPoints]
200,666.666666666667,4,2,0,70,1,0
1200,631.578947368421,4,2,0,70,1,0
2525,666.666666666667,4,2,0,70,1,0
3828,666.666666666667,4,2,0,70,1,0
5494,720.00288001152,4,2,0,70,1,0
5854,677.966101694915,4,2,0,70,1,0
6526,666.666666666667,4,2,0,70,1,0
10548,674.157303370787,4,2,0,70,1,0
11557,645.161290322581,4,2,0,70,1,0
13199,666.666666666667,4,2,0,70,1,0
14517,666.666666666667,4,2,0,70,1,0
21433,-100,4,2,2,5,0,0
21517,-100,4,2,0,70,0,0
22517,666.666666666667,4,2,0,70,1,0
22767,-100,4,2,2,5,0,0
22850,-100,4,2,0,70,0,0
23100,-100,4,2,2,5,0,0
23183,-100,4,2,0,70,0,0
24100,-100,4,2,2,5,0,0
24183,-100,4,2,0,70,0,0
24433,-100,4,2,2,5,0,0
24517,-100,4,2,0,70,0,0
26767,-100,4,2,2,5,0,0
26850,-100,4,2,0,70,0,0
27100,-100,4,2,2,5,0,0
27183,-100,4,2,0,70,0,0
33433,-100,4,2,2,5,0,0
33517,-100,4,2,0,70,0,0
35350,-100,4,2,2,5,0,0
35517,-100,4,2,0,70,0,0
38767,-100,4,2,2,5,0,0
38850,-100,4,2,0,70,0,0
39100,-100,4,2,2,5,0,0
39183,-100,4,2,0,70,0,0
39433,-100,4,2,2,5,0,0
39517,-100,4,2,0,70,0,0
39767,-100,4,2,2,5,0,0
39850,-100,4,2,0,70,0,0
40100,-100,4,2,2,5,0,0
40183,-100,4,2,0,70,0,0
40433,-100,4,2,2,5,0,0
40517,-100,4,2,0,70,0,0
40767,-100,4,2,2,5,0,0
40850,-100,4,2,0,70,0,0
41100,-100,4,2,2,5,0,0
41183,-100,4,2,0,70,0,0
43767,-100,4,2,2,5,0,0
43850,-100,4,2,0,70,0,0
44100,-100,4,2,2,5,0,0
44183,-100,4,2,0,70,0,0
44433,-100,4,2,2,5,0,0
44517,-100,4,2,0,70,0,0
44767,-100,4,2,2,5,0,0
44850,-100,4,2,0,70,0,0
45100,-100,4,2,2,5,0,0
45183,-100,4,2,0,70,0,0
45767,-100,4,2,2,5,0,0
45850,-100,4,2,0,70,0,0
46767,-100,4,2,2,5,0,0
46850,-100,4,2,0,70,0,0
47100,-100,4,2,2,5,0,0
47183,-100,4,2,0,70,0,0
47433,-100,4,2,2,5,0,0
47517,-100,4,2,0,70,0,0
47767,-100,4,2,2,5,0,0
47850,-100,4,2,0,70,0,0
48433,-100,4,2,2,5,0,0
48517,-100,4,2,0,70,0,0
48767,-100,4,2,2,5,0,0
48850,-100,4,2,0,70,0,0
49433,-100,4,2,2,5,0,0
49517,-100,4,2,0,70,0,0
49767,-100,4,2,2,5,0,0
49850,-100,4,2,0,70,0,0
50100,-100,4,2,2,5,0,0
50183,-100,4,2,0,70,0,0
52100,-100,4,2,2,5,0,0
52183,-100,4,2,0,70,0,0
53767,-100,4,2,2,5,0,0
53850,-100,4,2,0,70,0,0
54100,-100,4,2,2,5,0,0
54183,-100,4,2,0,70,0,0
57433,-100,4,2,2,5,0,0
57517,-100,4,2,0,70,0,0
57767,-100,4,2,2,5,0,0
57850,-100,4,2,0,70,0,0
58767,-100,4,2,2,5,0,0
58850,-100,4,2,0,70,0,0
59100,-100,4,2,2,5,0,0
59183,-100,4,2,0,70,0,0
59433,-100,4,2,2,5,0,0
59517,-100,4,2,0,70,0,0
62100,-100,4,2,2,5,0,0
62183,-100,4,2,0,70,0,0
62767,-100,4,2,2,5,0,0
62850,-100,4,2,0,70,0,0
63350,-100,4,2,2,5,0,0
63433,-100,4,2,2,5,0,0
63517,-100,4,2,0,70,0,0
63767,-100,4,2,2,5,0,0
63850,-100,4,2,0,70,0,0
64433,-100,4,2,2,5,0,0
64517,-100,4,2,0,70,0,0
64767,-100,4,2,2,5,0,0
64850,-100,4,2,0,70,0,0
65100,-100,4,2,2,5,0,0
65183,-100,4,2,0,70,0,0
66767,-100,4,2,2,5,0,0
66850,-100,4,2,0,70,0,0
67100,-100,4,2,2,5,0,0
67183,-100,4,2,0,70,0,0
68433,-100,4,2,2,5,0,0
68517,-100,4,2,0,70,0,0
69767,-100,4,2,2,5,0,0
69850,-100,4,2,0,70,0,0
70100,-100,4,2,2,5,0,0
70183,-100,4,2,0,70,0,0
73433,-100,4,2,2,5,0,0
73517,-100,4,2,0,70,0,0
74100,-100,4,2,2,5,0,0
74183,-100,4,2,0,70,0,0
74767,-100,4,2,2,5,0,0
74850,-100,4,2,0,70,0,0
75100,-100,4,2,2,5,0,0
75183,-100,4,2,0,70,0,0
80100,-100,4,2,2,5,0,0
80183,-100,4,2,0,70,0,0
82767,-100,4,2,2,5,0,0
82850,-100,4,2,0,70,0,0
84767,-100,4,2,2,5,0,0
84850,-100,4,2,0,70,0,0
85100,-100,4,2,2,5,0,0
85183,-100,4,2,0,70,0,0
85433,-100,4,2,2,5,0,0
85517,-100,4,2,0,70,0,0
86100,-100,4,2,2,5,0,0
86183,-100,4,2,0,70,0,0
86433,-100,4,2,2,5,0,0
86517,-100,4,2,0,70,0,0
88433,-100,4,2,2,5,0,0
88517,-100,4,2,0,70,0,0
89433,-100,4,2,2,5,0,0
89517,-100,4,2,0,70,0,0
89767,-100,4,2,2,5,0,0
89850,-100,4,2,0,70,0,0
90767,-100,4,2,2,5,0,0
90850,-100,4,2,0,70,0,0
91100,-100,4,2,2,5,0,0
91183,-100,4,2,0,70,0,0
91433,-100,4,2,2,5,0,0
91517,-100,4,2,0,70,0,0
91767,-100,4,2,2,5,0,0
91850,-100,4,2,0,70,0,0
92100,-100,4,2,2,5,0,0
92183,-100,4,2,0,70,0,0
92767,-100,4,2,2,5,0,0
92850,-100,4,2,0,70,0,0
93100,-100,4,2,2,5,0,0
93183,-100,4,2,0,70,0,0
93433,-100,4,2,2,5,0,0
93517,-100,4,2,0,70,0,0
94933,-100,4,2,2,5,0,0
95017,-100,4,2,0,70,0,0
95267,-100,4,2,2,5,0,0
95350,-100,4,2,0,70,0,0
95767,-100,4,2,2,5,0,0
95850,-100,4,2,0,70,0,0
96100,-100,4,2,2,5,0,0
96183,-100,4,2,0,70,0,0
96600,-100,4,2,2,5,0,0
96683,-100,4,2,0,70,0,0
98100,-100,4,2,2,5,0,0
98183,-100,4,2,0,70,0,0
98767,-100,4,2,2,5,0,0
98850,-100,4,2,0,70,0,0
99100,-100,4,2,2,5,0,0
99183,-100,4,2,0,70,0,0
99767,-100,4,2,2,5,0,0
99850,-100,4,2,0,70,0,0
104767,-100,4,2,2,5,0,0
104850,-100,4,2,0,70,0,0
106767,-100,4,2,2,5,0,0
106850,-100,4,2,0,70,0,0
108100,-100,4,2,2,5,0,0
108183,-100,4,2,0,70,0,0
108433,-100,4,2,2,5,0,0
108517,-100,4,2,0,70,0,0
108767,-100,4,2,2,5,0,0
108850,-100,4,2,0,70,0,0
109433,-100,4,2,2,5,0,0
109517,-100,4,2,0,70,0,0
109767,-100,4,2,2,5,0,0
109850,-100,4,2,0,70,0,0
110100,-100,4,2,2,5,0,0
110183,-100,4,2,0,70,0,0
112100,-100,4,2,2,5,0,0
112183,-100,4,2,0,70,0,0
114767,-100,4,2,2,5,0,0
114850,-100,4,2,0,70,0,0
115433,-100,4,2,2,5,0,0
115517,-100,4,2,0,70,0,0
116100,-100,4,2,2,5,0,0
116183,-100,4,2,0,70,0,0
116767,-100,4,2,2,5,0,0
116850,-100,4,2,0,70,0,0
117433,-100,4,2,2,5,0,0
117517,-100,4,2,0,70,0,0
118100,-100,4,2,2,5,0,0
118183,-100,4,2,0,70,0,0
118767,-100,4,2,2,5,0,0
118850,-100,4,2,0,70,0,0
120683,-100,4,2,2,5,0,0
120767,-100,4,2,2,5,0,0
120850,-100,4,2,0,70,0,0
124100,-100,4,2,2,5,0,0
124183,-100,4,2,0,70,0,0
124433,-100,4,2,2,5,0,0
124517,-100,4,2,0,70,0,0
124767,-100,4,2,2,5,0,0
124850,-100,4,2,0,70,0,0
125100,-100,4,2,2,5,0,0
125183,-100,4,2,0,70,0,0
126433,-100,4,2,2,5,0,0
126517,-100,4,2,0,70,0,0
126767,-100,4,2,2,5,0,0
126850,-100,4,2,0,70,0,0
127100,-100,4,2,2,5,0,0
127183,-100,4,2,0,70,0,0
127433,-100,4,2,2,5,0,0
127517,-100,4,2,0,70,0,0
127850,645.161290322581,4,2,0,70,1,0
128817,732.600732600733,4,2,0,70,1,0
129183,666.666666666667,4,2,0,70,1,0
134100,-100,4,2,2,5,0,0
134183,-100,4,2,0,70,0,0
134767,-100,4,2,2,5,0,0
134850,-100,4,2,0,70,0,0
135100,-100,4,2,2,5,0,0
135183,-100,4,2,0,70,0,0
135433,-100,4,2,2,5,0,0
135517,-100,4,2,0,70,0,0
139100,-100,4,2,2,5,0,0
139183,-100,4,2,0,70,0,0
140433,-100,4,2,2,5,0,0
140517,-100,4,2,0,70,0,0
140767,-100,4,2,2,5,0,0
140850,-100,4,2,0,70,0,0
141100,-100,4,2,2,5,0,0
141183,-100,4,2,0,70,0,0
141433,-100,4,2,2,5,0,0
141517,-100,4,2,0,70,0,0
141767,-100,4,2,2,5,0,0
141850,-100,4,2,0,70,0,0
142100,-100,4,2,2,5,0,0
142183,-100,4,2,0,70,0,0
142767,-100,4,2,2,5,0,0
142850,-100,4,2,0,70,0,0
143433,-100,4,2,2,5,0,0
143517,-100,4,2,0,70,0,0
143767,-100,4,2,2,5,0,0
143850,-100,4,2,0,70,0,0
144100,-100,4,2,2,5,0,0
144183,-100,4,2,0,70,0,0
144433,-100,4,2,2,5,0,0
144517,-100,4,2,0,70,0,0
144767,-100,4,2,2,5,0,0
144850,-100,4,2,0,70,0,0
145767,-100,4,2,2,5,0,0
145850,-100,4,2,0,70,0,0
146100,-100,4,2,2,5,0,0
146183,-100,4,2,0,70,0,0
146433,-100,4,2,2,5,0,0
146517,-100,4,2,0,70,0,0
146767,-100,4,2,2,5,0,0
146850,-100,4,2,0,70,0,0
147100,-100,4,2,2,5,0,0
147183,-100,4,2,0,70,0,0
147433,-100,4,2,2,5,0,0
147517,-100,4,2,0,70,0,0
148100,-100,4,2,2,5,0,0
148183,-100,4,2,0,70,0,0
148767,-100,4,2,2,5,0,0
148850,-100,4,2,0,70,0,0
149100,-100,4,2,2,5,0,0
149183,-100,4,2,0,70,0,0
149433,-100,4,2,2,5,0,0
149517,-100,4,2,0,70,0,0
149767,-100,4,2,2,5,0,0
149850,-100,4,2,0,70,0,0
150100,-100,4,2,2,5,0,0
150183,-100,4,2,0,70,0,0
150767,-100,4,2,2,5,0,0
150850,-100,4,2,0,70,0,0
152100,-100,4,2,2,5,0,0
152183,-100,4,2,0,70,0,0
152767,-100,4,2,2,5,0,0
152850,-100,4,2,0,70,0,0
153433,-100,4,2,2,5,0,0
153517,-100,4,2,0,70,0,0
154100,-100,4,2,2,5,0,0
154183,-100,4,2,0,70,0,0
154767,-100,4,2,2,5,0,0
154850,-100,4,2,0,70,0,0
156100,-100,4,2,2,5,0,0
156183,-100,4,2,0,70,0,0
156433,-100,4,2,2,5,0,0
156517,-100,4,2,0,70,0,0
156767,-100,4,2,2,5,0,0
156850,-100,4,2,0,70,0,0
157433,-100,4,2,2,5,0,0
157517,-100,4,2,0,70,0,0
157767,-100,4,2,2,5,0,0
157850,-100,4,2,0,70,0,0
158100,-100,4,2,2,5,0,0
158183,-100,4,2,0,70,0,0
158767,-100,4,2,2,5,0,0
158850,-100,4,2,0,70,0,0
159433,-100,4,2,2,5,0,0
159517,-100,4,2,0,70,0,0
160100,-100,4,2,2,5,0,0
160183,-100,4,2,0,70,0,0
160433,-100,4,2,2,5,0,0
160517,-100,4,2,0,70,0,0
160767,-100,4,2,2,5,0,0
160850,-100,4,2,0,70,0,0
161100,-100,4,2,2,5,0,0
161183,-100,4,2,0,70,0,0
161433,-100,4,2,2,5,0,0
161517,-100,4,2,0,70,0,0
161767,-100,4,2,2,5,0,0
161850,-100,4,2,0,70,0,0
161961,-100,4,2,2,5,0,0
162072,-100,4,2,0,70,0,0
162433,-100,4,2,2,5,0,0
162517,-100,4,2,0,70,0,0
163100,-100,4,2,2,5,0,0
163183,-100,4,2,0,70,0,0
163433,-100,4,2,2,5,0,0
163517,-100,4,2,0,70,0,0
163767,-100,4,2,2,5,0,0
163850,-100,4,2,0,70,0,0
164100,-100,4,2,2,5,0,0
164183,-100,4,2,0,70,0,0
164433,-100,4,2,2,5,0,0
164517,-100,4,2,0,70,0,0
164628,-100,4,2,2,5,0,0
164739,-100,4,2,0,70,0,0
165100,-100,4,2,2,5,0,0
165183,-100,4,2,0,70,0,0
165767,-100,4,2,2,5,0,0
165850,-100,4,2,0,70,0,0
166100,-100,4,2,2,5,0,0
166183,-100,4,2,0,70,0,0
166433,-100,4,2,2,5,0,0
166517,-100,4,2,0,70,0,0
166767,-100,4,2,2,5,0,0
166850,-100,4,2,0,70,0,0
167100,-100,4,2,2,5,0,0
167183,-100,4,2,0,70,0,0
167294,-100,4,2,2,5,0,0
167405,-100,4,2,0,70,0,0
167767,-100,4,2,2,5,0,0
167850,-100,4,2,0,70,0,0
168433,-100,4,2,2,5,0,0
168517,-100,4,2,0,70,0,0
168767,-100,4,2,2,5,0,0
168850,-100,4,2,0,70,0,0
169100,-100,4,2,2,5,0,0
169183,-100,4,2,0,70,0,0
169433,-100,4,2,2,5,0,0
169517,-100,4,2,0,70,0,0
169767,-100,4,2,2,5,0,0
169850,-100,4,2,0,70,0,0
169961,-100,4,2,2,5,0,0
170072,-100,4,2,0,70,0,0
170433,-100,4,2,2,5,0,0
170517,-100,4,2,0,70,0,0
171100,-100,4,2,2,5,0,0
171183,-100,4,2,0,70,0,0
171433,-100,4,2,2,5,0,0
171517,-100,4,2,0,70,0,0
171767,-100,4,2,2,5,0,0
171850,-100,4,2,0,70,0,0
172100,-100,4,2,2,5,0,0
172183,-100,4,2,0,70,0,0
172433,-100,4,2,2,5,0,0
172517,-100,4,2,0,70,0,0
172767,-100,4,2,2,5,0,0
172850,-100,4,2,0,70,0,0
173100,-100,4,2,2,5,0,0
173183,-100,4,2,0,70,0,0
173767,-100,4,2,2,5,0,0
173850,-100,4,2,0,70,0,0
174100,-100,4,2,2,5,0,0
174183,-100,4,2,0,70,0,0
174433,-100,4,2,2,5,0,0
174517,-100,4,2,0,70,0,0
174767,-100,4,2,2,5,0,0
174850,-100,4,2,0,70,0,0
175100,-100,4,2,2,5,0,0
175183,-100,4,2,0,70,0,0
175433,-100,4,2,2,5,0,0
175517,-100,4,2,0,70,0,0
176433,-100,4,2,2,5,0,0
176517,-100,4,2,0,70,0,0
176767,-100,4,2,2,5,0,0
176850,-100,4,2,0,70,0,0
177100,-100,4,2,2,5,0,0
177183,-100,4,2,0,70,0,0
177433,-100,4,2,2,5,0,0
177517,-100,4,2,0,70,0,0
177767,-100,4,2,2,5,0,0
177850,-100,4,2,0,70,0,0
178100,-100,4,2,2,5,0,0
178183,-100,4,2,0,70,0,0
178433,-100,4,2,2,5,0,0
178517,-100,4,2,0,70,0,0
179433,-100,4,2,2,5,0,0
179517,-100,4,2,0,70,0,0
179767,-100,4,2,2,5,0,0
179850,-100,4,2,0,70,0,0
180100,-100,4,2,2,5,0,0
180183,-100,4,2,0,70,0,0
180433,-100,4,2,2,5,0,0
180517,-100,4,2,0,70,0,0
180767,-100,4,2,2,5,0,0
180850,-100,4,2,0,70,0,0
181100,-100,4,2,2,5,0,0
181183,-100,4,2,0,70,0,0
193433,-100,4,2,2,5,0,0
193517,-100,4,2,0,70,0,0
195350,-100,4,2,2,5,0,0
195517,-100,4,2,0,70,0,0
200100,-100,4,2,2,5,0,0
200183,-100,4,2,0,70,0,0
200433,-100,4,2,2,5,0,0
200517,-100,4,2,0,70,0,0
200767,-100,4,2,2,5,0,0
200850,-100,4,2,0,70,0,0
203433,-100,4,2,2,5,0,0
203517,-100,4,2,0,70,0,0
208433,-100,4,2,2,5,0,0
208517,-100,4,2,0,70,0,0
208767,-100,4,2,2,5,0,0
208850,-100,4,2,0,70,0,0
213767,-100,4,2,2,5,0,0
213850,-100,4,2,0,70,0,0
214100,-100,4,2,2,5,0,0
214183,-100,4,2,0,70,0,0
214550,666.666666666667,4,2,0,70,1,0
219849,666.666666666667,4,2,0,70,1,0
220350,-100,4,2,2,5,0,0
220433,-100,4,2,0,70,0,0
222516,666.666666666667,4,2,0,70,1,0
226100,-100,4,2,2,5,0,0
226183,-100,4,2,0,70,0,0

[Colours]
Combo1 : 232,189,40
Combo2 : 196,81,118
Combo3 : 137,177,78
Combo4 : 218,91,31

[HitObjects]
504,233,200,6,0,L|482:254,1,18.75
475,258,366,1,0,0:0:0:0:
476,259,450,1,0,0:0:0:0:
477,260,533,1,2,0:0:0:0:
429,237,866,1,2,0:0:0:0:
382,301,1200,2,0,P|376:334|388:378,2,75,2|0|0,0:0|0:0|0:0,0:0:0:0:
385,373,2147,5,0,0:0:0:0:
382,301,2525,2,0,P|388:268|376:224,1,75,2|0,0:0|0:0,0:0:0:0:
385,373,3191,1,2,0:0:0:0:
382,301,3525,1,0,0:0:0:0:
378,228,3828,2,0,P|384:195|372:151,2,75,2|0|0,0:0|0:0|0:0,0:0:0:0:
378,228,4828,5,0,0:0:0:0:
319,268,5161,1,0,0:0:0:0:
259,249,5494,1,0,0:0:0:0:
260,250,5584,1,0,0:0:0:0:
261,251,5674,1,0,0:0:0:0:
262,252,5764,1,0,0:0:0:0:
263,253,5854,1,2,0:0:0:0:
319,268,6192,1,2,0:0:0:0:
260,308,6526,2,0,P|214:307|180:288,2,75,2|0|0,0:0|0:0|0:0,0:0:0:0:
260,308,7526,5,0,0:0:0:0:
188,294,7859,2,0,P|153:281|116:282,1,75,2|0,0:0|0:0,0:0:0:0:
43,269,8526,2,0,P|77:282|115:281,1,75,2|0,0:0|0:0,0:0:0:0:
188,294,9192,1,2,0:0:0:0:
188,294,9525,1,0,0:0:0:0:
188,294,9858,1,0,0:0:0:0:
164,305,10192,5,0,0:0:0:0:
115,281,10548,1,2,0:0:0:0:
47,265,10885,1,0,0:0:0:0:
46,266,10969,1,0,0:0:0:0:
45,267,11053,1,0,0:0:0:0:
44,268,11137,1,0,0:0:0:0:
43,269,11222,1,2,0:0:0:0:
115,281,11557,1,2,0:0:0:0:
188,294,11879,2,0,P|221:278|247:250,2,75,2|0|0,0:0|0:0|0:0,0:0:0:0:
247,251,12847,5,0,0:0:0:0:
307,208,13199,2,0,P|272:224|247:251,1,75,2|0,0:0|0:0,0:0:0:0:
188,294,13865,1,2,0:0:0:0:
247,250,14199,1,0,0:0:0:0:
307,208,14517,1,2,0:0:0:0:
307,208,14850,1,0,0:0:0:0:
307,208,15183,1,0,0:0:0:0:
318,224,15517,5,0,0:0:0:0:
356,178,15850,1,0,0:0:0:0:
426,177,16183,1,0,0:0:0:0:
427,176,16267,1,0,0:0:0:0:
428,175,16350,1,0,0:0:0:0:
429,174,16433,1,0,0:0:0:0:
430,173,16517,1,2,0:0:0:0:
356,178,16850,1,0,0:0:0:0:
298,132,17183,2,0,P|285:97|286:59,2,75,2|0|0,0:0|0:0|0:0,0:0:0:0:
298,132,18183,5,0,0:0:0:0:
286,59,18517,2,0,P|307:18|330:-1,1,75,2|0,0:0|0:0,0:0:0:0:
286,59,19183,1,2,0:0:0:0:
298,132,19517,1,0,0:0:0:0:
355,177,19850,5,2,0:0:0:0:
355,177,20183,1,0,0:0:0:0:
430,173,20517,1,2,0:0:0:0:
430,173,20850,1,0,0:0:0:0:
497,208,21183,6,0,P|509:235|511:274,1,56.25,2|0,0:0|0:0,0:0:0:0:
502,305,21517,1,8,3:0:0:0:
469,337,21683,1,0,3:0:0:0:
467,336,21850,1,0,3:0:0:0:
465,335,22017,1,0,3:0:0:0:
463,334,22183,1,0,3:0:0:0:
461,333,22350,1,0,3:0:0:0:
384,360,22517,6,0,P|400:328|403:294,1,56.25,4|0,0:0|0:0,0:0:0:0:
438,276,22850,2,0,P|426:242|404:215,1,56.25
416,178,23183,2,0,P|384:162|343:160,1,75,0|0,1:0|0:0,0:0:0:0:
384,360,23850,5,0,0:0:0:0:
438,276,24183,1,0,0:0:0:0:
416,178,24517,1,0,1:0:0:0:
427,227,24850,1,0,0:0:0:0:
345,159,25183,5,2,0:0:0:0:
329,142,25350,1,0,0:0:0:0:
351,137,25517,1,0,0:0:0:0:
335,120,25683,1,0,0:0:0:0:
294,80,25850,1,2,1:2:0:0:
278,63,26017,1,0,0:0:0:0:
300,59,26183,1,2,0:0:0:0:
316,76,26350,1,0,0:0:0:0:
345,159,26517,1,2,0:3:0:0:
294,80,26850,1,0,0:0:0:0:
296,4,27183,1,2,1:2:0:0:
331,43,27517,1,0,0:0:0:0:
453,28,27850,6,0,P|416:33|384:52,1,75,2|0,0:0|0:0,0:0:0:0:
384,52,28517,1,0,1:0:0:0:
453,28,28850,5,0,0:0:0:0:
394,126,29183,1,2,0:0:0:0:
394,126,29517,1,0,0:0:0:0:
384,52,29850,1,2,1:2:0:0:
468,121,30183,1,0,0:0:0:0:
384,200,30517,1,2,0:0:0:0:
384,200,30850,1,0,0:0:0:0:
394,126,31183,1,2,1:2:0:0:
457,215,31517,1,0,0:0:0:0:
355,269,31850,1,2,0:3:0:0:
355,269,32183,1,0,0:0:0:0:
384,200,32517,1,2,1:2:0:0:
394,126,32850,5,2,0:0:0:0:
373,85,33017,1,2,0:0:0:0:
330,68,33183,2,0,P|305:73|273:97,1,56.25,2|0,0:0|0:0,0:0:0:0:
300,129,33517,2,2,P|131:56|5:237,1,431.25,2|0,0:0|0:0,0:0:0:0:
23,270,35517,5,2,0:0:0:0:
66,286,35683,1,2,0:0:0:0:
110,278,35850,2,0,P|108:244|83:197,1,75,2|0,0:0|0:0,0:0:0:0:
91,207,36517,1,0,1:0:0:0:
110,278,36850,1,0,0:0:0:0:
153,294,37017,1,0,0:0:0:0:
197,286,37183,2,0,P|195:252|170:205,1,75,2|0,0:3|0:0,0:0:0:0:
178,215,37850,1,0,1:2:0:0:
91,207,38183,5,0,0:0:0:0:
89,205,38350,1,0,0:0:0:0:
47,172,38517,2,0,P|62:141|86:119,1,56.25,2|0,0:0|0:0,0:0:0:0:
59,84,38850,2,0,P|87:64|119:57,1,56.25
113,22,39183,2,0,P|147:19|178:29,1,56.25,0|0,1:0|0:0,0:0:0:0:
187,0,39517,2,0,P|217:14|240:39,1,56.25
253,19,39850,2,0,P|272:47|279:79,1,56.25,2|0,0:0|0:0,0:0:0:0:
262,123,40183,1,0,0:0:0:0:
190,101,40517,1,0,1:0:0:0:
133,196,40850,6,0,P|111:165|109:143,1,56.25
47,172,41183,5,2,0:0:0:0:
59,84,41517,1,0,1:0:0:0:
113,22,41850,1,0,0:0:0:0:
187,0,42183,1,0,1:0:0:0:
253,19,42517,1,2,0:3:0:0:
340,8,42850,1,0,3:0:0:0:
395,27,43183,1,0,3:0:0:0:
396,30,43350,1,0,3:0:0:0:
403,87,43517,6,0,P|378:71|347:68,1,56.25,0|0,3:0|0:0,0:0:0:0:
396,30,43850,6,0,P|426:47|449:75,1,56.25,6|0,0:0|0:0,0:0:0:0:
400,117,44183,2,0,P|433:107|469:111,1,56.25
464,175,44517,2,0,P|481:145|508:122,1,56.25,2|0,1:2|0:0,0:0:0:0:
454,108,44850,1,0,0:0:0:0:
496,130,45017,1,0,0:0:0:0:
495,83,45183,1,2,0:0:0:0:
454,108,45350,1,2,0:0:0:0:
488,107,45517,1,0,0:0:0:0:
483,104,45683,1,0,0:0:0:0:
483,110,45850,1,0,1:0:0:0:
488,107,46017,1,0,0:0:0:0:
495,83,46183,5,0,0:0:0:0:
454,108,46350,1,0,0:0:0:0:
413,133,46517,2,0,P|385:128|362:113,1,56.25,2|0,0:0|0:0,0:0:0:0:
368,68,46850,2,0,P|342:78|314:76,1,56.25
302,40,47183,2,0,P|284:61|259:74,1,56.25,2|0,1:2|0:0,0:0:0:0:
236,56,47517,2,0,P|231:83|216:106,1,56.25
212,106,47850,1,0,0:0:0:0:
208,106,48017,5,2,0:0:0:0:
143,129,48183,2,0,P|115:124|92:109,1,56.25
74,57,48517,2,0,P|77:85|92:109,1,56.25,0|0,1:0|0:0,0:0:0:0:
58,139,48850,5,0,0:0:0:0:
91,108,49017,1,0,0:0:0:0:
134,70,49183,2,0,P|131:42|116:18,1,56.25,2|0,0:0|0:0,0:0:0:0:
56,5,49517,2,0,P|59:33|74:57,1,56.25
91,108,49850,2,0,P|88:80|73:56,1,56.25,2|0,1:2|0:0,0:0:0:0:
10,43,50183,1,0,0:0:0:0:
27,85,50350,1,0,0:0:0:0:
44,127,50517,1,2,0:0:0:0:
61,169,50683,1,2,0:0:0:0:
103,124,50850,1,0,0:0:0:0:
99,126,51017,1,0,0:0:0:0:
101,130,51183,1,0,1:0:0:0:
105,128,51350,1,2,0:0:0:0:
61,169,51517,5,4,0:0:0:0:
78,211,51683,1,0,0:0:0:0:
95,253,51850,1,2,0:0:0:0:
95,253,52183,5,0,0:0:0:0:
95,306,52517,1,0,1:0:0:0:
25,306,52850,1,4,1:2:0:0:
25,223,53183,1,2,0:0:0:0:
123,223,53517,1,0,0:0:0:0:
123,335,53850,1,0,0:0:0:0:
79,323,54183,5,0,3:0:0:0:
110,291,54350,1,0,3:0:0:0:
155,300,54517,2,0,P|182:318|204:365,1,75,6|0,0:0|0:0,0:0:0:0:
202,354,55183,1,0,1:0:0:0:
241,325,55517,5,0,0:0:0:0:
324,360,55850,1,2,0:0:0:0:
363,331,56183,5,0,0:0:0:0:
446,366,56517,1,2,1:2:0:0:
485,337,56850,5,0,0:0:0:0:
446,366,57017,1,0,0:0:0:0:
398,376,57183,2,0,P|363:368|345:350,1,56.25,2|0,0:0|0:0,0:0:0:0:
313,384,57517,2,0,P|290:367|263:362,1,56.25,2|0,0:0|0:0,0:0:0:0:
230,333,57850,1,0,1:0:0:0:
185,342,58017,1,0,0:0:0:0:
140,351,58183,1,0,0:0:0:0:
96,360,58350,1,0,0:0:0:0:
50,369,58517,2,0,P|23:363|-10:326,2,75,2|2|2,0:0|0:0|1:2,0:0:0:0:
96,360,59517,5,0,0:0:0:0:
50,369,59683,1,0,0:0:0:0:
66,324,59850,2,0,P|92:314|140:330,2,75,2|0|0,0:0|0:0|1:0,0:0:0:0:
50,369,60850,5,0,0:0:0:0:
136,327,61183,1,2,0:0:0:0:
152,369,61517,5,0,0:0:0:0:
238,327,61850,1,2,1:2:0:0:
254,369,62183,5,0,0:0:0:0:
238,327,62350,1,0,0:0:0:0:
245,282,62517,1,2,0:0:0:0:
245,282,62850,5,0,0:0:0:0:
252,237,63017,1,0,0:0:0:0:
236,195,63183,2,0,P|226:168|237:129,1,56.25,2|0,1:2|0:0,0:0:0:0:
233,195,63517,2,0,P|223:168|234:129,1,56.25,2|0,0:0|0:0,0:0:0:0:
271,163,63850,1,0,0:0:0:0:
278,118,64017,1,0,0:0:0:0:
304,79,64183,2,0,P|321:56|326:29,1,56.25,2|0,0:0|0:0,0:0:0:0:
305,81,64517,2,0,P|322:58|327:31,1,56.25,2|0,1:2|0:0,0:0:0:0:
306,83,64850,2,0,P|323:60|328:33,1,56.25,4|0,0:0|0:0,0:0:0:0:
372,46,65183,5,0,0:0:0:0:
422,13,65405,1,2,0:0:0:0:
511,26,65739,1,0,0:0:0:0:
456,96,66072,1,2,0:0:0:0:
444,68,66183,1,0,0:0:0:0:
512,105,66517,2,0,P|499:130|477:147,1,56.25
486,192,66850,2,0,P|462:207|435:211,1,56.25
419,254,67183,2,0,P|391:255|345:224,1,75,2|0,1:2|0:0,0:0:0:0:
351,233,67850,1,0,0:0:0:0:
346,211,68017,5,0,0:0:0:0:
328,226,68183,2,0,P|300:227|262:208,1,56.25,2|0,0:0|0:0,0:0:0:0:
260,205,68517,1,0,1:0:0:0:
251,183,68683,1,2,0:0:0:0:
252,160,68850,1,2,0:0:0:0:
262,139,69017,1,0,0:0:0:0:
240,87,69183,1,2,0:0:0:0:
256,72,69350,1,0,0:0:0:0:
276,63,69517,2,0,P|303:66|336:94,1,56.25,2|0,0:0|0:0,0:0:0:0:
367,103,69850,2,0,P|356:77|363:34,1,56.25,2|0,1:2|0:0,0:0:0:0:
387,15,70183,1,0,1:0:0:0:
389,13,70350,1,0,1:0:0:0:
467,35,70517,2,0,P|470:53|469:72,1,37.5,4|0,0:0|0:0,0:0:0:0:
437,130,70850,5,0,0:0:0:0:
434,137,70961,1,0,0:0:0:0:
430,144,71072,1,0,0:0:0:0:
427,151,71183,1,2,1:2:0:0:
427,151,71517,1,0,0:0:0:0:
383,161,71683,1,0,0:0:0:0:
341,147,71850,1,2,0:0:0:0:
341,147,72183,1,0,0:0:0:0:
318,97,72405,1,2,0:2:0:0:
345,57,72850,5,0,0:0:0:0:
299,53,73017,1,0,0:0:0:0:
253,61,73183,1,2,0:0:0:0:
253,61,73517,1,0,0:0:0:0:
211,79,73683,1,0,0:0:0:0:
175,109,73850,1,2,1:2:0:0:
175,109,74183,1,0,0:0:0:0:
147,145,74350,1,0,0:0:0:0:
131,189,74517,1,2,0:0:0:0:
131,189,74850,1,2,0:0:0:0:
81,131,75183,1,2,1:2:0:0:
81,131,75517,5,0,0:0:0:0:
82,129,75683,1,0,0:0:0:0:
83,128,75767,1,0,0:0:0:0:
84,127,75850,1,2,0:3:0:0:
126,104,76017,5,0,0:0:0:0:
118,82,76183,1,0,0:0:0:0:
122,59,76350,1,0,0:0:0:0:
72,82,76517,1,2,1:2:0:0:
76,59,76683,1,0,0:0:0:0:
67,37,76850,1,0,0:0:0:0:
49,22,77017,1,0,0:0:0:0:
27,65,77183,1,2,0:0:0:0:
9,50,77350,1,0,0:0:0:0:
0,28,77517,1,0,0:0:0:0:
4,5,77683,1,0,0:0:0:0:
49,22,77850,1,2,1:2:0:0:
27,65,78183,1,0,0:0:0:0:
27,65,78517,1,0,0:0:0:0:
72,82,78683,5,0,0:0:0:0:
85,99,78850,1,0,0:0:0:0:
87,120,79017,1,0,0:0:0:0:
40,120,79183,1,2,1:2:0:0:
42,141,79350,1,0,0:0:0:0:
54,158,79517,1,0,0:0:0:0:
73,166,79683,1,0,1:0:0:0:
99,207,79850,6,0,L|126:180,1,37.5,2|0,1:2|0:0,0:0:0:0:
54,209,80183,1,0,1:0:0:0:
54,212,80350,1,0,0:0:0:0:
75,264,80517,1,2,1:2:0:0:
32,281,80683,1,0,3:0:0:0:
76,294,80850,1,0,1:0:0:0:
33,311,81017,1,0,3:0:0:0:
18,373,81183,5,4,0:0:0:0:
36,360,81350,1,0,0:0:0:0:
57,353,81517,1,0,0:0:0:0:
79,354,81683,2,0,P|114:354|154:336,2,75,2|2|0,0:0|0:0|0:0,0:0:0:0:
150,338,82517,2,0,P|185:338|218:325,1,56.25,2|0,0:0|0:0,0:0:0:0:
221,322,82850,1,0,0:0:0:0:
256,358,83072,1,2,0:0:0:0:
259,359,83405,1,0,0:0:0:0:
330,327,83850,5,0,0:0:0:0:
317,306,84017,1,0,0:0:0:0:
300,290,84183,1,0,0:0:0:0:
278,281,84350,1,0,0:0:0:0:
253,279,84517,2,0,P|222:260|200:233,1,56.25,2|0,1:2|0:0,0:0:0:0:
252,281,84850,2,0,P|221:262|199:235,1,56.25,2|0,0:0|0:0,0:0:0:0:
163,215,85183,2,0,P|187:238|220:250,1,56.25,2|0,0:3|0:0,0:0:0:0:
253,279,85517,1,0,0:0:0:0:
278,281,85683,1,0,0:0:0:0:
300,290,85850,2,0,P|324:313|357:325,1,56.25,2|0,1:2|0:0,0:0:0:0:
389,356,86183,2,0,P|358:337|336:310,1,56.25
300,290,86517,5,0,0:0:0:0:
346,276,86683,1,0,0:0:0:0:
358,258,86850,1,0,0:0:0:0:
380,252,87017,1,0,0:0:0:0:
392,233,87183,1,2,1:2:0:0:
346,276,87517,1,0,0:0:0:0:
332,214,87850,1,0,0:0:0:0:
319,233,88017,1,0,0:0:0:0:
298,238,88183,1,2,0:0:0:0:
272,195,88517,1,2,1:2:0:0:
272,195,89017,5,0,0:0:0:0:
252,185,89183,2,0,P|238:151|237:116,1,56.25,2|0,0:0|0:0,0:0:0:0:
250,186,89517,2,0,P|236:152|235:117,1,56.25
249,86,89850,1,0,1:0:0:0:
259,66,90017,1,0,0:0:0:0:
279,76,90183,1,0,0:0:0:0:
269,96,90350,1,0,0:0:0:0:
249,86,90517,1,2,0:3:0:0:
226,86,90683,1,0,0:0:0:0:
205,96,90850,2,0,P|171:109|136:110,1,56.25,2|0,0:0|0:0,0:0:0:0:
165,156,91183,2,0,P|129:150|98:134,1,56.25,2|0,1:2|0:0,0:0:0:0:
109,97,91517,5,4,0:0:0:0:
39,171,91850,2,0,P|75:177|106:193,1,56.25,2|0,0:0|0:0,0:0:0:0:
127,215,92183,1,0,0:0:0:0:
132,259,92350,2,0,P|168:265|224:307,1,93.75
237,337,92850,1,0,0:0:0:0:
237,337,93183,2,0,P|273:343|304:359,1,56.25,2|0,0:0|0:0,0:0:0:0:
325,381,93517,1,2,0:0:0:0:
345,369,93683,1,0,0:0:0:0:
339,322,94183,5,0,0:0:0:0:
319,310,94350,1,0,0:0:0:0:
307,290,94517,2,0,P|303:253|329:188,1,93.75,2|0,0:0|0:0,0:0:0:0:
365,187,95017,2,0,P|371:151|387:120,1,56.25,2|0,0:0|0:0,0:0:0:0:
409,99,95350,1,0,0:0:0:0:
454,89,95517,2,0,P|460:53|476:22,1,56.25,2|0,0:0|0:0,0:0:0:0:
438,0,95850,2,0,P|403:12|368:14,1,56.25,2|0,0:3|0:0,0:0:0:0:
340,24,96183,1,0,0:0:0:0:
369,60,96350,2,0,P|397:83|416:112,1,56.25,2|0,0:0|0:0,0:0:0:0:
415,144,96683,1,0,0:0:0:0:
414,147,96850,1,0,0:0:0:0:
414,147,97183,1,0,0:0:0:0:
467,148,97350,5,0,0:0:0:0:
460,169,97517,1,0,0:0:0:0:
480,178,97683,1,0,0:0:0:0:
473,199,97850,2,0,P|445:222|426:251,1,56.25,2|0,1:2|0:0,0:0:0:0:
427,283,98183,1,0,0:0:0:0:
427,305,98350,1,0,0:0:0:0:
437,324,98517,2,0,B|414:353|414:353|395:361,1,56.25,2|0,0:0|0:0,0:0:0:0:
328,358,98850,2,0,B|345:350|345:350|368:321,1,56.25,2|0,0:0|0:0,0:0:0:0:
373,276,99183,1,0,1:0:0:0:
308,315,99517,6,0,P|280:317|252:314,1,56.25
203,286,99850,1,2,0:0:0:0:
205,288,99933,1,2,0:0:0:0:
207,290,100017,1,2,0:0:0:0:
209,292,100100,2,0,P|213:317|199:357,1,56.25
221,384,100461,2,0,P|196:380|174:382,1,37.5,2|2,0:0|0:0,0:0:0:0:
111,357,100850,5,0,1:0:0:0:
84,352,101016,1,0,0:0:0:0:
68,367,101183,1,2,0:3:0:0:
95,372,101350,1,0,0:0:0:0:
57,347,101516,5,2,1:2:0:0:
41,362,101683,1,0,0:0:0:0:
14,357,101850,1,2,3:2:0:0:
32,340,102017,1,0,3:0:0:0:
31,341,102100,1,2,0:0:0:0:
30,342,102183,1,0,3:0:0:0:
3,337,102350,1,0,0:0:0:0:
26,291,102517,5,4,0:0:0:0:
31,264,102683,1,0,0:0:0:0:
31,264,103183,5,0,1:0:0:0:
81,247,103350,1,0,0:0:0:0:
72,225,103517,1,0,0:0:0:0:
72,202,103683,1,0,0:0:0:0:
0,204,104072,1,0,0:0:0:0:
12,193,104183,1,2,0:0:0:0:
46,161,104405,1,0,0:0:0:0:
34,150,104517,2,0,P|24:113|25:88,1,56.25,2|0,1:2|0:0,0:0:0:0:
49,57,104850,1,0,0:0:0:0:
23,14,105072,1,0,0:0:0:0:
11,24,105183,1,2,0:0:0:0:
49,57,105517,1,0,0:0:0:0:
84,22,105683,5,0,0:0:0:0:
105,14,105850,1,2,1:2:0:0:
127,14,106017,1,0,0:0:0:0:
148,20,106183,1,0,0:0:0:0:
166,33,106350,1,0,0:0:0:0:
195,81,106517,2,0,P|211:46|228:28,1,56.25,2|0,0:0|0:0,0:0:0:0:
265,16,106850,1,0,0:0:0:0:
329,17,107072,1,2,0:0:0:0:
317,27,107183,1,0,1:0:0:0:
314,75,107517,1,0,0:0:0:0:
408,101,107850,6,0,P|385:83|360:72,1,56.25
361,70,108183,2,0,P|386:81|408:98,1,56.25
410,97,108517,2,0,P|387:79|362:68,1,56.25,2|0,1:2|0:0,0:0:0:0:
314,75,108850,1,0,0:0:0:0:
449,63,109183,6,0,P|459:88|463:116,1,56.25
465,115,109517,2,0,P|461:87|450:61,1,56.25
452,60,109850,2,0,P|462:85|466:113,1,56.25,2|0,1:2|0:0,0:0:0:0:
451,162,110183,1,4,0:0:0:0:
416,227,110517,5,2,0:0:0:0:
392,188,110683,1,0,0:0:0:0:
389,142,110850,1,0,0:0:0:0:
407,100,111017,1,0,0:0:0:0:
389,142,111183,1,2,1:2:0:0:
353,171,111350,1,0,0:0:0:0:
308,179,111517,1,4,0:0:0:0:
264,164,111683,1,0,0:0:0:0:
308,179,111850,2,0,P|318:204|322:232,1,56.25,2|0,0:0|0:0,0:0:0:0:
300,273,112183,1,2,1:2:0:0:
297,274,112350,1,0,1:0:0:0:
322,232,112517,1,2,3:2:0:0:
325,231,112683,1,0,3:0:0:0:
328,230,112850,1,0,3:0:0:0:
339,348,113183,6,0,P|338:310|350:275,2,75,4|0|0,0:0|0:0|1:0,0:0:0:0:
339,348,114183,5,0,0:0:0:0:
413,277,114517,2,0,P|391:307|382:340,1,56.25,2|0,0:0|0:0,0:0:0:0:
385,371,114850,1,0,0:0:0:0:
385,325,115183,2,0,P|395:299|413:277,1,56.25,2|0,1:2|0:0,0:0:0:0:
454,256,115517,5,0,0:0:0:0:
426,350,115850,2,0,P|447:319|456:286,1,56.25,2|0,0:0|0:0,0:0:0:0:
454,256,116183,1,0,0:0:0:0:
453,301,116517,2,0,P|442:328|426:350,1,56.25,2|0,1:2|0:0,0:0:0:0:
385,371,116850,5,0,0:0:0:0:
357,277,117183,2,0,P|378:307|387:340,1,56.25,2|0,0:0|0:0,0:0:0:0:
385,371,117517,1,0,0:0:0:0:
384,325,117850,2,0,P|373:298|356:276,1,56.25,2|0,1:2|0:0,0:0:0:0:
316,256,118183,5,2,0:0:0:0:
271,252,118350,1,2,0:0:0:0:
226,259,118517,2,0,P|202:273|183:294,1,56.25,2|0,0:0|0:0,0:0:0:0:
178,339,118850,2,2,P|359:271|352:60,1,431.25,2|0,0:0|0:0,0:0:0:0:
311,43,120850,5,2,0:0:0:0:
266,48,121017,1,2,0:0:0:0:
228,73,121183,2,0,P|215:91|194:145,1,75,2|0,0:0|0:0,0:0:0:0:
195,139,121850,1,0,1:0:0:0:
193,136,122017,1,0,0:0:0:0:
153,113,122183,1,0,0:0:0:0:
108,118,122350,1,0,0:0:0:0:
70,143,122517,2,0,P|57:161|36:215,1,75,2|0,0:0|0:0,0:0:0:0:
37,209,123183,1,0,1:0:0:0:
4,308,123517,5,0,3:0:0:0:
45,290,123683,1,0,0:0:0:0:
86,274,123850,2,0,P|123:278|144:289,1,56.25,6|0,0:0|0:0,0:0:0:0:
177,259,124183,2,0,P|210:275|226:292,1,56.25
259,278,124517,2,0,P|284:304|293:326,1,56.25,2|0,1:2|0:0,0:0:0:0:
321,314,124850,2,0,P|336:348|337:371,1,56.25
287,375,125183,1,2,0:0:0:0:
387,368,125517,1,0,0:0:0:0:
287,375,125850,1,0,1:0:0:0:
387,368,126183,6,0,P|412:357|433:338,1,56.25
447,273,126517,2,0,P|470:301|477:324,1,56.25,2|0,0:0|0:0,0:0:0:0:
506,367,126850,2,0,P|482:338|475:315,1,56.25
502,271,127183,2,0,P|488:305|472:323,1,56.25,2|0,1:2|0:0,0:0:0:0:
434,341,127517,5,0,0:0:0:0:
433,338,127683,1,0,1:0:0:0:
395,307,127850,1,2,0:0:0:0:
404,262,128011,1,0,1:0:0:0:
367,287,128172,1,0,1:0:0:0:
371,264,128333,1,0,3:0:0:0:
350,273,128495,1,0,3:0:0:0:
351,270,128656,1,0,3:0:0:0:
301,272,128817,5,0,3:0:0:0:
303,267,129000,1,0,0:0:0:0:
304,265,129091,1,0,0:0:0:0:
305,263,129183,1,2,0:3:0:0:
294,218,129517,1,0,0:0:0:0:
296,172,129850,1,0,0:0:0:0:
315,130,130183,1,0,0:0:0:0:
318,132,130349,1,0,0:0:0:0:
351,100,130517,1,2,0:0:0:0:
307,88,130683,1,2,0:0:0:0:
362,144,130850,5,0,0:0:0:0:
365,143,131017,1,0,0:0:0:0:
351,100,131183,1,2,0:0:0:0:
307,88,131350,1,0,0:0:0:0:
270,114,131517,6,0,P|241:119|217:114,1,37.5
307,88,131850,1,2,0:0:0:0:
351,100,132183,1,0,0:0:0:0:
362,144,132517,1,0,0:0:0:0:
330,176,132850,1,0,0:0:0:0:
399,208,133183,5,8,3:0:0:0:
431,176,133350,1,0,0:0:0:0:
454,228,133517,1,8,3:0:0:0:
452,231,133683,1,0,3:0:0:0:
431,176,133850,2,0,P|468:176|490:184,1,56.25,2|0,3:3|0:0,0:0:0:0:
512,221,134183,5,0,3:0:0:0:
503,265,134350,1,0,3:0:0:0:
510,312,134517,2,0,P|466:307|440:312,1,56.25,4|0,0:0|0:0,0:0:0:0:
454,311,134850,2,0,P|482:309|510:315,1,56.25
474,360,135183,2,0,P|430:355|404:360,1,56.25,2|0,1:2|0:0,0:0:0:0:
375,378,135517,1,0,0:0:0:0:
378,376,135683,1,0,0:0:0:0:
382,331,135850,1,2,0:0:0:0:
359,291,136017,1,0,0:0:0:0:
331,332,136183,5,0,0:0:0:0:
334,330,136350,1,0,0:0:0:0:
359,291,136517,1,2,1:2:0:0:
350,246,136683,1,0,0:0:0:0:
310,224,136850,6,0,P|289:202|284:191,1,37.5,2|0,0:0|0:0,0:0:0:0:
274,276,137183,2,0,P|292:275|310:269,2,37.5,2|2|2,0:0|0:0|0:0,0:0:0:0:
272,278,137683,1,0,0:0:0:0:
228,263,137850,1,0,1:0:0:0:
147,298,138183,1,0,0:0:0:0:
61,267,138517,1,2,0:3:0:0:
22,289,138683,5,0,0:0:0:0:
61,267,138850,2,0,P|70:247|70:198,1,56.25,2|0,0:0|0:0,0:0:0:0:
60,169,139183,1,2,1:2:0:0:
18,187,139350,5,0,0:0:0:0:
14,164,139517,1,0,0:0:0:0:
22,143,139683,1,0,0:0:0:0:
62,123,139850,1,2,0:0:0:0:
88,74,140017,1,2,0:0:0:0:
62,123,140183,2,0,P|76:106|89:59,1,56.25
104,31,140517,2,0,P|111:51|145:86,1,56.25,2|0,1:2|0:0,0:0:0:0:
175,96,140850,6,0,P|203:95|234:80,1,56.25
229,85,141183,2,0,P|203:97|176:98,1,56.25,2|0,0:0|0:0,0:0:0:0:
130,78,141517,2,0,P|112:56|102:31,1,56.25
104,31,141850,2,0,P|111:51|145:86,1,56.25,2|0,1:2|0:0,0:0:0:0:
175,97,142183,5,2,0:0:0:0:
202,97,142350,1,2,0:0:0:0:
238,64,142517,2,0,P|247:37|264:15,1,56.25,2|0,0:0|0:0,0:0:0:0:
318,5,142850,1,0,0:0:0:0:
264,15,143017,1,0,0:0:0:0:
238,64,143183,2,0,P|237:92|246:118,1,56.25,2|0,1:2|0:0,0:0:0:0:
277,151,143517,6,0,P|302:160|337:162,1,56.25
331,164,143850,2,0,P|303:162|277:153,1,56.25,2|0,0:3|0:0,0:0:0:0:
246,118,144183,2,0,P|237:92|238:64,1,56.25
235,63,144517,2,0,P|234:91|243:117,1,56.25,2|0,1:2|0:0,0:0:0:0:
276,152,144850,5,0,0:0:0:0:
285,174,145017,1,0,0:0:0:0:
320,203,145183,1,2,0:0:0:0:
329,258,145350,1,0,0:0:0:0:
320,203,145517,2,0,P|330:230|329:258,1,56.25,2|0,0:0|0:0,0:0:0:0:
329,304,145850,2,0,P|347:282|371:269,1,56.25,2|0,1:2|0:0,0:0:0:0:
417,264,146183,6,0,P|446:275|472:301,1,56.25
465,289,146517,2,0,P|444:271|418:262,1,56.25,2|0,0:0|0:0,0:0:0:0:
371,269,146850,2,0,P|347:282|329:304,1,56.25
328,302,147183,2,0,P|346:280|370:267,1,56.25,2|0,1:2|0:0,0:0:0:0:
417,261,147517,5,0,0:0:0:0:
444,270,147683,1,0,0:0:0:0:
489,260,147850,2,0,P|473:283|467:310,1,56.25,2|0,0:0|0:0,0:0:0:0:
498,344,148183,1,2,0:0:0:0:
491,359,148350,1,0,0:0:0:0:
446,361,148517,2,0,P|461:337|467:310,1,56.25,2|0,1:2|0:0,0:0:0:0:
459,266,148850,6,0,P|434:239|404:225,1,56.25
418,227,149183,2,0,P|441:242|460:264,1,56.25,2|0,0:3|0:0,0:0:0:0:
467,310,149517,2,0,P|461:337|446:361,1,56.25
448,362,149850,2,0,P|463:338|469:311,1,56.25,2|0,1:2|0:0,0:0:0:0:
414,325,150183,5,0,0:0:0:0:
397,339,150350,1,0,0:0:0:0:
370,375,150517,2,0,P|346:359|319:353,1,56.25,2|0,0:0|0:0,0:0:0:0:
274,358,150850,1,2,0:0:0:0:
274,358,151183,1,0,1:0:0:0:
252,317,151517,5,0,0:0:0:0:
235,331,151683,1,0,0:0:0:0:
208,367,151850,2,0,P|184:351|157:345,1,56.25,2|0,0:0|0:0,0:0:0:0:
112,350,152183,1,2,0:0:0:0:
112,350,152517,1,4,1:2:0:0:
90,309,152850,5,0,0:0:0:0:
73,323,153017,1,0,0:0:0:0:
31,348,153183,2,0,P|40:317|33:283,1,56.25,2|0,0:0|0:0,0:0:0:0:
56,250,153517,1,0,1:0:0:0:
73,264,153683,1,0,0:0:0:0:
115,289,153850,2,0,P|106:258|113:224,1,56.25,2|0,0:0|0:0,0:0:0:0:
87,193,154183,1,8,3:0:0:0:
70,207,154350,1,0,0:0:0:0:
28,232,154517,2,0,P|37:201|30:167,1,56.25,2|0,0:0|0:0,0:0:0:0:
10,139,154850,1,2,3:2:0:0:
39,99,155183,5,8,3:0:0:0:
36,100,155350,1,0,3:0:0:0:
15,60,155517,5,0,3:0:0:0:
32,74,155683,1,0,3:0:0:0:
51,31,155850,2,0,P|91:22|115:24,1,56.25,4|0,0:0|0:0,0:0:0:0:
139,54,156183,2,0,P|112:44|84:43,1,56.25
58,72,156517,2,0,P|84:64|112:63,1,56.25,0|0,1:0|0:0,0:0:0:0:
136,106,156850,5,0,0:0:0:0:
148,121,157017,1,0,0:0:0:0:
175,82,157183,2,0,P|215:79|235:85,1,56.25,2|0,0:0|0:0,0:0:0:0:
271,60,157517,2,0,P|231:48|211:35,1,56.25,2|0,0:0|0:0,0:0:0:0:
212,0,157850,2,0,P|230:20|254:35,1,56.25,0|0,1:0|0:0,0:0:0:0:
294,8,158183,5,0,0:0:0:0:
301,27,158350,1,0,0:0:0:0:
283,69,158517,2,0,P|309:60|337:58,1,56.25,2|0,0:0|0:0,0:0:0:0:
359,101,158850,1,0,0:0:0:0:
375,87,159017,1,0,0:0:0:0:
380,42,159183,2,0,P|398:62|422:77,1,56.25,0|0,1:0|0:0,0:0:0:0:
461,54,159517,1,0,0:0:0:0:
468,74,159683,1,0,0:0:0:0:
451,116,159850,2,0,P|477:107|505:105,1,56.25,2|0,0:3|0:0,0:0:0:0:
512,152,160183,2,0,P|485:143|457:142,1,56.25,2|0,0:0|0:0,0:0:0:0:
414,158,160517,2,0,P|439:170|459:189,1,56.25,0|0,1:0|0:0,0:0:0:0:
431,226,160850,2,0,P|417:201|398:180,1,56.25
359,159,161183,2,0,P|329:153|297:156,1,56.25,2|0,0:0|0:0,0:0:0:0:
263,177,161517,5,2,0:0:0:0:
316,223,161850,2,0,P|311:211|303:202,1,25,0|0,1:2|0:0,0:0:0:0:
264,176,162072,1,2,0:0:0:0:
263,177,162183,1,0,0:0:0:0:
210,297,162517,1,2,0:0:0:0:
261,221,162738,1,0,0:0:0:0:
263,177,162850,1,0,0:0:0:0:
167,195,163183,2,0,P|197:201|229:198,1,56.25,2|0,1:2|0:0,0:0:0:0:
263,177,163517,1,0,0:0:0:0:
263,177,163850,1,0,0:0:0:0:
343,131,164183,5,2,0:0:0:0:
396,84,164517,2,0,P|389:95|381:105,1,25,0|0,1:2|0:0,0:0:0:0:
344,132,164739,1,2,0:0:0:0:
343,131,164850,1,0,0:0:0:0:
293,9,165183,1,2,0:3:0:0:
341,87,165405,1,0,0:0:0:0:
343,131,165517,1,0,0:0:0:0:
247,113,165850,2,0,P|277:107|309:110,1,56.25,2|0,1:2|0:0,0:0:0:0:
343,131,166183,1,0,0:0:0:0:
456,184,166517,6,0,P|428:178|400:179,1,56.25
360,202,166850,1,2,0:0:0:0:
330,282,167183,2,0,P|319:276|307:271,1,25,0|0,1:2|0:0,0:0:0:0:
261,267,167405,1,2,0:0:0:0:
260,268,167517,1,0,0:0:0:0:
224,378,167850,1,2,0:0:0:0:
190,298,168071,1,0,0:0:0:0:
153,271,168183,1,0,0:0:0:0:
76,317,168517,2,0,P|81:289|80:261,1,56.25,2|0,1:2|0:0,0:0:0:0:
58,221,168850,1,0,0:0:0:0:
1,138,169183,6,0,P|18:159|41:176,1,56.25
86,183,169517,1,2,0:0:0:0:
159,139,169850,2,0,P|164:150|170:161,1,25,0|0,1:2|0:0,0:0:0:0:
205,194,170072,1,2,0:0:0:0:
206,194,170183,1,0,0:0:0:0:
308,116,170517,1,2,0:3:0:0:
280,215,170738,1,0,0:0:0:0:
289,258,170850,1,0,0:0:0:0:
380,272,171183,2,0,P|358:289|341:312,1,56.25,2|0,1:2|0:0,0:0:0:0:
333,358,171517,1,0,0:0:0:0:
423,351,171850,5,2,0:0:0:0:
423,351,172183,1,0,0:0:0:0:
512,337,172517,2,0,P|490:319|473:296,1,56.25,2|0,1:2|0:0,0:0:0:0:
462,253,172850,2,0,P|466:220|479:193,1,56.25,2|0,0:0|0:0,0:0:0:0:
486,155,173183,1,2,0:0:0:0:
443,167,173350,1,0,0:0:0:0:
483,148,173517,2,0,P|494:122|497:95,1,56.25,2|0,0:0|0:0,0:0:0:0:
485,52,173850,2,0,P|462:25|435:9,1,56.25,2|0,1:2|0:0,0:0:0:0:
399,6,174183,1,0,0:0:0:0:
311,23,174517,5,2,0:0:0:0:
311,23,174850,1,0,0:0:0:0:
223,6,175183,2,0,P|185:11|155:27,1,56.25,2|0,1:2|0:0,0:0:0:0:
134,53,175517,1,0,0:0:0:0:
137,52,175683,1,0,3:0:0:0:
177,73,175850,1,2,1:3:0:0:
138,97,176017,1,0,1:0:0:0:
181,80,176183,2,0,P|180:107|169:133,1,56.25,2|0,1:2|0:0,0:0:0:0:
136,165,176517,2,0,P|97:173|65:164,1,56.25,2|0,1:2|0:0,0:0:0:0:
41,147,176850,2,0,P|23:117|20:85,1,56.25
30,52,177183,5,6,0:0:0:0:
30,52,177517,1,0,0:0:0:0:
41,147,177850,2,0,P|32:180|12:205,1,56.25,2|0,1:2|0:0,0:0:0:0:
51,234,178183,2,0,P|42:267|22:292,1,56.25
59,321,178517,1,2,0:0:0:0:
15,329,178683,1,0,0:0:0:0:
44,364,178850,1,2,0:0:0:0:
0,372,179017,1,0,0:0:0:0:
59,321,179183,2,0,P|86:326|109:341,1,56.25,2|0,1:2|0:0,0:0:0:0:
155,337,179517,2,0,P|178:352|205:357,1,56.25
250,349,179850,5,2,0:0:0:0:
250,349,180183,1,0,1:0:0:0:
353,378,180517,2,0,P|321:363|288:364,1,56.25,2|0,0:0|0:0,0:0:0:0:
287,316,180850,2,0,P|255:301|222:302,1,56.25,0|0,3:0|0:0,0:0:0:0:
225,256,181183,5,2,0:3:0:0:
192,288,181350,1,0,0:0:0:0:
218,252,181517,1,2,3:2:0:0:
185,284,181683,1,0,0:0:0:0:
166,231,181850,1,2,0:0:0:0:
135,199,182017,1,0,0:0:0:0:
122,241,182183,1,2,3:2:0:0:
91,210,182350,1,0,0:0:0:0:
60,178,182517,5,0,0:0:0:0:
30,147,182850,1,0,0:0:0:0:
0,116,183183,1,2,0:0:0:0:
74,134,183850,5,0,0:0:0:0:
44,103,184183,1,0,0:0:0:0:
14,72,184517,1,2,0:0:0:0:
88,90,185183,1,2,0:0:0:0:
92,68,185350,1,0,0:0:0:0:
114,72,185517,1,0,0:0:0:0:
110,94,185683,1,0,0:0:0:0:
96,46,185850,1,2,0:0:0:0:
100,24,186017,1,0,0:0:0:0:
122,28,186183,1,2,0:0:0:0:
118,50,186350,1,0,0:0:0:0:
88,90,186517,5,0,0:0:0:0:
118,121,186850,1,0,0:0:0:0:
148,152,187183,1,2,0:0:0:0:
148,152,187517,5,0,0:0:0:0:
150,155,187683,1,0,0:0:0:0:
195,160,187850,1,2,0:0:0:0:
195,160,188850,5,0,0:0:0:0:
267,105,189183,1,2,0:0:0:0:
267,105,189517,1,0,0:0:0:0:
349,143,189850,1,2,0:0:0:0:
349,143,190183,5,0,0:0:0:0:
423,91,190517,1,2,0:0:0:0:
423,91,190850,1,0,0:0:0:0:
505,129,191183,1,2,0:0:0:0:
505,129,191517,5,0,0:0:0:0:
431,181,191850,1,2,0:0:0:0:
431,181,192183,1,0,0:0:0:0:
349,143,192517,1,2,0:0:0:0:
349,143,192850,5,2,0:0:0:0:
308,124,193017,1,2,0:0:0:0:
263,107,193183,2,0,P|230:112|207:129,1,56.25,2|0,0:0|0:0,0:0:0:0:
251,153,193517,2,2,P|73:161|141:348,1,431.25,2|0,0:0|0:0,0:0:0:0:
178,350,195517,5,2,0:0:0:0:
222,336,195683,1,2,0:0:0:0:
257,306,195850,2,0,P|256:274|228:229,1,75,2|0,0:0|0:0,0:0:0:0:
236,236,196517,1,0,0:0:0:0:
257,306,196850,1,0,0:0:0:0:
301,292,197017,1,0,0:0:0:0:
336,262,197183,2,0,P|335:230|307:185,1,75,2|0,0:0|0:0,0:0:0:0:
315,192,197850,1,0,0:0:0:0:
359,175,198183,5,0,0:0:0:0:
403,161,198350,1,0,0:0:0:0:
437,131,198517,2,0,P|436:99|412:59,2,75,2|0|0,0:0|0:0|0:0,0:0:0:0:
403,161,199517,1,0,0:0:0:0:
445,175,199850,2,0,P|464:206|467:238,1,56.25,2|0,0:0|0:0,0:0:0:0:
459,270,200183,5,0,0:0:0:0:
467,225,200517,2,0,P|460:197|445:175,1,56.25,2|0,0:0|0:0,0:0:0:0:
403,161,200850,5,0,0:0:0:0:
359,175,201017,1,0,0:0:0:0:
314,172,201183,2,0,P|295:145|291:99,2,75,2|0|0,0:0|0:0|0:0,0:0:0:0:
359,175,202183,1,0,0:0:0:0:
334,211,202517,2,0,P|337:248|366:288,1,75,2|0,0:0|0:0,0:0:0:0:
369,338,203183,6,0,P|335:322|305:322,1,56.25,2|0,0:0|0:0,0:0:0:0:
286,288,203517,5,0,0:0:0:0:
272,330,203683,1,0,0:0:0:0:
228,340,203850,2,0,P|190:339|157:354,2,75,2|0|0,0:0|0:0|0:0,0:0:0:0:
275,329,204850,1,0,0:0:0:0:
272,330,205017,1,0,0:0:0:0:
242,296,205183,2,0,P|232:277|229:255,1,37.5,2|2,0:0|0:0,0:0:0:0:
193,306,205517,5,0,0:0:0:0:
196,305,205683,1,0,0:0:0:0:
165,270,205850,2,0,P|162:252|153:236,1,37.5
118,266,206183,5,0,0:0:0:0:
74,256,206350,1,0,0:0:0:0:
39,225,206517,2,0,P|42:187|61:156,2,75,2|0|0,0:0|0:0|0:0,0:0:0:0:
74,256,207517,1,0,0:0:0:0:
64,300,207850,1,0,0:0:0:0:
118,266,208017,5,0,0:0:0:0:
84,212,208183,2,0,P|104:197|141:187,1,56.25,2|0,0:0|0:0,0:0:0:0:
177,174,208517,2,0,P|154:164|126:137,1,56.25,2|0,0:0|0:0,0:0:0:0:
90,124,208850,5,0,0:0:0:0:
127,98,209017,1,0,0:0:0:0:
86,78,209183,2,0,P|85:40|100:7,2,75,2|0|0,0:0|0:0|0:0,0:0:0:0:
126,100,210183,1,0,0:0:0:0:
127,98,210350,1,0,0:0:0:0:
169,117,210517,2,0,P|194:112|219:114,1,37.5,2|2,0:0|0:0,0:0:0:0:
166,70,210850,5,0,0:0:0:0:
167,68,211017,1,0,0:0:0:0:
208,51,211183,2,0,P|233:56|258:54,1,37.5,2|0,0:0|0:0,0:0:0:0:
235,10,211517,5,0,0:0:0:0:
280,2,211683,1,0,0:0:0:0:
325,9,211850,1,2,0:0:0:0:
364,31,212183,1,0,0:0:0:0:
393,65,212517,1,0,0:0:0:0:
408,107,212850,1,0,0:0:0:0:
408,152,213183,1,2,0:0:0:0:
361,116,213350,5,0,0:0:0:0:
393,65,213517,2,0,P|397:35|392:9,1,56.25
430,36,213850,2,0,P|460:40|503:28,1,75,2|0,0:0|0:0,0:0:0:0:
511,122,214550,5,2,0:0:0:0:
503,143,214883,1,0,0:0:0:0:
496,164,215216,1,0,0:0:0:0:
489,185,215550,1,0,0:0:0:0:
483,236,215883,1,2,0:0:0:0:
462,228,216216,1,0,0:0:0:0:
441,221,216550,1,0,0:0:0:0:
420,214,216883,1,0,0:0:0:0:
369,208,217216,5,2,0:0:0:0:
377,187,217550,1,0,0:0:0:0:
391,145,217883,1,0,0:0:0:0:
384,166,218216,1,0,0:0:0:0:
369,208,218550,1,0,0:0:0:0:
348,200,218883,1,0,0:0:0:0:
327,193,219216,1,0,0:0:0:0:
306,186,219550,1,0,0:0:0:0:
253,187,219849,6,0,P|287:206|298:285,1,112.5,2|0,0:0|0:0,0:0:0:0:
288,291,220515,1,0,0:0:0:0:
272,307,220849,1,0,0:0:0:0:
257,324,221183,1,0,0:0:0:0:
242,341,221849,1,0,0:0:0:0:
151,364,222516,5,2,1:2:0:0:
131,353,222849,1,0,0:0:0:0:
111,342,223182,1,0,0:0:0:0:
55,357,223516,1,2,0:0:0:0:
54,334,223849,1,0,0:0:0:0:
54,311,224182,1,0,0:0:0:0:
13,270,224516,1,0,1:0:0:0:
32,257,224849,1,0,0:0:0:0:
92,260,225182,5,2,0:0:0:0:
111,248,225516,1,0,0:0:0:0:
156,232,225849,2,0,P|139:209|143:176,1,56.25,2|0,1:2|0:0,0:0:0:0:
154,165,226182,1,0,0:0:0:0:
157,163,226349,1,0,1:0:0:0:
203,150,226516,1,2,1:2:0:0:
162,96,226849,1,0,0:0:0:0:
176,78,227016,1,0,0:0:0:0:
131,57,227182,1,2,3:2:0:0:
122,35,227349,1,0,3:0:0:0:
83,60,227516,1,2,3:2:0:0:
15,28,227849,1,4,0:0:0:0:
