osu file format v14

[General]
AudioFilename: audio.mp3
AudioLeadIn: 0
PreviewTime: 134191
Countdown: 0
SampleSet: Soft
StackLeniency: 0
Mode: 0
LetterboxInBreaks: 0
WidescreenStoryboard: 1

[Editor]
Bookmarks: 22636,43969,54636,70636,81303,107969,129303,134636,139969,150636,155969,161303,171969,182636,214636,227969
DistanceSpacing: 0.5
BeatDivisor: 6
GridSize: 4
TimelineZoom: 1.4

[Metadata]
Title:Ringo Biyori ~The Wolf Whistling Song x Get Low (feat. Ying Yang Twins)
TitleUnicode:リンゴ日和 ~The Wolf Whistling Song x Get Low (feat. Ying Yang Twins)
Artist:ROCKY CHACK, Lil Jon & The East Side Boyz
ArtistUnicode:ROCKY CHACK, Lil Jon & The East Side Boyz
Creator:Deramok
Version:Fine Dog Lady
Source:狼と香辛料
Tags:nautzz spice and wolf ookami to koushinryou Rap-Bit whistle ロッキー・チャック mashup mash up hiyori hip hop anime novelty english pop jpop
BeatmapID:2224514
BeatmapSetID:1062345

[Difficulty]
HPDrainRate:5
CircleSize:9
OverallDifficulty:8
ApproachRate:7
SliderMultiplier:1.5
SliderTickRate:1

[Events]
//Background and Video events
0,0,"horo.jpg",0,0
//Break Periods
//Storyboard Layer 0 (Background)
//Storyboard Layer 1 (Fail)
//Storyboard Layer 2 (Pass)
//Storyboard Layer 3 (Foreground)
//Storyboard Layer 4 (Overlay)
//Storyboard Sound Samples

[TimingPoints]
200,666.666666666667,4,2,0,70,1,0
1200,631.578947368421,4,2,0,70,1,0
2525,666.666666666667,4,2,0,70,1,0
3828,666.666666666667,4,2,0,70,1,0
5494,720.00288001152,4,2,0,70,1,0
5854,677.966101694915,4,2,0,70,1,0
6526,666.666666666667,4,2,0,70,1,0
10548,674.157303370787,4,2,0,70,1,0
11557,645.161290322581,4,2,0,70,1,0
13199,666.666666666667,4,2,0,70,1,0
14517,666.666666666667,4,2,0,70,1,0
21435,-100,4,2,2,5,0,0
21518,-100,4,2,0,70,0,0
22517,666.666666666667,4,2,0,70,1,0
22768,-100,4,2,2,5,0,0
22851,-100,4,2,0,70,0,0
23101,-100,4,2,2,5,0,0
23185,-100,4,2,0,70,0,0
24101,-100,4,2,2,5,0,0
24185,-100,4,2,0,70,0,0
24435,-100,4,2,2,5,0,0
24518,-100,4,2,0,70,0,0
26768,-100,4,2,2,5,0,0
26851,-100,4,2,0,70,0,0
27101,-100,4,2,2,5,0,0
27185,-100,4,2,0,70,0,0
33435,-100,4,2,2,5,0,0
33518,-100,4,2,0,70,0,0
35351,-100,4,2,2,5,0,0
35518,-100,4,2,0,70,0,0
40435,-100,4,2,2,5,0,0
40518,-100,4,2,0,70,0,0
40768,-100,4,2,2,5,0,0
40851,-100,4,2,0,70,0,0
44101,-100,4,2,2,5,0,0
44185,-100,4,2,0,70,0,0
44435,-100,4,2,2,5,0,0
44518,-100,4,2,0,70,0,0
44768,-100,4,2,2,5,0,0
44851,-100,4,2,0,70,0,0
45101,-100,4,2,2,5,0,0
45185,-100,4,2,0,70,0,0
45768,-100,4,2,2,5,0,0
45851,-100,4,2,0,70,0,0
46768,-100,4,2,2,5,0,0
46851,-100,4,2,0,70,0,0
47101,-100,4,2,2,5,0,0
47185,-100,4,2,0,70,0,0
47435,-100,4,2,2,5,0,0
47518,-100,4,2,0,70,0,0
47768,-100,4,2,2,5,0,0
47851,-100,4,2,0,70,0,0
48435,-100,4,2,2,5,0,0
48518,-100,4,2,0,70,0,0
48768,-100,4,2,2,5,0,0
48851,-100,4,2,0,70,0,0
49435,-100,4,2,2,5,0,0
49518,-100,4,2,0,70,0,0
52101,-100,4,2,2,5,0,0
52185,-100,4,2,0,70,0,0
53768,-100,4,2,2,5,0,0
53851,-100,4,2,0,70,0,0
54101,-100,4,2,2,5,0,0
54185,-100,4,2,0,70,0,0
57435,-100,4,2,2,5,0,0
57518,-100,4,2,0,70,0,0
57768,-100,4,2,2,5,0,0
57851,-100,4,2,0,70,0,0
58768,-100,4,2,2,5,0,0
58851,-100,4,2,0,70,0,0
59101,-100,4,2,2,5,0,0
59185,-100,4,2,0,70,0,0
59435,-100,4,2,2,5,0,0
59518,-100,4,2,0,70,0,0
62101,-100,4,2,2,5,0,0
62185,-100,4,2,0,70,0,0
62768,-100,4,2,2,5,0,0
62851,-100,4,2,0,70,0,0
63768,-100,4,2,2,5,0,0
63851,-100,4,2,0,70,0,0
70101,-100,4,2,2,5,0,0
70185,-100,4,2,0,70,0,0
73435,-100,4,2,2,5,0,0
73518,-100,4,2,0,70,0,0
74101,-100,4,2,2,5,0,0
74185,-100,4,2,0,70,0,0
74768,-100,4,2,2,5,0,0
74851,-100,4,2,0,70,0,0
75101,-100,4,2,2,5,0,0
75185,-100,4,2,0,70,0,0
80101,-100,4,2,2,5,0,0
80185,-100,4,2,0,70,0,0
82351,-100,4,2,2,5,0,0
82518,-100,4,2,0,70,0,0
82768,-100,4,2,2,5,0,0
82851,-100,4,2,0,70,0,0
83294,-100,4,2,2,5,0,0
83405,-100,4,2,0,70,0,0
84768,-100,4,2,2,5,0,0
84851,-100,4,2,0,70,0,0
85101,-100,4,2,2,5,0,0
85185,-100,4,2,0,70,0,0
88435,-100,4,2,2,5,0,0
88518,-100,4,2,0,70,0,0
89435,-100,4,2,2,5,0,0
89518,-100,4,2,0,70,0,0
89768,-100,4,2,2,5,0,0
89851,-100,4,2,0,70,0,0
90768,-100,4,2,2,5,0,0
90851,-100,4,2,0,70,0,0
91101,-100,4,2,2,5,0,0
91185,-100,4,2,0,70,0,0
91435,-100,4,2,2,5,0,0
91518,-100,4,2,0,70,0,0
91768,-100,4,2,2,5,0,0
91851,-100,4,2,0,70,0,0
93101,-100,4,2,2,5,0,0
93185,-100,4,2,0,70,0,0
95768,-100,4,2,2,5,0,0
95851,-100,4,2,0,70,0,0
96101,-100,4,2,2,5,0,0
96185,-100,4,2,0,70,0,0
96601,-100,4,2,2,5,0,0
96685,-100,4,2,0,70,0,0
98101,-100,4,2,2,5,0,0
98185,-100,4,2,0,70,0,0
98768,-100,4,2,2,5,0,0
98851,-100,4,2,0,70,0,0
99101,-100,4,2,2,5,0,0
99185,-100,4,2,0,70,0,0
99768,-100,4,2,2,5,0,0
99851,-100,4,2,0,70,0,0
100267,-100,4,2,2,5,0,0
100350,-100,4,2,0,70,0,0
104768,-100,4,2,2,5,0,0
104851,-100,4,2,0,70,0,0
106768,-100,4,2,2,5,0,0
106851,-100,4,2,0,70,0,0
108101,-100,4,2,2,5,0,0
108185,-100,4,2,0,70,0,0
108435,-100,4,2,2,5,0,0
108518,-100,4,2,0,70,0,0
109435,-100,4,2,2,5,0,0
109518,-100,4,2,0,70,0,0
109768,-100,4,2,2,5,0,0
109851,-100,4,2,0,70,0,0
110101,-100,4,2,2,5,0,0
110185,-100,4,2,0,70,0,0
112101,-100,4,2,2,5,0,0
112185,-100,4,2,0,70,0,0
118768,-100,4,2,2,5,0,0
118851,-100,4,2,0,70,0,0
120685,-100,4,2,2,5,0,0
120851,-100,4,2,0,70,0,0
124101,-100,4,2,2,5,0,0
124185,-100,4,2,0,70,0,0
124435,-100,4,2,2,5,0,0
124518,-100,4,2,0,70,0,0
124768,-100,4,2,2,5,0,0
124851,-100,4,2,0,70,0,0
125101,-100,4,2,2,5,0,0
125185,-100,4,2,0,70,0,0
126768,-100,4,2,2,5,0,0
126851,-100,4,2,0,70,0,0
127101,-100,4,2,2,5,0,0
127185,-100,4,2,0,70,0,0
127435,-100,4,2,2,5,0,0
127518,-100,4,2,0,70,0,0
127850,645.161290322581,4,2,0,70,1,0
128817,732.600732600733,4,2,0,70,1,0
128817,-200,4,2,0,70,0,0
129061,-100,4,2,2,5,0,0
129183,666.666666666667,4,2,0,70,1,0
139101,-100,4,2,2,5,0,0
139185,-100,4,2,0,70,0,0
140768,-100,4,2,2,5,0,0
140851,-100,4,2,0,70,0,0
141435,-100,4,2,2,5,0,0
141518,-100,4,2,0,70,0,0
141768,-100,4,2,2,5,0,0
141851,-100,4,2,0,70,0,0
142101,-100,4,2,2,5,0,0
142185,-100,4,2,0,70,0,0
142768,-100,4,2,2,5,0,0
142851,-100,4,2,0,70,0,0
143435,-100,4,2,2,5,0,0
143518,-100,4,2,0,70,0,0
143768,-100,4,2,2,5,0,0
143851,-100,4,2,0,70,0,0
144101,-100,4,2,2,5,0,0
144185,-100,4,2,0,70,0,0
144435,-100,4,2,2,5,0,0
144518,-100,4,2,0,70,0,0
144768,-100,4,2,2,5,0,0
144851,-100,4,2,0,70,0,0
146435,-100,4,2,2,5,0,0
146518,-100,4,2,0,70,0,0
146768,-100,4,2,2,5,0,0
146851,-100,4,2,0,70,0,0
147101,-100,4,2,2,5,0,0
147185,-100,4,2,0,70,0,0
147435,-100,4,2,2,5,0,0
147518,-100,4,2,0,70,0,0
149101,-100,4,2,2,5,0,0
149185,-100,4,2,0,70,0,0
149435,-100,4,2,2,5,0,0
149518,-100,4,2,0,70,0,0
149768,-100,4,2,2,5,0,0
149851,-100,4,2,0,70,0,0
150101,-100,4,2,2,5,0,0
150185,-100,4,2,0,70,0,0
152768,-100,4,2,2,5,0,0
152851,-100,4,2,0,70,0,0
153435,-100,4,2,2,5,0,0
153518,-100,4,2,0,70,0,0
154101,-100,4,2,2,5,0,0
154185,-100,4,2,0,70,0,0
154768,-100,4,2,2,5,0,0
154851,-100,4,2,0,70,0,0
156101,-100,4,2,2,5,0,0
156185,-100,4,2,0,70,0,0
156435,-100,4,2,2,5,0,0
156518,-100,4,2,0,70,0,0
157435,-100,4,2,2,5,0,0
157518,-100,4,2,0,70,0,0
157768,-100,4,2,2,5,0,0
157851,-100,4,2,0,70,0,0
158101,-100,4,2,2,5,0,0
158185,-100,4,2,0,70,0,0
158768,-100,4,2,2,5,0,0
158851,-100,4,2,0,70,0,0
159435,-100,4,2,2,5,0,0
159518,-100,4,2,0,70,0,0
160101,-100,4,2,2,5,0,0
160185,-100,4,2,0,70,0,0
160435,-100,4,2,2,5,0,0
160518,-100,4,2,0,70,0,0
160768,-100,4,2,2,5,0,0
160851,-100,4,2,0,70,0,0
161101,-100,4,2,2,5,0,0
161185,-100,4,2,0,70,0,0
161435,-100,4,2,2,5,0,0
161518,-100,4,2,0,70,0,0
161768,-100,4,2,2,5,0,0
161851,-100,4,2,0,70,0,0
162435,-100,4,2,2,5,0,0
162518,-100,4,2,0,70,0,0
163101,-100,4,2,2,5,0,0
163185,-100,4,2,0,70,0,0
163768,-100,4,2,2,5,0,0
163851,-100,4,2,0,70,0,0
164101,-100,4,2,2,5,0,0
164185,-100,4,2,0,70,0,0
164435,-100,4,2,2,5,0,0
164518,-100,4,2,0,70,0,0
165101,-100,4,2,2,5,0,0
165185,-100,4,2,0,70,0,0
165768,-100,4,2,2,5,0,0
165851,-100,4,2,0,70,0,0
166435,-100,4,2,2,5,0,0
166518,-100,4,2,0,70,0,0
166768,-100,4,2,2,5,0,0
166851,-100,4,2,0,70,0,0
167101,-100,4,2,2,5,0,0
167185,-100,4,2,0,70,0,0
167768,-100,4,2,2,5,0,0
167851,-100,4,2,0,70,0,0
168435,-100,4,2,2,5,0,0
168518,-100,4,2,0,70,0,0
169101,-100,4,2,2,5,0,0
169185,-100,4,2,0,70,0,0
169435,-100,4,2,2,5,0,0
169518,-100,4,2,0,70,0,0
169768,-100,4,2,2,5,0,0
169851,-100,4,2,0,70,0,0
170435,-100,4,2,2,5,0,0
170518,-100,4,2,0,70,0,0
171101,-100,4,2,2,5,0,0
171185,-100,4,2,0,70,0,0
171768,-100,4,2,2,5,0,0
171851,-100,4,2,0,70,0,0
172101,-100,4,2,2,5,0,0
172185,-100,4,2,0,70,0,0
172435,-100,4,2,2,5,0,0
172518,-100,4,2,0,70,0,0
172768,-100,4,2,2,5,0,0
172851,-100,4,2,0,70,0,0
173101,-100,4,2,2,5,0,0
173185,-100,4,2,0,70,0,0
174101,-100,4,2,2,5,0,0
174185,-100,4,2,0,70,0,0
174435,-100,4,2,2,5,0,0
174518,-100,4,2,0,70,0,0
174768,-100,4,2,2,5,0,0
174851,-100,4,2,0,70,0,0
175101,-100,4,2,2,5,0,0
175185,-100,4,2,0,70,0,0
175435,-100,4,2,2,5,0,0
175518,-100,4,2,0,70,0,0
176768,-100,4,2,2,5,0,0
176851,-100,4,2,0,70,0,0
177101,-100,4,2,2,5,0,0
177185,-100,4,2,0,70,0,0
177435,-100,4,2,2,5,0,0
177518,-100,4,2,0,70,0,0
177768,-100,4,2,2,5,0,0
177851,-100,4,2,0,70,0,0
178101,-100,4,2,2,5,0,0
178185,-100,4,2,0,70,0,0
178435,-100,4,2,2,5,0,0
178518,-100,4,2,0,70,0,0
179435,-100,4,2,2,5,0,0
179518,-100,4,2,0,70,0,0
179768,-100,4,2,2,5,0,0
179851,-100,4,2,0,70,0,0
180101,-100,4,2,2,5,0,0
180185,-100,4,2,0,70,0,0
180435,-100,4,2,2,5,0,0
180518,-100,4,2,0,70,0,0
180768,-100,4,2,2,5,0,0
180851,-100,4,2,0,70,0,0
181101,-100,4,2,2,5,0,0
181185,-100,4,2,0,70,0,0
193435,-100,4,2,2,5,0,0
193518,-100,4,2,0,70,0,0
195351,-100,4,2,2,5,0,0
195518,-100,4,2,0,70,0,0
200435,-100,4,2,2,5,0,0
200518,-100,4,2,0,70,0,0
200768,-100,4,2,2,5,0,0
200851,-100,4,2,0,70,0,0
203435,-100,4,2,2,5,0,0
203518,-100,4,2,0,70,0,0
208435,-100,4,2,2,5,0,0
208518,-100,4,2,0,70,0,0
208768,-100,4,2,2,5,0,0
208851,-100,4,2,0,70,0,0
213768,-100,4,2,2,5,0,0
213851,-100,4,2,0,70,0,0
214101,-100,4,2,2,5,0,0
214185,-100,4,2,0,70,0,0
214550,666.666666666667,4,2,0,70,1,0
219849,666.666666666667,4,2,0,70,1,0
222516,666.666666666667,4,2,0,70,1,0

[Colours]
Combo1 : 232,189,40
Combo2 : 196,81,118
Combo3 : 137,177,78
Combo4 : 218,91,31

[HitObjects]
23,324,200,6,0,P|37:314|50:310,1,18.75
51,309,367,1,0,0:0:0:0:
52,310,450,1,0,0:0:0:0:
67,312,534,1,2,0:0:0:0:
87,331,867,1,2,0:0:0:0:
92,371,1200,5,2,0:0:0:0:
106,366,1515,1,0,0:0:0:0:
120,361,1831,1,0,0:0:0:0:
130,335,2147,1,0,0:0:0:0:
150,357,2525,2,0,P|167:336|170:287,1,75,2|0,0:0|0:0,0:0:0:0:
183,343,3192,2,0,P|215:361|251:358,1,75,2|0,0:0|0:0,0:0:0:0:
312,374,3828,5,2,0:0:0:0:
326,369,4162,1,0,0:0:0:0:
340,364,4495,1,0,0:0:0:0:
353,369,4828,5,0,0:0:0:0:
389,355,5162,1,0,0:0:0:0:
393,373,5495,1,0,0:0:0:0:
392,372,5584,1,0,0:0:0:0:
391,371,5674,1,0,0:0:0:0:
390,370,5764,1,0,0:0:0:0:
367,361,5854,1,2,0:0:0:0:
411,363,6192,1,2,0:0:0:0:
455,365,6526,5,2,0:0:0:0:
441,370,6859,1,0,0:0:0:0:
427,375,7192,1,0,0:0:0:0:
426,347,7526,1,0,0:0:0:0:
413,321,7859,2,0,P|455:313|477:282,1,75,2|0,0:0|0:0,0:0:0:0:
453,248,8526,2,0,P|438:288|454:322,1,75,2|0,0:0|0:0,0:0:0:0:
487,259,9192,5,2,0:0:0:0:
481,245,9525,1,0,0:0:0:0:
475,231,9858,1,0,0:0:0:0:
477,216,10192,1,0,0:0:0:0:
485,171,10548,1,2,0:0:0:0:
479,190,10885,1,0,0:0:0:0:
480,189,10969,1,0,0:0:0:0:
481,188,11053,1,0,0:0:0:0:
482,187,11137,1,0,0:0:0:0:
506,183,11222,1,2,0:0:0:0:
485,143,11557,1,2,0:0:0:0:
464,103,11880,5,2,0:0:0:0:
470,89,12202,1,0,0:0:0:0:
476,75,12525,1,0,0:0:0:0:
449,71,12847,1,0,0:0:0:0:
420,45,13199,1,2,0:0:0:0:
412,58,13532,1,0,0:0:0:0:
448,41,13865,1,2,0:0:0:0:
429,18,14200,1,0,0:0:0:0:
377,55,14517,5,2,0:0:0:0:
371,69,14849,1,0,0:0:0:0:
365,83,15183,1,0,0:0:0:0:
368,97,15516,1,0,0:0:0:0:
406,118,15849,2,0,P|392:138|389:194,1,75
388,186,16266,1,0,0:0:0:0:
389,185,16349,1,0,0:0:0:0:
390,184,16433,1,0,0:0:0:0:
405,185,16516,2,0,P|386:217|386:254,1,75,2|0,0:0|0:0,0:0:0:0:
414,316,17182,5,2,0:0:0:0:
408,330,17516,1,0,0:0:0:0:
402,344,17849,1,0,0:0:0:0:
373,352,18183,1,0,0:0:0:0:
360,317,18516,1,2,0:0:0:0:
374,314,18849,1,0,0:0:0:0:
373,352,19183,1,2,0:0:0:0:
344,360,19516,1,0,0:0:0:0:
286,376,19849,5,2,0:0:0:0:
292,362,20182,1,0,0:0:0:0:
253,353,20516,1,2,0:0:0:0:
246,339,20849,1,0,0:0:0:0:
265,301,21183,2,0,P|280:271|312:253,1,56.25,2|0,0:0|0:0,0:0:0:0:
318,255,21516,5,8,3:0:0:0:
346,259,21683,1,0,3:0:0:0:
352,218,21849,1,0,3:0:0:0:
344,219,22016,1,0,3:0:0:0:
338,224,22183,1,0,3:0:0:0:
335,231,22349,1,0,3:0:0:0:
388,212,22517,6,0,P|372:188|342:169,1,56.25,4|0,0:0|0:0,0:0:0:0:
316,157,22849,2,0,P|343:159|368:172,1,56.25
332,138,23183,2,0,P|304:140|256:176,1,75,0|0,1:0|0:0,0:0:0:0:
183,195,23849,6,0,P|201:174|212:148,1,56.25
248,123,24183,2,0,P|239:96|222:74,1,56.25
218,30,24516,2,0,P|190:24|139:39,1,75,0|0,1:0|0:0,0:0:0:0:
126,58,25016,1,0,0:0:0:0:
71,57,25183,5,2,0:0:0:0:
60,29,25349,1,0,0:0:0:0:
88,18,25516,1,0,0:0:0:0:
99,46,25683,1,0,0:0:0:0:
47,74,25849,1,2,1:2:0:0:
74,86,26016,1,0,0:0:0:0:
44,79,26183,1,2,0:0:0:0:
71,91,26349,1,0,0:0:0:0:
127,96,26516,6,0,P|98:117|86:152,1,56.25,2|0,0:3|0:0,0:0:0:0:
41,145,26849,2,0,P|70:166|82:201,1,56.25
83,226,27183,1,2,1:2:0:0:
104,202,27516,1,0,0:0:0:0:
61,250,27850,6,0,P|55:283|62:330,2,75,2|0|0,0:0|0:0|1:0,0:0:0:0:
130,217,28849,5,0,0:0:0:0:
114,293,29183,1,2,0:0:0:0:
144,293,29516,1,0,0:0:0:0:
130,217,29849,1,2,1:2:0:0:
160,217,30183,1,0,0:0:0:0:
99,262,30516,1,2,0:0:0:0:
99,232,30849,1,0,0:0:0:0:
175,248,31183,1,2,1:2:0:0:
175,278,31516,1,0,0:0:0:0:
99,322,31849,1,2,0:3:0:0:
99,292,32183,1,0,0:0:0:0:
24,231,32516,1,2,1:2:0:0:
24,261,32849,5,2,0:0:0:0:
24,291,33016,1,2,0:0:0:0:
5,349,33183,2,0,P|31:332|59:330,1,56.25,2|0,0:0|0:0,0:0:0:0:
82,366,33516,2,2,P|61:305|213:11,1,412.5,2|0,0:0|0:0,0:0:0:0:
244,15,35516,5,2,0:0:0:0:
273,42,35683,1,2,0:0:0:0:
208,27,35849,2,0,P|175:45|138:76,1,75,2|0,0:0|0:0,0:0:0:0:
201,62,36516,1,0,1:0:0:0:
237,50,36849,5,0,0:0:0:0:
266,77,37016,1,0,0:0:0:0:
201,62,37183,2,0,P|168:80|131:111,1,75,2|0,0:3|0:0,0:0:0:0:
128,132,37849,1,0,1:2:0:0:
140,194,38183,5,0,0:0:0:0:
145,176,38349,1,0,0:0:0:0:
164,220,38516,1,2,0:0:0:0:
132,240,38849,1,0,0:0:0:0:
100,260,39183,1,0,1:0:0:0:
68,280,39516,1,0,0:0:0:0:
37,301,39849,1,2,0:0:0:0:
43,352,40183,6,0,P|56:330|82:316,1,56.25
50,379,40517,2,0,P|54:353|74:331,1,56.25,0|0,1:0|0:0,0:0:0:0:
116,333,40849,5,0,0:0:0:0:
127,344,41016,1,0,0:0:0:0:
169,289,41183,2,0,P|158:324|127:344,1,75,2|0,0:0|1:0,0:0:0:0:
164,338,41849,1,0,0:0:0:0:
201,333,42183,1,0,1:0:0:0:
238,328,42516,5,2,0:3:0:0:
224,363,42849,1,0,3:0:0:0:
287,307,43183,1,0,3:0:0:0:
273,342,43349,1,0,3:0:0:0:
259,377,43516,5,0,3:0:0:0:
254,363,43683,1,0,3:0:0:0:
295,320,43849,2,0,P|275:340|249:349,1,56.25,6|0,0:0|0:0,0:0:0:0:
302,286,44183,2,0,P|321:305|330:332,1,56.25
267,279,44517,2,0,P|286:259|313:250,1,56.25,2|0,1:2|0:0,0:0:0:0:
261,314,44850,2,0,P|241:294|232:267,1,56.25
238,239,45183,1,2,0:0:0:0:
284,207,45350,2,0,P|275:180|218:152,1,93.75,2|0,0:0|0:0,0:0:0:0:
193,165,45849,1,0,1:0:0:0:
238,239,46016,1,0,0:0:0:0:
216,202,46183,5,0,0:0:0:0:
219,187,46349,1,0,0:0:0:0:
158,182,46516,2,0,P|177:201|186:228,1,56.25,2|0,0:0|0:0,0:0:0:0:
204,251,46850,2,0,P|184:270|157:279,1,56.25
135,297,47183,2,0,P|115:277|106:250,1,56.25,2|0,1:2|0:0,0:0:0:0:
89,228,47517,2,0,P|108:208|135:199,1,56.25
158,182,47849,1,0,0:0:0:0:
147,240,48016,5,2,0:0:0:0:
130,169,48183,2,0,L|90:114,1,56.25
128,158,48516,2,0,L|88:103,1,56.25,0|0,1:0|0:0,0:0:0:0:
79,87,48849,5,0,0:0:0:0:
70,74,49016,1,0,0:0:0:0:
101,24,49183,2,0,P|77:53|46:63,1,56.25,2|0,0:0|0:0,0:0:0:0:
32,52,49516,1,0,0:0:0:0:
103,70,49849,1,2,1:2:0:0:
40,108,50183,1,0,0:0:0:0:
57,113,50349,1,0,0:0:0:0:
111,126,50516,1,2,0:0:0:0:
71,89,50683,1,2,0:0:0:0:
80,145,50849,5,0,0:0:0:0:
97,150,51016,1,0,0:0:0:0:
151,163,51183,1,0,1:0:0:0:
111,126,51349,1,2,0:0:0:0:
182,144,51516,5,4,0:0:0:0:
196,138,51683,1,0,0:0:0:0:
221,78,51850,2,0,P|209:103|209:131,1,56.25,2|0,0:0|0:0,0:0:0:0:
229,152,52183,1,0,0:0:0:0:
265,159,52516,1,0,1:0:0:0:
301,166,52849,1,4,1:2:0:0:
337,174,53183,1,2,0:0:0:0:
326,139,53349,5,2,0:0:0:0:
371,92,53517,2,0,L|362:146,1,56.25
380,85,53850,2,0,L|371:139,1,56.25
373,182,54183,5,0,3:0:0:0:
337,174,54349,1,0,3:0:0:0:
410,156,54516,2,0,P|432:187|436:231,1,75,6|0,0:0|0:0,0:0:0:0:
420,256,55183,1,0,1:0:0:0:
457,253,55516,5,0,0:0:0:0:
399,284,55849,1,2,0:0:0:0:
427,308,56183,1,0,0:0:0:0:
364,288,56516,1,2,1:2:0:0:
367,325,56849,5,0,0:0:0:0:
381,337,57016,1,0,0:0:0:0:
427,308,57183,2,0,P|404:321|395:351,1,56.25,2|0,0:0|0:0,0:0:0:0:
397,384,57517,2,0,P|420:371|429:341,1,56.25,2|0,0:0|0:0,0:0:0:0:
427,308,57849,1,0,1:0:0:0:
439,272,58016,1,0,0:0:0:0:
452,236,58183,1,0,0:0:0:0:
465,201,58349,1,0,0:0:0:0:
495,125,58516,2,0,P|472:138|463:168,1,56.25,2|0,0:0|0:0,0:0:0:0:
465,201,58849,2,0,P|488:188|497:158,1,56.25,2|0,0:0|0:0,0:0:0:0:
485,112,59183,2,0,P|462:125|453:155,1,56.25,2|0,1:2|0:0,0:0:0:0:
502,134,59516,5,0,0:0:0:0:
512,117,59683,1,0,0:0:0:0:
482,68,59849,2,0,P|473:32|492:-2,1,75,2|0,0:0|0:0,0:0:0:0:
512,38,60516,1,0,1:0:0:0:
440,72,60849,5,0,0:0:0:0:
482,68,61183,1,2,0:0:0:0:
457,33,61516,1,0,0:0:0:0:
423,111,61850,2,0,P|439:78|434:47,1,56.25,2|0,1:2|0:0,0:0:0:0:
416,34,62183,5,0,0:0:0:0:
435,59,62349,1,0,0:0:0:0:
423,111,62516,2,0,P|402:80|373:69,1,56.25,2|0,0:0|0:0,0:0:0:0:
352,78,62849,1,0,0:0:0:0:
384,74,63016,1,0,0:0:0:0:
423,111,63183,2,0,P|386:113|369:125,1,50,2|0,1:2|0:0,0:0:0:0:
346,158,63516,2,0,P|313:142|282:146,1,56.25,2|0,0:0|0:0,0:0:0:0:
291,124,63849,1,0,0:0:0:0:
257,140,64016,1,0,0:0:0:0:
223,157,64183,1,2,0:0:0:0:
294,143,64516,1,2,1:2:0:0:
219,137,64849,5,4,0:0:0:0:
144,131,65183,1,0,0:0:0:0:
182,134,65404,1,2,0:0:0:0:
149,68,65738,1,0,0:0:0:0:
106,128,66071,1,2,0:0:0:0:
125,130,66183,1,0,0:0:0:0:
149,68,66516,1,0,0:0:0:0:
74,62,66849,1,0,0:0:0:0:
54,147,67183,2,0,P|87:131|124:129,2,75,2|0|0,1:2|0:0|0:0,0:0:0:0:
141,153,68071,5,0,0:0:0:0:
152,137,68183,1,2,0:0:0:0:
128,48,68516,1,0,1:0:0:0:
122,78,68683,1,2,0:0:0:0:
143,98,68849,1,2,0:0:0:0:
149,68,69016,1,0,0:0:0:0:
178,59,69183,1,2,0:0:0:0:
155,38,69349,1,0,0:0:0:0:
149,68,69516,1,2,0:0:0:0:
227,88,69849,2,0,P|199:94|172:90,1,56.25,2|0,1:2|0:0,0:0:0:0:
149,68,70183,1,0,1:0:0:0:
178,59,70349,1,0,1:0:0:0:
233,38,70516,5,4,0:0:0:0:
260,49,70683,1,0,0:0:0:0:
299,87,70849,1,0,0:0:0:0:
280,82,70961,1,0,0:0:0:0:
266,68,71072,1,0,0:0:0:0:
260,49,71183,1,2,1:2:0:0:
325,12,71516,1,0,0:0:0:0:
352,23,71683,1,0,0:0:0:0:
312,50,71850,1,2,0:0:0:0:
260,49,72183,1,0,0:0:0:0:
312,50,72405,1,2,0:2:0:0:
480,6,72849,5,0,0:0:0:0:
457,25,73016,1,0,0:0:0:0:
486,90,73183,2,0,P|474:64|490:29,1,56.25,2|0,0:0|0:0,0:0:0:0:
485,35,73516,1,0,0:0:0:0:
462,54,73683,1,0,0:0:0:0:
491,122,73850,2,0,P|479:96|495:61,1,56.25,2|0,1:2|0:0,0:0:0:0:
490,67,74183,1,0,0:0:0:0:
467,86,74349,1,0,0:0:0:0:
461,159,74516,6,0,P|473:185|456:219,1,56.25,2|0,0:0|0:0,0:0:0:0:
443,239,74850,2,0,P|431:213|447:178,1,56.25,2|0,0:0|0:0,0:0:0:0:
504,185,75183,1,2,1:2:0:0:
510,191,75516,1,0,0:0:0:0:
499,231,75683,1,0,0:0:0:0:
500,232,75766,1,0,0:0:0:0:
501,233,75849,1,2,0:3:0:0:
477,262,76016,5,0,0:0:0:0:
441,277,76183,1,0,0:0:0:0:
436,306,76349,1,0,0:0:0:0:
470,327,76516,1,2,1:2:0:0:
475,298,76683,1,0,0:0:0:0:
436,306,76849,1,0,0:0:0:0:
431,335,77016,1,0,0:0:0:0:
498,317,77183,1,2,0:0:0:0:
475,298,77349,1,0,0:0:0:0:
470,327,77516,1,0,0:0:0:0:
465,356,77683,1,0,0:0:0:0:
502,288,77849,1,2,1:2:0:0:
494,276,78183,1,0,0:0:0:0:
486,264,78516,1,0,0:0:0:0:
441,277,78683,5,0,0:0:0:0:
408,259,78849,1,0,0:0:0:0:
378,266,79016,1,0,0:0:0:0:
359,308,79183,1,2,1:2:0:0:
329,315,79349,1,0,0:0:0:0:
299,322,79516,1,0,0:0:0:0:
264,294,79683,1,0,1:0:0:0:
294,352,79849,2,0,P|320:344|330:319,1,56.25,2|0,1:2|0:0,0:0:0:0:
329,315,80183,1,0,1:0:0:0:
299,322,80349,1,0,0:0:0:0:
283,263,80516,5,2,1:2:0:0:
251,244,80683,1,0,3:0:0:0:
232,275,80849,1,0,1:0:0:0:
264,294,81016,1,0,3:0:0:0:
244,335,81183,5,4,0:0:0:0:
215,343,81349,1,0,0:0:0:0:
186,351,81516,1,0,0:0:0:0:
157,359,81683,2,0,P|178:365|193:385,1,37.5,2|0,0:0|1:0,0:0:0:0:
121,377,82016,2,0,P|119:354|148:299,1,75,2|0,0:0|0:0,0:0:0:0:
141,221,82517,2,0,P|143:244|126:285,1,56.25,2|0,0:0|0:0,0:0:0:0:
109,294,82849,1,0,0:0:0:0:
97,253,83072,2,0,P|83:274|65:290,1,50,2|0,0:0|1:0,0:0:0:0:
109,294,83405,1,0,0:0:0:0:
135,190,83849,5,0,0:0:0:0:
141,221,84016,1,0,0:0:0:0:
172,215,84183,1,0,0:0:0:0:
178,246,84349,1,0,0:0:0:0:
257,216,84516,2,0,P|232:209|198:217,1,56.25,2|0,1:2|0:0,0:0:0:0:
256,227,84849,2,0,P|231:220|197:228,1,56.25,2|0,0:0|0:0,0:0:0:0:
255,238,85183,5,2,0:3:0:0:
291,197,85516,1,0,0:0:0:0:
273,181,85683,1,0,0:0:0:0:
256,165,85849,1,2,1:2:0:0:
268,133,86183,1,0,0:0:0:0:
265,123,86516,1,0,0:0:0:0:
267,93,86683,5,0,0:0:0:0:
240,62,86849,1,0,0:0:0:0:
269,64,87016,1,0,0:0:0:0:
242,33,87183,1,2,1:2:0:0:
171,7,87516,1,0,0:0:0:0:
96,19,87849,1,0,0:0:0:0:
123,31,88016,1,0,0:0:0:0:
69,7,88183,2,0,P|35:3|9:11,1,56.25,2|0,0:0|0:0,0:0:0:0:
0,34,88516,1,2,1:2:0:0:
2,47,88683,1,0,0:0:0:0:
30,34,88849,1,0,0:0:0:0:
49,108,89016,5,2,0:0:0:0:
7,116,89183,2,0,P|10:87|29:63,1,56.25,2|0,0:0|0:0,0:0:0:0:
18,120,89517,2,0,P|21:91|40:67,1,56.25
65,59,89849,1,0,1:0:0:0:
94,61,90016,1,0,0:0:0:0:
113,82,90183,1,0,0:0:0:0:
111,111,90349,1,0,0:0:0:0:
78,154,90516,2,0,P|75:125|56:101,1,56.25,2|0,0:3|0:0,0:0:0:0:
67,158,90850,2,0,P|64:129|45:105,1,56.25,2|0,0:0|0:0,0:0:0:0:
56,162,91183,2,0,P|53:133|34:109,1,56.25,2|0,1:2|0:0,0:0:0:0:
26,115,91516,6,0,P|42:138|45:166,1,56.25,4|0,0:0|0:0,0:0:0:0:
4,207,91849,1,2,0:0:0:0:
30,191,92017,1,0,0:0:0:0:
60,191,92183,1,0,0:0:0:0:
86,204,92350,2,0,P|98:223|102:242,1,37.5,0|0,0:0|1:0,0:0:0:0:
45,272,92850,2,0,P|44:244|29:220,1,56.25
4,207,93183,1,2,0:0:0:0:
50,305,93516,1,2,0:0:0:0:
76,284,93683,1,0,0:0:0:0:
3,377,94183,5,0,0:0:0:0:
26,359,94349,1,0,0:0:0:0:
111,361,94516,2,0,P|84:359|43:387,1,75,2|0,0:0|0:0,0:0:0:0:
144,344,95016,2,0,P|126:338|111:327,1,37.5,2|0,0:0|1:0,0:0:0:0:
104,289,95349,1,0,0:0:0:0:
159,302,95517,2,0,P|132:308|111:327,1,56.25,2|0,0:0|0:0,0:0:0:0:
183,327,95850,2,0,P|210:320|230:301,1,56.25,2|0,0:3|0:0,0:0:0:0:
236,272,96183,1,0,0:0:0:0:
224,345,96349,2,0,P|243:365|269:373,1,56.25,2|0,0:0|0:0,0:0:0:0:
275,373,96683,1,0,0:0:0:0:
300,357,96849,1,0,0:0:0:0:
373,380,97183,1,0,0:0:0:0:
344,378,97349,5,0,0:0:0:0:
360,352,97516,1,0,0:0:0:0:
376,326,97683,1,0,0:0:0:0:
438,329,97849,2,0,P|408:352|383:350,1,56.25,2|0,1:2|0:0,0:0:0:0:
376,326,98183,1,0,0:0:0:0:
392,300,98349,1,0,0:0:0:0:
434,357,98517,6,0,B|447:365|447:365|487:368,1,56.25,2|0,0:0|0:0,0:0:0:0:
482,340,98849,2,0,B|451:366|451:366|445:383,1,56.25,2|0,0:0|0:0,0:0:0:0:
415,384,99183,1,0,1:0:0:0:
446,381,99516,6,0,P|441:349|439:311,1,56.25
448,293,99849,1,2,0:0:0:0:
452,284,99933,1,2,0:0:0:0:
456,275,100017,1,2,0:0:0:0:
459,266,100100,2,0,P|476:288|488:293,1,37.5
507,250,100349,1,0,0:0:0:0:
502,269,100460,1,2,0:0:0:0:
467,227,100683,1,2,0:0:0:0:
504,192,100849,5,0,1:0:0:0:
497,220,101016,1,0,0:0:0:0:
482,170,101183,1,2,0:3:0:0:
475,198,101349,1,0,0:0:0:0:
460,148,101516,1,2,1:2:0:0:
453,176,101683,1,0,0:0:0:0:
438,126,101849,1,2,3:2:0:0:
431,154,102016,1,0,3:0:0:0:
445,149,102099,1,2,0:0:0:0:
460,148,102183,1,0,3:0:0:0:
467,120,102349,1,0,0:0:0:0:
504,192,102516,5,4,0:0:0:0:
511,164,102683,1,0,0:0:0:0:
497,220,103183,1,0,1:0:0:0:
504,192,103349,1,0,0:0:0:0:
496,179,103516,1,0,0:0:0:0:
489,167,103683,1,0,0:0:0:0:
497,220,104072,5,0,0:0:0:0:
504,192,104183,1,2,0:0:0:0:
469,228,104405,1,0,0:0:0:0:
490,248,104516,2,0,P|480:269|445:288,1,56.25,2|0,1:2|0:0,0:0:0:0:
423,284,104849,1,0,0:0:0:0:
360,330,105072,1,0,0:0:0:0:
369,359,105183,1,2,0:0:0:0:
390,321,105516,1,0,0:0:0:0:
399,351,105683,5,0,0:0:0:0:
459,350,105849,1,2,1:2:0:0:
450,320,106016,1,0,0:0:0:0:
420,329,106183,1,0,0:0:0:0:
429,358,106349,1,0,0:0:0:0:
494,377,106516,2,0,P|494:349|478:326,1,56.25,2|0,0:0|0:0,0:0:0:0:
450,320,106849,1,0,0:0:0:0:
429,358,107072,1,2,0:0:0:0:
459,350,107183,1,0,1:2:0:0:
460,267,107516,1,0,0:0:0:0:
403,211,107850,6,0,P|371:232|338:233,1,56.25
324,257,108183,2,0,P|286:249|262:226,1,56.25
235,233,108517,2,0,P|214:201|215:160,1,75,2|0,1:2|0:0,0:0:0:0:
265,184,109183,2,0,P|238:180|214:166,1,56.25
175,159,109517,2,0,P|154:127|153:94,1,56.25
129,79,109850,2,0,P|136:41|159:18,1,56.25,2|0,1:2|0:0,0:0:0:0:
151,110,110183,1,4,0:0:0:0:
116,109,110516,5,2,0:0:0:0:
88,120,110683,1,0,0:0:0:0:
89,150,110849,1,0,0:0:0:0:
118,157,111016,1,0,0:0:0:0:
88,120,111183,1,2,1:2:0:0:
89,150,111349,1,0,0:0:0:0:
118,157,111516,1,4,0:0:0:0:
136,133,111683,1,0,0:0:0:0:
150,161,111850,2,0,P|187:168|211:191,1,56.25,2|0,0:0|0:0,0:0:0:0:
239,185,112183,1,2,1:2:0:0:
259,215,112350,1,0,1:0:0:0:
218,228,112516,1,2,3:2:0:0:
212,218,112683,1,0,3:0:0:0:
223,217,112849,1,0,3:0:0:0:
190,287,113183,6,0,P|196:318|238:351,2,75,4|0|0,0:0|0:0|1:0,0:0:0:0:
204,253,114183,1,0,0:0:0:0:
174,338,114516,1,2,0:0:0:0:
116,353,114849,1,0,0:0:0:0:
45,328,115183,1,2,1:2:0:0:
102,312,115516,1,0,0:0:0:0:
151,254,115849,1,2,0:0:0:0:
93,270,116183,1,0,0:0:0:0:
22,244,116516,1,2,1:2:0:0:
80,229,116849,1,0,0:0:0:0:
129,171,117183,1,2,0:0:0:0:
71,187,117516,1,0,0:0:0:0:
0,161,117849,1,2,1:2:0:0:
58,146,118183,5,2,0:0:0:0:
24,131,118349,1,2,0:0:0:0:
62,62,118516,2,0,P|64:85|51:120,1,56.25,2|0,0:0|0:0,0:0:0:0:
10,63,118849,2,2,P|65:29|359:161,1,412.5,2|0,0:0|0:0,0:0:0:0:
391,225,120849,5,2,0:0:0:0:
357,210,121016,1,2,0:0:0:0:
388,122,121183,2,0,P|395:158|384:194,1,75,2|0,0:0|0:0,0:0:0:0:
357,210,121849,1,0,1:0:0:0:
340,202,122016,1,0,0:0:0:0:
310,224,122183,5,0,0:0:0:0:
276,209,122349,1,0,0:0:0:0:
307,121,122516,2,0,P|313:157|303:193,2,75,2|0|0,0:0|0:0|1:0,0:0:0:0:
283,103,123516,1,0,3:0:0:0:
221,159,123849,2,0,P|253:162|285:151,1,56.25,6|0,0:0|0:0,0:0:0:0:
243,128,124183,2,0,P|211:125|179:136,1,56.25
166,162,124516,2,0,P|198:165|230:154,1,56.25,2|0,1:2|0:0,0:0:0:0:
188,131,124849,2,0,P|156:128|124:139,1,56.25
166,162,125183,1,2,0:0:0:0:
188,131,125516,1,0,0:0:0:0:
144,193,125849,1,0,1:0:0:0:
166,162,126183,5,0,0:0:0:0:
169,176,126349,1,0,0:0:0:0:
208,234,126517,2,0,P|201:206|204:179,1,56.25,2|0,0:0|0:0,0:0:0:0:
241,198,126850,2,0,P|268:198|294:209,1,56.25
267,239,127183,2,0,P|259:265|242:288,1,56.25,2|0,1:2|0:0,0:0:0:0:
220,253,127516,1,0,0:0:0:0:
208,234,127683,1,0,1:0:0:0:
190,313,127849,1,2,0:0:0:0:
218,304,128011,1,0,1:0:0:0:
245,316,128172,1,0,1:0:0:0:
231,321,128333,1,0,3:0:0:0:
258,333,128495,1,0,3:0:0:0:
286,324,128656,1,0,3:0:0:0:
303,365,128817,6,0,L|277:352,1,25,0|0,3:0|0:0,0:0:0:0:
348,320,129183,1,2,0:3:0:0:
376,334,129516,1,0,0:0:0:0:
404,348,129849,1,0,0:0:0:0:
432,362,130183,1,0,0:0:0:0:
417,363,130349,1,0,0:0:0:0:
376,334,130516,1,2,0:0:0:0:
406,332,130683,1,2,0:0:0:0:
411,304,130849,5,0,0:0:0:0:
396,305,131016,1,0,0:0:0:0:
355,276,131183,1,2,0:0:0:0:
385,274,131349,1,0,0:0:0:0:
390,246,131516,6,0,L|401:204,1,37.5
453,203,131849,1,2,0:0:0:0:
426,189,132183,1,0,0:0:0:0:
399,175,132516,1,0,0:0:0:0:
372,161,132849,1,0,0:0:0:0:
344,147,133183,1,8,3:0:0:0:
370,129,133349,5,0,0:0:0:0:
346,179,133516,1,8,3:0:0:0:
354,208,133683,1,0,3:0:0:0:
399,175,133849,1,2,3:3:0:0:
385,168,134016,1,0,3:0:0:0:
344,147,134183,5,0,3:0:0:0:
329,151,134349,1,0,3:0:0:0:
272,148,134516,2,0,L|302:174,1,37.5,4|0,0:0|0:0,0:0:0:0:
218,151,134849,2,0,L|242:122,1,37.5
247,176,135183,2,0,L|277:202,1,37.5,2|0,1:2|0:0,0:0:0:0:
193,179,135516,2,0,L|217:150,1,37.5
209,207,135849,1,2,0:0:0:0:
179,209,136016,1,0,0:0:0:0:
164,182,136183,1,0,0:0:0:0:
149,183,136349,1,0,0:0:0:0:
196,234,136516,5,2,1:2:0:0:
166,236,136683,1,0,0:0:0:0:
111,266,136849,2,0,L|135:237,1,37.5,2|0,0:0|0:0,0:0:0:0:
119,295,137183,1,2,0:0:0:0:
103,237,137349,1,2,0:0:0:0:
111,266,137516,1,2,0:0:0:0:
91,289,137849,1,0,1:0:0:0:
61,283,138183,1,0,0:0:0:0:
51,254,138516,1,2,0:3:0:0:
81,260,138683,5,0,0:0:0:0:
41,306,138849,2,0,P|12:291|-13:297,1,56.25,2|0,0:0|0:0,0:0:0:0:
10,325,139183,1,2,1:2:0:0:
67,327,139349,1,0,0:0:0:0:
41,306,139516,1,0,0:0:0:0:
57,336,139683,1,0,0:0:0:0:
2,369,139849,5,2,0:0:0:0:
28,348,140016,1,2,0:0:0:0:
12,378,140183,2,0,L|18:336,1,37.5
4,257,140516,2,0,P|25:227|50:212,1,56.25,2|0,1:2|0:0,0:0:0:0:
70,213,140849,5,0,0:0:0:0:
52,190,141016,1,2,0:0:0:0:
103,134,141183,2,0,L|81:186,1,56.25,2|0,0:0|0:0,0:0:0:0:
145,134,141516,2,0,L|170:74,1,56.25
116,137,141849,2,0,L|94:189,1,56.25,2|0,1:2|0:0,0:0:0:0:
155,137,142183,5,2,0:0:0:0:
168,102,142349,1,2,0:0:0:0:
165,140,142516,2,0,P|181:164|215:177,1,56.25,2|0,0:0|0:0,0:0:0:0:
223,207,142849,1,0,0:0:0:0:
226,243,143016,1,0,0:0:0:0:
233,206,143183,2,0,P|254:186|286:182,1,56.25,2|0,1:2|0:0,0:0:0:0:
330,175,143516,6,0,L|316:234,1,56.25
303,155,143849,2,0,L|315:100,1,56.25,2|0,0:3|0:0,0:0:0:0:
330,175,144183,2,0,L|288:219,1,56.25
303,155,144516,2,0,L|341:114,1,56.25,2|0,1:2|0:0,0:0:0:0:
342,80,144849,1,0,0:0:0:0:
325,46,145016,1,0,0:0:0:0:
264,74,145183,5,2,0:0:0:0:
302,78,145349,1,0,0:0:0:0:
266,64,145516,2,0,L|250:31,1,37.5,2|0,0:0|0:0,0:0:0:0:
183,26,145849,2,0,L|199:59,1,37.5,2|0,1:2|0:0,0:0:0:0:
290,114,146183,6,0,L|265:62,1,56.25
251,136,146516,2,0,L|219:183,1,56.25,2|0,0:0|0:0,0:0:0:0:
285,170,146849,2,0,L|289:113,1,56.25
219,182,147183,2,0,L|167:206,1,56.25,2|0,1:2|0:0,0:0:0:0:
140,221,147516,5,0,0:0:0:0:
101,218,147683,1,0,0:0:0:0:
143,186,147849,2,0,L|176:169,1,37.5,2|0,0:0|0:0,0:0:0:0:
164,107,148183,1,2,0:0:0:0:
203,110,148349,1,0,0:0:0:0:
161,142,148516,2,0,L|127:158,1,37.5,2|0,1:2|0:0,0:0:0:0:
77,100,148849,6,0,L|130:117,1,56.25
65,73,149183,2,0,L|118:90,1,56.25,2|0,0:3|0:0,0:0:0:0:
148,34,149516,2,0,L|185:75,1,56.25
151,5,149849,2,0,L|188:46,1,56.25,2|0,1:2|0:0,0:0:0:0:
214,74,150183,5,0,0:0:0:0:
226,38,150349,1,0,0:0:0:0:
260,21,150516,2,0,L|302:20,1,37.5,2|0,0:0|0:0,0:0:0:0:
245,10,150849,1,2,0:0:0:0:
327,42,151183,1,0,1:0:0:0:
342,53,151516,6,0,L|384:52,1,37.5
424,85,151849,2,0,L|466:84,1,37.5,2|0,0:0|0:0,0:0:0:0:
409,74,152183,1,2,0:0:0:0:
491,106,152516,2,0,P|475:98|436:127,1,56.25,4|0,1:2|0:0,0:0:0:0:
432,142,152849,5,0,0:0:0:0:
440,171,153016,1,0,0:0:0:0:
441,111,153183,2,0,P|464:97|491:106,1,56.25,2|0,0:0|0:0,0:0:0:0:
502,156,153516,1,0,1:0:0:0:
494,185,153682,1,0,0:0:0:0:
492,125,153849,2,0,P|468:110|442:119,1,56.25,2|0,0:0|0:0,0:0:0:0:
431,169,154183,1,8,3:0:0:0:
439,198,154349,1,0,0:0:0:0:
441,138,154516,2,0,P|464:123|490:132,1,56.25,2|0,0:0|0:0,0:0:0:0:
494,185,154849,1,2,3:2:0:0:
481,183,155183,1,8,3:0:0:0:
489,195,155349,1,0,3:0:0:0:
490,214,155516,5,0,3:0:0:0:
471,242,155683,1,0,3:0:0:0:
424,275,155849,2,0,P|459:285|472:301,1,56.25,4|0,0:0|0:0,0:0:0:0:
484,337,156183,2,0,P|464:317|436:312,1,56.25
394,330,156516,1,0,1:0:0:0:
506,308,156849,5,0,0:0:0:0:
471,299,157016,1,0,0:0:0:0:
402,264,157183,2,0,P|437:255|456:262,1,56.25,2|0,0:0|0:0,0:0:0:0:
475,230,157516,2,0,P|467:202|445:184,1,56.25,2|0,0:0|0:0,0:0:0:0:
409,185,157849,2,0,P|389:204|384:232,1,56.25,0|0,1:0|0:0,0:0:0:0:
402,264,158183,5,0,0:0:0:0:
422,232,158349,1,0,0:0:0:0:
382,178,158516,2,0,P|375:204|384:231,1,56.25,2|0,0:0|0:0,0:0:0:0:
402,264,158849,1,0,0:0:0:0:
422,232,159016,1,0,0:0:0:0:
382,178,159183,2,0,P|397:162|436:155,1,56.25,2|0,1:2|0:0,0:0:0:0:
466,164,159516,1,0,0:0:0:0:
459,128,159683,1,0,0:0:0:0:
500,67,159849,2,0,P|485:83|446:90,1,56.25,2|0,0:3|0:0,0:0:0:0:
423,114,160183,2,0,P|401:114|368:92,1,56.25,2|0,0:0|0:0,0:0:0:0:
318,104,160516,2,0,P|302:88|295:49,1,56.25,0|0,1:0|0:0,0:0:0:0:
219,50,160849,2,0,P|218:28|240:-4,1,56.25
186,54,161182,6,0,P|186:75|164:108,1,56.25,2|0,0:0|0:0,0:0:0:0:
135,125,161516,2,0,P|150:102|151:74,1,56.25,2|0,0:0|0:0,0:0:0:0:
81,120,161849,1,0,1:2:0:0:
96,203,162071,1,2,0:0:0:0:
95,206,162183,2,0,P|89:179|70:158,1,56.25
34,152,162516,1,2,0:0:0:0:
59,212,162738,1,0,0:0:0:0:
95,206,162849,2,0,P|86:233|56:253,1,56.25
94,328,163183,1,2,1:2:0:0:
87,320,163516,6,0,P|112:307|147:314,1,56.25
169,357,163849,2,0,P|178:330|208:310,1,56.25
229,333,164183,2,0,P|255:321|290:328,1,56.25,2|0,0:0|0:0,0:0:0:0:
368,362,164516,1,0,1:2:0:0:
333,311,164738,1,2,0:0:0:0:
334,314,164849,2,0,P|306:311|281:323,1,56.25
262,356,165183,1,2,0:3:0:0:
274,291,165405,1,0,0:0:0:0:
242,269,165516,2,0,P|266:256|294:259,1,56.25
317,347,165849,1,2,1:2:0:0:
372,326,166183,6,0,P|395:341|406:366,1,56.25
398,300,166516,2,0,P|399:272|415:249,1,56.25
473,257,166849,2,0,P|489:234|490:206,1,56.25,2|0,0:0|0:0,0:0:0:0:
464,119,167183,1,0,1:2:0:0:
426,175,167404,1,2,0:0:0:0:
426,171,167516,2,0,P|444:191|449:219,1,56.25
412,207,167849,1,2,0:0:0:0:
401,125,168071,1,0,0:0:0:0:
366,142,168183,2,0,P|367:114|383:91,1,56.25
459,31,168516,1,2,1:2:0:0:
469,62,168849,6,0,P|441:66|420:85,1,56.25
383,91,169183,2,0,P|362:109|334:114,1,56.25
284,92,169516,2,0,P|275:118|253:136,1,56.25,2|0,0:0|0:0,0:0:0:0:
212,186,169849,1,0,1:2:0:0:
196,119,170071,1,2,0:0:0:0:
195,122,170183,2,0,P|216:104|225:77,1,56.25
217,42,170516,1,2,0:3:0:0:
154,65,170738,1,0,0:0:0:0:
146,28,170849,2,0,P|124:45|115:72,1,56.25
117,150,171183,1,2,1:2:0:0:
154,162,171516,6,0,P|132:179|123:206,1,56.25
56,232,171849,2,0,P|93:232|119:246,1,56.25,2|0,0:0|0:0,0:0:0:0:
148,232,172183,2,0,P|166:264|167:293,1,56.25
76,282,172516,2,0,P|113:282|139:296,1,56.25,2|0,1:2|0:0,0:0:0:0:
168,282,172849,2,0,P|186:314|187:343,1,56.25,2|0,0:0|0:0,0:0:0:0:
161,358,173183,1,2,0:0:0:0:
192,340,173349,1,0,0:0:0:0:
156,349,173516,1,2,0:0:0:0:
192,350,173683,1,0,0:0:0:0:
168,282,173849,2,0,P|163:254|147:231,1,56.25,2|0,1:2|0:0,0:0:0:0:
110,239,174183,2,0,P|83:229|55:231,1,56.25
79,143,174516,6,0,P|77:170|86:197,1,56.25,2|0,0:0|0:0,0:0:0:0:
121,166,174849,2,0,P|144:181|171:186,1,56.25
114,112,175183,2,0,P|112:139|121:166,1,56.25,2|0,1:2|0:0,0:0:0:0:
154,133,175516,1,0,0:0:0:0:
186,151,175683,1,0,3:0:0:0:
149,89,175849,1,2,1:3:0:0:
117,71,176016,1,0,1:0:0:0:
149,49,176183,1,2,1:2:0:0:
117,31,176349,1,0,0:0:0:0:
47,3,176516,2,0,P|56:29|54:57,1,56.25,2|0,1:2|0:0,0:0:0:0:
41,112,176849,2,0,P|59:90|84:78,1,56.25
149,14,177183,6,0,P|183:25|215:30,1,56.25,6|0,0:0|0:0,0:0:0:0:
281,37,177516,2,0,P|254:45|226:51,1,56.25
149,89,177849,2,0,P|183:100|215:105,1,56.25,2|0,1:2|0:0,0:0:0:0:
276,117,178183,2,0,P|249:125|221:131,1,56.25
144,169,178516,1,2,0:0:0:0:
166,139,178683,1,0,0:0:0:0:
176,210,178849,1,2,0:0:0:0:
180,173,179016,1,0,0:0:0:0:
224,229,179183,2,0,P|258:240|290:245,1,56.25,2|0,1:2|0:0,0:0:0:0:
356,252,179516,2,0,P|329:260|301:266,1,56.25
342,187,179849,6,0,P|365:213|391:233,1,56.25,2|0,0:0|0:0,0:0:0:0:
444,272,180183,2,0,P|416:266|388:256,1,56.25,0|0,1:0|0:0,0:0:0:0:
465,209,180516,2,0,P|472:243|484:274,1,56.25,2|0,0:0|0:0,0:0:0:0:
511,334,180849,2,0,P|489:315|471:294,1,56.25,0|0,3:0|0:0,0:0:0:0:
488,178,181183,1,2,0:3:0:0:
465,209,181349,1,0,0:0:0:0:
494,185,181516,1,2,3:2:0:0:
458,201,181683,1,0,0:0:0:0:
465,162,181849,1,2,0:0:0:0:
435,138,182016,1,0,0:0:0:0:
470,124,182183,1,2,3:2:0:0:
440,100,182349,1,0,0:0:0:0:
447,24,182516,5,0,0:0:0:0:
412,39,182849,1,0,0:0:0:0:
443,60,183183,2,0,P|425:33|371:23,1,75,2|0,0:0|0:0,0:0:0:0:
318,57,183849,1,0,0:0:0:0:
353,72,184183,1,0,0:0:0:0:
322,93,184516,2,0,P|340:66|394:56,1,75,2|0,0:0|0:0,0:0:0:0:
411,73,185016,1,0,0:0:0:0:
387,129,185183,5,2,0:0:0:0:
399,101,185349,1,0,0:0:0:0:
417,125,185516,1,0,0:0:0:0:
387,129,185683,1,0,0:0:0:0:
379,187,185849,1,2,0:0:0:0:
409,183,186016,1,0,0:0:0:0:
405,153,186183,1,2,0:0:0:0:
375,157,186349,1,0,0:0:0:0:
353,221,186516,1,0,0:0:0:0:
285,169,186849,1,0,0:0:0:0:
336,54,187183,2,0,P|333:86|292:122,1,75,2|0,0:0|0:0,0:0:0:0:
232,116,187849,5,2,0:0:0:0:
217,113,188183,1,0,0:0:0:0:
202,110,188516,1,0,0:0:0:0:
162,155,188849,1,0,0:0:0:0:
86,86,189183,1,2,0:0:0:0:
144,98,189516,1,0,0:0:0:0:
180,212,189849,1,2,0:0:0:0:
238,224,190183,1,0,0:0:0:0:
162,155,190516,1,2,0:0:0:0:
104,143,190849,1,0,0:0:0:0:
6,176,191183,1,2,0:0:0:0:
64,188,191516,1,0,0:0:0:0:
162,155,191849,1,2,0:0:0:0:
220,167,192183,1,0,0:0:0:0:
256,281,192516,1,2,0:0:0:0:
314,293,192849,5,2,0:0:0:0:
284,287,193016,1,2,0:0:0:0:
263,312,193183,2,0,P|289:295|317:293,1,56.25,2|0,0:0|0:0,0:0:0:0:
344,299,193516,2,2,P|311:235|507:249,1,412.5,2|0,0:0|0:0,0:0:0:0:
497,266,195516,1,2,0:0:0:0:
472,283,195683,1,2,0:0:0:0:
458,232,195849,5,2,0:0:0:0:
465,245,196183,1,0,0:0:0:0:
457,258,196516,1,0,0:0:0:0:
473,313,196849,1,0,0:0:0:0:
448,330,197016,1,0,0:0:0:0:
434,279,197183,1,2,0:0:0:0:
440,292,197516,1,0,0:0:0:0:
432,305,197849,1,0,0:0:0:0:
449,360,198182,5,0,0:0:0:0:
424,377,198349,1,0,0:0:0:0:
386,338,198516,1,2,0:0:0:0:
361,355,198849,1,0,0:0:0:0:
337,336,199183,1,0,0:0:0:0:
347,307,199516,1,0,0:0:0:0:
377,307,199849,1,2,0:0:0:0:
318,311,200183,2,0,P|290:288|275:259,1,56.25
277,273,200516,2,0,P|293:296|316:313,1,56.25,2|0,0:0|0:0,0:0:0:0:
347,307,200849,5,0,0:0:0:0:
352,293,201016,1,0,0:0:0:0:
371,243,201183,1,2,0:0:0:0:
364,213,201516,1,0,0:0:0:0:
357,183,201849,1,0,0:0:0:0:
350,153,202183,1,0,0:0:0:0:
344,123,202516,1,2,0:0:0:0:
349,109,202849,1,0,0:0:0:0:
381,161,203183,2,0,P|420:161|446:143,1,56.25,2|0,0:0|0:0,0:0:0:0:
450,130,203516,5,0,0:0:0:0:
453,115,203683,1,0,0:0:0:0:
478,65,203849,2,0,P|439:65|407:90,2,75,2|0|0,0:0|0:0|0:0,0:0:0:0:
450,130,204849,1,0,0:0:0:0:
453,115,205016,1,0,0:0:0:0:
479,128,205183,1,2,0:0:0:0:
465,155,205349,2,0,P|450:167|325:144,1,150,2|0,0:0|0:0,0:0:0:0:
321,107,206183,5,0,0:0:0:0:
324,92,206349,1,0,0:0:0:0:
332,38,206516,2,0,P|317:68|269:89,4,75,2|0|0|0|0,0:0|0:0|0:0|0:0|0:0,0:0:0:0:
327,0,208016,1,0,0:0:0:0:
320,39,208183,2,0,P|292:57|262:58,1,56.25,2|0,0:0|0:0,0:0:0:0:
238,46,208516,2,0,P|264:55|291:52,1,56.25,2|0,0:0|0:0,0:0:0:0:
294,21,208849,5,0,0:0:0:0:
283,10,209016,1,0,0:0:0:0:
224,6,209183,2,0,P|200:35|207:78,1,75,2|0,0:0|0:0,0:0:0:0:
226,99,209849,1,0,0:0:0:0:
202,128,210183,1,0,0:0:0:0:
212,139,210349,1,0,0:0:0:0:
190,188,210516,2,0,P|182:168|183:153,1,37.5,2|2,0:0|0:0,0:0:0:0:
231,115,210849,1,0,0:0:0:0:
241,126,211016,1,0,0:0:0:0:
219,175,211183,2,0,P|211:155|212:140,1,37.5,2|0,0:0|0:0,0:0:0:0:
231,115,211516,5,0,0:0:0:0:
241,126,211683,1,0,0:0:0:0:
276,167,211849,2,0,P|275:194|247:236,1,75,2|0,0:0|0:0,0:0:0:0:
221,243,212516,1,0,0:0:0:0:
192,252,212849,1,0,0:0:0:0:
163,262,213183,1,2,0:0:0:0:
169,233,213349,1,0,0:0:0:0:
150,256,213516,2,0,P|141:280|147:310,1,56.25
143,308,213849,2,0,P|138:281|147:255,1,56.25,2|0,0:0|0:0,0:0:0:0:
147,254,214183,5,0,0:0:0:0:
146,309,214550,1,2,0:0:0:0:
135,320,214883,1,0,0:0:0:0:
121,326,215217,1,0,0:0:0:0:
106,327,215550,1,0,0:0:0:0:
59,291,215883,1,2,0:0:0:0:
70,280,216217,1,0,0:0:0:0:
91,272,216550,1,0,0:0:0:0:
120,274,216883,1,0,0:0:0:0:
66,322,217217,5,2,0:0:0:0:
51,323,217550,1,0,0:0:0:0:
31,267,217883,1,0,0:0:0:0:
46,266,218217,1,0,0:0:0:0:
49,327,218550,1,0,0:0:0:0:
36,320,218883,1,0,0:0:0:0:
47,261,219217,1,0,0:0:0:0:
60,268,219550,1,0,0:0:0:0:
8,277,219849,6,0,P|29:236|31:118,3,150,2|0|0|0,0:0|0:0|0:0|0:0,0:0:0:0:
6,49,222516,5,2,1:2:0:0:
19,22,222849,1,0,0:0:0:0:
53,7,223182,1,0,0:0:0:0:
97,7,223516,1,2,0:0:0:0:
135,43,223849,1,0,0:0:0:0:
193,61,224182,1,0,0:0:0:0:
286,33,224516,1,0,1:0:0:0:
344,51,224849,1,0,0:0:0:0:
453,25,225182,5,2,0:0:0:0:
416,34,225517,1,0,0:0:0:0:
453,58,225849,1,2,1:2:0:0:
395,76,226182,1,0,0:0:0:0:
431,88,226349,1,0,1:0:0:0:
456,119,226516,1,2,1:2:0:0:
370,145,226850,1,0,0:0:0:0:
387,143,227016,1,0,0:0:0:0:
438,173,227182,1,2,3:2:0:0:
421,168,227349,1,0,3:0:0:0:
365,208,227516,1,2,3:2:0:0:
448,275,227849,1,4,0:0:0:0:
