osu file format v14

[General]
AudioFilename: audio.mp3
AudioLeadIn: 0
PreviewTime: 58238
Countdown: 0
SampleSet: Soft
StackLeniency: 0.7
Mode: 3
LetterboxInBreaks: 0
EpilepsyWarning: 1
SpecialStyle: 0
WidescreenStoryboard: 1

[Editor]
Bookmarks: 26955,58955,85621,137305,138940,160273,186942
DistanceSpacing: 0.8
BeatDivisor: 4
GridSize: 4
TimelineZoom: 1.749998

[Metadata]
Title:Ringo Biyori ~The Wolf Whistling Song
TitleUnicode:リンゴ日和 ~The Wolf Whistling Song
Artist:ROCKY CHACK
ArtistUnicode:ROCKY CHACK
Creator:eZmmR
Version:Holo the Wise Wolf
Source:狼と香辛料
Tags:ロッキー・チャック Spice and Wolf Okami to Koshinryo Chris Mosdell 山下太郎&noe ending ED English Anime pop jpop folk Kizuna [_GoGoN-_] [ gogon- ] Onta_Bekasi
BeatmapID:2617390
BeatmapSetID:1259129

[Difficulty]
HPDrainRate:7.5
CircleSize:4
OverallDifficulty:7.5
ApproachRate:5
SliderMultiplier:1.7
SliderTickRate:1

[Events]
//Background and Video events
0,0,"BG.jpg",0,0
//Break Periods
//Storyboard Layer 0 (Background)
//Storyboard Layer 1 (Fail)
//Storyboard Layer 2 (Pass)
//Storyboard Layer 3 (Foreground)
//Storyboard Layer 4 (Overlay)
//Storyboard Sound Samples
Sample,26293,0,"P8.wav",30
Sample,26293,0,"PH2.wav",30
Sample,26630,0,"P8.wav",30
Sample,132947,0,"shake.wav",70

[TimingPoints]
337,657.534246575342,4,2,1,50,1,0
337,-101.010101010101,4,2,1,50,0,0
8236,672.645739910314,4,2,1,50,1,0
8236,-99.009900990099,4,2,1,50,0,0
16297,666.666666666667,4,2,1,50,1,0
18938,666.666666666667,4,2,1,50,1,0
24271,674.157303370787,4,2,1,50,1,0
24271,-99.009900990099,4,2,1,50,0,0
26947,666.666666666667,4,2,1,50,1,0
58947,-100,4,2,1,50,0,1
85613,-100,4,2,1,50,0,0
117613,-100,4,2,1,50,0,1
133613,-100,4,2,1,50,0,0
134621,674.157303370787,4,2,1,50,1,0
134621,-99.009900990099,4,2,1,50,0,0
137305,652.173913043478,4,2,1,50,1,0
137305,-102.040816326531,4,2,1,50,0,0
137631,631.578947368421,4,2,1,50,1,0
137631,-105.263157894737,4,2,1,50,0,0
137946,666.666666666667,4,2,1,50,1,0
138947,666.666666666667,4,2,1,50,1,0
186949,660.06600660066,4,2,1,50,1,0
186949,-101.010101010101,4,2,1,50,0,0
189589,666.666666666667,4,2,1,50,1,0
192255,681.044267877412,4,2,1,50,1,0
192255,-98.0392156862745,4,2,1,50,0,0
193617,666.666666666667,4,2,1,50,1,0
197617,663.716814159292,4,2,1,50,1,0
197617,-100,4,2,1,50,0,0
200248,666.666666666667,4,2,1,50,1,0
201614,674.157303370787,4,2,1,50,1,0
201614,-99.009900990099,4,2,1,50,0,0
202947,666.666666666667,4,2,1,50,1,0
208280,705.882352941176,4,2,1,50,1,0
208280,-94.3396226415094,4,2,1,50,0,0
208985,588.235294117647,4,2,1,50,1,0
208985,-113.636363636364,4,2,1,50,0,0
209280,666.666666666667,4,2,1,50,1,0
210960,666.666666666667,4,2,1,50,1,0
218947,666.666666666667,4,2,1,50,1,0
224279,666.666666666667,4,2,1,50,1,0
242945,-100,4,2,1,50,0,1
280279,-100,4,2,1,50,0,0

[HitObjects]
64,192,337,5,0,0:0:0:30:PH1.wav
448,192,337,128,0,665:0:0:0:30:P1.wav
64,192,665,1,0,0:0:0:30:P1.wav
64,192,994,1,0,0:0:0:30:P1.wav
64,192,1323,1,0,0:0:0:30:P1.wav
64,192,1652,1,0,0:0:0:30:P1.wav
64,192,1980,1,0,0:0:0:30:P1.wav
64,192,2309,1,0,0:0:0:30:P1.wav
64,192,2638,1,0,0:0:0:30:P1.wav
64,192,2967,1,0,0:0:0:30:P1.wav
64,192,3295,1,0,0:0:0:30:P1.wav
64,192,3624,1,0,0:0:0:30:P1.wav
64,192,3953,1,0,0:0:0:30:P1.wav
64,192,4282,1,0,0:0:0:30:P1.wav
64,192,4610,1,0,0:0:0:30:P1.wav
64,192,4939,1,0,0:0:0:30:P1.wav
64,192,5268,1,0,0:0:0:30:PH2.wav
448,192,5268,128,0,5597:0:0:0:30:P1.wav
64,192,5597,128,0,5926:0:0:0:30:PH1.wav
320,192,5597,1,0,0:0:0:30:P1.wav
320,192,5926,1,0,0:0:0:30:P1.wav
320,192,6254,1,0,0:0:0:30:P1.wav
320,192,6583,1,0,0:0:0:30:P1.wav
320,192,6912,1,0,0:0:0:30:P1.wav
320,192,7241,1,0,0:0:0:30:P1.wav
320,192,7569,1,0,0:0:0:30:P1.wav
64,192,7898,128,0,8236:0:0:0:30:PH3.wav
320,192,7898,1,0,0:0:0:30:P1.wav
192,192,8236,1,0,0:0:0:30:PH1.wav
448,192,8236,128,0,8572:0:0:0:30:P1.wav
192,192,8572,1,0,0:0:0:30:P1.wav
192,192,8908,1,0,0:0:0:30:P1.wav
192,192,9244,1,0,0:0:0:30:PH3.wav
448,192,9244,128,0,9581:0:0:0:30:P1.wav
64,192,9581,128,0,9917:0:0:0:30:PH1L.wav
320,192,9581,1,0,0:0:0:30:P1.wav
192,192,9917,128,0,10253:0:0:0:30:PH1L.wav
448,192,9917,1,0,0:0:0:30:P1.wav
64,192,10253,1,0,0:0:0:30:PH2L.wav
320,192,10253,128,0,10590:0:0:0:30:P2.wav
192,192,10590,1,0,0:0:0:30:PH2L.wav
448,192,10590,128,0,10926:0:0:0:30:P2.wav
64,192,10926,128,0,11262:0:0:0:30:PH4.wav
320,192,10926,1,0,0:0:0:30:P3.wav
320,192,11262,1,0,0:0:0:30:P3.wav
320,192,11599,1,0,0:0:0:30:P3.wav
320,192,11935,1,0,0:0:0:30:P3.wav
320,192,12271,1,0,0:0:0:30:P3.wav
320,192,12608,1,0,0:0:0:30:P3.wav
320,192,12944,1,0,0:0:0:30:P3.wav
64,192,13280,128,0,13617:0:0:0:30:PH5.wav
320,192,13280,1,0,0:0:0:30:P3.wav
192,192,13617,128,0,13953:0:0:0:30:PH4.wav
448,192,13617,1,0,0:0:0:30:P3.wav
448,192,13953,1,0,0:0:0:30:P3.wav
448,192,14289,1,0,0:0:0:30:P3.wav
192,192,14626,128,0,14962:0:0:0:30:PH5.wav
448,192,14626,1,0,0:0:0:30:P3.wav
64,192,14962,128,0,15298:0:0:0:30:PH4L.wav
320,192,14962,1,0,0:0:0:30:P3.wav
192,192,15298,1,0,0:0:0:30:PH4L.wav
448,192,15298,128,0,15635:0:0:0:30:P3.wav
64,192,15635,1,0,0:0:0:30:PH6L.wav
320,192,15635,128,0,15971:0:0:0:30:P3.wav
192,192,15971,128,0,16297:0:0:0:30:PH6L.wav
448,192,15971,1,0,0:0:0:30:P3.wav
64,192,16297,128,0,16630:0:0:0:30:PH7.wav
320,192,16297,1,0,0:0:0:30:P3.wav
320,192,16630,1,0,0:0:0:30:P3.wav
320,192,16963,1,0,0:0:0:30:P3.wav
320,192,17297,1,0,0:0:0:30:P3.wav
320,192,17630,1,0,0:0:0:30:P3.wav
320,192,17963,1,0,0:0:0:30:P3.wav
320,192,18297,1,0,0:0:0:30:P3.wav
64,192,18630,128,0,18938:0:0:0:30:PH8.wav
320,192,18630,1,0,0:0:0:30:P3.wav
192,192,18938,1,0,0:0:0:30:PH7.wav
448,192,18938,128,0,19271:0:0:0:30:P3.wav
192,192,19271,1,0,0:0:0:30:P3.wav
192,192,19604,1,0,0:0:0:30:P3.wav
192,192,19938,1,0,0:0:0:30:PH8.wav
448,192,19938,128,0,20271:0:0:0:30:P3.wav
64,192,20271,128,0,20938:0:0:0:30:PH7LL.wav
320,192,20271,1,0,0:0:0:30:P3.wav
320,192,20604,1,0,0:0:0:30:P3.wav
192,192,20938,1,0,0:0:0:30:PH6LL.wav
448,192,20938,128,0,21604:0:0:0:30:P3.wav
192,192,21271,1,0,0:0:0:30:P3.wav
64,192,21604,128,0,21938:0:0:0:30:PH9.wav
320,192,21604,1,0,0:0:0:30:P5.wav
320,192,21938,1,0,0:0:0:30:P5.wav
320,192,22271,1,0,0:0:0:30:P5.wav
320,192,22604,1,0,0:0:0:30:P5.wav
320,192,22938,1,0,0:0:0:30:P5.wav
320,192,23271,1,0,0:0:0:30:P5.wav
320,192,23604,1,0,0:0:0:30:P5.wav
64,192,23938,128,0,24271:0:0:0:30:PH9L.wav
320,192,23938,1,0,0:0:0:30:P5.wav
192,192,24271,1,0,0:0:0:30:PH6.wav
448,192,24271,128,0,24608:0:0:0:30:P6.wav
192,192,24608,1,0,0:0:0:30:P6.wav
192,192,24945,1,0,0:0:0:30:PH6.wav
448,192,24945,128,0,25282:0:0:0:30:P6.wav
192,192,25282,1,0,0:0:0:30:P6.wav
192,192,25619,1,0,0:0:0:30:PH4.wav
448,192,25619,128,0,25787:0:0:0:30:07.wav
64,192,25956,1,0,0:0:0:70:tom2.wav
192,192,25956,1,0,0:0:0:30:07.wav
320,192,26124,1,0,0:0:0:70:tom2.wav
448,192,26124,1,0,0:0:0:0:
64,192,26293,1,0,0:0:0:70:tom3.wav
192,192,26462,1,0,0:0:0:70:tom3.wav
320,192,26630,1,0,0:0:0:70:tom3.wav
448,192,26799,1,0,0:0:0:70:tom3.wav
64,192,26947,128,2,27113:0:0:0:0:
192,192,26947,1,4,0:0:0:0:
320,192,26947,1,0,0:0:0:0:
320,192,27280,128,0,27447:0:0:0:0:
64,192,27613,128,8,27947:0:0:0:0:
192,192,27613,1,0,0:0:0:70:shake.wav
448,192,27613,1,0,0:0:0:0:
320,192,27947,128,0,28447:0:0:0:0:
64,192,28280,1,2,0:0:0:0:
192,192,28280,1,0,0:0:0:0:
320,192,28613,128,0,28780:0:0:0:0:
64,192,28947,128,8,29447:0:0:0:0:
192,192,28947,1,0,0:0:0:70:shake.wav
448,192,28947,1,0,0:0:0:0:
320,192,29280,128,0,29447:0:0:0:0:
192,192,29613,128,2,30280:0:0:0:0:
448,192,29613,1,0,0:0:0:0:
64,192,29947,1,0,0:0:0:0:
320,192,30280,1,8,0:0:0:0:
448,192,30280,1,0,0:0:0:70:shake.wav
192,192,30613,1,0,0:0:0:0:
64,192,30947,128,2,31280:0:0:0:0:
448,192,30947,1,0,0:0:0:0:
320,192,31280,1,0,0:0:0:0:
64,192,31613,1,8,0:0:0:0:
192,192,31613,1,0,0:0:0:70:shake.wav
448,192,31613,1,0,0:0:0:0:
192,192,31947,128,0,32113:0:0:0:0:
64,192,32280,1,2,0:0:0:0:
448,192,32280,128,0,32447:0:0:0:0:
192,192,32613,128,0,32780:0:0:0:0:
64,192,32947,1,8,0:0:0:0:
320,192,32947,128,0,33113:0:0:0:70:shake.wav
448,192,32947,1,0,0:0:0:0:
320,192,33280,128,0,33613:0:0:0:0:
192,192,33447,128,0,33780:0:0:0:0:
64,192,33613,1,2,0:0:0:0:
448,192,33613,1,0,0:0:0:0:
192,192,33947,128,0,34113:0:0:0:0:
64,192,34280,1,8,0:0:0:0:
320,192,34280,1,0,0:0:0:70:shake.wav
448,192,34280,128,0,34780:0:0:0:0:
192,192,34613,128,0,34780:0:0:0:0:
64,192,34947,128,2,35613:0:0:0:0:
320,192,34947,1,0,0:0:0:0:
448,192,35280,1,0,0:0:0:0:
192,192,35613,1,8,0:0:0:0:
320,192,35613,1,0,0:0:0:70:shake.wav
64,192,35947,1,0,0:0:0:0:
320,192,36280,1,2,0:0:0:0:
448,192,36280,128,0,36613:0:0:0:0:
192,192,36613,1,0,0:0:0:0:
64,192,36947,1,8,0:0:0:0:
320,192,36947,1,0,0:0:0:70:shake.wav
448,192,36947,1,0,0:0:0:0:
64,192,37280,128,0,37447:0:0:0:0:
320,192,37613,128,2,37780:0:0:0:0:
448,192,37613,1,0,0:0:0:0:
192,192,37947,128,0,38113:0:0:0:0:
64,192,38280,1,8,0:0:0:0:
320,192,38280,1,0,0:0:0:70:shake.wav
448,192,38280,128,0,38613:0:0:0:0:
192,192,38613,128,0,39113:0:0:0:0:
320,192,38947,1,2,0:0:0:0:
448,192,38947,1,0,0:0:0:0:
192,192,39280,128,0,39447:0:0:0:0:
64,192,39613,1,8,0:0:0:0:
320,192,39613,1,0,0:0:0:70:shake.wav
448,192,39613,128,0,40113:0:0:0:0:
192,192,39947,128,0,40113:0:0:0:0:
64,192,40280,1,2,0:0:0:0:
320,192,40280,128,0,40947:0:0:0:0:
448,192,40613,1,0,0:0:0:0:
64,192,40947,1,8,0:0:0:0:
192,192,40947,1,0,0:0:0:70:shake.wav
320,192,41280,1,0,0:0:0:0:
64,192,41613,1,2,0:0:0:0:
448,192,41613,128,0,41947:0:0:0:0:
192,192,41947,1,0,0:0:0:0:
64,192,42280,1,8,0:0:0:0:
320,192,42280,1,0,0:0:0:70:shake.wav
448,192,42280,1,0,0:0:0:0:
320,192,42613,128,0,42780:0:0:0:0:
64,192,42947,128,2,43113:0:0:0:0:
448,192,42947,1,0,0:0:0:0:
320,192,43280,128,0,43447:0:0:0:0:
64,192,43613,128,8,43947:0:0:0:0:
192,192,43613,1,0,0:0:0:70:shake.wav
448,192,43613,1,0,0:0:0:0:
320,192,43947,128,0,44447:0:0:0:0:
64,192,44280,1,2,0:0:0:0:
448,192,44280,1,0,0:0:0:0:
320,192,44613,128,0,44780:0:0:0:0:
64,192,44947,1,8,0:0:0:0:
192,192,44947,1,0,0:0:0:70:shake.wav
448,192,44947,1,0,0:0:0:0:
192,192,45280,128,0,45447:0:0:0:0:
448,192,45447,128,0,45947:0:0:0:0:
64,192,45613,1,2,0:0:0:0:
320,192,45613,1,0,0:0:0:0:
64,192,45947,1,8,0:0:0:0:
192,192,45947,128,0,46113:0:0:0:0:
320,192,45947,1,0,0:0:0:0:
448,192,46113,128,0,46613:0:0:0:0:
64,192,46280,1,2,0:0:0:0:
320,192,46280,1,0,0:0:0:70:shake.wav
64,192,46613,1,8,0:0:0:0:
192,192,46613,128,0,46780:0:0:0:0:
320,192,46613,1,0,0:0:0:0:
448,192,46780,128,0,47280:0:0:0:0:
64,192,46947,1,2,0:0:0:0:
320,192,46947,128,0,47280:0:0:0:0:
64,192,47280,1,0,0:0:0:70:tom2.wav
192,192,47280,1,0,0:0:0:0:
320,192,47613,1,0,0:0:0:70:shake.wav
448,192,47613,1,0,0:0:0:70:tom3.wav
64,192,47780,1,0,0:0:0:70:tom3.wav
192,192,47780,1,0,0:0:0:0:
320,192,47947,1,0,0:0:0:70:tom3.wav
448,192,47947,1,0,0:0:0:0:
64,192,48280,128,4,48613:0:0:0:0:
192,192,48280,1,2,0:0:0:0:
448,192,48280,1,0,0:0:0:0:
320,192,48613,1,0,0:0:0:0:
448,192,48947,1,8,0:0:0:0:
192,192,48947,1,0,0:0:0:70:shake.wav
64,192,48947,128,0,49280:0:0:0:0:
320,192,49280,1,0,0:0:0:0:
448,192,49613,128,2,49947:0:0:0:0:
64,192,49613,1,0,0:0:0:0:
192,192,49947,1,0,0:0:0:0:
64,192,50280,1,8,0:0:0:0:
320,192,50280,1,0,0:0:0:70:shake.wav
448,192,50280,128,0,50613:0:0:0:0:
192,192,50613,128,0,51947:0:0:0:0:
64,192,50947,128,2,51280:0:0:0:0:
448,192,50947,1,0,0:0:0:0:
320,192,51280,1,0,0:0:0:0:
64,192,51613,128,8,51947:0:0:0:0:
448,192,51613,1,0,0:0:0:70:shake.wav
320,192,51947,1,0,0:0:0:0:
192,192,52280,1,2,0:0:0:0:
448,192,52280,128,0,52613:0:0:0:0:
192,192,52613,1,0,0:0:0:0:
64,192,52947,1,8,0:0:0:0:
320,192,52947,128,0,53613:0:0:0:70:shake.wav
448,192,52947,1,0,0:0:0:0:
192,192,53280,128,0,53613:0:0:0:0:
64,192,53613,1,2,0:0:0:0:
448,192,53613,128,0,53947:0:0:0:0:
192,192,53947,1,0,0:0:0:0:
64,192,54280,128,8,54613:0:0:0:0:
320,192,54280,1,0,0:0:0:70:shake.wav
448,192,54280,1,0,0:0:0:0:
192,192,54613,1,0,0:0:0:0:
64,192,54947,1,2,0:0:0:0:
448,192,54947,128,0,55280:0:0:0:0:
320,192,55280,1,0,0:0:0:0:
64,192,55613,128,8,55780:0:0:0:0:
192,192,55613,1,0,0:0:0:70:shake.wav
448,192,55613,1,0,0:0:0:0:
192,192,55947,1,2,0:0:0:0:
320,192,55947,1,4,0:0:0:0:
448,192,55947,128,0,56947:0:0:0:0:
64,192,56280,1,0,0:0:0:0:
192,192,56613,1,2,0:0:0:0:
320,192,56613,1,0,0:0:0:0:
64,192,56947,1,8,0:0:0:0:
320,192,56947,1,0,0:0:0:70:shake.wav
64,192,57280,128,2,57947:0:0:0:0:
192,192,57280,1,4,0:0:0:0:
448,192,57280,1,0,0:0:0:0:
320,192,57613,1,8,0:0:0:0:
448,192,57780,1,8,0:0:0:0:
192,192,57947,1,8,0:0:0:0:
320,192,58113,1,8,0:0:0:0:
64,192,58280,1,8,0:0:0:0:
448,192,58280,128,0,58613:0:0:0:0:
192,192,58447,1,0,0:0:0:70:tom2.wav
64,192,58613,128,0,58947:0:0:0:70:tom3.wav
320,192,58613,1,0,0:0:0:0:
192,192,58947,1,2,0:0:0:0:
320,192,58947,1,4,0:0:0:0:
448,192,58947,128,0,59280:0:0:0:0:
192,192,59280,128,0,59613:0:0:0:0:
64,192,59613,1,8,0:0:0:0:
320,192,59613,128,0,60113:0:0:0:70:shake.wav
448,192,59613,1,0,0:0:0:0:
192,192,59947,128,0,60280:0:0:0:0:
64,192,60113,128,0,60613:0:0:0:0:
320,192,60280,1,2,0:0:0:0:
448,192,60280,1,0,0:0:0:0:
320,192,60613,1,0,0:0:0:0:
64,192,60947,128,8,61613:0:0:0:0:
192,192,60947,1,0,0:0:0:70:shake.wav
448,192,60947,1,0,0:0:0:0:
320,192,61280,128,0,61613:0:0:0:0:
192,192,61613,1,2,0:0:0:0:
448,192,61613,128,0,61947:0:0:0:0:
192,192,61947,128,0,62280:0:0:0:0:
64,192,62280,1,8,0:0:0:0:
320,192,62280,128,0,62780:0:0:0:70:shake.wav
448,192,62280,1,0,0:0:0:0:
192,192,62613,128,0,62947:0:0:0:0:
64,192,62780,128,0,63613:0:0:0:0:
320,192,62947,1,2,0:0:0:0:
448,192,62947,1,0,0:0:0:0:
320,192,63280,1,0,0:0:0:0:
192,192,63613,1,8,0:0:0:0:
448,192,63613,1,0,0:0:0:70:shake.wav
64,192,63947,1,2,0:0:0:0:
320,192,63947,1,0,0:0:0:0:
192,192,64280,1,2,0:0:0:0:
320,192,64280,1,0,0:0:0:0:
448,192,64280,128,0,64780:0:0:0:0:
64,192,64613,128,0,65113:0:0:0:0:
192,192,64947,128,8,65280:0:0:0:0:
448,192,64947,1,0,0:0:0:70:shake.wav
320,192,65113,128,0,65280:0:0:0:0:
320,192,65447,128,0,65947:0:0:0:0:
192,192,65613,1,2,0:0:0:0:
448,192,65613,1,0,0:0:0:0:
64,192,65947,128,0,66280:0:0:0:0:
192,192,66280,1,8,0:0:0:0:
320,192,66280,1,0,0:0:0:70:shake.wav
448,192,66280,128,0,66947:0:0:0:0:
64,192,66613,128,0,66947:0:0:0:0:
192,192,66947,128,2,67613:0:0:0:0:
320,192,66947,1,0,0:0:0:0:
448,192,67280,1,0,0:0:0:0:
64,192,67613,1,8,0:0:0:0:
320,192,67613,1,0,0:0:0:70:shake.wav
64,192,67947,1,0,0:0:0:0:
320,192,68280,1,2,0:0:0:0:
448,192,68280,128,0,68613:0:0:0:0:
64,192,68613,1,2,0:0:0:0:
192,192,68613,128,0,68947:0:0:0:0:
64,192,68947,1,8,0:0:0:0:
320,192,68947,1,0,0:0:0:70:shake.wav
448,192,68947,1,0,0:0:0:0:
64,192,69280,128,2,69613:0:0:0:0:
320,192,69280,1,0,0:0:0:70:o.hihat.wav
192,192,69613,128,2,69947:0:0:0:0:
448,192,69613,1,0,0:0:0:0:
320,192,69947,128,0,70280:0:0:0:0:
64,192,70280,1,8,0:0:0:0:
192,192,70280,1,0,0:0:0:70:shake.wav
448,192,70280,1,0,0:0:0:0:
64,192,70613,128,0,70947:0:0:0:0:
192,192,70947,1,2,0:0:0:0:
448,192,70947,1,0,0:0:0:0:
192,192,71280,128,0,71613:0:0:0:0:
64,192,71613,1,8,0:0:0:0:
320,192,71613,1,0,0:0:0:70:shake.wav
448,192,71613,1,0,0:0:0:0:
448,192,71947,128,0,72780:0:0:0:0:
64,192,72280,1,2,0:0:0:0:
320,192,72280,1,0,0:0:0:0:
192,192,72613,1,0,0:0:0:0:
64,192,72947,1,8,0:0:0:0:
320,192,72947,1,0,0:0:0:70:shake.wav
448,192,72947,128,0,73447:0:0:0:0:
192,192,73280,128,0,73780:0:0:0:0:
64,192,73613,1,2,0:0:0:0:
448,192,73613,1,0,0:0:0:0:
64,192,73947,128,2,74447:0:0:0:0:
192,192,73947,1,0,0:0:0:0:
192,192,74280,1,8,0:0:0:0:
320,192,74280,1,0,0:0:0:70:shake.wav
448,192,74280,1,0,0:0:0:0:
320,192,74613,1,0,0:0:0:0:
448,192,74613,1,0,0:0:0:0:
64,192,74780,1,8,0:0:0:0:
192,192,74780,1,0,0:0:0:0:
320,192,74947,1,2,0:0:0:0:
448,192,74947,128,4,75447:0:0:0:0:
320,192,75280,128,0,75613:0:0:0:0:
192,192,75447,128,0,75947:0:0:0:0:
64,192,75613,1,8,0:0:0:0:
448,192,75613,1,0,0:0:0:70:shake.wav
320,192,75780,128,0,76113:0:0:0:0:
448,192,75947,128,0,76947:0:0:0:0:
64,192,76280,1,2,0:0:0:0:
192,192,76280,1,0,0:0:0:0:
320,192,76613,1,0,0:0:0:0:
64,192,76947,1,8,0:0:0:0:
192,192,76947,1,0,0:0:0:70:shake.wav
320,192,77280,1,0,0:0:0:0:
64,192,77613,1,2,0:0:0:0:
448,192,77613,1,0,0:0:0:0:
192,192,77947,1,0,0:0:0:0:
64,192,78280,1,8,0:0:0:0:
320,192,78280,1,0,0:0:0:70:shake.wav
448,192,78280,1,0,0:0:0:0:
320,192,78613,1,0,0:0:0:0:
64,192,78947,1,2,0:0:0:0:
448,192,78947,1,0,0:0:0:0:
192,192,79280,1,0,0:0:0:0:
64,192,79613,1,8,0:0:0:0:
320,192,79613,1,0,0:0:0:70:shake.wav
448,192,79613,1,0,0:0:0:0:
64,192,79947,1,0,0:0:0:0:
192,192,80058,1,0,0:0:0:0:
448,192,80169,1,0,0:0:0:0:
320,192,80243,1,0,0:0:0:0:
64,192,80280,1,2,0:0:0:0:
192,192,80317,1,0,0:0:0:0:
320,192,80613,1,0,0:0:0:0:
64,192,80947,1,8,0:0:0:0:
192,192,80947,1,0,0:0:0:70:shake.wav
448,192,80947,1,0,0:0:0:0:
320,192,81280,1,0,0:0:0:0:
64,192,81613,1,2,0:0:0:0:
448,192,81613,1,0,0:0:0:0:
192,192,81947,1,0,0:0:0:0:
64,192,82280,1,8,0:0:0:0:
448,192,82280,1,0,0:0:0:70:shake.wav
320,192,82280,1,0,0:0:0:0:
320,192,82613,1,0,0:0:0:0:
64,192,82947,1,2,0:0:0:0:
448,192,82947,1,0,0:0:0:0:
192,192,83280,1,0,0:0:0:0:
320,192,83280,1,0,0:0:0:70:o.hihat.wav
64,192,83613,1,8,0:0:0:0:
320,192,83613,1,0,0:0:0:70:shake.wav
448,192,83613,1,0,0:0:0:0:
192,192,83947,1,0,0:0:0:0:
320,192,84113,1,8,0:0:0:0:
448,192,84113,1,0,0:0:0:0:
64,192,84280,1,2,0:0:0:0:
192,192,84280,1,0,0:0:0:0:
320,192,84447,1,8,0:0:0:0:
64,192,84613,1,2,0:0:0:0:
448,192,84613,1,0,0:0:0:0:
192,192,84780,1,8,0:0:0:0:
320,192,84947,1,8,0:0:0:0:
448,192,84947,1,0,0:0:0:0:
64,192,85113,1,8,0:0:0:0:
192,192,85113,1,0,0:0:0:0:
320,192,85280,1,8,0:0:0:0:
448,192,85280,1,0,0:0:0:0:
192,192,85447,1,8,0:0:0:0:
64,192,85613,1,2,0:0:0:0:
320,192,85613,1,4,0:0:0:0:
448,192,85613,128,0,85780:0:0:0:0:
192,192,85947,128,0,86113:0:0:0:0:
64,192,86280,1,8,0:0:0:0:
320,192,86280,128,0,86447:0:0:0:70:shake.wav
448,192,86280,1,0,0:0:0:0:
320,192,86613,128,0,86947:0:0:0:0:
192,192,86780,128,0,87280:0:0:0:0:
64,192,86947,1,2,0:0:0:0:
448,192,86947,1,0,0:0:0:0:
448,192,87280,128,0,87613:0:0:0:0:
320,192,87447,128,0,87780:0:0:0:0:
64,192,87613,1,8,0:0:0:0:
192,192,87613,1,0,0:0:0:70:shake.wav
320,192,87947,128,0,88113:0:0:0:0:
64,192,88280,128,2,88947:0:0:0:0:
448,192,88280,1,0,0:0:0:0:
320,192,88613,1,0,0:0:0:0:
192,192,88947,1,8,0:0:0:0:
448,192,88947,1,0,0:0:0:70:shake.wav
64,192,89280,1,0,0:0:0:0:
320,192,89280,1,0,0:0:0:0:
192,192,89613,1,2,0:0:0:0:
320,192,89613,1,0,0:0:0:0:
448,192,89613,1,0,0:0:0:0:
64,192,89947,1,0,0:0:0:0:
448,192,89947,1,0,0:0:0:0:
64,192,90280,1,8,0:0:0:0:
192,192,90280,1,0,0:0:0:70:shake.wav
320,192,90280,1,0,0:0:0:0:
192,192,90613,1,0,0:0:0:0:
448,192,90613,1,0,0:0:0:0:
64,192,90947,128,2,91113:0:0:0:0:
448,192,90947,1,0,0:0:0:0:
320,192,91280,128,0,91447:0:0:0:0:
64,192,91613,1,8,0:0:0:0:
192,192,91613,128,0,91780:0:0:0:70:shake.wav
448,192,91613,1,0,0:0:0:0:
192,192,91947,128,0,92280:0:0:0:0:
320,192,92113,128,0,92447:0:0:0:0:
64,192,92280,1,2,0:0:0:0:
448,192,92280,1,0,0:0:0:0:
320,192,92613,128,0,92780:0:0:0:0:
64,192,92947,128,8,93447:0:0:0:0:
192,192,92947,1,0,0:0:0:70:shake.wav
448,192,92947,1,0,0:0:0:0:
320,192,93280,128,0,93447:0:0:0:0:
448,192,93280,1,0,0:0:0:0:
64,192,93613,1,2,0:0:0:0:
448,192,93613,128,0,94280:0:0:0:0:
192,192,93947,1,0,0:0:0:0:
64,192,94280,1,8,0:0:0:0:
320,192,94280,1,0,0:0:0:70:shake.wav
192,192,94447,1,0,0:0:0:0:
448,192,94447,1,0,0:0:0:0:
320,192,94613,1,0,0:0:0:0:
448,192,94835,1,0,0:0:0:0:
64,192,94947,1,2,0:0:0:0:
192,192,94947,1,0,0:0:0:0:
320,192,95113,1,0,0:0:0:0:
192,192,95280,1,0,0:0:0:0:
448,192,95280,1,0,0:0:0:0:
64,192,95613,1,8,0:0:0:0:
192,192,95613,1,0,0:0:0:70:shake.wav
448,192,95613,1,0,0:0:0:0:
320,192,95947,128,2,96113:0:0:0:0:
448,192,95947,1,0,0:0:0:70:o.hihat.wav
64,192,96280,1,2,0:0:0:0:
192,192,96280,128,0,96447:0:0:0:0:
320,192,96613,128,0,96780:0:0:0:0:
64,192,96947,128,8,97280:0:0:0:0:
192,192,96947,1,0,0:0:0:70:shake.wav
448,192,96947,1,0,0:0:0:0:
320,192,97280,128,0,97780:0:0:0:0:
64,192,97613,1,2,0:0:0:0:
192,192,97613,1,0,0:0:0:0:
64,192,97947,1,0,0:0:0:0:
320,192,97947,128,0,98113:0:0:0:0:
64,192,98280,128,8,98780:0:0:0:0:
192,192,98280,1,0,0:0:0:70:shake.wav
448,192,98280,1,0,0:0:0:0:
320,192,98613,128,0,98780:0:0:0:0:
448,192,98613,1,0,0:0:0:0:
192,192,98947,1,2,0:0:0:0:
448,192,98947,128,0,99613:0:0:0:0:
64,192,99280,1,0,0:0:0:0:
192,192,99613,1,8,0:0:0:0:
320,192,99613,1,0,0:0:0:70:shake.wav
64,192,99947,1,0,0:0:0:0:
448,192,99947,1,0,0:0:0:0:
192,192,100280,1,2,0:0:0:0:
320,192,100280,1,0,0:0:0:0:
448,192,100280,1,0,0:0:0:0:
64,192,100613,1,0,0:0:0:0:
192,192,100613,1,0,0:0:0:0:
320,192,100780,1,0,0:0:0:0:
64,192,100947,1,8,0:0:0:0:
448,192,100947,1,0,0:0:0:70:shake.wav
192,192,101113,1,0,0:0:0:0:
320,192,101280,128,0,101447:0:0:0:0:
448,192,101280,1,0,0:0:0:0:
64,192,101613,1,2,0:0:0:0:
448,192,101613,128,0,101780:0:0:0:0:
192,192,101947,128,0,102113:0:0:0:0:
64,192,102280,1,8,0:0:0:0:
320,192,102280,1,0,0:0:0:70:shake.wav
448,192,102280,128,0,102613:0:0:0:0:
192,192,102613,128,0,103113:0:0:0:0:
64,192,102947,1,2,0:0:0:0:
448,192,102947,128,0,103447:0:0:0:0:
192,192,103280,128,0,103613:0:0:0:0:
64,192,103613,1,8,0:0:0:0:
320,192,103613,1,0,0:0:0:70:shake.wav
448,192,103613,1,0,0:0:0:0:
192,192,103947,128,0,104280:0:0:0:0:
448,192,104113,128,0,104280:0:0:0:0:
64,192,104280,1,2,0:0:0:0:
320,192,104280,128,0,104447:0:0:0:0:
192,192,104447,128,0,104613:0:0:0:0:
64,192,104613,1,8,0:0:0:0:
448,192,104613,128,0,104780:0:0:0:0:
320,192,104780,128,0,104947:0:0:0:0:
64,192,104947,1,0,0:0:0:70:tom2.wav
192,192,104947,128,0,105113:0:0:0:0:
448,192,105113,128,0,105280:0:0:0:0:
64,192,105280,128,8,105447:0:0:0:0:
320,192,105280,1,0,0:0:0:0:
192,192,105447,128,0,105613:0:0:0:0:
320,192,105613,128,0,105780:0:0:0:70:tom2.wav
448,192,105613,1,0,0:0:0:0:
64,192,105780,128,0,105947:0:0:0:0:
192,192,105947,128,8,106113:0:0:0:0:
448,192,105947,1,0,0:0:0:0:
320,192,106113,128,0,106280:0:0:0:0:
64,192,106280,128,2,106447:0:0:0:0:
192,192,106280,1,0,0:0:0:0:
320,192,106447,1,0,0:0:0:70:tom2.wav
448,192,106447,128,0,106613:0:0:0:0:
64,192,106613,1,0,0:0:0:70:tom3.wav
192,192,106613,128,0,106780:0:0:0:0:
320,192,106780,128,0,106947:0:0:0:0:
64,192,106947,1,4,0:0:0:0:
448,192,106947,128,2,107280:0:0:0:0:
192,192,107280,1,0,0:0:0:0:
64,192,107613,1,8,0:0:0:0:
448,192,107613,128,0,107947:0:0:0:70:shake.wav
320,192,107613,1,0,0:0:0:0:
192,192,107947,1,0,0:0:0:0:
64,192,108280,128,2,108613:0:0:0:0:
448,192,108280,1,0,0:0:0:0:
320,192,108613,1,0,0:0:0:0:
64,192,108947,128,8,109280:0:0:0:0:
192,192,108947,1,0,0:0:0:70:shake.wav
448,192,108947,1,0,0:0:0:0:
320,192,109280,128,0,110613:0:0:0:0:
64,192,109613,1,2,0:0:0:0:
448,192,109613,128,0,109947:0:0:0:0:
192,192,109947,1,0,0:0:0:0:
64,192,110280,1,8,0:0:0:0:
448,192,110280,128,0,110613:0:0:0:70:shake.wav
192,192,110613,1,0,0:0:0:0:
64,192,110947,128,2,111280:0:0:0:0:
320,192,110947,1,0,0:0:0:0:
320,192,111280,1,0,0:0:0:0:
64,192,111613,1,8,0:0:0:0:
192,192,111613,128,0,112113:0:0:0:70:shake.wav
448,192,111613,1,0,0:0:0:0:
320,192,111947,128,0,112280:0:0:0:0:
448,192,112113,128,0,112280:0:0:0:0:
64,192,112280,128,2,112613:0:0:0:0:
192,192,112280,1,0,0:0:0:0:
320,192,112613,1,0,0:0:0:0:
64,192,112947,1,8,0:0:0:0:
192,192,112947,1,0,0:0:0:70:shake.wav
448,192,112947,128,0,113280:0:0:0:0:
320,192,113280,1,0,0:0:0:0:
64,192,113613,128,2,113947:0:0:0:0:
192,192,113613,1,0,0:0:0:0:
448,192,113947,1,0,0:0:0:0:
320,192,113947,1,2,0:0:0:0:
64,192,114280,1,8,0:0:0:0:
192,192,114280,128,0,114447:0:0:0:70:shake.wav
320,192,114280,1,0,0:0:0:0:
64,192,114613,128,2,115613:0:0:0:0:
320,192,114613,1,4,0:0:0:0:
448,192,114613,1,0,0:0:0:0:
192,192,114947,1,0,0:0:0:0:
320,192,115280,1,2,0:0:0:0:
448,192,115280,1,0,0:0:0:0:
192,192,115613,1,8,0:0:0:0:
320,192,115613,1,0,0:0:0:70:shake.wav
64,192,115947,1,4,0:0:0:0:
320,192,115947,1,2,0:0:0:0:
448,192,115947,128,0,116613:0:0:0:0:
192,192,116280,1,8,0:0:0:0:
64,192,116447,1,8,0:0:0:0:
320,192,116613,1,8,0:0:0:0:
192,192,116780,1,8,0:0:0:0:
64,192,116947,128,8,117613:0:0:0:0:
448,192,116947,1,0,0:0:0:0:
320,192,117113,1,0,0:0:0:70:tom2.wav
192,192,117280,1,0,0:0:0:70:tom3.wav
448,192,117280,128,0,117613:0:0:0:0:
192,192,117613,1,4,0:0:0:0:
320,192,117613,128,2,117947:0:0:0:0:
64,192,117947,128,0,118280:0:0:0:0:
192,192,118280,1,8,0:0:0:0:
320,192,118280,1,0,0:0:0:70:shake.wav
448,192,118280,128,0,118780:0:0:0:0:
320,192,118613,128,0,118947:0:0:0:0:
192,192,118780,128,0,119280:0:0:0:0:
64,192,118947,1,2,0:0:0:0:
448,192,118947,1,0,0:0:0:0:
448,192,119280,1,0,0:0:0:0:
64,192,119613,1,8,0:0:0:0:
192,192,119613,128,0,120280:0:0:0:70:shake.wav
320,192,119613,1,0,0:0:0:0:
448,192,119947,128,0,120280:0:0:0:0:
64,192,120280,1,2,0:0:0:0:
320,192,120280,128,0,120613:0:0:0:0:
64,192,120613,128,0,120947:0:0:0:0:
192,192,120947,1,8,0:0:0:0:
320,192,120947,1,0,0:0:0:70:shake.wav
448,192,120947,128,0,121447:0:0:0:0:
320,192,121280,128,0,121613:0:0:0:0:
192,192,121447,128,0,122280:0:0:0:0:
64,192,121613,1,2,0:0:0:0:
448,192,121613,1,0,0:0:0:0:
448,192,121947,1,0,0:0:0:0:
64,192,122280,1,8,0:0:0:0:
320,192,122280,1,0,0:0:0:70:shake.wav
192,192,122613,1,0,0:0:0:0:
64,192,122947,1,2,0:0:0:0:
320,192,122947,1,0,0:0:0:0:
448,192,122947,128,0,123447:0:0:0:0:
192,192,123280,128,0,123780:0:0:0:0:
64,192,123613,1,8,0:0:0:0:
320,192,123613,128,0,123947:0:0:0:70:shake.wav
448,192,123780,128,0,123947:0:0:0:0:
448,192,124113,128,0,124613:0:0:0:0:
64,192,124280,1,2,0:0:0:0:
320,192,124280,1,0,0:0:0:0:
192,192,124613,128,0,124947:0:0:0:0:
64,192,124947,1,8,0:0:0:0:
320,192,124947,128,0,125613:0:0:0:70:shake.wav
448,192,124947,1,0,0:0:0:0:
192,192,125280,128,0,125613:0:0:0:0:
64,192,125613,1,2,0:0:0:0:
448,192,125613,128,0,126280:0:0:0:0:
192,192,125947,1,0,0:0:0:0:
64,192,126280,1,8,0:0:0:0:
320,192,126280,1,0,0:0:0:70:shake.wav
320,192,126613,1,0,0:0:0:0:
192,192,126947,1,2,0:0:0:0:
448,192,126947,128,0,127280:0:0:0:0:
64,192,127280,1,2,0:0:0:0:
320,192,127280,128,0,127613:0:0:0:0:
64,192,127613,1,8,0:0:0:0:
192,192,127613,1,0,0:0:0:70:shake.wav
448,192,127613,1,0,0:0:0:0:
192,192,127947,128,2,128280:0:0:0:0:
448,192,127947,1,0,0:0:0:70:o.hihat.wav
64,192,128280,128,2,128613:0:0:0:0:
320,192,128280,1,4,0:0:0:0:
448,192,128613,128,0,128947:0:0:0:0:
64,192,128947,1,8,0:0:0:0:
192,192,128947,1,0,0:0:0:70:shake.wav
320,192,128947,1,0,0:0:0:0:
320,192,129280,128,0,129613:0:0:0:0:
192,192,129613,1,2,0:0:0:0:
448,192,129613,1,0,0:0:0:0:
192,192,129947,128,0,130280:0:0:0:0:
64,192,130280,1,8,0:0:0:0:
320,192,130280,1,0,0:0:0:70:shake.wav
448,192,130280,1,0,0:0:0:0:
64,192,130613,128,0,131447:0:0:0:0:
192,192,130947,1,2,0:0:0:0:
448,192,130947,1,0,0:0:0:0:
320,192,131280,1,0,0:0:0:0:
64,192,131613,128,8,132113:0:0:0:0:
192,192,131613,1,0,0:0:0:70:shake.wav
448,192,131613,1,0,0:0:0:0:
320,192,131947,128,0,132113:0:0:0:0:
192,192,132113,1,8,0:0:0:0:
448,192,132113,1,0,0:0:0:0:
320,192,132280,1,2,0:0:0:0:
64,192,132447,1,8,0:0:0:0:
192,192,132447,1,0,0:0:0:0:
320,192,132613,1,8,0:0:0:0:
448,192,132613,1,0,0:0:0:0:
64,192,132780,1,0,0:0:0:70:tom2.wav
192,192,132780,1,0,0:0:0:0:
448,192,132947,1,8,0:0:0:0:
64,192,133072,1,0,0:0:0:70:tom2.wav
192,192,133072,1,0,0:0:0:0:
320,192,133238,1,0,0:0:0:70:tom3.wav
448,192,133238,1,0,0:0:0:0:
192,192,133447,1,0,0:0:0:0:
320,192,133502,1,0,0:0:0:0:
448,192,133558,1,0,0:0:0:0:
64,192,133613,1,2,0:0:0:0:
192,192,133613,1,0,0:0:0:30:P1.wav
320,192,133947,1,0,0:0:0:30:P1.wav
320,192,134280,1,0,0:0:0:30:P1.wav
320,192,134621,1,0,0:0:0:30:P1.wav
320,192,134958,1,0,0:0:0:30:P1.wav
320,192,135295,1,0,0:0:0:30:P1.wav
320,192,135632,1,0,0:0:0:30:P1.wav
320,192,135969,1,0,0:0:0:30:P1.wav
64,192,135969,128,0,136306:0:0:0:30:PH2.wav
192,192,136306,1,0,0:0:0:30:PH1.wav
448,192,136306,128,0,136643:0:0:0:30:P1.wav
192,192,136643,1,0,0:0:0:30:P1.wav
192,192,136980,1,0,0:0:0:30:P1.wav
192,192,137305,1,0,0:0:0:30:P1.wav
448,192,137631,1,0,0:0:0:0:
320,192,137631,1,0,0:0:0:30:P1.wav
64,192,137631,1,0,0:0:0:70:tom2.wav
320,192,137946,1,0,0:0:0:70:tom2.wav
448,192,137946,1,0,0:0:0:30:P1.wav
192,192,138112,1,0,0:0:0:0:
64,192,138112,1,0,0:0:0:70:tom2.wav
320,192,138279,1,0,0:0:0:70:shake.wav
448,192,138279,128,0,138612:0:0:0:30:P1.wav
192,192,138446,1,0,0:0:0:70:tom3.wav
64,192,138612,1,0,0:0:0:70:tom3.wav
320,192,138612,1,0,0:0:0:30:P1.wav
64,192,138947,128,2,139113:0:0:0:0:
320,192,138947,1,4,0:0:0:0:
448,192,138947,128,0,139447:0:0:0:0:
64,192,139280,128,0,139447:0:0:0:0:
64,192,139613,1,8,0:0:0:0:
320,192,139613,128,0,139780:0:0:0:70:shake.wav
448,192,139613,1,0,0:0:0:0:
320,192,139947,128,0,140447:0:0:0:0:
64,192,140280,1,2,0:0:0:0:
448,192,140280,1,0,0:0:0:0:
192,192,140613,128,0,140780:0:0:0:0:
64,192,140947,1,8,0:0:0:0:
320,192,140947,1,0,0:0:0:70:shake.wav
448,192,140947,128,0,141113:0:0:0:0:
192,192,141113,1,0,0:0:0:0:
64,192,141280,128,0,141447:0:0:0:0:
448,192,141280,1,0,0:0:0:0:
320,192,141447,1,0,0:0:0:0:
192,192,141613,128,2,142113:0:0:0:0:
448,192,141613,1,0,0:0:0:0:
448,192,141947,1,0,0:0:0:0:
320,192,142113,1,0,0:0:0:0:
64,192,142280,1,8,0:0:0:0:
192,192,142280,1,0,0:0:0:70:shake.wav
448,192,142280,1,0,0:0:0:0:
64,192,142613,1,0,0:0:0:0:
192,192,142780,1,0,0:0:0:0:
64,192,142947,1,2,0:0:0:0:
320,192,142947,128,0,143280:0:0:0:0:
448,192,142947,128,0,143280:0:0:0:0:
192,192,143280,1,0,0:0:0:0:
64,192,143447,1,0,0:0:0:0:
192,192,143613,1,8,0:0:0:0:
320,192,143613,1,0,0:0:0:70:shake.wav
448,192,143613,1,0,0:0:0:0:
320,192,143947,1,0,0:0:0:0:
192,192,144113,1,0,0:0:0:0:
64,192,144280,128,2,144447:0:0:0:0:
448,192,144280,1,0,0:0:0:0:
192,192,144613,128,0,144780:0:0:0:0:
64,192,144947,1,8,0:0:0:0:
320,192,144947,128,0,145113:0:0:0:70:shake.wav
448,192,144947,1,0,0:0:0:0:
320,192,145280,128,0,145447:0:0:0:0:
64,192,145447,128,0,145947:0:0:0:0:
192,192,145613,1,2,0:0:0:0:
448,192,145613,1,0,0:0:0:0:
320,192,145947,128,0,146113:0:0:0:0:
448,192,145947,1,0,0:0:0:0:
64,192,146280,128,8,146447:0:0:0:0:
192,192,146280,1,0,0:0:0:70:shake.wav
448,192,146280,1,0,0:0:0:0:
320,192,146447,1,0,0:0:0:0:
64,192,146613,1,0,0:0:0:0:
448,192,146613,128,0,146780:0:0:0:0:
192,192,146780,1,0,0:0:0:0:
64,192,146947,128,2,147447:0:0:0:0:
320,192,146947,1,0,0:0:0:0:
320,192,147280,1,0,0:0:0:0:
192,192,147447,1,0,0:0:0:0:
64,192,147613,1,8,0:0:0:0:
320,192,147613,1,0,0:0:0:70:shake.wav
448,192,147613,1,0,0:0:0:0:
448,192,147947,1,0,0:0:0:0:
320,192,148113,1,0,0:0:0:0:
64,192,148280,128,2,148613:0:0:0:0:
192,192,148280,128,0,148613:0:0:0:0:
448,192,148280,1,0,0:0:0:0:
320,192,148613,1,0,0:0:0:0:
448,192,148780,1,0,0:0:0:0:
64,192,148947,1,8,0:0:0:0:
192,192,148947,1,0,0:0:0:70:shake.wav
320,192,148947,1,0,0:0:0:0:
192,192,149280,1,0,0:0:0:0:
320,192,149447,1,0,0:0:0:0:
64,192,149613,1,2,0:0:0:0:
448,192,149613,128,0,149780:0:0:0:0:
320,192,149947,128,0,150113:0:0:0:0:
64,192,150280,1,8,0:0:0:0:
192,192,150280,128,0,150447:0:0:0:70:shake.wav
448,192,150280,1,0,0:0:0:0:
192,192,150613,128,0,151113:0:0:0:0:
64,192,150947,1,2,0:0:0:0:
448,192,150947,1,0,0:0:0:0:
320,192,151280,128,0,151447:0:0:0:0:
64,192,151613,128,8,151780:0:0:0:0:
192,192,151613,1,0,0:0:0:70:shake.wav
448,192,151613,1,0,0:0:0:0:
320,192,151780,1,0,0:0:0:0:
64,192,151947,1,0,0:0:0:0:
448,192,151947,128,0,152113:0:0:0:0:
192,192,152113,1,0,0:0:0:0:
64,192,152280,1,2,0:0:0:0:
320,192,152280,128,0,152780:0:0:0:0:
64,192,152613,1,0,0:0:0:0:
192,192,152780,1,0,0:0:0:0:
64,192,152947,1,8,0:0:0:0:
320,192,152947,1,0,0:0:0:70:shake.wav
448,192,152947,1,0,0:0:0:0:
320,192,153280,1,0,0:0:0:0:
192,192,153447,1,0,0:0:0:0:
64,192,153613,128,2,153947:0:0:0:0:
320,192,153613,1,0,0:0:0:0:
448,192,153613,128,0,153947:0:0:0:0:
192,192,153947,1,0,0:0:0:0:
320,192,154113,1,0,0:0:0:0:
64,192,154280,1,8,0:0:0:0:
192,192,154280,1,0,0:0:0:70:shake.wav
448,192,154280,1,0,0:0:0:0:
320,192,154447,1,0,0:0:0:0:
192,192,154613,1,0,0:0:0:0:
64,192,154780,1,0,0:0:0:0:
320,192,154947,128,2,155113:0:0:0:0:
448,192,154947,1,0,0:0:0:0:
192,192,155280,128,0,155447:0:0:0:0:
64,192,155613,128,8,155780:0:0:0:0:
320,192,155613,1,0,0:0:0:70:shake.wav
448,192,155613,1,0,0:0:0:0:
64,192,155947,128,0,156613:0:0:0:0:
320,192,156280,1,2,0:0:0:0:
448,192,156280,1,0,0:0:0:0:
320,192,156613,128,0,156947:0:0:0:0:
64,192,156947,1,8,0:0:0:0:
192,192,156947,1,4,0:0:0:0:
448,192,156947,1,0,0:0:0:70:shake.wav
192,192,157280,128,0,157613:0:0:0:0:
448,192,157280,1,0,0:0:0:0:
64,192,157613,1,2,0:0:0:0:
320,192,157613,1,0,0:0:0:0:
192,192,157947,1,8,0:0:0:0:
320,192,157947,1,0,0:0:0:0:
448,192,157947,1,0,0:0:0:0:
64,192,158280,1,2,0:0:0:0:
448,192,158280,1,0,0:0:0:70:shake.wav
64,192,158613,1,0,0:0:0:70:tom2.wav
192,192,158613,1,0,0:0:0:0:
320,192,158613,1,0,0:0:0:0:
192,192,158947,1,2,0:0:0:0:
448,192,158947,1,0,0:0:0:0:
192,192,159280,1,0,0:0:0:70:tom3.wav
448,192,159280,1,0,0:0:0:0:
64,192,159613,1,8,0:0:0:0:
192,192,159613,1,0,0:0:0:0:
320,192,159780,1,0,0:0:0:70:tom3.wav
448,192,159780,1,0,0:0:0:0:
64,192,159947,1,0,0:0:0:70:tom3.wav
192,192,159947,1,0,0:0:0:0:
320,192,160113,1,0,0:0:0:70:tom3.wav
64,192,160280,1,4,0:0:0:0:
192,192,160280,1,2,0:0:0:0:
448,192,160280,128,0,160613:0:0:0:0:
64,192,160613,1,0,0:0:0:0:
320,192,160613,128,0,160947:0:0:0:0:
64,192,160947,1,8,0:0:0:0:
192,192,160947,128,0,161280:0:0:0:0:
448,192,160947,1,0,0:0:0:0:
64,192,161280,128,0,161613:0:0:0:0:
320,192,161280,1,0,0:0:0:0:
192,192,161613,1,2,0:0:0:0:
448,192,161613,128,0,161947:0:0:0:0:
64,192,161947,1,0,0:0:0:0:
320,192,161947,128,0,162280:0:0:0:0:
64,192,162280,1,8,0:0:0:0:
192,192,162280,1,0,0:0:0:0:
448,192,162280,128,0,162613:0:0:0:0:
192,192,162613,1,0,0:0:0:0:
320,192,162613,128,0,162947:0:0:0:0:
64,192,162947,128,2,163280:0:0:0:0:
448,192,162947,1,0,0:0:0:0:
192,192,163280,128,0,163613:0:0:0:0:
320,192,163280,1,0,0:0:0:0:
64,192,163613,1,8,0:0:0:0:
320,192,163613,128,0,163947:0:0:0:0:
448,192,163613,1,0,0:0:0:0:
192,192,163947,1,0,0:0:0:0:
448,192,163947,128,0,164280:0:0:0:0:
64,192,164280,128,2,164613:0:0:0:0:
192,192,164280,128,0,164613:0:0:0:0:
320,192,164280,1,0,0:0:0:0:
320,192,164613,128,0,164947:0:0:0:0:
448,192,164613,1,0,0:0:0:0:
64,192,164947,128,8,165280:0:0:0:0:
192,192,164947,1,0,0:0:0:0:
448,192,164947,1,0,0:0:0:0:
320,192,165113,1,0,0:0:0:70:tom3.wav
448,192,165280,128,0,165613:0:0:0:0:
192,192,165280,1,0,0:0:0:70:tom3.wav
320,192,165447,1,0,0:0:0:70:tom3.wav
64,192,165613,128,2,165947:0:0:0:0:
192,192,165613,1,0,0:0:0:0:
320,192,165947,128,0,166280:0:0:0:0:
448,192,165947,1,0,0:0:0:0:
64,192,166280,128,8,166613:0:0:0:0:
192,192,166280,1,0,0:0:0:0:
448,192,166280,1,0,0:0:0:0:
192,192,166613,1,0,0:0:0:0:
320,192,166613,128,0,166947:0:0:0:0:
64,192,166947,128,2,167280:0:0:0:0:
448,192,166947,1,0,0:0:0:0:
192,192,167280,128,0,167613:0:0:0:0:
448,192,167280,1,0,0:0:0:0:
64,192,167613,1,8,0:0:0:0:
320,192,167613,128,0,167947:0:0:0:0:
448,192,167613,1,0,0:0:0:0:
192,192,167947,1,0,0:0:0:0:
448,192,167947,128,0,168280:0:0:0:0:
64,192,168280,128,2,168613:0:0:0:0:
320,192,168280,1,0,0:0:0:0:
192,192,168613,1,0,0:0:0:0:
448,192,168613,128,0,168947:0:0:0:0:
64,192,168947,128,8,169280:0:0:0:0:
192,192,168947,1,0,0:0:0:0:
320,192,168947,1,0,0:0:0:0:
320,192,169280,128,0,169613:0:0:0:0:
448,192,169280,1,0,0:0:0:0:
64,192,169613,128,2,169947:0:0:0:0:
192,192,169613,128,0,169947:0:0:0:0:
448,192,169613,1,0,0:0:0:0:
320,192,169947,1,2,0:0:0:0:
448,192,169947,128,0,170280:0:0:0:0:
64,192,170280,1,8,0:0:0:0:
192,192,170280,128,0,170613:0:0:0:0:
320,192,170447,1,0,0:0:0:70:tom3.wav
64,192,170613,128,0,170947:0:0:0:70:tom3.wav
448,192,170613,1,0,0:0:0:0:
192,192,170780,1,0,0:0:0:70:tom3.wav
320,192,170947,1,2,0:0:0:0:
448,192,170947,128,4,171280:0:0:0:0:
64,192,171280,1,0,0:0:0:0:
192,192,171280,128,0,171613:0:0:0:0:
64,192,171613,1,8,0:0:0:0:
320,192,171613,1,0,0:0:0:0:
448,192,171613,128,0,171947:0:0:0:0:
192,192,171947,128,0,172280:0:0:0:0:
320,192,171947,1,0,0:0:0:0:
64,192,172280,1,2,0:0:0:0:
448,192,172280,128,0,172613:0:0:0:0:
64,192,172613,1,0,0:0:0:0:
320,192,172613,128,0,172947:0:0:0:0:
64,192,172947,1,8,0:0:0:0:
192,192,172947,128,0,173280:0:0:0:0:
448,192,172947,1,0,0:0:0:0:
320,192,173280,1,0,0:0:0:0:
448,192,173280,128,0,173613:0:0:0:0:
64,192,173613,128,2,173947:0:0:0:0:
192,192,173613,1,0,0:0:0:0:
320,192,173947,128,0,174280:0:0:0:0:
448,192,173947,1,0,0:0:0:0:
64,192,174280,128,8,174613:0:0:0:0:
192,192,174280,1,0,0:0:0:0:
448,192,174280,1,0,0:0:0:0:
192,192,174613,1,0,0:0:0:0:
320,192,174613,128,0,174947:0:0:0:0:
64,192,174947,128,2,175280:0:0:0:0:
192,192,174947,1,0,0:0:0:0:
448,192,174947,128,0,175280:0:0:0:0:
192,192,175280,128,0,175613:0:0:0:70:tom3.wav
320,192,175280,1,0,0:0:0:0:
64,192,175613,1,8,0:0:0:0:
320,192,175613,1,0,0:0:0:0:
448,192,175613,128,0,175947:0:0:0:0:
192,192,175780,1,0,0:0:0:70:tom3.wav
64,192,175947,128,0,176280:0:0:0:70:tom3.wav
320,192,175947,1,0,0:0:0:0:
192,192,176113,1,0,0:0:0:70:tom3.wav
320,192,176280,1,2,0:0:0:0:
448,192,176280,128,0,176613:0:0:0:0:
64,192,176613,1,0,0:0:0:0:
192,192,176613,128,0,176947:0:0:0:0:
64,192,176947,1,8,0:0:0:0:
320,192,176947,128,0,177280:0:0:0:0:
448,192,176947,1,0,0:0:0:0:
64,192,177280,128,0,177613:0:0:0:0:
192,192,177280,1,0,0:0:0:0:
320,192,177613,1,2,0:0:0:0:
448,192,177613,128,0,177947:0:0:0:0:
192,192,177947,1,0,0:0:0:0:
320,192,177947,128,0,178280:0:0:0:0:
64,192,178280,1,8,0:0:0:0:
192,192,178280,128,0,178613:0:0:0:0:
448,192,178280,1,0,0:0:0:0:
64,192,178613,128,0,178947:0:0:0:0:
320,192,178613,1,0,0:0:0:0:
192,192,178947,128,2,179280:0:0:0:0:
448,192,178947,1,0,0:0:0:0:
64,192,179280,1,0,0:0:0:70:tom2.wav
320,192,179280,128,0,179613:0:0:0:0:
64,192,179613,1,8,0:0:0:0:
192,192,179613,1,0,0:0:0:70:tom3.wav
448,192,179613,128,0,179947:0:0:0:0:
64,192,179947,1,0,0:0:0:0:
192,192,180113,1,0,0:0:0:70:tom2.wav
320,192,180280,1,2,0:0:0:0:
448,192,180280,1,0,0:0:0:0:
64,192,180447,1,8,0:0:0:0:
192,192,180447,1,0,0:0:0:0:
320,192,180613,1,0,0:0:0:70:tom3.wav
448,192,180613,1,0,0:0:0:0:
64,192,180947,1,8,0:0:0:0:
192,192,180947,1,0,0:0:0:0:
448,192,180947,1,0,0:0:0:0:
320,192,181280,1,0,0:0:0:70:tom3.wav
448,192,181280,1,0,0:0:0:0:
192,192,181447,1,0,0:0:0:70:tom3.wav
64,192,181613,128,4,181947:0:0:0:0:
320,192,181613,1,2,0:0:0:0:
448,192,181613,1,0,0:0:0:0:
192,192,181947,128,0,182280:0:0:0:0:
448,192,181947,1,0,0:0:0:0:
64,192,182280,1,8,0:0:0:0:
320,192,182280,128,0,182613:0:0:0:0:
448,192,182280,1,0,0:0:0:0:
192,192,182613,1,0,0:0:0:0:
448,192,182613,128,0,182947:0:0:0:0:
64,192,182947,128,2,183280:0:0:0:0:
320,192,182947,1,0,0:0:0:0:
192,192,183280,128,0,183613:0:0:0:0:
448,192,183280,1,0,0:0:0:0:
448,192,183613,128,8,183947:0:0:0:0:
64,192,183613,1,0,0:0:0:0:
320,192,183613,1,0,0:0:0:0:
320,192,183947,128,0,184280:0:0:0:0:
192,192,183947,1,0,0:0:0:0:
64,192,184280,1,2,0:0:0:0:
192,192,184280,1,0,0:0:0:0:
192,192,184613,1,8,0:0:0:0:
320,192,184613,1,0,0:0:0:0:
448,192,184613,1,0,0:0:0:0:
64,192,184947,1,0,0:0:0:70:tom3.wav
448,192,184947,1,0,0:0:0:0:
192,192,185280,1,8,0:0:0:0:
320,192,185280,1,0,0:0:0:70:tom2.wav
64,192,185613,128,2,185947:0:0:0:0:
320,192,185613,1,0,0:0:0:0:
448,192,185613,128,0,185947:0:0:0:0:
192,192,185947,128,2,186280:0:0:0:0:
320,192,185947,1,0,0:0:0:70:tom3.wav
64,192,186280,1,0,0:0:0:70:tom3.wav
320,192,186280,128,0,186613:0:0:0:0:
448,192,186280,1,0,0:0:0:0:
192,192,186447,1,0,0:0:0:70:tom3.wav
64,192,186613,1,0,0:0:0:70:tom3.wav
448,192,186613,128,0,186947:0:0:0:0:
192,192,186780,1,2,0:0:0:0:
64,192,186947,1,0,0:0:0:30:P3.wav
64,192,187279,1,0,0:0:0:30:P3.wav
64,192,187609,1,0,0:0:0:30:P3.wav
64,192,187939,1,0,0:0:0:30:P3.wav
64,192,188269,1,0,0:0:0:30:P3.wav
64,192,188599,1,0,0:0:0:30:P3.wav
64,192,188929,1,0,0:0:0:30:P3.wav
64,192,189259,1,0,0:0:0:30:P3.wav
192,192,189589,1,0,0:0:0:30:P6.wav
448,192,189589,128,0,190255:0:0:0:0:
192,192,189922,1,0,0:0:0:30:P6.wav
192,192,190255,1,0,0:0:0:30:P6.wav
192,192,190589,1,0,0:0:0:30:P6.wav
192,192,190922,1,0,0:0:0:30:P6.wav
192,192,191255,1,0,0:0:0:30:P6.wav
192,192,191589,1,0,0:0:0:30:P6.wav
192,192,191922,1,0,0:0:0:30:P6.wav
64,192,192255,128,0,192936:0:0:0:30:P3.wav
448,192,192255,1,0,0:0:0:0:
448,192,192595,1,0,0:0:0:30:P3.wav
448,192,192936,1,0,0:0:0:30:P3.wav
448,192,193276,1,0,0:0:0:30:P3.wav
448,192,193617,1,0,0:0:0:30:P3.wav
448,192,193950,1,0,0:0:0:30:P3.wav
448,192,194283,1,0,0:0:0:30:P3.wav
448,192,194617,1,0,0:0:0:30:P3.wav
64,192,194950,128,0,195617:0:0:0:30:P1.wav
320,192,194950,1,0,0:0:0:0:
320,192,195283,1,0,0:0:0:30:P1.wav
320,192,195617,1,0,0:0:0:30:P1.wav
320,192,195950,1,0,0:0:0:30:P1.wav
320,192,196283,1,0,0:0:0:30:P1.wav
320,192,196617,1,0,0:0:0:30:P1.wav
320,192,196950,1,0,0:0:0:30:P1.wav
320,192,197283,1,0,0:0:0:30:P1.wav
64,192,197533,1,0,0:0:0:0:
192,192,197617,1,0,0:0:0:30:P3.wav
448,192,197617,128,0,198280:0:0:0:0:
192,192,197948,1,0,0:0:0:30:P3.wav
192,192,198280,1,0,0:0:0:30:P3.wav
192,192,198612,1,0,0:0:0:30:P3.wav
192,192,198944,1,0,0:0:0:30:P3.wav
192,192,199276,1,0,0:0:0:30:P3.wav
192,192,199608,1,0,0:0:0:30:P3.wav
192,192,199940,1,0,0:0:0:30:P3.wav
64,192,200248,128,0,200914:0:0:0:30:P1.wav
448,192,200248,1,0,0:0:0:0:
448,192,200581,1,0,0:0:0:30:P1.wav
448,192,200914,1,0,0:0:0:30:P1.wav
448,192,201248,1,0,0:0:0:30:P1.wav
448,192,201614,1,0,0:0:0:30:P1.wav
448,192,201951,1,0,0:0:0:30:P1.wav
448,192,202288,1,0,0:0:0:30:P1.wav
448,192,202625,1,0,0:0:0:30:P1.wav
64,192,202947,1,0,0:0:0:30:P9.wav
320,192,202947,128,0,203613:0:0:0:0:
64,192,203280,1,0,0:0:0:30:P9.wav
64,192,203613,1,0,0:0:0:30:P9.wav
64,192,203947,1,0,0:0:0:30:P9.wav
64,192,204280,1,0,0:0:0:30:P9.wav
64,192,204613,1,0,0:0:0:30:P9.wav
64,192,204947,1,0,0:0:0:30:P9.wav
64,192,205280,1,0,0:0:0:30:P9.wav
192,192,205613,128,0,206280:0:0:0:30:P8.wav
448,192,205613,1,0,0:0:0:0:
448,192,205947,1,0,0:0:0:30:P8.wav
448,192,206280,1,0,0:0:0:30:P8.wav
64,192,206613,128,0,206947:0:0:0:30:P8.wav
448,192,206613,1,0,0:0:0:0:
192,192,206947,128,0,207280:0:0:0:30:P8.wav
448,192,206947,1,0,0:0:0:0:
64,192,207280,128,0,207947:0:0:0:30:P8.wav
448,192,207280,1,0,0:0:0:0:
448,192,207613,1,0,0:0:0:30:P8.wav
320,192,207947,128,0,208280:0:0:0:30:P8.wav
448,192,207947,1,0,0:0:0:0:
64,192,208280,1,0,0:0:0:30:P3.wav
192,192,208280,1,0,0:0:0:0:
448,192,208280,128,0,209946:0:0:0:0:
192,192,208632,1,0,0:0:0:30:P3.wav
192,192,208985,1,0,0:0:0:30:P3.wav
192,192,209280,1,0,0:0:0:30:P3.wav
192,192,209613,1,0,0:0:0:30:P3.wav
192,192,209946,1,0,0:0:0:30:P3.wav
320,192,209946,128,0,210613:0:0:0:0:
192,192,210280,1,0,0:0:0:30:P3.wav
64,192,210613,128,0,210960:0:0:0:30:P3.wav
192,192,210613,1,0,0:0:0:0:
192,192,210960,128,0,212626:0:0:0:30:P2.wav
320,192,210960,1,0,0:0:0:0:
448,192,210960,1,0,0:0:0:0:
448,192,211293,1,0,0:0:0:30:P2.wav
448,192,211626,1,0,0:0:0:30:P2.wav
448,192,211960,1,0,0:0:0:30:P2.wav
448,192,212293,1,0,0:0:0:30:P2.wav
64,192,212626,128,0,213293:0:0:0:30:P2.wav
448,192,212626,1,0,0:0:0:0:
448,192,212960,1,0,0:0:0:30:P2.wav
192,192,213293,128,0,213626:0:0:0:30:P2.wav
448,192,213293,1,0,0:0:0:0:
64,192,213626,1,0,0:0:0:30:P3.wav
320,192,213626,1,0,0:0:0:0:
448,192,213626,128,0,215626:0:0:0:0:
64,192,213960,1,0,0:0:0:30:P3.wav
64,192,214293,1,0,0:0:0:30:P3.wav
64,192,214626,1,0,0:0:0:30:P3.wav
64,192,214960,1,0,0:0:0:30:P3.wav
64,192,215293,1,0,0:0:0:30:P3.wav
64,192,215626,1,0,0:0:0:30:P3.wav
320,192,215626,128,0,215960:0:0:0:0:
64,192,215960,1,0,0:0:0:30:P3.wav
192,192,215960,128,0,216293:0:0:0:0:
64,192,216293,128,0,218626:0:0:0:30:P1.wav
320,192,216293,1,0,0:0:0:0:
448,192,216293,1,0,0:0:0:0:
448,192,216626,1,0,0:0:0:30:P1.wav
448,192,216960,1,0,0:0:0:30:P1.wav
448,192,217293,1,0,0:0:0:30:P1.wav
448,192,217626,1,0,0:0:0:30:P1.wav
448,192,217960,1,0,0:0:0:30:P1.wav
448,192,218293,1,0,0:0:0:30:P1.wav
192,192,218626,128,0,218947:0:0:0:30:P1.wav
448,192,218626,1,0,0:0:0:0:
64,192,218947,1,0,0:0:0:30:P3.wav
320,192,218947,1,0,0:0:0:0:
448,192,218947,128,0,220280:0:0:0:0:
64,192,219280,1,0,0:0:0:30:P3.wav
64,192,219613,1,0,0:0:0:30:P3.wav
64,192,219947,1,0,0:0:0:30:P3.wav
64,192,220280,1,0,0:0:0:30:P8.wav
320,192,220280,128,0,221280:0:0:0:0:
64,192,220613,1,0,0:0:0:30:P8.wav
64,192,220947,1,0,0:0:0:30:P8.wav
64,192,221280,1,0,0:0:0:30:P8.wav
192,192,221280,128,0,221613:0:0:0:0:
64,192,221613,128,0,222947:0:0:0:30:P1.wav
320,192,221613,1,0,0:0:0:0:
448,192,221613,1,0,0:0:0:0:
320,192,221947,1,0,0:0:0:30:P1.wav
320,192,222280,1,0,0:0:0:30:P1.wav
320,192,222613,1,0,0:0:0:30:P1.wav
320,192,222947,1,0,0:0:0:30:P1.wav
448,192,222947,128,0,223947:0:0:0:0:
320,192,223280,1,0,0:0:0:30:P1.wav
320,192,223613,1,0,0:0:0:30:P1.wav
64,192,223947,128,0,224279:0:0:0:30:P1.wav
320,192,223947,1,0,0:0:0:0:
192,192,224279,128,4,226945:0:0:0:0:
320,192,224279,1,2,0:0:0:0:
448,192,224279,1,0,0:0:0:0:
448,192,224945,1,0,0:0:0:0:
448,192,225612,1,0,0:0:0:0:
448,192,226279,1,0,0:0:0:0:
64,192,226945,1,2,0:0:0:0:
320,192,226945,1,0,0:0:0:0:
448,192,226945,128,0,227279:0:0:0:0:
192,192,227279,1,0,0:0:0:0:
320,192,227612,1,2,0:0:0:0:
448,192,227612,1,0,0:0:0:0:
64,192,227945,128,0,228279:0:0:0:0:
192,192,227945,1,0,0:0:0:0:
320,192,228279,1,2,0:0:0:0:
448,192,228279,1,0,0:0:0:0:
192,192,228612,1,0,0:0:0:0:
64,192,228945,1,8,0:0:0:0:
320,192,228945,1,0,0:0:0:0:
448,192,228945,1,0,0:0:0:0:
192,192,229279,1,0,0:0:0:0:
64,192,229612,128,2,229945:0:0:0:0:
320,192,229612,1,0,0:0:0:0:
192,192,229945,128,0,230279:0:0:0:0:
448,192,229945,1,0,0:0:0:0:
64,192,230279,1,8,0:0:0:0:
320,192,230279,128,0,230612:0:0:0:0:o.hihat.wav
448,192,230279,1,0,0:0:0:0:
192,192,230612,1,0,0:0:0:0:
448,192,230612,128,0,230945:0:0:0:0:
64,192,230779,1,8,0:0:0:0:
192,192,230945,128,2,231279:0:0:0:0:
320,192,230945,1,0,0:0:0:0:
64,192,231279,1,2,0:0:0:0:
448,192,231279,128,0,231612:0:0:0:0:
192,192,231445,1,8,0:0:0:0:
64,192,231612,128,0,231945:0:0:0:70:tom2.wav
320,192,231612,1,0,0:0:0:0:
192,192,231779,1,0,0:0:0:70:tom3.wav
320,192,231945,128,0,232279:0:0:0:70:tom3.wav
448,192,231945,1,0,0:0:0:0:
448,192,232279,128,4,232612:0:0:0:0:
64,192,232279,1,2,0:0:0:0:
192,192,232279,1,0,0:0:0:0:
192,192,232612,1,0,0:0:0:0:
320,192,232945,1,8,0:0:0:0:
64,192,232945,1,0,0:0:0:70:shake.wav
448,192,232945,128,0,233279:0:0:0:0:
192,192,233279,1,0,0:0:0:0:
64,192,233612,128,2,233945:0:0:0:0:
448,192,233612,1,0,0:0:0:0:
320,192,233945,1,0,0:0:0:0:
64,192,234279,128,8,234612:0:0:0:0:
192,192,234279,1,0,0:0:0:70:shake.wav
448,192,234279,1,0,0:0:0:0:
320,192,234612,128,0,235945:0:0:0:0:
448,192,234945,128,2,235279:0:0:0:0:
64,192,234945,1,0,0:0:0:0:
192,192,235279,1,0,0:0:0:0:
448,192,235612,128,8,235945:0:0:0:0:
64,192,235612,1,0,0:0:0:70:shake.wav
192,192,235945,1,0,0:0:0:0:
320,192,236279,128,2,236612:0:0:0:0:
64,192,236279,1,0,0:0:0:0:
64,192,236612,1,0,0:0:0:0:
192,192,236945,128,8,237445:0:0:0:0:
320,192,236945,1,0,0:0:0:70:shake.wav
448,192,236945,1,0,0:0:0:0:
320,192,237279,128,0,237612:0:0:0:0:
448,192,237445,128,0,237612:0:0:0:0:
64,192,237612,128,2,237945:0:0:0:0:
192,192,237612,1,0,0:0:0:0:
320,192,237945,1,0,0:0:0:0:
64,192,238279,1,8,0:0:0:0:
192,192,238279,128,0,238612:0:0:0:70:shake.wav
448,192,238279,1,0,0:0:0:0:
320,192,238612,1,0,0:0:0:0:
192,192,238945,128,2,239279:0:0:0:0:
448,192,238945,1,0,0:0:0:0:
64,192,239279,1,0,0:0:0:0:
320,192,239279,1,0,0:0:0:0:
64,192,239612,128,8,239779:0:0:0:0:
192,192,239612,1,0,0:0:0:70:shake.wav
448,192,239612,1,0,0:0:0:0:
192,192,239945,1,2,0:0:0:0:
320,192,239945,1,4,0:0:0:0:
448,192,239945,128,0,240945:0:0:0:0:
64,192,240279,1,0,0:0:0:0:
192,192,240612,1,2,0:0:0:0:
320,192,240612,1,0,0:0:0:0:
64,192,240945,1,8,0:0:0:0:
192,192,240945,1,0,0:0:0:70:shake.wav
64,192,241279,128,2,241945:0:0:0:0:
320,192,241279,1,4,0:0:0:0:
448,192,241279,1,0,0:0:0:0:
192,192,241612,1,8,0:0:0:0:
320,192,241779,1,8,0:0:0:0:
448,192,241945,1,2,0:0:0:0:
320,192,242112,1,0,0:0:0:70:tom2.wav
64,192,242279,128,0,242612:0:0:0:70:tom2.wav
192,192,242279,1,0,0:0:0:0:
320,192,242445,1,0,0:0:0:70:tom3.wav
192,192,242612,1,0,0:0:0:70:tom3.wav
448,192,242612,128,0,242945:0:0:0:0:
64,192,242945,128,2,243279:0:0:0:0:
192,192,242945,1,4,0:0:0:0:
320,192,242945,1,0,0:0:0:0:
320,192,243279,128,0,243612:0:0:0:0:
64,192,243612,1,8,0:0:0:0:
192,192,243612,128,0,244112:0:0:0:70:shake.wav
448,192,243612,1,0,0:0:0:0:
320,192,243945,128,0,244279:0:0:0:0:
448,192,244112,128,0,244612:0:0:0:0:
64,192,244279,1,2,0:0:0:0:
192,192,244279,1,0,0:0:0:0:
192,192,244612,1,0,0:0:0:0:
64,192,244945,1,8,0:0:0:0:
320,192,244945,1,0,0:0:0:70:shake.wav
448,192,244945,128,0,245612:0:0:0:0:
192,192,245279,128,0,245612:0:0:0:0:
64,192,245612,128,2,245945:0:0:0:0:
320,192,245612,1,0,0:0:0:0:
320,192,245945,128,0,246279:0:0:0:0:
64,192,246279,1,8,0:0:0:0:
192,192,246279,128,0,246779:0:0:0:70:shake.wav
448,192,246279,1,0,0:0:0:0:
320,192,246612,128,0,246945:0:0:0:0:
448,192,246779,128,0,247612:0:0:0:0:
64,192,246945,1,2,0:0:0:0:
192,192,246945,1,0,0:0:0:0:
192,192,247279,1,0,0:0:0:0:
64,192,247612,1,8,0:0:0:0:
320,192,247612,1,0,0:0:0:70:shake.wav
448,192,247945,1,0,0:0:0:0:
64,192,248279,128,2,248779:0:0:0:0:
192,192,248279,1,0,0:0:0:0:
320,192,248279,1,0,0:0:0:0:
448,192,248612,128,0,249112:0:0:0:0:
64,192,248945,1,8,0:0:0:0:
320,192,248945,128,0,249279:0:0:0:70:shake.wav
192,192,249112,128,0,249279:0:0:0:0:
192,192,249445,128,0,249945:0:0:0:0:
64,192,249612,1,2,0:0:0:0:
320,192,249612,1,0,0:0:0:0:
448,192,249945,128,0,250279:0:0:0:0:
64,192,250279,128,8,250945:0:0:0:0:
192,192,250279,1,0,0:0:0:70:shake.wav
320,192,250279,1,0,0:0:0:0:
448,192,250612,128,0,250945:0:0:0:0:
192,192,250945,1,2,0:0:0:0:
320,192,250945,128,0,251612:0:0:0:0:
64,192,251279,1,0,0:0:0:0:
192,192,251612,1,8,0:0:0:0:
448,192,251612,1,0,0:0:0:70:shake.wav
192,192,251945,1,0,0:0:0:0:
64,192,252279,128,2,252612:0:0:0:0:
320,192,252279,1,0,0:0:0:0:
192,192,252612,128,2,252945:0:0:0:0:
448,192,252612,1,0,0:0:0:0:
64,192,252945,1,8,0:0:0:0:
320,192,252945,1,0,0:0:0:70:shake.wav
448,192,252945,1,0,0:0:0:0:
64,192,253279,1,2,0:0:0:0:
320,192,253279,1,0,0:0:0:0:
192,192,253612,128,2,253945:0:0:0:0:
448,192,253612,1,4,0:0:0:0:
320,192,253945,128,0,254279:0:0:0:0:
64,192,254279,1,8,0:0:0:0:
192,192,254279,1,0,0:0:0:70:shake.wav
448,192,254279,1,0,0:0:0:0:
448,192,254612,128,0,254945:0:0:0:0:
64,192,254945,1,2,0:0:0:0:
320,192,254945,1,0,0:0:0:0:
320,192,255279,128,0,255612:0:0:0:0:
64,192,255612,1,8,0:0:0:0:
192,192,255612,1,0,0:0:0:70:shake.wav
448,192,255612,1,0,0:0:0:0:
64,192,255945,128,0,256779:0:0:0:0:
192,192,256279,1,2,0:0:0:0:
448,192,256279,1,0,0:0:0:0:
320,192,256612,1,0,0:0:0:0:
64,192,256945,128,8,257445:0:0:0:0:
192,192,256945,1,0,0:0:0:70:shake.wav
448,192,256945,1,0,0:0:0:0:
320,192,257279,128,0,257445:0:0:0:0:
192,192,257445,1,8,0:0:0:0:
448,192,257445,1,0,0:0:0:0:
64,192,257612,1,0,0:0:0:0:
320,192,257612,1,0,0:0:0:0:
192,192,257779,1,0,0:0:0:0:
64,192,257945,1,8,0:0:0:0:
448,192,257945,1,0,0:0:0:0:
320,192,258112,1,0,0:0:0:70:tom2.wav
64,192,258279,1,8,0:0:0:0:
192,192,258279,1,0,0:0:0:70:shake.wav
320,192,258445,1,8,0:0:0:0:
448,192,258445,1,0,0:0:0:0:
64,192,258612,1,0,0:0:0:70:tom3.wav
192,192,258612,1,0,0:0:0:0:
448,192,258779,1,0,0:0:0:0:
320,192,258862,1,0,0:0:0:0:
64,192,258945,128,2,259445:0:0:0:0:
192,192,258945,1,4,0:0:0:0:
192,192,259279,128,0,259612:0:0:0:0:
320,192,259445,128,0,259945:0:0:0:0:
64,192,259612,1,8,0:0:0:0:
448,192,259612,1,0,0:0:0:70:shake.wav
192,192,259779,128,0,260112:0:0:0:0:
64,192,259945,128,0,260945:0:0:0:0:
320,192,260279,1,2,0:0:0:0:
448,192,260279,1,0,0:0:0:0:
192,192,260612,1,0,0:0:0:0:
320,192,260945,1,8,0:0:0:0:
448,192,260945,1,0,0:0:0:70:shake.wav
192,192,261279,1,0,0:0:0:0:
64,192,261612,1,2,0:0:0:0:
448,192,261612,1,0,0:0:0:0:
320,192,261945,1,0,0:0:0:0:
64,192,262279,1,8,0:0:0:0:
192,192,262279,1,0,0:0:0:70:shake.wav
448,192,262279,1,0,0:0:0:0:
192,192,262612,1,0,0:0:0:0:
64,192,262945,1,2,0:0:0:0:
448,192,262945,1,0,0:0:0:0:
320,192,263112,1,0,0:0:0:0:
192,192,263279,1,0,0:0:0:0:
320,192,263445,1,0,0:0:0:0:
64,192,263612,1,8,0:0:0:0:
192,192,263612,1,0,0:0:0:70:shake.wav
448,192,263612,1,0,0:0:0:0:
64,192,263945,1,0,0:0:0:0:
192,192,264056,1,0,0:0:0:0:
320,192,264167,1,0,0:0:0:0:
64,192,264279,1,2,0:0:0:0:
448,192,264279,128,0,264779:0:0:0:0:
320,192,264612,128,0,264945:0:0:0:0:
192,192,264779,128,0,265279:0:0:0:0:
64,192,264945,1,8,0:0:0:0:
448,192,264945,1,0,0:0:0:70:shake.wav
320,192,265112,128,0,265445:0:0:0:0:
448,192,265279,128,0,266279:0:0:0:0:
64,192,265612,1,2,0:0:0:0:
192,192,265612,1,0,0:0:0:0:
320,192,265945,1,0,0:0:0:0:
64,192,266279,1,8,0:0:0:0:
192,192,266279,1,0,0:0:0:70:shake.wav
320,192,266612,1,0,0:0:0:0:
64,192,266779,1,8,0:0:0:0:
448,192,266779,1,0,0:0:0:0:
192,192,266945,1,2,0:0:0:0:
320,192,266945,1,0,0:0:0:0:
448,192,267112,1,8,0:0:0:0:
64,192,267279,1,2,0:0:0:0:
192,192,267279,1,0,0:0:0:0:
320,192,267445,1,8,0:0:0:0:
64,192,267612,1,8,0:0:0:0:
448,192,267612,1,0,0:0:0:70:shake.wav
320,192,267779,1,0,0:0:0:70:tom2.wav
64,192,267945,1,0,0:0:0:70:tom3.wav
192,192,267945,1,0,0:0:0:0:
320,192,268112,1,8,0:0:0:0:
448,192,268112,1,0,0:0:0:0:
64,192,268279,1,2,0:0:0:0:
192,192,268279,1,0,0:0:0:0:
320,192,268612,1,2,0:0:0:0:
448,192,268612,1,0,0:0:0:0:
64,192,268779,1,0,0:0:0:70:tom3.wav
192,192,268779,1,0,0:0:0:0:
448,192,268945,1,0,0:0:0:70:tom3.wav
64,192,269112,1,0,0:0:0:70:tom3.wav
192,192,269112,1,0,0:0:0:0:
320,192,269279,1,0,0:0:0:70:tom3.wav
448,192,269279,1,0,0:0:0:0:
64,192,269445,1,0,0:0:0:0:
192,192,269529,1,0,0:0:0:0:
320,192,269612,128,2,270112:0:0:0:0:
448,192,269612,1,4,0:0:0:0:
192,192,269945,128,0,270279:0:0:0:0:
64,192,270112,128,0,270612:0:0:0:0:
320,192,270279,1,8,0:0:0:0:
448,192,270279,1,0,0:0:0:70:shake.wav
192,192,270445,128,0,270779:0:0:0:0:
320,192,270612,128,0,271612:0:0:0:0:
64,192,270945,1,2,0:0:0:0:
448,192,270945,1,0,0:0:0:0:
192,192,271279,1,0,0:0:0:0:
64,192,271612,1,8,0:0:0:0:
448,192,271612,1,0,0:0:0:70:shake.wav
320,192,271945,1,0,0:0:0:0:
64,192,272279,1,2,0:0:0:0:
448,192,272279,1,0,0:0:0:0:
192,192,272612,1,0,0:0:0:0:
64,192,272945,1,8,0:0:0:0:
320,192,272945,1,0,0:0:0:70:shake.wav
448,192,272945,1,0,0:0:0:0:
448,192,273279,1,0,0:0:0:0:
64,192,273612,1,2,0:0:0:0:
320,192,273612,1,0,0:0:0:0:
448,192,273779,1,0,0:0:0:0:
192,192,273945,1,0,0:0:0:0:
320,192,274112,1,0,0:0:0:0:
64,192,274279,1,8,0:0:0:0:
192,192,274279,1,0,0:0:0:70:shake.wav
448,192,274279,1,0,0:0:0:0:
320,192,274612,1,0,0:0:0:0:
192,192,274945,128,2,275445:0:0:0:0:
448,192,274945,1,0,0:0:0:0:
320,192,275279,128,0,275612:0:0:0:0:
448,192,275445,128,0,275945:0:0:0:0:
64,192,275612,1,8,0:0:0:0:
192,192,275612,1,0,0:0:0:70:shake.wav
320,192,275779,128,0,276112:0:0:0:0:
192,192,275945,128,0,276945:0:0:0:0:
64,192,276279,1,2,0:0:0:0:
448,192,276279,1,0,0:0:0:0:
320,192,276612,1,0,0:0:0:0:
64,192,276945,1,8,0:0:0:0:
448,192,276945,1,0,0:0:0:70:shake.wav
192,192,277279,1,0,0:0:0:0:
320,192,277612,1,2,0:0:0:0:
448,192,277612,1,0,0:0:0:0:
192,192,277945,1,0,0:0:0:70:o.hihat.wav
64,192,278279,1,8,0:0:0:0:
320,192,278279,1,0,0:0:0:70:shake.wav
448,192,278279,1,0,0:0:0:0:
192,192,278612,1,0,0:0:0:0:
320,192,278779,1,8,0:0:0:0:
448,192,278779,1,0,0:0:0:0:
64,192,278945,1,2,0:0:0:0:
192,192,278945,1,0,0:0:0:0:
448,192,279112,1,8,0:0:0:0:
64,192,279279,1,0,0:0:0:70:tom2.wav
192,192,279279,1,0,0:0:0:0:
320,192,279445,1,0,0:0:0:70:tom2.wav
448,192,279445,1,0,0:0:0:0:
64,192,279612,1,0,0:0:0:70:shake.wav
192,192,279612,1,0,0:0:0:70:tom3.wav
320,192,279779,1,0,0:0:0:70:tom3.wav
64,192,279945,1,0,0:0:0:70:tom3.wav
448,192,279945,1,0,0:0:0:0:
192,192,280279,128,2,285612:0:0:0:0:
320,192,280279,128,4,285612:0:0:0:0:
448,192,280279,1,0,0:0:0:0:
