osu file format v14

[General]
AudioFilename: audio.mp3
AudioLeadIn: 0
PreviewTime: 49038
Countdown: 0
SampleSet: None
StackLeniency: 0.5
Mode: 0
LetterboxInBreaks: 0
WidescreenStoryboard: 1

[Editor]
DistanceSpacing: 1.2
BeatDivisor: 2
GridSize: 4
TimelineZoom: 2.3

[Metadata]
Title:Perfect World
TitleUnicode:Perfect World
Artist:ROCKY CHACK
ArtistUnicode:ROCKY CHACK
Creator:Boruma
Version:Hard
Source:Spice & Wolf II
Tags:spice & wolf ending 2 ookami to koushinryou
BeatmapID:1260254
BeatmapSetID:595158

[Difficulty]
HPDrainRate:4
CircleSize:3.5
OverallDifficulty:4
ApproachRate:6
SliderMultiplier:1.70000000596046
SliderTickRate:1

[Events]
//Background and Video events
0,0,"Spice_and_Wolf.png",0,0
Video,741,"SnW2End.mp4"
//Break Periods
//Storyboard Layer 0 (Background)
//Storyboard Layer 1 (Fail)
//Storyboard Layer 2 (Pass)
//Storyboard Layer 3 (Foreground)
//Storyboard Sound Samples

[TimingPoints]
1438,400,4,1,0,65,1,0
55438,-100,4,1,0,65,0,1
75038,-100,4,1,0,65,0,0

[HitObjects]
256,192,1438,12,2,4638,0:1:0:0:
92,240,5038,6,2,P|116:104|140:96,1,170.000000596046,8|0,0:0|0:0,0:0:0:0:
328,104,5838,2,2,P|396:148|480:92,1,170.000000596046,8|2,0:0|0:0,0:0:0:0:
480,316,6638,2,2,P|408:276|320:304,1,170.000000596046,8|0,0:0|0:0,0:0:0:0:
132,356,7438,1,8,0:0:0:0:
52,168,7838,6,2,P|72:100|176:88,1,170.000000596046,2|8,0:0|0:0,0:0:0:0:
296,232,8638,2,0,P|376:232|392:156,1,170.000000596046,0|8,0:0|0:0,0:0:0:0:
232,32,9438,1,0,0:0:0:0:
96,184,9838,1,8,0:0:0:0:
296,216,10238,6,4,P|376:256|444:216,1,170.000000596046,2|8,0:0|0:0,0:0:0:0:
324,52,11038,2,6,L|152:52,1,170.000000596046,0|8,0:0|0:0,0:0:0:0:
128,252,11838,6,2,P|80:188|128:124,1,170.000000596046,0|8,0:0|0:0,0:0:0:0:
332,124,12638,2,2,P|292:180|168:160,1,170.000000596046,8|8,0:0|0:0,0:0:0:0:
56,36,13438,1,0,0:0:0:0:
124,228,13838,1,8,0:0:0:0:
320,284,14238,2,4,B|396:244|396:244|400:156,1,170.000000596046,2|8,0:0|0:0,0:0:0:0:
212,84,15038,5,4,0:0:0:0:
412,48,15438,2,2,P|484:100|472:176,1,170.000000596046,8|0,0:0|0:0,0:0:0:0:
328,316,16238,1,8,0:0:0:0:
332,320,16438,1,0,0:0:0:0:
236,288,16638,2,4,P|184:272|160:224,1,85.000000298023,2|0,0:0|0:0,0:0:0:0:
140,152,17038,1,8,0:0:0:0:
140,152,17238,1,0,0:0:0:0:
224,92,17438,2,8,P|356:120|384:100,1,170.000000596046,2|8,0:0|0:0,0:0:0:0:
476,288,18238,6,8,P|396:328|308:296,1,170.000000596046,0|8,0:0|0:0,0:0:0:0:
124,256,19038,2,8,P|88:188|132:108,1,170.000000596046,0|8,0:0|0:0,0:0:0:0:
316,32,19838,2,8,P|236:72|148:44,1,170.000000596046,0|8,0:0|0:0,0:0:0:0:
28,208,20638,1,0,0:0:0:0:
204,312,21038,1,8,0:0:0:0:
332,152,21438,2,8,B|404:108|404:108|492:132,2,170.000000596046,0|8|0,0:0|0:0|0:0,0:0:0:0:
188,296,22638,5,8,0:0:0:0:
124,100,23038,2,8,P|168:156|280:124,1,170.000000596046,8|8,0:0|0:0,0:0:0:0:
448,64,23838,1,0,0:0:0:0:
424,268,24238,1,8,0:0:0:0:
224,224,24638,6,8,P|196:312|284:336,1,170.000000596046,8|8,0:0|0:0,0:0:0:0:
448,300,25438,1,0,0:0:0:0:
404,100,25838,1,8,0:0:0:0:
368,196,26038,1,8,0:0:0:0:
272,164,26238,2,8,L|236:80,1,85.000000298023,0|0,0:0|0:0,0:0:0:0:
144,44,26638,1,8,0:0:0:0:
76,120,26838,1,0,0:0:0:0:
132,204,27038,2,8,L|220:252,1,85.000000298023,0|0,0:0|0:0,0:0:0:0:
276,320,27438,1,8,0:0:0:0:
316,228,27638,1,8,0:0:0:0:
396,168,27838,6,0,P|448:212|448:252,1,85.000000298023,0|0,0:0|0:0,0:0:0:0:
432,324,28238,2,4,P|380:308|360:268,1,85.000000298023,8|0,0:0|0:0,0:0:0:0:
324,192,28638,6,4,P|332:152|300:88,1,85.000000298023,2|0,0:0|0:0,0:0:0:0:
228,64,29038,1,8,0:0:0:0:
136,108,29238,2,4,P|156:144|196:164,1,85.000000298023,0|0,0:0|0:0,0:0:0:0:
284,204,29638,1,0,0:0:0:0:
284,204,29838,1,8,0:0:0:0:
220,284,30038,2,4,P|184:312|132:300,2,85.000000298023,0|2|2,0:0|0:0|0:0,0:0:0:0:
292,212,30638,1,8,0:0:0:0:
496,240,31038,6,8,P|484:280|368:316,1,170.000000596046,0|8,0:0|0:0,0:0:0:0:
176,260,31838,1,0,0:0:0:0:
356,160,32238,2,8,P|384:76|308:28,1,170.000000596046,8|0,0:0|0:0,0:0:0:0:
128,56,33038,2,8,P|92:140|160:208,1,170.000000596046,8|0,0:0|0:0,0:0:0:0:
220,252,33638,1,0,0:0:0:0:
316,288,33838,2,8,P|404:316|472:272,1,170.000000596046,8|0,0:0|0:0,0:0:0:0:
412,84,34638,6,8,L|232:80,1,170.000000596046,8|0,0:0|0:0,0:0:0:0:
80,204,35438,2,8,L|260:204,1,170.000000596046,8|12,0:0|0:0,0:0:0:0:
440,276,36238,1,12,0:0:0:0:
364,88,36638,1,12,0:0:0:0:
232,244,37038,1,12,0:0:0:0:
112,80,37438,6,8,P|60:132|108:216,1,170.000000596046,0|8,0:0|0:0,0:0:0:0:
276,304,38238,1,0,0:0:0:0:
436,176,38638,2,8,P|444:112|348:76,1,170.000000596046,8|0,0:0|0:0,0:0:0:0:
160,116,39438,2,8,P|184:184|284:208,1,170.000000596046,8|0,0:0|0:0,0:0:0:0:
372,192,40038,1,0,0:0:0:0:
456,252,40238,2,8,P|432:320|320:336,1,170.000000596046,8|0,0:0|0:0,0:0:0:0:
148,296,41038,1,8,0:0:0:0:
472,44,41838,5,8,0:0:0:0:
436,140,42038,1,0,0:0:0:0:
392,232,42238,2,8,P|332:272|236:224,1,170.000000596046,0|8,0:0|0:0,0:0:0:0:
108,88,43038,2,4,L|108:260,1,170.000000596046,4|8,0:0|0:0,0:0:0:0:
296,340,43838,6,8,P|244:280|292:200,1,170.000000596046,0|8,0:0|0:0,0:0:0:0:
484,212,44638,1,0,0:0:0:0:
388,32,45038,2,8,P|319:75|325:156,1,170.000000596046,8|0,0:0|0:0,0:0:0:0:
392,236,45638,1,0,0:0:0:0:
316,304,45838,2,8,P|240:352|172:324,1,170.000000596046,8|2,0:0|0:0,0:0:0:0:
116,128,46638,2,8,P|60:164|76:268,1,170.000000596046,8|0,0:0|0:0,0:0:0:0:
252,344,47438,5,8,0:0:0:0:
340,288,47638,1,0,0:0:0:0:
424,232,47838,2,8,P|472:160|444:84,1,170.000000596046,2|8,0:0|0:0,0:0:0:0:
248,48,48638,2,8,P|200:120|228:196,1,170.000000596046,0|8,0:0|0:0,0:0:0:0:
288,272,49238,5,0,0:0:0:0:
288,272,49438,2,8,L|108:332,1,170.000000596046,8|8,0:0|0:0,0:0:0:0:
32,144,50238,1,0,0:0:0:0:
236,164,50638,2,8,B|296:184|356:180|400:124,1,170.000000596046,8|8,0:0|0:0,0:0:0:0:
460,56,51238,1,0,0:0:0:0:
496,152,51438,2,8,P|480:240|396:280,1,170.000000596046,8|0,0:0|0:0,0:0:0:0:
216,312,52238,5,8,0:0:0:0:
160,116,52638,1,0,0:0:0:0:
160,116,52838,2,8,P|184:56|300:60,1,170.000000596046,0|0,0:0|0:0,0:0:0:0:
364,100,53438,1,0,0:0:0:0:
364,100,53638,2,8,P|336:184|252:216,1,170.000000596046,0|0,0:0|0:0,0:0:0:0:
164,236,54238,2,0,P|200:280|200:328,1,85.000000298023,0|0,0:0|0:0,0:0:0:0:
108,348,54638,2,0,P|60:344|52:296,1,85.000000298023,8|0,0:0|0:0,0:0:0:0:
64,212,55038,1,0,0:0:0:0:
224,88,55438,6,2,L|312:120,1,85.000000298023,8|0,0:0|0:0,0:0:0:0:
392,188,55838,1,0,0:0:0:0:
344,276,56038,2,2,P|304:316|172:312,1,170.000000596046,0|0,0:0|0:0,0:0:0:0:
104,280,56638,2,2,L|164:212,1,85.000000298023,0|0,0:0|0:0,0:0:0:0:
244,156,57038,5,8,0:0:0:0:
244,156,57238,2,4,B|348:176|376:56,2,170.000000596046,0|0|0,0:0|0:0|0:0,0:0:0:0:
144,132,58238,2,2,P|176:68|284:52,1,170.000000596046,0|8,0:0|0:0,0:0:0:0:
192,236,59038,2,2,P|100:244|60:172,1,170.000000596046,0|8,0:0|0:0,0:0:0:0:
212,48,59838,1,0,0:0:0:0:
304,96,60038,1,0,0:0:0:0:
380,164,60238,2,2,P|352:220|252:216,1,170.000000596046,8|2,0:0|0:0,0:0:0:0:
180,28,61038,6,4,P|98:21|47:84,1,170.000000596046,8|0,0:0|0:0,0:0:0:0:
132,272,61838,2,2,L|144:176,1,85.000000298023,8|8,0:0|0:0,0:0:0:0:
188,96,62238,1,0,0:0:0:0:
276,48,62438,2,2,P|340:36|408:112,1,170.000000596046,0|0,0:0|0:0,0:0:0:0:
340,300,63238,1,0,0:0:0:0:
240,304,63438,2,6,P|172:276|168:184,1,170.000000596046,8|8,0:0|0:0,0:0:0:0:
312,48,64238,1,8,0:0:0:0:
448,200,64638,6,2,P|440:268|344:308,1,170.000000596046,0|8,0:0|0:0,0:0:0:0:
152,324,65438,1,4,0:0:0:0:
280,164,65838,1,8,0:0:0:0:
80,204,66238,2,8,L|84:28,1,170.000000596046,0|8,0:0|0:0,0:0:0:0:
288,44,67038,2,2,P|352:68|364:176,2,170.000000596046,8|8|0,0:0|0:0|0:0,0:0:0:0:
88,112,68238,5,8,0:0:0:0:
132,204,68438,1,0,0:0:0:0:
188,288,68638,2,2,P|260:336|356:304,1,170.000000596046,0|8,0:0|0:0,0:0:0:0:
484,176,69438,1,0,0:0:0:0:
300,84,69838,2,2,P|228:36|132:68,1,170.000000596046,8|8,0:0|0:0,0:0:0:0:
48,228,70638,2,2,P|108:332|148:332,1,170.000000596046,8|0,0:0|0:0,0:0:0:0:
332,256,71438,1,8,0:0:0:0:
164,144,71838,6,2,P|244:104|308:144,1,170.000000596046,0|8,0:0|0:0,0:0:0:0:
440,296,72638,1,0,0:0:0:0:
344,332,72838,1,0,0:0:0:0:
244,304,73038,2,2,P|276:229|357:223,1,170.000000596046,8|2,0:0|0:0,0:0:0:0:
248,48,73838,2,4,P|156:88|140:172,1,170.000000596046,8|0,0:0|0:0,0:0:0:0:
220,336,74638,1,8,0:0:0:0:
408,260,75038,6,2,B|460:216|460:216|428:116,1,170.000000596046,4|8,0:0|0:0,0:0:0:0:
240,36,75838,2,2,B|184:92|184:92|224:196,1,170.000000596046,0|8,0:0|0:0,0:0:0:0:
384,292,76638,1,0,0:0:0:0:
292,332,76838,1,0,0:0:0:0:
192,340,77038,2,2,P|104:328|72:240,1,170.000000596046,8|0,0:0|0:0,0:0:0:0:
184,92,77838,1,8,0:0:0:0:
384,132,78238,6,2,B|364:220|364:220|280:244,1,170.000000596046,0|8,0:0|0:0,0:0:0:0:
188,272,78838,1,0,0:0:0:0:
236,180,79038,2,8,P|256:112|184:60,1,170.000000596046,0|8,0:0|0:0,0:0:0:0:
84,60,79638,1,12,0:0:0:0:
28,144,79838,2,8,P|56:216|152:220,1,170.000000596046,0|0,0:0|0:0,0:0:0:0:
328,148,80638,1,0,0:0:0:0:
284,348,81038,1,8,0:0:0:0:
104,256,81438,6,2,B|44:212|44:212|56:116,1,170.000000596046,0|8,0:0|0:0,0:0:0:0:
256,56,82238,2,8,B|276:132|276:132|228:212,1,170.000000596046,0|8,0:0|0:0,0:0:0:0:
156,280,82838,1,0,0:0:0:0:
244,336,83038,1,0,0:0:0:0:
344,328,83238,2,0,P|392:312|424:264,1,85.000000298023,0|8,0:0|0:0,0:0:0:0:
440,188,83638,1,0,0:0:0:0:
340,180,83838,2,0,B|300:192|220:168|220:92,1,170.000000596046,0|8,0:0|0:0,0:0:0:0:
136,36,84438,5,8,0:0:0:0:
104,132,84638,2,2,P|88:232|164:284,1,170.000000596046,2|8,0:0|0:0,0:0:0:0:
336,260,85438,2,2,P|368:172|328:116,1,170.000000596046,0|8,0:0|0:0,0:0:0:0:
124,88,86238,2,2,P|120:148|208:212,1,170.000000596046,0|8,0:0|0:0,0:0:0:0:
404,216,87038,1,0,0:0:0:0:
316,32,87438,1,8,0:0:0:0:
256,192,87838,12,0,91038,0:0:0:0:
