osu file format v14

[General]
AudioFilename: audio.mp3
AudioLeadIn: 0
PreviewTime: -1
Countdown: 0
SampleSet: None
StackLeniency: 0.7
Mode: 0
LetterboxInBreaks: 0
WidescreenStoryboard: 1

[Editor]
DistanceSpacing: 0.8
BeatDivisor: 4
GridSize: 32
TimelineZoom: 1

[Metadata]
Title:Infinite Tsukuyomi
TitleUnicode:Infinite Tsukuyomi
Artist:ROCKET
ArtistUnicode:ROCKET
Creator:D3adMen
Version:Insane
Source:
Tags:
BeatmapID:2507202
BeatmapSetID:1204043

[Difficulty]
HPDrainRate:5
CircleSize:4
OverallDifficulty:8
ApproachRate:9
SliderMultiplier:1.4
SliderTickRate:1

[Events]
//Background and Video events
//Break Periods
2,78248,108668
//Storyboard Layer 0 (Background)
//Storyboard Layer 1 (Fail)
//Storyboard Layer 2 (Pass)
//Storyboard Layer 3 (Foreground)
//Storyboard Layer 4 (Overlay)
//Storyboard Sound Samples

[TimingPoints]
0,487.80487804878,4,1,0,100,1,0

[HitObjects]
122,251,15609,5,0,0:0:0:0:
254,158,16097,1,0,0:0:0:0:
250,285,16585,1,0,0:0:0:0:
254,158,17073,1,0,0:0:0:0:
254,64,17398,1,0,0:0:0:0:
254,64,17560,1,0,0:0:0:0:
424,123,18048,1,0,0:0:0:0:
158,168,18536,1,0,0:0:0:0:
297,182,19024,1,0,0:0:0:0:
389,190,19349,1,0,0:0:0:0:
389,190,19512,1,0,0:0:0:0:
401,207,19999,1,0,0:0:0:0:
362,72,20487,1,0,0:0:0:0:
222,55,20975,1,0,0:0:0:0:
133,84,21300,1,0,0:0:0:0:
133,84,21463,1,0,0:0:0:0:
253,220,21951,1,0,0:0:0:0:
216,84,22439,1,0,0:0:0:0:
403,78,22926,1,0,0:0:0:0:
263,94,23414,6,0,B|107:59|128:62|126:60,1,140
47,51,24390,1,0,0:0:0:0:
58,190,24878,1,0,0:0:0:0:
192,242,25365,2,0,P|340:266|348:267,1,140
318,258,26341,1,0,0:0:0:0:
409,152,26829,1,0,0:0:0:0:
319,44,27154,1,0,0:0:0:0:
319,44,27317,1,0,0:0:0:0:
179,52,27804,1,0,0:0:0:0:
179,52,28292,1,0,0:0:0:0:
45,94,28780,1,0,0:0:0:0:
118,213,29105,1,0,0:0:0:0:
118,213,29268,1,0,0:0:0:0:
258,216,29756,1,0,0:0:0:0:
244,76,30243,2,0,B|90:56|109:58|109:58,1,140
64,54,31219,1,0,0:0:0:0:
66,194,31707,2,0,B|163:307|159:302,1,140
307,260,32682,1,0,0:0:0:0:
371,135,33170,1,0,0:0:0:0:
201,97,33658,1,0,0:0:0:0:
185,165,33902,1,0,0:0:0:0:
165,232,34146,1,0,0:0:0:0:
186,262,34308,1,0,0:0:0:0:
303,253,34634,1,0,0:0:0:0:
303,253,35121,1,0,0:0:0:0:
422,180,35609,1,0,0:0:0:0:
330,74,36097,1,0,0:0:0:0:
191,54,36585,1,0,0:0:0:0:
155,189,37073,5,0,0:0:0:0:
149,272,37439,1,0,0:0:0:0:
144,327,37560,1,0,0:0:0:0:
252,296,38048,1,0,0:0:0:0:
358,260,38536,6,0,B|444:123|429:143|430:142,1,140
336,79,39512,1,0,0:0:0:0:
283,102,39756,1,0,0:0:0:0:
233,127,39999,1,0,0:0:0:0:
174,187,40243,2,0,B|93:263|99:258|99:258,1,70
288,304,41463,1,0,0:0:0:0:
320,258,41585,1,0,0:0:0:0:
347,208,41707,1,0,0:0:0:0:
370,157,41951,1,0,0:0:0:0:
333,51,42439,1,0,0:0:0:0:
333,51,42926,1,0,0:0:0:0:
221,36,43414,1,0,0:0:0:0:
176,69,43658,1,0,0:0:0:0:
157,89,43780,1,0,0:0:0:0:
141,112,43902,1,0,0:0:0:0:
126,136,44024,1,0,0:0:0:0:
68,197,44390,1,0,0:0:0:0:
79,308,44878,1,0,0:0:0:0:
190,302,45365,1,0,0:0:0:0:
297,269,45853,1,0,0:0:0:0:
384,198,46341,5,0,0:0:0:0:
405,87,46707,1,0,0:0:0:0:
405,87,46829,1,0,0:0:0:0:
293,72,47317,1,0,0:0:0:0:
210,86,47682,1,0,0:0:0:0:
184,97,47804,1,0,0:0:0:0:
82,145,48292,1,0,0:0:0:0:
179,199,48780,1,0,0:0:0:0:
289,183,49268,1,0,0:0:0:0:
339,159,49512,1,0,0:0:0:0:
382,123,49756,1,0,0:0:0:0:
417,80,49999,1,0,0:0:0:0:
438,28,50243,1,0,0:0:0:0:
326,32,50731,1,0,0:0:0:0:
308,114,51097,1,0,0:0:0:0:
269,243,51707,1,0,0:0:0:0:
169,191,52195,1,0,0:0:0:0:
99,103,52682,1,0,0:0:0:0:
88,214,53170,1,0,0:0:0:0:
143,208,53414,1,0,0:0:0:0:
198,199,53658,1,0,0:0:0:0:
253,200,53902,1,0,0:0:0:0:
308,203,54146,1,0,0:0:0:0:
419,207,54634,1,0,0:0:0:0:
442,97,55121,1,0,0:0:0:0:
398,61,55365,5,0,0:0:0:0:
378,40,55487,1,0,0:0:0:0:
356,22,55609,1,0,0:0:0:0:
303,42,55853,1,0,0:0:0:0:
247,47,56097,1,0,0:0:0:0:
77,193,57073,1,0,0:0:0:0:
130,208,57317,1,0,0:0:0:0:
184,220,57560,1,0,0:0:0:0:
238,231,57804,1,0,0:0:0:0:
294,229,58048,1,0,0:0:0:0:
405,233,58536,1,0,0:0:0:0:
388,122,59024,1,0,0:0:0:0:
338,95,59268,1,0,0:0:0:0:
314,79,59390,1,0,0:0:0:0:
290,63,59512,1,0,0:0:0:0:
266,48,59634,1,0,0:0:0:0:
184,28,59999,1,0,0:0:0:0:
13,173,60975,1,0,0:0:0:0:
113,222,61463,1,0,0:0:0:0:
223,242,61951,1,0,0:0:0:0:
333,262,62439,1,0,0:0:0:0:
400,172,62926,1,0,0:0:0:0:
293,138,63414,1,0,0:0:0:0:
181,143,63902,1,0,0:0:0:0:
69,156,64390,1,0,0:0:0:0:
141,241,64878,1,0,0:0:0:0:
239,294,65365,1,0,0:0:0:0:
349,275,65853,1,0,0:0:0:0:
439,209,66341,1,0,0:0:0:0:
354,135,66829,1,0,0:0:0:0:
250,92,67317,1,0,0:0:0:0:
138,92,67804,1,0,0:0:0:0:
129,203,68292,1,0,0:0:0:0:
240,218,68780,1,0,0:0:0:0:
351,211,69268,1,0,0:0:0:0:
404,112,69756,1,0,0:0:0:0:
294,91,70243,1,0,0:0:0:0:
182,85,70731,1,0,0:0:0:0:
83,139,71219,1,0,0:0:0:0:
165,214,71707,2,0,L|292:289|292:289,1,140
373,215,72682,1,0,0:0:0:0:
327,112,73170,1,0,0:0:0:0:
215,100,73658,1,0,0:0:0:0:
103,88,74146,1,0,0:0:0:0:
111,199,74634,1,0,0:0:0:0:
214,240,75121,1,0,0:0:0:0:
325,228,75609,1,0,0:0:0:0:
402,147,76097,1,0,0:0:0:0:
312,79,76585,1,0,0:0:0:0:
200,68,77073,1,0,0:0:0:0:
88,64,77560,1,0,0:0:0:0:
88,176,78048,1,0,0:0:0:0:
373,206,109268,5,0,0:0:0:0:
353,95,109756,1,0,0:0:0:0:
241,84,110243,1,0,0:0:0:0:
185,88,110487,1,0,0:0:0:0:
159,98,110609,1,0,0:0:0:0:
137,115,110731,1,0,0:0:0:0:
94,150,110975,1,0,0:0:0:0:
62,196,111219,5,0,0:0:0:0:
101,235,111463,1,0,0:0:0:0:
155,248,111707,1,0,0:0:0:0:
182,253,111829,1,0,0:0:0:0:
237,259,112073,1,0,0:0:0:0:
320,263,112439,1,0,0:0:0:0:
347,264,112560,1,0,0:0:0:0:
375,263,112682,5,0,0:0:0:0:
456,243,113048,1,0,0:0:0:0:
466,217,113170,1,0,0:0:0:0:
466,104,113658,1,0,0:0:0:0:
357,76,114146,1,0,0:0:0:0:
244,74,114634,1,0,0:0:0:0:
169,113,114999,1,0,0:0:0:0:
149,133,115121,1,0,0:0:0:0:
141,188,115365,1,0,0:0:0:0:
182,225,115609,5,0,0:0:0:0:
256,263,115975,1,0,0:0:0:0:
283,269,116097,1,0,0:0:0:0:
335,287,116341,5,0,0:0:0:0:
387,267,116585,1,0,0:0:0:0:
472,194,117073,1,0,0:0:0:0:
391,116,117560,1,0,0:0:0:0:
338,96,117804,1,0,0:0:0:0:
283,81,118048,1,0,0:0:0:0:
227,83,118292,1,0,0:0:0:0:
171,91,118536,1,0,0:0:0:0:
125,123,118780,1,0,0:0:0:0:
112,177,119024,1,0,0:0:0:0:
181,224,119390,1,0,0:0:0:0:
264,232,119756,1,0,0:0:0:0:
316,213,119999,1,0,0:0:0:0:
368,194,120243,1,0,0:0:0:0:
407,154,120487,1,0,0:0:0:0:
465,93,120853,1,0,0:0:0:0:
441,77,120975,1,0,0:0:0:0:
329,64,121463,1,0,0:0:0:0:
245,77,121829,1,0,0:0:0:0:
217,80,121951,1,0,0:0:0:0:
112,121,122439,1,0,0:0:0:0:
11,171,122926,1,0,0:0:0:0:
117,205,123414,1,0,0:0:0:0:
218,253,123902,1,0,0:0:0:0:
309,188,124390,1,0,0:0:0:0:
250,92,124878,1,0,0:0:0:0:
140,71,125365,1,0,0:0:0:0:
113,179,125853,1,0,0:0:0:0:
201,248,126341,2,0,P|327:310|331:312,1,140
425,257,127317,1,0,0:0:0:0:
332,193,127804,1,0,0:0:0:0:
226,155,128292,1,0,0:0:0:0:
114,145,128780,1,0,0:0:0:0:
67,247,129268,1,0,0:0:0:0:
178,258,129756,1,0,0:0:0:0:
289,249,130243,1,0,0:0:0:0:
411,249,131219,1,0,0:0:0:0:
399,194,131463,5,0,0:0:0:0:
366,148,131707,1,0,0:0:0:0:
327,107,131951,1,0,0:0:0:0:
281,73,132195,1,0,0:0:0:0:
170,57,132682,5,0,0:0:0:0:
80,124,133170,1,0,0:0:0:0:
71,179,133414,1,0,0:0:0:0:
65,206,133536,1,0,0:0:0:0:
65,234,133658,1,0,0:0:0:0:
117,252,133902,1,0,0:0:0:0:
171,263,134146,1,0,0:0:0:0:
171,263,134634,1,0,0:0:0:0:
278,230,135121,1,0,0:0:0:0:
305,225,135243,1,0,0:0:0:0:
331,217,135365,1,0,0:0:0:0:
382,194,135609,1,0,0:0:0:0:
459,112,136097,1,0,0:0:0:0:
360,58,136585,1,0,0:0:0:0:
248,65,137073,1,0,0:0:0:0:
168,96,137439,1,0,0:0:0:0:
147,128,137560,1,0,0:0:0:0:
130,150,137682,1,0,0:0:0:0:
95,226,138048,1,0,0:0:0:0:
203,199,138536,1,0,0:0:0:0:
311,169,139024,1,0,0:0:0:0:
417,132,139512,1,0,0:0:0:0:
336,54,139999,1,0,0:0:0:0:
255,76,140365,1,0,0:0:0:0:
226,77,140487,1,0,0:0:0:0:
116,98,140975,1,0,0:0:0:0:
88,99,141097,1,0,0:0:0:0:
54,176,141463,1,0,0:0:0:0:
163,198,141951,1,0,0:0:0:0:
275,195,142439,1,0,0:0:0:0:
385,181,142926,1,0,0:0:0:0:
394,125,143170,1,0,0:0:0:0:
350,89,143414,1,0,0:0:0:0:
294,80,143658,1,0,0:0:0:0:
238,74,143902,1,0,0:0:0:0:
127,89,144390,1,0,0:0:0:0:
98,197,144878,1,0,0:0:0:0:
205,228,145365,1,0,0:0:0:0:
316,216,145853,1,0,0:0:0:0:
360,213,146829,1,0,0:0:0:0:
373,158,147073,1,0,0:0:0:0:
388,104,147317,1,0,0:0:0:0:
399,49,147560,1,0,0:0:0:0:
343,45,147804,1,0,0:0:0:0:
231,60,148292,1,0,0:0:0:0:
121,84,148780,1,0,0:0:0:0:
74,115,149024,1,0,0:0:0:0:
58,138,149146,1,0,0:0:0:0:
42,161,149268,1,0,0:0:0:0:
53,215,149512,1,0,0:0:0:0:
102,240,149756,1,0,0:0:0:0:
322,278,150731,1,0,0:0:0:0:
343,260,150853,1,0,0:0:0:0:
358,236,150975,1,0,0:0:0:0:
390,190,151219,1,0,0:0:0:0:
422,144,151463,1,0,0:0:0:0:
444,92,151707,1,0,0:0:0:0:
333,76,152195,1,0,0:0:0:0:
228,114,152682,1,0,0:0:0:0:
173,128,152926,1,0,0:0:0:0:
146,137,153048,1,0,0:0:0:0:
121,149,153170,1,0,0:0:0:0:
98,165,153292,1,0,0:0:0:0:
41,226,153658,1,0,0:0:0:0:
264,240,154634,1,0,0:0:0:0:
374,234,155121,1,0,0:0:0:0:
478,194,155609,1,0,0:0:0:0:
416,100,156097,1,0,0:0:0:0:
