osu file format v14

[General]
AudioFilename: audio.mp3
AudioLeadIn: 0
PreviewTime: 20395
Countdown: 1
SampleSet: None
StackLeniency: 0.7
Mode: 0
LetterboxInBreaks: 0
WidescreenStoryboard: 0

[Editor]
Bookmarks: 5561,42895,61561,64228,66895,69561,72145,74895,77561,80228,82895,85228
DistanceSpacing: 0.7
BeatDivisor: 4
GridSize: 4
TimelineZoom: 4.299998

[Metadata]
Title:Super Shooter
TitleUnicode:Super Shooter
Artist:RIP SLYME
ArtistUnicode:RIP SLYME
Creator:Secretpipe
Version:100 Points
Source:
Tags:
BeatmapID:1258320
BeatmapSetID:594975

[Difficulty]
HPDrainRate:7
CircleSize:4.5
OverallDifficulty:8
ApproachRate:9.3
SliderMultiplier:1.6
SliderTickRate:1

[Events]
//Background and Video events
0,0,"2956730bf8efbe4c6932fe6b23b050b5.jpg",0,0
//Break Periods
//Storyboard Layer 0 (Background)
//Storyboard Layer 1 (Fail)
//Storyboard Layer 2 (Pass)
//Storyboard Layer 3 (Foreground)
//Storyboard Sound Samples

[TimingPoints]
1561.72885015686,333.333333333333,4,2,0,100,1,0
5513,-133.333333333333,4,2,0,100,0,0
16228,-117.647058823529,4,2,0,100,0,0
21228,-74.0740740740739,4,2,0,100,0,0
21561,-83.3333333333333,4,2,0,100,0,0
29228,-74.0740740740739,4,2,0,100,0,0
29561,-83.3333333333333,4,2,0,100,0,0
42561,-74.0740740740741,4,2,0,100,0,0
42895,-90.9090909090909,4,2,0,100,0,0

[HitObjects]
303,305,5561,6,0,L|289:223,1,60.0000022888184
241,107,5894,2,0,L|228:172,1,60.0000022888184
218,194,6144,1,0,0:0:0:0:
208,222,6227,2,0,L|218:264,2,30.0000011444092
146,122,6561,1,0,0:0:0:0:
86,343,6894,5,0,0:0:0:0:
46,149,7061,1,0,0:0:0:0:
65,172,7145,2,0,L|69:247,1,60.0000022888184
87,255,7395,1,0,0:0:0:0:
146,122,7561,1,0,0:0:0:0:
151,132,8061,1,0,0:0:0:0:
268,201,8228,6,0,L|182:196,1,60.0000022888184
320,120,8561,1,0,0:0:0:0:
356,274,8728,1,0,0:0:0:0:
369,247,8811,2,0,L|369:178,1,60.0000022888184
385,161,9061,1,0,0:0:0:0:
424,340,9228,1,0,0:0:0:0:
177,222,9561,5,0,0:0:0:0:
221,108,9728,1,0,0:0:0:0:
240,130,9811,2,0,L|309:132,1,60.0000022888184
327,120,10061,2,0,L|323:62,2,30.0000011444092
270,336,10561,1,0,0:0:0:0:
216,218,10728,1,0,0:0:0:0:
438,284,10895,6,0,L|343:273,1,90.0000034332277
315,252,11228,1,0,0:0:0:0:
412,130,11395,1,0,0:0:0:0:
412,130,11478,1,0,0:0:0:0:
412,130,11561,1,0,0:0:0:0:
305,35,11728,2,0,L|302:64,1,30.0000011444092
282,98,11895,1,0,0:0:0:0:
77,58,12061,2,0,L|121:48,1,30.0000011444092
142,67,12228,5,0,0:0:0:0:
55,180,12395,1,0,0:0:0:0:
164,302,12561,2,0,L|150:225,1,60.0000022888184
107,368,12895,1,0,0:0:0:0:
107,368,12978,1,0,0:0:0:0:
107,368,13061,1,0,0:0:0:0:
249,319,13228,1,0,0:0:0:0:
82,254,13395,1,0,0:0:0:0:
238,125,13561,6,0,L|228:225,1,90.0000034332277
252,246,13895,1,0,0:0:0:0:
351,142,14061,1,0,0:0:0:0:
351,142,14145,1,0,0:0:0:0:
351,142,14228,2,0,L|344:102,1,30.0000011444092
402,67,14395,2,0,L|406:37,1,30.0000011444092
448,132,14561,2,0,L|442:216,2,60.0000022888184
376,228,15061,1,0,0:0:0:0:
459,340,15228,6,0,L|410:328,1,30.0000011444092
393,346,15395,1,0,0:0:0:0:
232,292,15561,2,0,L|230:256,2,30.0000011444092
174,201,15895,1,0,0:0:0:0:
249,47,16061,2,0,L|245:94,1,30.0000011444092
215,102,16228,6,0,P|178:107|143:94,1,68.0000012969971
287,144,16561,2,0,P|324:149|359:136,1,68.0000012969971
174,201,16895,2,0,P|137:206|102:193,1,68.0000012969971
310,264,17228,2,0,P|347:269|382:256,1,68.0000012969971
200,278,17561,6,0,L|210:355,1,68.0000012969971
173,200,17895,2,0,L|185:134,1,68.0000012969971
115,260,18228,2,0,L|25:243,1,68.0000012969971
260,212,18561,2,0,L|326:199,1,68.0000012969971
469,242,18895,5,0,0:0:0:0:
312,320,19061,1,0,0:0:0:0:
415,123,19228,1,0,0:0:0:0:
435,338,19395,1,0,0:0:0:0:
287,125,19561,1,0,0:0:0:0:
477,172,19728,1,0,0:0:0:0:
255,256,19895,1,0,0:0:0:0:
350,59,20061,1,0,0:0:0:0:
315,354,20228,5,0,0:0:0:0:
280,326,20311,1,0,0:0:0:0:
235,320,20395,1,0,0:0:0:0:
194,336,20478,1,0,0:0:0:0:
154,356,20561,1,0,0:0:0:0:
109,356,20645,1,0,0:0:0:0:
69,337,20728,1,0,0:0:0:0:
42,301,20811,1,0,0:0:0:0:
54,258,20895,2,0,L|66:129,1,102.000001945496
51,106,21228,6,0,P|138:155|211:137,1,162.000000617981
257,112,21561,5,0,0:0:0:0:
141,56,21728,1,0,0:0:0:0:
153,293,21895,1,0,0:0:0:0:
164,256,21978,1,0,0:0:0:0:
173,219,22061,1,0,0:0:0:0:
183,181,22145,1,0,0:0:0:0:
195,145,22228,1,0,0:0:0:0:
77,252,22395,1,0,0:0:0:0:
333,256,22561,2,0,L|251:264,1,47.9999985351563
255,284,22728,1,0,0:0:0:0:
416,192,22895,5,0,0:0:0:0:
335,350,23061,1,0,0:0:0:0:
427,107,23228,1,0,0:0:0:0:
460,125,23311,1,0,0:0:0:0:
483,155,23395,1,0,0:0:0:0:
491,192,23478,1,0,0:0:0:0:
482,229,23561,1,0,0:0:0:0:
355,72,23728,1,0,0:0:0:0:
244,303,23895,1,0,0:0:0:0:
156,178,24061,1,0,0:0:0:0:
156,178,24145,1,0,0:0:0:0:
156,178,24228,6,0,L|146:274,1,95.9999970703126
22,71,24561,2,0,B|61:59|61:59|137:81,1,95.9999970703126
147,93,24811,1,0,0:0:0:0:
185,99,24895,1,0,0:0:0:0:
217,91,24978,1,0,0:0:0:0:
247,76,25061,1,0,0:0:0:0:
465,227,25228,2,0,B|426:215|426:215|350:237,1,95.9999970703126
343,247,25478,1,0,0:0:0:0:
309,244,25561,5,0,0:0:0:0:
435,125,25728,1,0,0:0:0:0:
201,17,25895,1,0,0:0:0:0:
187,47,25978,1,0,0:0:0:0:
187,80,26061,1,0,0:0:0:0:
192,113,26145,1,0,0:0:0:0:
209,141,26228,2,0,L|266:150,1,47.9999985351563
109,202,26395,2,0,L|183:192,1,47.9999985351563
28,69,26561,2,0,L|47:174,1,95.9999970703126
13,340,26895,6,0,P|19:279|54:239,1,95.9999970703126
250,101,27228,1,0,0:0:0:0:
315,212,27395,1,0,0:0:0:0:
315,212,27478,1,0,0:0:0:0:
315,212,27561,1,0,0:0:0:0:
357,77,27728,2,0,L|352:136,1,47.9999985351563
394,191,27895,2,0,B|385:232|385:232|410:295,1,95.9999970703126
421,311,28145,1,0,0:0:0:0:
448,329,28228,5,0,0:0:0:0:
434,89,28395,1,0,0:0:0:0:
202,152,28561,2,0,L|152:146,1,47.9999985351563
261,202,28728,2,0,L|308:196,1,47.9999985351563
186,231,28895,2,0,L|136:225,1,47.9999985351563
245,281,29062,2,0,L|292:275,1,47.9999985351563
186,355,29228,6,0,P|149:300|51:312,1,162.000000617981
7,355,29561,5,0,0:0:0:0:
30,184,29728,2,0,L|37:242,1,47.9999985351563
73,118,29895,1,0,0:0:0:0:
250,179,30061,1,0,0:0:0:0:
250,179,30145,1,0,0:0:0:0:
250,179,30228,2,0,L|265:115,1,47.9999985351563
205,241,30395,2,0,L|220:290,1,47.9999985351563
383,256,30561,2,0,B|342:229|342:229|278:240,1,95.9999970703126
438,364,30895,6,0,L|426:307,1,47.9999985351563
457,247,31061,2,0,L|471:190,1,47.9999985351563
425,136,31228,2,0,P|380:122|319:143,1,95.9999970703126
306,153,31478,1,0,0:0:0:0:
277,170,31561,1,0,0:0:0:0:
245,183,31645,1,0,0:0:0:0:
211,183,31728,1,0,0:0:0:0:
50,49,31895,1,0,0:0:0:0:
149,100,32061,1,0,0:0:0:0:
71,296,32228,6,0,L|58:144,1,143.999995605469
40,180,32561,1,0,0:0:0:0:
235,278,32728,1,0,0:0:0:0:
266,289,32811,1,0,0:0:0:0:
299,288,32895,2,0,L|296:356,1,47.9999985351563
371,209,33061,2,0,L|366:281,1,47.9999985351563
422,140,33228,1,0,0:0:0:0:
294,34,33395,1,0,0:0:0:0:
40,180,33561,5,0,0:0:0:0:
311,136,33728,1,0,0:0:0:0:
111,32,33895,2,0,L|106:148,1,95.9999970703126
122,157,34145,1,0,0:0:0:0:
137,186,34228,2,0,L|144:256,1,47.9999985351563
88,347,34395,2,0,L|98:277,1,47.9999985351563
206,199,34561,2,0,L|221:325,1,95.9999970703126
319,65,34895,6,0,L|298:226,1,143.999995605469
282,179,35228,1,0,0:0:0:0:
410,307,35395,1,0,0:0:0:0:
410,307,35478,1,0,0:0:0:0:
410,307,35561,2,0,L|404:240,2,47.9999985351563
192,293,35895,2,0,P|234:267|300:294,1,95.9999970703126
126,361,36228,5,0,0:0:0:0:
79,97,36395,1,0,0:0:0:0:
58,294,36561,2,0,L|44:189,1,95.9999970703126
60,168,36811,1,0,0:0:0:0:
84,144,36895,2,0,L|73:53,1,47.9999985351563
175,45,37061,2,0,L|171:98,1,47.9999985351563
160,192,37228,1,0,0:0:0:0:
340,169,37395,2,0,L|277:152,1,47.9999985351563
406,130,37561,5,0,0:0:0:0:
380,311,37728,1,0,0:0:0:0:
380,311,37811,1,0,0:0:0:0:
380,311,37895,2,0,L|372:227,1,47.9999985351563
280,314,38061,1,0,0:0:0:0:
280,314,38145,1,0,0:0:0:0:
280,314,38228,2,0,L|290:245,1,47.9999985351563
221,164,38395,2,0,L|233:241,1,47.9999985351563
184,329,38561,1,0,0:0:0:0:
95,200,38728,2,0,L|81:258,1,47.9999985351563
99,314,38895,5,0,0:0:0:0:
228,211,39061,1,0,0:0:0:0:
62,19,39228,1,0,0:0:0:0:
11,217,39395,1,0,0:0:0:0:
278,89,39561,2,0,L|335:79,1,47.9999985351563
418,148,39728,2,0,L|353:134,1,47.9999985351563
250,174,39895,2,0,L|307:164,1,47.9999985351563
390,233,40062,2,0,L|325:219,1,47.9999985351563
262,356,40228,6,0,B|241:250|241:250|276:277,1,143.999995605469
297,291,40561,1,0,0:0:0:0:
129,280,40728,1,0,0:0:0:0:
129,280,40811,1,0,0:0:0:0:
129,280,40895,2,0,L|203:291,1,47.9999985351563
52,308,41061,2,0,L|31:378,1,47.9999985351563
54,203,41228,1,0,0:0:0:0:
106,48,41395,1,0,0:0:0:0:
180,211,41561,5,0,0:0:0:0:
383,92,41728,1,0,0:0:0:0:
226,32,41895,2,0,L|220:137,1,95.9999970703126
235,158,42145,1,0,0:0:0:0:
265,171,42228,2,0,L|333:161,2,47.9999985351563
60,284,42561,2,0,B|55:161|55:161|28:191,1,162.000000617981
