osu file format v14

[General]
AudioFilename: Blastix.mp3
AudioLeadIn: 1500
PreviewTime: 0
Countdown: 0
SampleSet: Normal
StackLeniency: 0.7
Mode: 3
LetterboxInBreaks: 0
SpecialStyle: 0
WidescreenStoryboard: 0

[Editor]
DistanceSpacing: 0.8
BeatDivisor: 4
GridSize: 16
TimelineZoom: 1

[Metadata]
Title:MEMESTIX RIOTZ
TitleUnicode:MEMESTIX RIOTZ
Artist:RIOT DESTRUDO
ArtistUnicode:RIOT DESTRUDO
Creator:-Gazelle
Version:Baka
Source:SOUND VOLTEX III GRAVITY WARS
Tags:Blastix Riotz sdvx riot destrudo
BeatmapID:999521
BeatmapSetID:467104

[Difficulty]
HPDrainRate:7
CircleSize:4
OverallDifficulty:7
ApproachRate:9
SliderMultiplier:1.4
SliderTickRate:1

[Events]
//Background and Video events
0,0,"wew.jpg",0,0
//Break Periods
//Storyboard Layer 0 (Background)
//Storyboard Layer 1 (Fail)
//Storyboard Layer 2 (Pass)
//Storyboard Layer 3 (Foreground)
//Storyboard Sound Samples

[TimingPoints]
29.0023,234.354,4,1,0,15,1,0
263.356,234.377,4,1,0,15,1,0
3779.01,234.354,4,1,0,15,1,0
4013.36,234.377,4,1,0,15,1,0
7529.02,234.354,4,1,0,15,1,0
7763.37,234.377,4,1,0,15,1,0
11279,234.354,4,1,0,15,1,0
11513.4,234.377,4,1,0,15,1,0
15029,234.354,4,1,0,15,1,0
15263.4,234.377,4,1,0,15,1,0
18779,234.354,4,1,0,15,1,0
19013.4,234.377,4,1,0,15,1,0
22529,234.354,4,1,0,15,1,0
22763.4,234.377,4,1,0,15,1,0

[HitObjects]
64,0,29,5,0,1:0:0:0:
448,0,29,1,0,1:0:0:0:
192,0,146,1,0,1:0:0:0:
320,0,146,1,0,1:0:0:0:
64,0,497,1,0,1:0:0:0:
320,0,497,1,0,1:0:0:0:
192,0,614,1,0,1:0:0:0:
320,0,732,1,0,1:0:0:0:
192,0,966,1,0,1:0:0:0:
320,0,966,1,0,1:0:0:0:
64,0,1025,1,0,1:0:0:0:
448,0,1025,1,0,1:0:0:0:
192,0,1083,1,0,1:0:0:0:
320,0,1083,1,0,1:0:0:0:
64,0,1142,1,0,1:0:0:0:
448,0,1142,1,0,1:0:0:0:
192,0,1200,1,0,1:0:0:0:
320,0,1200,1,0,1:0:0:0:
64,0,1318,1,0,1:0:0:0:
448,0,1318,1,0,1:0:0:0:
192,0,1376,1,0,1:0:0:0:
320,0,1376,1,0,1:0:0:0:
64,0,1435,1,0,1:0:0:0:
448,0,1435,1,0,1:0:0:0:
192,0,1493,1,0,1:0:0:0:
320,0,1493,1,0,1:0:0:0:
64,0,1552,1,0,1:0:0:0:
448,0,1552,1,0,1:0:0:0:
64,0,1669,1,0,1:0:0:0:
192,0,1669,1,0,1:0:0:0:
320,0,1669,1,0,1:0:0:0:
64,0,1903,1,0,1:0:0:0:
192,0,1903,1,0,1:0:0:0:
320,0,1962,1,0,1:0:0:0:
448,0,1962,1,0,1:0:0:0:
64,0,2021,1,0,1:0:0:0:
192,0,2021,1,0,1:0:0:0:
320,0,2079,1,0,1:0:0:0:
448,0,2079,1,0,1:0:0:0:
64,0,2138,1,0,1:0:0:0:
192,0,2138,1,0,1:0:0:0:
320,0,2255,1,0,1:0:0:0:
448,0,2255,1,0,1:0:0:0:
64,0,2314,1,0,1:0:0:0:
192,0,2314,1,0,1:0:0:0:
320,0,2372,1,0,1:0:0:0:
448,0,2372,1,0,1:0:0:0:
64,0,2431,1,0,1:0:0:0:
192,0,2431,1,0,1:0:0:0:
320,0,2489,1,0,1:0:0:0:
448,0,2489,1,0,1:0:0:0:
64,0,2607,1,0,1:0:0:0:
192,0,2607,1,0,1:0:0:0:
448,0,2607,1,0,1:0:0:0:
320,0,2665,1,0,1:0:0:0:
192,0,2724,1,0,1:0:0:0:
320,0,2782,1,0,1:0:0:0:
64,0,2841,1,0,1:0:0:0:
448,0,2841,1,0,1:0:0:0:
192,0,2900,1,0,1:0:0:0:
64,0,2958,1,0,1:0:0:0:
320,0,2958,1,0,1:0:0:0:
448,0,3017,1,0,1:0:0:0:
64,0,3075,1,0,1:0:0:0:
192,0,3075,1,0,1:0:0:0:
320,0,3134,1,0,1:0:0:0:
192,0,3193,1,0,1:0:0:0:
448,0,3193,1,0,1:0:0:0:
64,0,3251,1,0,1:0:0:0:
192,0,3310,1,0,1:0:0:0:
320,0,3310,1,0,1:0:0:0:
448,0,3368,1,0,1:0:0:0:
64,0,3427,1,0,1:0:0:0:
192,0,3427,1,0,1:0:0:0:
320,0,3486,1,0,1:0:0:0:
192,0,3544,1,0,1:0:0:0:
448,0,3544,1,0,1:0:0:0:
320,0,3603,1,0,1:0:0:0:
64,0,3661,1,0,1:0:0:0:
192,0,3661,1,0,1:0:0:0:
448,0,3779,1,0,1:0:0:0:
192,0,4013,1,0,1:0:0:0:
448,0,4247,128,0,4716:0:0:0:0:
64,0,4716,1,0,1:0:0:0:
192,0,4716,1,0,1:0:0:0:
320,0,4775,1,0,1:0:0:0:
448,0,4775,1,0,1:0:0:0:
64,0,4833,1,0,1:0:0:0:
192,0,4833,1,0,1:0:0:0:
320,0,4892,1,0,1:0:0:0:
448,0,4892,1,0,1:0:0:0:
64,0,4950,1,0,1:0:0:0:
192,0,4950,1,0,1:0:0:0:
320,0,5009,1,0,1:0:0:0:
448,0,5009,1,0,1:0:0:0:
64,0,5068,1,0,1:0:0:0:
192,0,5068,1,0,1:0:0:0:
320,0,5126,1,0,1:0:0:0:
448,0,5126,1,0,1:0:0:0:
64,0,5185,1,0,1:0:0:0:
192,0,5185,1,0,1:0:0:0:
320,0,5243,1,0,1:0:0:0:
448,0,5243,1,0,1:0:0:0:
64,0,5302,1,0,1:0:0:0:
192,0,5302,1,0,1:0:0:0:
320,0,5361,1,0,1:0:0:0:
448,0,5361,1,0,1:0:0:0:
64,0,5419,1,0,1:0:0:0:
192,0,5419,1,0,1:0:0:0:
320,0,5478,1,0,1:0:0:0:
448,0,5478,1,0,1:0:0:0:
64,0,5536,1,0,1:0:0:0:
192,0,5536,1,0,1:0:0:0:
320,0,5595,1,0,1:0:0:0:
448,0,5595,1,0,1:0:0:0:
64,0,5654,1,0,1:0:0:0:
192,0,5654,1,0,1:0:0:0:
320,0,5712,1,0,1:0:0:0:
448,0,5712,1,0,1:0:0:0:
64,0,5771,1,0,1:0:0:0:
192,0,5771,1,0,1:0:0:0:
320,0,5829,1,0,1:0:0:0:
448,0,5829,1,0,1:0:0:0:
64,0,5888,1,0,1:0:0:0:
192,0,5888,1,0,1:0:0:0:
320,0,5946,1,0,1:0:0:0:
448,0,5946,1,0,1:0:0:0:
64,0,6005,1,0,1:0:0:0:
192,0,6005,1,0,1:0:0:0:
320,0,6064,1,0,1:0:0:0:
448,0,6064,1,0,1:0:0:0:
64,0,6122,1,0,1:0:0:0:
192,0,6122,1,0,1:0:0:0:
320,0,6181,1,0,1:0:0:0:
448,0,6181,1,0,1:0:0:0:
64,0,6239,1,0,1:0:0:0:
192,0,6239,1,0,1:0:0:0:
320,0,6298,1,0,1:0:0:0:
448,0,6298,1,0,1:0:0:0:
64,0,6357,1,0,1:0:0:0:
192,0,6357,1,0,1:0:0:0:
320,0,6415,1,0,1:0:0:0:
448,0,6415,1,0,1:0:0:0:
64,0,6474,1,0,1:0:0:0:
192,0,6474,1,0,1:0:0:0:
320,0,6532,1,0,1:0:0:0:
448,0,6532,1,0,1:0:0:0:
64,0,6591,1,0,1:0:0:0:
192,0,6591,1,0,1:0:0:0:
320,0,6650,1,0,1:0:0:0:
448,0,6650,1,0,1:0:0:0:
64,0,6708,1,0,1:0:0:0:
192,0,6708,1,0,1:0:0:0:
320,0,6767,1,0,1:0:0:0:
448,0,6767,1,0,1:0:0:0:
64,0,6825,1,0,1:0:0:0:
192,0,6825,1,0,1:0:0:0:
320,0,6884,1,0,1:0:0:0:
448,0,6884,1,0,1:0:0:0:
64,0,6943,1,0,1:0:0:0:
192,0,6943,1,0,1:0:0:0:
320,0,7001,1,0,1:0:0:0:
448,0,7001,1,0,1:0:0:0:
64,0,7060,1,0,1:0:0:0:
192,0,7060,1,0,1:0:0:0:
320,0,7118,1,0,1:0:0:0:
448,0,7118,1,0,1:0:0:0:
64,0,7177,1,0,1:0:0:0:
192,0,7177,1,0,1:0:0:0:
320,0,7236,1,0,1:0:0:0:
448,0,7236,1,0,1:0:0:0:
64,0,7294,1,0,1:0:0:0:
192,0,7294,1,0,1:0:0:0:
320,0,7353,1,0,1:0:0:0:
448,0,7353,1,0,1:0:0:0:
64,0,7411,1,0,1:0:0:0:
192,0,7411,1,0,1:0:0:0:
320,0,7470,1,0,1:0:0:0:
448,0,7470,1,0,1:0:0:0:
64,0,7529,1,0,1:0:0:0:
192,0,7558,1,0,1:0:0:0:
320,0,7587,1,0,1:0:0:0:
448,0,7616,1,0,1:0:0:0:
64,0,7646,1,0,1:0:0:0:
192,0,7646,1,0,1:0:0:0:
448,0,7763,1,0,1:0:0:0:
320,0,7792,1,0,1:0:0:0:
192,0,7821,1,0,1:0:0:0:
64,0,7851,1,0,1:0:0:0:
320,0,7880,1,0,1:0:0:0:
448,0,7880,1,0,1:0:0:0:
192,0,7997,1,0,1:0:0:0:
320,0,7997,1,0,1:0:0:0:
448,0,8056,1,0,1:0:0:0:
64,0,8114,1,0,1:0:0:0:
192,0,8114,1,0,1:0:0:0:
320,0,8173,1,0,1:0:0:0:
192,0,8232,1,0,1:0:0:0:
448,0,8232,1,0,1:0:0:0:
64,0,8349,1,0,1:0:0:0:
320,0,8349,1,0,1:0:0:0:
192,0,8407,1,0,1:0:0:0:
320,0,8466,1,0,1:0:0:0:
448,0,8466,1,0,1:0:0:0:
64,0,8525,1,0,1:0:0:0:
192,0,8525,1,0,1:0:0:0:
320,0,8583,1,0,1:0:0:0:
448,0,8583,1,0,1:0:0:0:
64,0,8642,1,0,1:0:0:0:
192,0,8642,1,0,1:0:0:0:
320,0,8700,1,0,1:0:0:0:
448,0,8700,1,0,1:0:0:0:
64,0,8759,1,0,1:0:0:0:
192,0,8759,1,0,1:0:0:0:
320,0,8818,1,0,1:0:0:0:
448,0,8818,1,0,1:0:0:0:
64,0,8876,1,0,1:0:0:0:
192,0,8876,1,0,1:0:0:0:
320,0,8935,1,0,1:0:0:0:
448,0,8935,1,0,1:0:0:0:
64,0,8993,1,0,1:0:0:0:
192,0,8993,1,0,1:0:0:0:
320,0,9052,1,0,1:0:0:0:
448,0,9052,1,0,1:0:0:0:
64,0,9111,1,0,1:0:0:0:
192,0,9111,1,0,1:0:0:0:
320,0,9169,1,0,1:0:0:0:
448,0,9169,1,0,1:0:0:0:
64,0,9228,1,0,1:0:0:0:
192,0,9228,1,0,1:0:0:0:
320,0,9286,1,0,1:0:0:0:
448,0,9286,1,0,1:0:0:0:
64,0,9345,1,0,1:0:0:0:
192,0,9345,1,0,1:0:0:0:
320,0,9404,1,0,1:0:0:0:
448,0,9404,1,0,1:0:0:0:
64,0,9462,1,0,1:0:0:0:
192,0,9462,1,0,1:0:0:0:
320,0,9521,1,0,1:0:0:0:
448,0,9521,1,0,1:0:0:0:
64,0,9579,1,0,1:0:0:0:
192,0,9579,1,0,1:0:0:0:
320,0,9638,1,0,1:0:0:0:
448,0,9638,1,0,1:0:0:0:
64,0,9696,1,0,1:0:0:0:
192,0,9696,1,0,1:0:0:0:
320,0,9755,1,0,1:0:0:0:
448,0,9755,1,0,1:0:0:0:
64,0,9814,1,0,1:0:0:0:
192,0,9814,1,0,1:0:0:0:
320,0,9872,1,0,1:0:0:0:
448,0,9872,1,0,1:0:0:0:
64,0,9931,1,0,1:0:0:0:
192,0,9931,1,0,1:0:0:0:
320,0,9989,1,0,1:0:0:0:
448,0,9989,1,0,1:0:0:0:
64,0,10048,1,0,1:0:0:0:
192,0,10048,1,0,1:0:0:0:
320,0,10107,1,0,1:0:0:0:
448,0,10107,1,0,1:0:0:0:
64,0,10165,1,0,1:0:0:0:
192,0,10165,1,0,1:0:0:0:
320,0,10224,1,0,1:0:0:0:
448,0,10224,1,0,1:0:0:0:
64,0,10282,1,0,1:0:0:0:
192,0,10282,1,0,1:0:0:0:
320,0,10341,1,0,1:0:0:0:
448,0,10341,1,0,1:0:0:0:
64,0,10370,1,0,1:0:0:0:
192,0,10400,1,0,1:0:0:0:
320,0,10429,1,0,1:0:0:0:
448,0,10458,1,0,1:0:0:0:
64,0,10517,1,0,1:0:0:0:
192,0,10517,1,0,1:0:0:0:
320,0,10575,1,0,1:0:0:0:
448,0,10575,1,0,1:0:0:0:
64,0,10634,1,0,1:0:0:0:
192,0,10634,1,0,1:0:0:0:
320,0,10693,1,0,1:0:0:0:
448,0,10693,1,0,1:0:0:0:
64,0,10722,1,0,1:0:0:0:
192,0,10751,1,0,1:0:0:0:
320,0,10780,1,0,1:0:0:0:
448,0,10810,1,0,1:0:0:0:
64,0,10868,1,0,1:0:0:0:
192,0,10868,1,0,1:0:0:0:
320,0,10927,1,0,1:0:0:0:
448,0,10927,1,0,1:0:0:0:
64,0,10986,1,0,1:0:0:0:
192,0,10986,1,0,1:0:0:0:
320,0,11044,1,0,1:0:0:0:
448,0,11044,1,0,1:0:0:0:
64,0,11103,1,0,1:0:0:0:
192,0,11103,1,0,1:0:0:0:
320,0,11161,1,0,1:0:0:0:
448,0,11161,1,0,1:0:0:0:
64,0,11220,1,0,1:0:0:0:
192,0,11220,1,0,1:0:0:0:
320,0,11279,1,0,1:0:0:0:
448,0,11279,1,0,1:0:0:0:
64,0,11308,1,0,1:0:0:0:
192,0,11337,1,0,1:0:0:0:
320,0,11366,1,0,1:0:0:0:
448,0,11396,1,0,1:0:0:0:
64,0,11425,1,0,1:0:0:0:
192,0,11454,1,0,1:0:0:0:
320,0,11484,1,0,1:0:0:0:
448,0,11513,1,0,1:0:0:0:
64,0,11542,1,0,1:0:0:0:
192,0,11571,1,0,1:0:0:0:
320,0,11601,1,0,1:0:0:0:
448,0,11630,1,0,1:0:0:0:
64,0,11659,1,0,1:0:0:0:
192,0,11689,1,0,1:0:0:0:
320,0,11718,1,0,1:0:0:0:
448,0,11747,1,0,1:0:0:0:
64,0,11777,1,0,1:0:0:0:
192,0,11806,1,0,1:0:0:0:
320,0,11835,1,0,1:0:0:0:
448,0,11864,1,0,1:0:0:0:
64,0,11894,1,0,1:0:0:0:
192,0,11923,1,0,1:0:0:0:
320,0,11952,1,0,1:0:0:0:
448,0,11982,1,0,1:0:0:0:
64,0,12011,1,0,1:0:0:0:
192,0,12040,1,0,1:0:0:0:
320,0,12070,1,0,1:0:0:0:
448,0,12099,1,0,1:0:0:0:
64,0,12128,1,0,1:0:0:0:
192,0,12157,1,0,1:0:0:0:
320,0,12187,1,0,1:0:0:0:
448,0,12216,1,0,1:0:0:0:
192,0,12333,1,0,1:0:0:0:
448,0,12450,1,0,1:0:0:0:
64,0,12568,1,0,1:0:0:0:
192,0,12568,1,0,1:0:0:0:
320,0,12568,1,0,1:0:0:0:
448,0,12685,1,0,1:0:0:0:
64,0,12802,1,0,1:0:0:0:
192,0,12919,1,0,1:0:0:0:
320,0,13036,1,0,1:0:0:0:
192,0,13095,1,0,1:0:0:0:
64,0,13154,1,0,1:0:0:0:
192,0,13271,1,0,1:0:0:0:
320,0,13388,1,0,1:0:0:0:
448,0,13505,1,0,1:0:0:0:
64,0,13622,1,0,1:0:0:0:
192,0,13739,1,0,1:0:0:0:
320,0,13857,1,0,1:0:0:0:
64,0,13974,1,0,1:0:0:0:
192,0,14091,1,0,1:0:0:0:
320,0,14091,1,0,1:0:0:0:
448,0,14091,1,0,1:0:0:0:
64,0,14208,1,0,1:0:0:0:
192,0,14325,1,0,1:0:0:0:
64,0,14443,1,0,1:0:0:0:
320,0,14443,1,0,1:0:0:0:
448,0,14443,1,0,1:0:0:0:
192,0,14560,1,0,1:0:0:0:
64,0,14677,1,0,1:0:0:0:
320,0,14794,1,0,1:0:0:0:
64,0,14911,1,0,1:0:0:0:
448,0,14970,1,0,1:0:0:0:
192,0,15029,1,0,1:0:0:0:
448,0,15146,1,0,1:0:0:0:
64,0,15263,1,0,1:0:0:0:
192,0,15380,1,0,1:0:0:0:
320,0,15439,1,0,1:0:0:0:
448,0,15497,1,0,1:0:0:0:
320,0,15614,1,0,1:0:0:0:
64,0,15732,1,0,1:0:0:0:
320,0,15849,1,0,1:0:0:0:
64,0,15966,1,0,1:0:0:0:
192,0,15966,1,0,1:0:0:0:
448,0,15966,1,0,1:0:0:0:
320,0,16083,1,0,1:0:0:0:
192,0,16200,1,0,1:0:0:0:
64,0,16318,1,0,1:0:0:0:
320,0,16318,1,0,1:0:0:0:
448,0,16318,1,0,1:0:0:0:
192,0,16435,1,0,1:0:0:0:
320,0,16552,1,0,1:0:0:0:
448,0,16669,1,0,1:0:0:0:
320,0,16728,1,0,1:0:0:0:
64,0,16786,1,0,1:0:0:0:
192,0,16845,1,0,1:0:0:0:
320,0,16904,1,0,1:0:0:0:
64,0,17021,1,0,1:0:0:0:
192,0,17138,1,0,1:0:0:0:
448,0,17255,1,0,1:0:0:0:
64,0,17372,1,0,1:0:0:0:
192,0,17431,1,0,1:0:0:0:
320,0,17489,1,0,1:0:0:0:
448,0,17548,1,0,1:0:0:0:
192,0,17607,1,0,1:0:0:0:
64,0,17724,1,0,1:0:0:0:
448,0,17841,1,0,1:0:0:0:
64,192,17900,1,0,0:0:0:0:
192,192,18017,1,0,0:0:0:0:
320,192,18134,1,0,0:0:0:0:
192,192,18251,1,0,0:0:0:0:
64,192,18368,1,0,0:0:0:0:
448,192,18486,1,0,0:0:0:0:
192,192,18603,1,0,0:0:0:0:
320,192,18661,1,0,0:0:0:0:
64,0,18779,1,0,1:0:0:0:
192,0,18837,1,0,1:0:0:0:
64,0,18896,1,0,1:0:0:0:
448,0,19013,1,0,1:0:0:0:
320,0,19071,1,0,1:0:0:0:
448,0,19130,1,0,1:0:0:0:
64,0,19247,1,0,1:0:0:0:
192,0,19277,1,0,1:0:0:0:
320,0,19306,1,0,1:0:0:0:
448,0,19335,1,0,1:0:0:0:
64,0,19364,1,0,1:0:0:0:
192,0,19394,1,0,1:0:0:0:
320,0,19423,1,0,1:0:0:0:
448,0,19452,1,0,1:0:0:0:
64,0,19482,128,0,19628:0:0:0:0:
320,0,19716,1,0,1:0:0:0:
448,0,19716,1,0,1:0:0:0:
64,0,19775,1,0,1:0:0:0:
192,0,19775,1,0,1:0:0:0:
320,0,19833,1,0,1:0:0:0:
448,0,19833,1,0,1:0:0:0:
64,0,19892,1,0,1:0:0:0:
192,0,19892,1,0,1:0:0:0:
320,0,19950,1,0,1:0:0:0:
448,0,19950,1,0,1:0:0:0:
64,0,20009,1,0,1:0:0:0:
192,0,20009,1,0,1:0:0:0:
320,0,20068,1,0,1:0:0:0:
448,0,20068,1,0,1:0:0:0:
64,0,20126,1,0,1:0:0:0:
192,0,20126,1,0,1:0:0:0:
320,0,20185,1,0,1:0:0:0:
448,0,20185,1,0,1:0:0:0:
64,0,20243,1,0,1:0:0:0:
192,0,20243,1,0,1:0:0:0:
320,0,20302,1,0,1:0:0:0:
448,0,20302,1,0,1:0:0:0:
64,0,20361,1,0,1:0:0:0:
192,0,20361,1,0,1:0:0:0:
448,0,20419,1,0,1:0:0:0:
320,0,20448,1,0,1:0:0:0:
192,0,20478,1,0,1:0:0:0:
448,0,20536,1,0,1:0:0:0:
320,0,20566,1,0,1:0:0:0:
192,0,20595,1,0,1:0:0:0:
64,0,20624,1,0,1:0:0:0:
320,0,20654,1,0,1:0:0:0:
448,0,20654,1,0,1:0:0:0:
64,0,20712,1,0,1:0:0:0:
192,0,20712,1,0,1:0:0:0:
320,0,20771,1,0,1:0:0:0:
448,0,20771,1,0,1:0:0:0:
64,0,20829,1,0,1:0:0:0:
192,0,20829,1,0,1:0:0:0:
320,0,20888,1,0,1:0:0:0:
448,0,20888,1,0,1:0:0:0:
64,0,20946,1,0,1:0:0:0:
192,0,20946,1,0,1:0:0:0:
320,0,21005,1,0,1:0:0:0:
448,0,21005,1,0,1:0:0:0:
64,0,21064,1,0,1:0:0:0:
192,0,21064,1,0,1:0:0:0:
320,0,21122,1,0,1:0:0:0:
448,0,21122,1,0,1:0:0:0:
64,0,21181,1,0,1:0:0:0:
192,0,21181,1,0,1:0:0:0:
320,0,21239,1,0,1:0:0:0:
448,0,21239,1,0,1:0:0:0:
64,0,21298,1,0,1:0:0:0:
192,0,21298,1,0,1:0:0:0:
320,0,21357,1,0,1:0:0:0:
448,0,21357,1,0,1:0:0:0:
64,0,21415,1,0,1:0:0:0:
192,0,21415,1,0,1:0:0:0:
320,0,21474,1,0,1:0:0:0:
448,0,21474,1,0,1:0:0:0:
64,0,21532,1,0,1:0:0:0:
192,0,21532,1,0,1:0:0:0:
320,0,21591,1,0,1:0:0:0:
448,0,21591,1,0,1:0:0:0:
64,0,21943,1,0,1:0:0:0:
192,0,21943,1,0,1:0:0:0:
320,0,21943,1,0,1:0:0:0:
448,0,21943,1,0,1:0:0:0:
64,0,22138,1,0,1:0:0:0:
192,0,22138,1,0,1:0:0:0:
320,0,22138,1,0,1:0:0:0:
448,0,22138,1,0,1:0:0:0:
64,0,22314,1,0,1:0:0:0:
192,0,22314,1,0,1:0:0:0:
320,0,22314,1,0,1:0:0:0:
448,0,22314,1,0,1:0:0:0:
64,0,22509,1,0,1:0:0:0:
192,0,22509,1,0,1:0:0:0:
320,0,22509,1,0,1:0:0:0:
448,0,22509,1,0,1:0:0:0:
