osu file format v14

[General]
AudioFilename: audio.mp3
AudioLeadIn: 0
PreviewTime: -1
Countdown: 0
SampleSet: None
StackLeniency: 0.7
Mode: 3
LetterboxInBreaks: 0
SpecialStyle: 0
WidescreenStoryboard: 1

[Editor]
DistanceSpacing: 0.8
BeatDivisor: 4
GridSize: 16
TimelineZoom: 1

[Metadata]
Title:The Mob
TitleUnicode:The Mob
Artist:RIOT
ArtistUnicode:RIOT
Creator:diamondBIaze
Version:Hard
Source:Monstercat
Tags:EDM Dubstep Electronic Monstercat RIOT it's a mess i know
BeatmapID:1780803
BeatmapSetID:851856

[Difficulty]
HPDrainRate:5
CircleSize:4
OverallDifficulty:5
ApproachRate:5
SliderMultiplier:1.4
SliderTickRate:1

[Events]
//Background and Video events
0,0,"Mob_wallpaper.jpg",0,0
//Break Periods
//Storyboard Layer 0 (Background)
//Storyboard Layer 1 (Fail)
//Storyboard Layer 2 (Pass)
//Storyboard Layer 3 (Foreground)
//Storyboard Sound Samples

[TimingPoints]
7480,400,4,3,0,55,1,0
31658,-133.333333333333,4,3,0,60,0,0
31858,-142.857142857143,4,3,0,60,0,0
32258,-100,4,3,0,60,0,0
32458,-90.909090909091,4,3,0,60,0,0
32658,-83.3333333333334,4,3,0,60,0,0
33058,-100,4,3,0,60,0,0
39056,-117.647058823529,4,3,0,60,0,0
39456,-100,4,3,0,60,0,0
51856,-117.647058823529,4,3,0,60,0,0
52256,-100,4,3,0,60,0,0
58658,-99.9999999999999,4,3,0,60,0,1
84256,800,4,3,0,55,1,1
84256,-66.6666666666667,4,3,0,60,0,1
87056,-55.5555555555556,4,3,0,60,0,1
87456,400,4,3,0,55,1,1
87456,-100,4,3,0,60,0,1
109856,-100,4,3,0,20,0,0
111448,428.571428571429,4,3,0,15,1,0
113162,461.538461538462,4,3,0,10,1,0
116854,666.666666666667,4,3,0,5,1,0

[HitObjects]
320,192,7481,5,0,0:0:0:0:
192,192,7481,1,0,0:0:0:0:
448,192,7880,1,0,0:0:0:0:
192,192,8080,1,0,0:0:0:0:
64,192,8080,1,0,0:0:0:0:
320,192,8480,1,0,0:0:0:0:
448,192,8680,1,0,0:0:0:0:
192,192,8780,1,0,0:0:0:0:
448,192,8880,1,0,0:0:0:0:
192,192,8980,1,0,0:0:0:0:
448,192,9080,1,0,0:0:0:0:
320,192,9280,1,0,0:0:0:0:
64,192,9480,1,0,0:0:0:0:
320,192,9580,1,0,0:0:0:0:
64,192,9680,1,0,0:0:0:0:
320,192,9780,1,0,0:0:0:0:
64,192,9880,1,0,0:0:0:0:
448,192,10080,1,0,0:0:0:0:
320,192,10280,1,0,0:0:0:0:
192,192,10480,1,0,0:0:0:0:
448,192,10680,1,0,0:0:0:0:
64,192,10680,1,0,0:0:0:0:
192,192,11080,1,0,0:0:0:0:
320,192,11280,1,0,0:0:0:0:
448,192,11280,1,0,0:0:0:0:
192,192,11680,1,0,0:0:0:0:
64,192,11880,1,0,0:0:0:0:
448,192,11980,1,0,0:0:0:0:
64,192,12080,1,0,0:0:0:0:
448,192,12180,1,0,0:0:0:0:
64,192,12280,1,0,0:0:0:0:
192,192,12480,1,0,0:0:0:0:
320,192,12680,1,0,0:0:0:0:
192,192,12780,1,0,0:0:0:0:
320,192,12880,1,0,0:0:0:0:
192,192,12980,1,0,0:0:0:0:
320,192,13080,1,0,0:0:0:0:
64,192,13280,1,0,0:0:0:0:
448,192,13480,1,0,0:0:0:0:
192,192,13680,1,0,0:0:0:0:
320,192,13880,1,0,0:0:0:0:
64,192,13880,128,0,14280:0:0:0:0:
192,192,14480,128,0,14880:0:0:0:0:
64,192,14480,1,0,0:0:0:0:
320,192,15080,1,0,0:0:0:0:
192,192,15480,1,0,0:0:0:0:
448,192,15580,1,0,0:0:0:0:
320,192,15680,1,0,0:0:0:0:
64,192,15780,1,0,0:0:0:0:
448,192,15880,1,0,0:0:0:0:
64,192,15980,1,0,0:0:0:0:
192,192,16080,1,0,0:0:0:0:
320,192,16180,1,0,0:0:0:0:
64,192,16280,1,0,0:0:0:0:
448,192,16480,1,0,0:0:0:0:
320,192,16680,1,0,0:0:0:0:
192,192,16680,1,0,0:0:0:0:
64,192,16880,1,0,0:0:0:0:
320,192,17080,1,0,0:0:0:0:
448,192,17080,128,0,17480:0:0:0:0:
192,192,17680,128,0,18080:0:0:0:0:
448,192,17680,1,0,0:0:0:0:
320,192,18280,1,0,0:0:0:0:
448,192,18680,1,0,0:0:0:0:
192,192,18780,1,0,0:0:0:0:
448,192,18880,1,0,0:0:0:0:
64,192,18980,1,0,0:0:0:0:
192,192,19080,1,0,0:0:0:0:
64,192,19180,1,0,0:0:0:0:
448,192,19280,1,0,0:0:0:0:
192,192,19380,1,0,0:0:0:0:
320,192,19480,1,0,0:0:0:0:
64,192,19680,1,0,0:0:0:0:
192,192,19880,1,0,0:0:0:0:
448,192,19880,1,0,0:0:0:0:
320,192,20080,1,0,0:0:0:0:
64,192,20280,1,0,0:0:0:0:
192,192,20280,1,0,0:0:0:0:
320,192,20680,1,0,0:0:0:0:
448,192,20880,1,0,0:0:0:0:
192,192,20880,1,0,0:0:0:0:
64,192,21280,1,0,0:0:0:0:
192,192,21480,1,0,0:0:0:0:
320,192,21580,1,0,0:0:0:0:
192,192,21680,1,0,0:0:0:0:
320,192,21780,1,0,0:0:0:0:
192,192,21880,1,0,0:0:0:0:
448,192,22080,1,0,0:0:0:0:
64,192,22280,1,0,0:0:0:0:
192,192,22380,1,0,0:0:0:0:
64,192,22480,1,0,0:0:0:0:
192,192,22580,1,0,0:0:0:0:
64,192,22680,1,0,0:0:0:0:
192,192,22880,1,0,0:0:0:0:
320,192,23080,1,0,0:0:0:0:
448,192,23280,1,0,0:0:0:0:
64,192,23480,1,0,0:0:0:0:
320,192,23480,1,0,0:0:0:0:
320,192,23880,1,0,0:0:0:0:
192,192,24080,1,0,0:0:0:0:
448,192,24080,1,0,0:0:0:0:
64,192,24480,1,0,0:0:0:0:
192,192,24680,1,0,0:0:0:0:
448,192,24780,1,0,0:0:0:0:
192,192,24880,1,0,0:0:0:0:
448,192,24980,1,0,0:0:0:0:
192,192,25080,1,0,0:0:0:0:
64,192,25280,1,0,0:0:0:0:
320,192,25480,1,0,0:0:0:0:
64,192,25580,1,0,0:0:0:0:
320,192,25680,1,0,0:0:0:0:
64,192,25780,1,0,0:0:0:0:
320,192,25880,1,0,0:0:0:0:
448,192,26080,1,0,0:0:0:0:
192,192,26280,1,0,0:0:0:0:
320,192,26480,1,0,0:0:0:0:
64,192,26680,128,0,27080:0:0:0:0:
448,192,26680,1,0,0:0:0:0:
192,192,27280,1,0,0:0:0:0:
448,192,27280,128,0,27680:0:0:0:0:
64,192,27880,1,0,0:0:0:0:
192,192,28280,1,0,0:0:0:0:
64,192,28380,1,0,0:0:0:0:
448,192,28480,1,0,0:0:0:0:
320,192,28580,1,0,0:0:0:0:
448,192,28680,1,0,0:0:0:0:
192,192,28780,1,0,0:0:0:0:
448,192,28880,1,0,0:0:0:0:
64,192,28980,1,0,0:0:0:0:
192,192,29080,1,0,0:0:0:0:
320,192,29280,1,0,0:0:0:0:
64,192,29480,1,0,0:0:0:0:
448,192,29480,1,0,0:0:0:0:
448,192,29680,1,0,0:0:0:0:
320,192,29880,128,0,30280:0:0:0:0:
192,192,29880,1,0,0:0:0:0:
192,192,30480,128,0,30880:0:0:0:0:
448,192,30480,1,0,0:0:0:0:
320,192,31080,1,0,0:0:0:0:
448,192,31480,128,0,32880:0:0:0:0:
64,192,31480,128,0,32880:0:0:0:0:
192,192,31480,128,0,32280:0:0:0:0:
320,192,32280,128,0,32880:0:0:0:0:
192,192,33080,1,0,0:0:0:0:
320,192,33080,1,0,0:0:0:0:
448,192,33280,1,0,0:0:0:0:
320,192,33380,1,0,0:0:0:0:
448,192,33480,1,0,0:0:0:0:
320,192,33580,1,0,0:0:0:0:
448,192,33680,1,0,0:0:0:0:
320,192,33780,1,0,0:0:0:0:
448,192,33880,1,0,0:0:0:0:
320,192,33980,1,0,0:0:0:0:
448,192,34080,1,0,0:0:0:0:
192,192,34180,1,0,0:0:0:0:
448,192,34280,1,0,0:0:0:0:
192,192,34380,1,0,0:0:0:0:
448,192,34480,1,0,0:0:0:0:
192,192,34580,1,0,0:0:0:0:
448,192,34680,1,0,0:0:0:0:
192,192,34780,1,0,0:0:0:0:
448,192,34880,1,0,0:0:0:0:
64,192,34980,1,0,0:0:0:0:
448,192,35080,1,0,0:0:0:0:
64,192,35180,1,0,0:0:0:0:
448,192,35280,1,0,0:0:0:0:
64,192,35380,1,0,0:0:0:0:
448,192,35480,1,0,0:0:0:0:
64,192,35580,1,0,0:0:0:0:
320,192,35680,1,0,0:0:0:0:
64,192,35780,1,0,0:0:0:0:
320,192,35880,1,0,0:0:0:0:
64,192,35980,1,0,0:0:0:0:
320,192,36080,1,0,0:0:0:0:
64,192,36180,1,0,0:0:0:0:
320,192,36280,1,0,0:0:0:0:
64,192,36380,1,0,0:0:0:0:
192,192,36480,1,0,0:0:0:0:
320,192,36580,1,0,0:0:0:0:
192,192,36680,1,0,0:0:0:0:
320,192,36780,1,0,0:0:0:0:
192,192,36880,1,0,0:0:0:0:
320,192,36980,1,0,0:0:0:0:
192,192,37080,1,0,0:0:0:0:
320,192,37180,1,0,0:0:0:0:
192,192,37280,1,0,0:0:0:0:
448,192,37380,1,0,0:0:0:0:
192,192,37480,1,0,0:0:0:0:
448,192,37580,1,0,0:0:0:0:
192,192,37680,1,0,0:0:0:0:
448,192,37780,1,0,0:0:0:0:
64,192,37880,128,0,38680:0:0:0:0:
320,192,38080,1,0,0:0:0:0:
448,192,38180,1,0,0:0:0:0:
320,192,38280,1,0,0:0:0:0:
448,192,38380,1,0,0:0:0:0:
320,192,38480,1,0,0:0:0:0:
448,192,38580,1,0,0:0:0:0:
320,192,38680,1,0,0:0:0:0:
448,192,38780,1,0,0:0:0:0:
192,192,38880,1,0,0:0:0:0:
64,192,39080,128,0,39380:0:0:0:0:
448,192,39080,128,0,39380:0:0:0:0:
192,192,39480,1,0,0:0:0:0:
320,192,39480,1,0,0:0:0:0:
448,192,39680,1,0,0:0:0:0:
64,192,39880,1,0,0:0:0:0:
320,192,39880,1,0,0:0:0:0:
192,192,39880,1,0,0:0:0:0:
320,192,40080,1,0,0:0:0:0:
192,192,40280,1,0,0:0:0:0:
448,192,40280,1,0,0:0:0:0:
64,192,40280,1,0,0:0:0:0:
64,192,40480,1,0,0:0:0:0:
192,192,40680,1,0,0:0:0:0:
320,192,40680,1,0,0:0:0:0:
448,192,40680,1,0,0:0:0:0:
192,192,40880,1,0,0:0:0:0:
64,192,41080,1,0,0:0:0:0:
320,192,41080,1,0,0:0:0:0:
448,192,41080,1,0,0:0:0:0:
320,192,41280,1,0,0:0:0:0:
192,192,41480,1,0,0:0:0:0:
64,192,41480,1,0,0:0:0:0:
448,192,41480,1,0,0:0:0:0:
64,192,41680,1,0,0:0:0:0:
192,192,41880,1,0,0:0:0:0:
320,192,41880,1,0,0:0:0:0:
448,192,41880,1,0,0:0:0:0:
448,192,42080,1,0,0:0:0:0:
320,192,42280,1,0,0:0:0:0:
192,192,42280,1,0,0:0:0:0:
64,192,42280,1,0,0:0:0:0:
192,192,42480,1,0,0:0:0:0:
64,192,42680,1,0,0:0:0:0:
320,192,42680,1,0,0:0:0:0:
448,192,42680,128,0,44080:0:0:0:0:
64,192,42880,1,0,0:0:0:0:
192,192,43080,1,0,0:0:0:0:
320,192,43080,1,0,0:0:0:0:
192,192,43280,1,0,0:0:0:0:
64,192,43480,1,0,0:0:0:0:
320,192,43480,1,0,0:0:0:0:
320,192,43680,1,0,0:0:0:0:
192,192,43880,1,0,0:0:0:0:
64,192,43880,1,0,0:0:0:0:
64,192,44280,1,0,0:0:0:0:
192,192,44280,1,0,0:0:0:0:
320,192,44280,1,0,0:0:0:0:
64,192,44480,1,0,0:0:0:0:
64,192,44680,1,0,0:0:0:0:
64,192,44880,1,0,0:0:0:0:
64,192,45080,1,0,0:0:0:0:
64,192,45280,1,0,0:0:0:0:
64,192,45480,1,0,0:0:0:0:
64,192,45680,1,0,0:0:0:0:
192,192,45880,1,0,0:0:0:0:
320,192,45880,1,0,0:0:0:0:
448,192,45880,1,0,0:0:0:0:
64,192,45980,1,0,0:0:0:0:
192,192,46080,1,0,0:0:0:0:
320,192,46180,1,0,0:0:0:0:
448,192,46280,1,0,0:0:0:0:
320,192,46380,1,0,0:0:0:0:
448,192,46480,1,0,0:0:0:0:
64,192,46580,1,0,0:0:0:0:
320,192,46680,1,0,0:0:0:0:
192,192,46780,1,0,0:0:0:0:
320,192,46880,1,0,0:0:0:0:
64,192,46980,1,0,0:0:0:0:
448,192,47080,1,0,0:0:0:0:
192,192,47180,1,0,0:0:0:0:
64,192,47280,1,0,0:0:0:0:
448,192,47380,1,0,0:0:0:0:
320,192,47480,1,0,0:0:0:0:
64,192,47480,1,0,0:0:0:0:
448,192,47580,1,0,0:0:0:0:
192,192,47680,1,0,0:0:0:0:
320,192,47780,1,0,0:0:0:0:
448,192,47880,1,0,0:0:0:0:
320,192,47980,1,0,0:0:0:0:
192,192,48080,1,0,0:0:0:0:
64,192,48180,1,0,0:0:0:0:
448,192,48280,1,0,0:0:0:0:
192,192,48380,1,0,0:0:0:0:
64,192,48480,1,0,0:0:0:0:
320,192,48580,1,0,0:0:0:0:
448,192,48680,1,0,0:0:0:0:
192,192,48780,1,0,0:0:0:0:
448,192,48880,1,0,0:0:0:0:
64,192,48980,1,0,0:0:0:0:
320,192,49080,1,0,0:0:0:0:
192,192,49080,1,0,0:0:0:0:
448,192,49180,1,0,0:0:0:0:
320,192,49280,1,0,0:0:0:0:
64,192,49380,1,0,0:0:0:0:
320,192,49480,1,0,0:0:0:0:
448,192,49580,1,0,0:0:0:0:
320,192,49680,1,0,0:0:0:0:
192,192,49780,1,0,0:0:0:0:
320,192,49880,1,0,0:0:0:0:
448,192,49980,1,0,0:0:0:0:
320,192,50080,1,0,0:0:0:0:
192,192,50180,1,0,0:0:0:0:
320,192,50280,1,0,0:0:0:0:
192,192,50380,1,0,0:0:0:0:
64,192,50480,1,0,0:0:0:0:
320,192,50580,1,0,0:0:0:0:
192,192,50680,1,0,0:0:0:0:
448,192,50680,1,0,0:0:0:0:
320,192,50780,1,0,0:0:0:0:
448,192,50880,1,0,0:0:0:0:
320,192,50980,1,0,0:0:0:0:
448,192,51080,1,0,0:0:0:0:
320,192,51180,1,0,0:0:0:0:
64,192,51280,1,0,0:0:0:0:
320,192,51380,1,0,0:0:0:0:
192,192,51480,1,0,0:0:0:0:
320,192,51580,1,0,0:0:0:0:
448,192,51680,1,0,0:0:0:0:
64,192,51780,1,0,0:0:0:0:
320,192,51880,128,0,52180:0:0:0:0:
192,192,51880,128,0,52180:0:0:0:0:
64,192,52280,1,0,0:0:0:0:
448,192,52280,1,0,0:0:0:0:
192,192,52380,1,0,0:0:0:0:
320,192,52480,1,0,0:0:0:0:
64,192,52580,1,0,0:0:0:0:
320,192,52680,1,0,0:0:0:0:
448,192,52680,1,0,0:0:0:0:
192,192,52780,1,0,0:0:0:0:
448,192,52880,1,0,0:0:0:0:
320,192,52980,1,0,0:0:0:0:
192,192,53080,1,0,0:0:0:0:
448,192,53080,1,0,0:0:0:0:
64,192,53180,1,0,0:0:0:0:
320,192,53280,1,0,0:0:0:0:
192,192,53380,1,0,0:0:0:0:
64,192,53480,128,0,53880:0:0:0:0:
448,192,53480,128,0,53880:0:0:0:0:
320,192,53880,1,0,0:0:0:0:
192,192,53880,1,0,0:0:0:0:
64,192,53980,1,0,0:0:0:0:
192,192,54080,1,0,0:0:0:0:
320,192,54180,1,0,0:0:0:0:
64,192,54280,1,0,0:0:0:0:
448,192,54280,1,0,0:0:0:0:
320,192,54380,1,0,0:0:0:0:
192,192,54480,1,0,0:0:0:0:
64,192,54580,1,0,0:0:0:0:
320,192,54680,1,0,0:0:0:0:
448,192,54680,1,0,0:0:0:0:
192,192,54780,1,0,0:0:0:0:
448,192,54880,1,0,0:0:0:0:
192,192,54980,1,0,0:0:0:0:
320,192,55080,128,0,55480:0:0:0:0:
64,192,55080,128,0,55480:0:0:0:0:
192,192,55480,1,0,0:0:0:0:
448,192,55480,1,0,0:0:0:0:
320,192,55580,1,0,0:0:0:0:
64,192,55680,1,0,0:0:0:0:
192,192,55680,1,0,0:0:0:0:
448,192,55780,1,0,0:0:0:0:
320,192,55880,1,0,0:0:0:0:
64,192,55880,1,0,0:0:0:0:
192,192,55980,1,0,0:0:0:0:
320,192,56080,1,0,0:0:0:0:
448,192,56080,1,0,0:0:0:0:
64,192,56180,1,0,0:0:0:0:
448,192,56280,1,0,0:0:0:0:
192,192,56280,1,0,0:0:0:0:
320,192,56380,1,0,0:0:0:0:
64,192,56480,1,0,0:0:0:0:
192,192,56480,1,0,0:0:0:0:
448,192,56580,1,0,0:0:0:0:
320,192,56680,1,0,0:0:0:0:
192,192,56680,1,0,0:0:0:0:
64,192,56780,1,0,0:0:0:0:
320,192,56880,1,0,0:0:0:0:
448,192,56880,1,0,0:0:0:0:
192,192,56980,1,0,0:0:0:0:
64,192,57080,1,0,0:0:0:0:
448,192,57080,1,0,0:0:0:0:
448,192,57280,1,0,0:0:0:0:
448,192,57480,128,0,57680:0:0:0:0:
320,192,57680,128,0,57880:0:0:0:0:
192,192,57880,128,0,58280:0:0:0:0:
64,192,58280,128,0,58680:0:0:0:0:
192,192,58680,1,0,0:0:0:0:
320,192,58680,128,0,58880:0:0:0:0:
448,192,58680,128,0,58880:0:0:0:0:
64,192,59080,1,0,0:0:0:0:
448,192,59280,1,0,0:0:0:0:
320,192,59480,128,0,59680:0:0:0:0:
64,192,59480,128,0,59680:0:0:0:0:
192,192,59480,1,0,0:0:0:0:
64,192,59930,128,0,60280:0:0:0:0:
192,192,59980,128,0,60280:0:0:0:0:
448,192,60030,128,0,60280:0:0:0:0:
320,192,60280,1,0,0:0:0:0:
64,192,60480,1,0,0:0:0:0:
320,192,60480,1,0,0:0:0:0:
448,192,60680,1,0,0:0:0:0:
64,192,60680,1,0,0:0:0:0:
192,192,60880,1,0,0:0:0:0:
448,192,60880,1,0,0:0:0:0:
320,192,60880,1,0,0:0:0:0:
192,192,61080,1,0,0:0:0:0:
64,192,61080,128,0,61280:0:0:0:0:
448,192,61080,128,0,61280:0:0:0:0:
320,192,61480,128,0,61630:0:0:0:0:
64,192,61480,128,0,61630:0:0:0:0:
448,192,61480,128,0,61630:0:0:0:0:
64,192,61880,1,0,0:0:0:0:
192,192,61930,1,0,0:0:0:0:
320,192,61980,1,0,0:0:0:0:
64,192,62030,1,0,0:0:0:0:
192,192,62080,1,0,0:0:0:0:
320,192,62130,1,0,0:0:0:0:
64,192,62180,1,0,0:0:0:0:
192,192,62230,1,0,0:0:0:0:
320,192,62280,1,0,0:0:0:0:
64,192,62330,1,0,0:0:0:0:
192,192,62380,1,0,0:0:0:0:
320,192,62430,1,0,0:0:0:0:
448,192,62480,128,0,62680:0:0:0:0:
192,192,62680,1,0,0:0:0:0:
64,192,62680,1,0,0:0:0:0:
448,192,63080,1,0,0:0:0:0:
320,192,63130,1,0,0:0:0:0:
192,192,63230,1,0,0:0:0:0:
320,192,63280,1,0,0:0:0:0:
448,192,63330,1,0,0:0:0:0:
64,192,63480,1,0,0:0:0:0:
192,192,63480,1,0,0:0:0:0:
192,192,63680,1,0,0:0:0:0:
448,192,63680,1,0,0:0:0:0:
64,192,63880,1,0,0:0:0:0:
320,192,63880,1,0,0:0:0:0:
192,192,64080,1,0,0:0:0:0:
320,192,64080,1,0,0:0:0:0:
448,192,64280,1,0,0:0:0:0:
64,192,64280,1,0,0:0:0:0:
320,192,64330,1,0,0:0:0:0:
192,192,64380,1,0,0:0:0:0:
448,192,64430,1,0,0:0:0:0:
320,192,64480,1,0,0:0:0:0:
192,192,64530,1,0,0:0:0:0:
448,192,64580,128,0,65080:0:0:0:0:
320,192,64630,128,0,65080:0:0:0:0:
192,192,64680,128,0,65080:0:0:0:0:
64,192,65080,1,0,0:0:0:0:
192,192,65480,1,0,0:0:0:0:
448,192,65680,1,0,0:0:0:0:
320,192,65880,1,0,0:0:0:0:
192,192,65905,1,0,0:0:0:0:
64,192,65930,1,0,0:0:0:0:
448,192,66280,128,0,66480:0:0:0:0:
64,192,66480,128,0,66680:0:0:0:0:
320,192,66680,1,0,0:0:0:0:
448,192,66680,1,0,0:0:0:0:
64,192,66880,1,0,0:0:0:0:
320,192,66880,1,0,0:0:0:0:
320,192,67080,1,0,0:0:0:0:
448,192,67080,1,0,0:0:0:0:
192,192,67280,1,0,0:0:0:0:
448,192,67280,1,0,0:0:0:0:
64,192,67480,128,0,67680:0:0:0:0:
192,192,67480,1,0,0:0:0:0:
320,192,67480,1,0,0:0:0:0:
192,192,67880,1,0,0:0:0:0:
320,192,67930,1,0,0:0:0:0:
448,192,67930,128,0,68280:0:0:0:0:
64,192,68280,1,0,0:0:0:0:
192,192,68280,1,0,0:0:0:0:
320,192,68280,1,0,0:0:0:0:
192,192,68480,1,0,0:0:0:0:
448,192,68480,1,0,0:0:0:0:
64,192,68580,1,0,0:0:0:0:
192,192,68680,1,0,0:0:0:0:
320,192,68680,1,0,0:0:0:0:
64,192,68780,1,0,0:0:0:0:
320,192,68880,1,0,0:0:0:0:
448,192,68880,1,0,0:0:0:0:
192,192,68980,1,0,0:0:0:0:
64,192,69080,1,0,0:0:0:0:
320,192,69080,1,0,0:0:0:0:
448,192,69180,1,0,0:0:0:0:
192,192,69280,1,0,0:0:0:0:
64,192,69280,1,0,0:0:0:0:
320,192,69380,1,0,0:0:0:0:
64,192,69480,1,0,0:0:0:0:
448,192,69480,1,0,0:0:0:0:
320,192,69580,1,0,0:0:0:0:
448,192,69680,1,0,0:0:0:0:
192,192,69680,1,0,0:0:0:0:
64,192,69780,1,0,0:0:0:0:
448,192,69880,128,0,69980:0:0:0:0:
320,192,69880,128,0,69980:0:0:0:0:
192,192,69880,128,0,69980:0:0:0:0:
448,192,70080,128,0,70180:0:0:0:0:
320,192,70080,128,0,70180:0:0:0:0:
192,192,70080,128,0,70180:0:0:0:0:
64,192,70280,1,0,0:0:0:0:
448,192,70480,1,0,0:0:0:0:
320,192,70680,128,0,70780:0:0:0:0:
192,192,70680,128,0,70780:0:0:0:0:
64,192,70680,128,0,70780:0:0:0:0:
320,192,70880,128,0,70980:0:0:0:0:
192,192,70880,128,0,70980:0:0:0:0:
64,192,70880,128,0,70980:0:0:0:0:
448,192,71080,1,0,0:0:0:0:
320,192,71080,1,0,0:0:0:0:
64,192,71480,1,0,0:0:0:0:
192,192,71480,1,0,0:0:0:0:
448,192,71480,1,0,0:0:0:0:
64,192,71880,128,0,72280:0:0:0:0:
448,192,71880,128,0,72080:0:0:0:0:
192,192,71880,128,0,72280:0:0:0:0:
320,192,72080,128,0,72280:0:0:0:0:
448,192,72280,1,0,0:0:0:0:
64,192,72680,1,0,0:0:0:0:
320,192,72680,1,0,0:0:0:0:
448,192,72680,1,0,0:0:0:0:
64,192,72880,1,0,0:0:0:0:
320,192,72880,1,0,0:0:0:0:
192,192,72880,1,0,0:0:0:0:
192,192,73080,1,0,0:0:0:0:
64,192,73080,1,0,0:0:0:0:
448,192,73080,1,0,0:0:0:0:
448,192,73280,128,0,73480:0:0:0:0:
64,192,73280,128,0,73680:0:0:0:0:
192,192,73480,128,0,73880:0:0:0:0:
320,192,73680,128,0,73880:0:0:0:0:
64,192,73880,1,0,0:0:0:0:
448,192,73880,1,0,0:0:0:0:
64,192,74280,1,0,0:0:0:0:
192,192,74330,1,0,0:0:0:0:
320,192,74380,1,0,0:0:0:0:
448,192,74430,1,0,0:0:0:0:
320,192,74680,1,0,0:0:0:0:
64,192,74680,128,0,75080:0:0:0:0:
448,192,74780,1,0,0:0:0:0:
320,192,74880,1,0,0:0:0:0:
448,192,74980,1,0,0:0:0:0:
320,192,75080,1,0,0:0:0:0:
320,192,75280,1,0,0:0:0:0:
192,192,75280,1,0,0:0:0:0:
64,192,75480,128,0,75680:0:0:0:0:
448,192,75480,1,0,0:0:0:0:
320,192,75480,1,0,0:0:0:0:
192,192,75830,1,0,0:0:0:0:
192,192,76030,1,0,0:0:0:0:
320,192,76080,1,0,0:0:0:0:
192,192,76280,1,0,0:0:0:0:
64,192,76280,1,0,0:0:0:0:
448,192,76480,128,0,76680:0:0:0:0:
192,192,76680,128,0,76880:0:0:0:0:
320,192,76880,128,0,77080:0:0:0:0:
64,192,77080,1,0,0:0:0:0:
192,192,77130,1,0,0:0:0:0:
448,192,77180,1,0,0:0:0:0:
64,192,77230,1,0,0:0:0:0:
192,192,77280,1,0,0:0:0:0:
448,192,77330,1,0,0:0:0:0:
64,192,77380,128,0,77880:0:0:0:0:
192,192,77430,128,0,77880:0:0:0:0:
448,192,77480,128,0,77880:0:0:0:0:
320,192,77880,1,0,0:0:0:0:
64,192,78280,1,0,0:0:0:0:
448,192,78330,1,0,0:0:0:0:
192,192,78430,1,0,0:0:0:0:
448,192,78480,1,0,0:0:0:0:
64,192,78530,1,0,0:0:0:0:
320,192,78630,1,0,0:0:0:0:
448,192,78680,128,0,79480:0:0:0:0:
192,192,78680,128,0,79480:0:0:0:0:
64,192,79480,128,0,80280:0:0:0:0:
320,192,79480,128,0,81080:0:0:0:0:
192,192,80280,128,0,81880:0:0:0:0:
448,192,81080,128,0,81880:0:0:0:0:
64,192,81880,128,0,82680:0:0:0:0:
320,192,81880,128,0,82680:0:0:0:0:
192,192,82680,1,0,0:0:0:0:
448,192,82680,1,0,0:0:0:0:
64,192,83480,5,0,0:0:0:0:
192,192,83480,1,0,0:0:0:0:
448,192,83480,1,0,0:0:0:0:
192,192,83680,1,0,0:0:0:0:
320,192,83680,1,0,0:0:0:0:
448,192,83680,1,0,0:0:0:0:
320,192,83880,1,0,0:0:0:0:
192,192,83880,1,0,0:0:0:0:
64,192,83880,1,0,0:0:0:0:
64,192,84258,5,0,0:0:0:0:
320,192,84258,1,0,0:0:0:0:
448,192,84258,1,0,0:0:0:0:
64,192,84656,128,0,84756:0:0:0:0:
64,192,84856,128,0,84956:0:0:0:0:
320,192,85056,1,0,0:0:0:0:
448,192,85056,128,0,85256:0:0:0:0:
64,192,85256,1,0,0:0:0:0:
192,192,85256,128,0,85656:0:0:0:0:
448,192,85656,1,0,0:0:0:0:
64,192,85656,1,0,0:0:0:0:
448,192,87056,128,0,87256:0:0:0:0:
64,192,87056,128,0,87256:0:0:0:0:
192,192,87056,1,0,0:0:0:0:
64,192,87456,5,0,0:0:0:0:
192,192,87456,1,0,0:0:0:0:
320,192,87456,1,0,0:0:0:0:
448,192,87456,1,0,0:0:0:0:
64,192,87722,128,0,88256:0:0:0:0:
320,192,87722,1,0,0:0:0:0:
320,192,87989,1,0,0:0:0:0:
192,192,88122,1,0,0:0:0:0:
448,192,88256,128,0,89056:0:0:0:0:
320,192,88256,1,0,0:0:0:0:
192,192,88522,1,0,0:0:0:0:
192,192,88789,1,0,0:0:0:0:
320,192,88922,1,0,0:0:0:0:
192,192,89056,128,0,89856:0:0:0:0:
448,192,89322,1,0,0:0:0:0:
448,192,89589,1,0,0:0:0:0:
64,192,89722,1,0,0:0:0:0:
64,192,89856,128,0,90656:0:0:0:0:
448,192,90056,1,0,0:0:0:0:
320,192,90056,1,0,0:0:0:0:
192,192,90256,1,0,0:0:0:0:
448,192,90256,1,0,0:0:0:0:
320,192,90456,1,0,0:0:0:0:
192,192,90456,1,0,0:0:0:0:
320,192,90656,1,0,0:0:0:0:
448,192,90656,1,0,0:0:0:0:
192,192,90656,1,0,0:0:0:0:
192,192,90922,1,0,0:0:0:0:
320,192,91122,1,0,0:0:0:0:
64,192,91256,1,0,0:0:0:0:
64,192,91522,128,0,92256:0:0:0:0:
320,192,91522,1,0,0:0:0:0:
448,192,91789,1,0,0:0:0:0:
320,192,91989,1,0,0:0:0:0:
448,192,92122,1,0,0:0:0:0:
192,192,92256,1,0,0:0:0:0:
320,192,92256,1,0,0:0:0:0:
320,192,92589,1,0,0:0:0:0:
192,192,92789,1,0,0:0:0:0:
64,192,92856,1,0,0:0:0:0:
192,192,92906,1,0,0:0:0:0:
320,192,92956,1,0,0:0:0:0:
448,192,93006,1,0,0:0:0:0:
192,192,93056,128,0,93456:0:0:0:0:
64,192,93056,128,0,93456:0:0:0:0:
448,192,93456,128,0,93856:0:0:0:0:
320,192,93856,1,0,0:0:0:0:
64,192,93856,1,0,0:0:0:0:
192,192,93956,1,0,0:0:0:0:
448,192,94056,1,0,0:0:0:0:
320,192,94156,1,0,0:0:0:0:
448,192,94256,1,0,0:0:0:0:
64,192,94356,1,0,0:0:0:0:
192,192,94456,1,0,0:0:0:0:
320,192,94556,1,0,0:0:0:0:
448,192,94656,1,0,0:0:0:0:
64,192,94656,1,0,0:0:0:0:
192,192,94656,1,0,0:0:0:0:
320,192,94756,1,0,0:0:0:0:
192,192,94856,1,0,0:0:0:0:
320,192,94956,1,0,0:0:0:0:
448,192,95056,1,0,0:0:0:0:
64,192,95056,1,0,0:0:0:0:
192,192,95156,1,0,0:0:0:0:
320,192,95256,1,0,0:0:0:0:
64,192,95356,1,0,0:0:0:0:
192,192,95456,128,0,95556:0:0:0:0:
320,192,95456,128,0,95556:0:0:0:0:
448,192,95456,128,0,95556:0:0:0:0:
320,192,95656,128,0,95756:0:0:0:0:
192,192,95656,128,0,95756:0:0:0:0:
64,192,95656,128,0,95756:0:0:0:0:
192,192,95856,128,0,95956:0:0:0:0:
448,192,95856,128,0,95956:0:0:0:0:
64,192,95856,128,0,95956:0:0:0:0:
448,192,96056,128,0,96156:0:0:0:0:
320,192,96056,128,0,96156:0:0:0:0:
64,192,96056,128,0,96156:0:0:0:0:
192,192,96256,128,0,96356:0:0:0:0:
320,192,96256,128,0,96356:0:0:0:0:
448,192,96256,128,0,96356:0:0:0:0:
320,192,96456,128,0,96556:0:0:0:0:
192,192,96456,128,0,96556:0:0:0:0:
64,192,96456,128,0,96556:0:0:0:0:
64,192,96656,128,0,96756:0:0:0:0:
192,192,96656,128,0,96756:0:0:0:0:
448,192,96656,128,0,96756:0:0:0:0:
320,192,96856,128,0,96956:0:0:0:0:
64,192,96856,128,0,96956:0:0:0:0:
448,192,96856,128,0,96956:0:0:0:0:
320,192,97056,1,0,0:0:0:0:
448,192,97056,1,0,0:0:0:0:
192,192,97056,1,0,0:0:0:0:
320,192,97322,1,0,0:0:0:0:
192,192,97522,1,0,0:0:0:0:
448,192,97656,1,0,0:0:0:0:
320,192,97856,1,0,0:0:0:0:
192,192,97856,1,0,0:0:0:0:
64,192,97856,128,0,98656:0:0:0:0:
448,192,98189,1,0,0:0:0:0:
320,192,98389,1,0,0:0:0:0:
192,192,98522,1,0,0:0:0:0:
320,192,98656,1,0,0:0:0:0:
448,192,98656,1,0,0:0:0:0:
320,192,98922,1,0,0:0:0:0:
192,192,99189,1,0,0:0:0:0:
448,192,99256,1,0,0:0:0:0:
320,192,99306,1,0,0:0:0:0:
192,192,99356,1,0,0:0:0:0:
64,192,99406,1,0,0:0:0:0:
320,192,99456,1,0,0:0:0:0:
448,192,99456,1,0,0:0:0:0:
448,192,99656,128,0,99856:0:0:0:0:
192,192,99656,128,0,99856:0:0:0:0:
64,192,99856,1,0,0:0:0:0:
320,192,99856,1,0,0:0:0:0:
64,192,100256,1,0,0:0:0:0:
192,192,100306,1,0,0:0:0:0:
320,192,100356,1,0,0:0:0:0:
64,192,100406,1,0,0:0:0:0:
192,192,100456,1,0,0:0:0:0:
320,192,100506,1,0,0:0:0:0:
64,192,100556,1,0,0:0:0:0:
192,192,100606,1,0,0:0:0:0:
320,192,100656,128,0,100922:0:0:0:0:
64,192,100922,1,0,0:0:0:0:
192,192,101056,1,0,0:0:0:0:
448,192,101056,1,0,0:0:0:0:
448,192,101256,128,0,101856:0:0:0:0:
64,192,101456,1,0,0:0:0:0:
320,192,101556,1,0,0:0:0:0:
64,192,101656,1,0,0:0:0:0:
320,192,101756,1,0,0:0:0:0:
192,192,101856,128,0,102256:0:0:0:0:
64,192,101856,128,0,102256:0:0:0:0:
448,192,102256,1,0,0:0:0:0:
320,192,102356,1,0,0:0:0:0:
192,192,102556,1,0,0:0:0:0:
64,192,102656,1,0,0:0:0:0:
320,192,102656,1,0,0:0:0:0:
64,192,102856,128,0,103456:0:0:0:0:
320,192,103056,1,0,0:0:0:0:
448,192,103156,128,0,103456:0:0:0:0:
192,192,103456,1,0,0:0:0:0:
64,192,103856,128,0,104256:0:0:0:0:
448,192,103856,128,0,104656:0:0:0:0:
320,192,104256,128,0,105056:0:0:0:0:
192,192,104656,128,0,105056:0:0:0:0:
64,192,105056,128,0,105856:0:0:0:0:
448,192,105256,1,0,0:0:0:0:
448,192,105456,1,0,0:0:0:0:
448,192,105656,1,0,0:0:0:0:
448,192,105856,128,0,106256:0:0:0:0:
320,192,106256,1,0,0:0:0:0:
192,192,106306,1,0,0:0:0:0:
64,192,106356,1,0,0:0:0:0:
448,192,106656,1,0,0:0:0:0:
64,192,106656,128,0,107056:0:0:0:0:
448,192,106856,1,0,0:0:0:0:
192,192,107056,1,0,0:0:0:0:
320,192,107056,128,0,107856:0:0:0:0:
192,192,107356,1,0,0:0:0:0:
192,192,107556,1,0,0:0:0:0:
64,192,107656,1,0,0:0:0:0:
448,192,107856,128,0,108256:0:0:0:0:
192,192,108256,128,0,108656:0:0:0:0:
320,192,108456,1,0,0:0:0:0:
320,192,108656,1,0,0:0:0:0:
448,192,108656,128,0,109256:0:0:0:0:
192,192,108956,1,0,0:0:0:0:
64,192,109156,1,0,0:0:0:0:
320,192,109256,1,0,0:0:0:0:
192,192,109256,1,0,0:0:0:0:
64,192,109456,1,0,0:0:0:0:
192,192,109456,1,0,0:0:0:0:
320,192,109456,1,0,0:0:0:0:
64,192,109856,1,0,0:0:0:0:
320,192,109856,1,0,0:0:0:0:
448,192,109856,1,0,0:0:0:0:
192,192,110056,1,0,0:0:0:0:
320,192,110256,1,0,0:0:0:0:
448,192,110456,1,0,0:0:0:0:
64,192,110656,1,0,0:0:0:0:
192,192,110856,1,0,0:0:0:0:
320,192,111056,1,0,0:0:0:0:
448,192,111256,1,0,0:0:0:0:
448,192,111448,1,0,0:0:0:0:
320,192,111662,1,0,0:0:0:0:
192,192,111876,1,0,0:0:0:0:
64,192,112090,1,0,0:0:0:0:
448,192,112305,1,0,0:0:0:0:
320,192,112519,1,0,0:0:0:0:
192,192,112733,1,0,0:0:0:0:
64,192,112948,1,0,0:0:0:0:
192,192,113162,1,0,0:0:0:0:
320,192,113392,1,0,0:0:0:0:
64,192,113623,1,0,0:0:0:0:
448,192,113854,1,0,0:0:0:0:
192,192,114085,1,0,0:0:0:0:
320,192,114315,1,0,0:0:0:0:
64,192,114546,1,0,0:0:0:0:
448,192,114777,1,0,0:0:0:0:
64,192,115008,1,0,0:0:0:0:
192,192,115238,1,0,0:0:0:0:
448,192,115469,1,0,0:0:0:0:
320,192,115700,1,0,0:0:0:0:
64,192,115931,1,0,0:0:0:0:
192,192,116162,1,0,0:0:0:0:
448,192,116392,1,0,0:0:0:0:
320,192,116623,1,0,0:0:0:0:
64,192,116854,128,0,117187:0:0:0:0:
320,192,116854,1,0,0:0:0:0:
192,192,117187,128,0,117520:0:0:0:0:
448,192,117187,1,0,0:0:0:0:
320,192,117520,128,0,117854:0:0:0:0:
64,192,117520,1,0,0:0:0:0:
448,192,117854,128,0,118187:0:0:0:0:
192,192,117854,1,0,0:0:0:0:
