osu file format v14

[General]
AudioFilename: audio.mp3
AudioLeadIn: 0
PreviewTime: 57110
Countdown: 0
SampleSet: Soft
StackLeniency: 0.3
Mode: 0
LetterboxInBreaks: 0
WidescreenStoryboard: 1

[Editor]
Bookmarks: 7410,33010,39410,45810,52210,58610,87410,109810,119610,145210,174010,180410,186810,193210,199610,207610,233210,236410,258810,269185,304064,310727
DistanceSpacing: 3
BeatDivisor: 4
GridSize: 4
TimelineZoom: 3.899998

[Metadata]
Title:The Mob
TitleUnicode:The Mob
Artist:RIOT
ArtistUnicode:RIOT
Creator:Niviro1
Version:It's Time to Light up the Sky with Fire
Source:
Tags:Electronic Instrumental Dubstep Orchestral Brostep Riddim Neurostep Monstercat Uncaged Dogma Resistance English
BeatmapID:3119295
BeatmapSetID:1524553

[Difficulty]
HPDrainRate:5.2
CircleSize:4
OverallDifficulty:8.4
ApproachRate:9.4
SliderMultiplier:2.25
SliderTickRate:1

[Events]
//Background and Video events
0,0,"bg.jpg",0,0
//Break Periods
//Storyboard Layer 0 (Background)
//Storyboard Layer 1 (Fail)
//Storyboard Layer 2 (Pass)
//Storyboard Layer 3 (Foreground)
//Storyboard Layer 4 (Overlay)
//Storyboard Sound Samples

[TimingPoints]
1010,400,4,2,2,60,1,0
7210,-100,4,2,2,5,0,0
7410,-62.5,4,2,2,60,0,0
7710,-62.5,4,2,2,5,0,0
7810,-62.5,4,2,2,60,0,0
8310,-62.5,4,2,2,5,0,0
8410,-62.5,4,2,2,60,0,0
9010,-83.3333333333333,4,2,2,60,0,0
10610,-62.5,4,2,2,60,0,0
10910,-62.5,4,2,2,5,0,0
11010,-62.5,4,2,2,60,0,0
11510,-62.5,4,2,2,5,0,0
11610,-62.5,4,2,2,60,0,0
12210,-83.3333333333333,4,2,2,60,0,0
13810,-50,4,2,2,60,0,0
13910,-55.5555555555556,4,2,2,5,0,0
14410,-66.6666666666667,4,2,2,60,0,0
14510,-71.4285714285714,4,2,2,5,0,0
15010,-100,4,2,2,60,0,0
15410,-62.5,4,2,2,60,0,0
16210,-100,4,2,2,60,0,0
16610,-62.5,4,2,2,60,0,0
16710,-62.5,4,2,2,5,0,0
16810,-62.5,4,2,2,60,0,0
17010,-50,4,2,2,60,0,0
17110,-50,4,2,2,5,0,0
17610,-66.6666666666667,4,2,2,60,0,0
18210,-100,4,2,2,60,0,0
18610,-62.5,4,2,2,60,0,0
19410,-100,4,2,2,60,0,0
19810,-62.5,4,2,2,60,0,0
19910,-62.5,4,2,2,5,0,0
20010,-62.5,4,2,2,60,0,0
20510,-62.5,4,2,2,5,0,0
20610,-62.5,4,2,2,60,0,0
21110,-62.5,4,2,2,5,0,0
21210,-62.5,4,2,2,60,0,0
21810,-83.3333333333333,4,2,2,60,0,0
23410,-62.5,4,2,2,60,0,0
23710,-62.5,4,2,2,5,0,0
23810,-62.5,4,2,2,60,0,0
24310,-62.5,4,2,2,5,0,0
24410,-62.5,4,2,2,60,0,0
25010,-83.3333333333333,4,2,2,60,0,0
26610,-50,4,2,2,60,0,0
26710,-50,4,2,2,5,0,0
27210,-66.6666666666667,4,2,2,60,0,0
27310,-66.6666666666667,4,2,2,5,0,0
27810,-100,4,2,2,60,0,0
28210,-62.5,4,2,2,60,0,0
29010,-100,4,2,2,60,0,0
29410,-62.5,4,2,2,60,0,0
29510,-62.5,4,2,2,5,0,0
29610,-62.5,4,2,2,60,0,0
29810,-50,4,2,2,60,0,0
29910,-50,4,2,2,5,0,0
30410,-66.6666666666667,4,2,2,60,0,0
30510,-66.6666666666667,4,2,2,5,0,0
31010,-100,4,2,2,60,0,0
31410,-66.6666666666667,4,2,2,60,0,0
31510,-62.5,4,2,2,5,0,0
31810,-62.5,4,2,2,60,0,0
31910,-62.5,4,2,2,5,0,0
32010,-62.5,4,2,2,60,0,0
32110,-62.5,4,2,2,5,0,0
32210,-50,4,2,2,60,0,0
32610,-62.5,4,2,2,60,0,0
32910,-62.5,4,2,2,5,0,0
33010,-125,4,2,3,80,0,0
33110,-125,4,2,8,60,0,0
37810,-62.5,4,2,4,80,0,0
38110,-62.5,4,2,4,5,0,0
38210,-125,4,2,8,60,0,0
38610,-62.5,4,2,8,80,0,0
39010,-1000,4,2,5,20,0,0
39110,-1000,4,2,5,5,0,0
39410,-50,4,2,3,80,0,0
39710,-50,4,2,3,5,0,0
39810,-83.3333333333333,4,2,4,80,0,0
42610,-166.666666666667,4,2,4,80,0,0
43410,-125,4,2,4,80,0,0
43810,-62.5,4,2,4,80,0,0
44210,-62.5,4,2,3,80,0,0
44410,-250,4,2,3,40,0,0
44510,-250,4,2,3,5,0,0
44610,-200,4,2,3,50,0,0
44710,-200,4,2,3,5,0,0
44810,-166.666666666667,4,2,3,60,0,0
44910,-166.666666666667,4,2,3,5,0,0
45010,-142.857142857143,4,2,3,70,0,0
45110,-142.857142857143,4,2,3,5,0,0
45210,-125,4,2,3,80,0,0
45310,-125,4,2,3,5,0,0
45410,-100,4,2,3,90,0,0
45510,-100,4,2,3,5,0,0
45610,-83.3333333333333,4,2,3,100,0,0
45710,-83.3333333333333,4,2,3,5,0,0
45810,-50,4,2,3,80,0,0
46110,-50,4,2,3,5,0,0
46210,-125,4,2,4,80,0,0
47410,-62.5,4,2,3,80,0,0
47710,-62.5,4,2,4,5,0,0
47810,-125,4,2,4,80,0,0
49010,-62.5,4,2,3,80,0,0
49310,-62.5,4,2,3,5,0,0
49410,-125,4,2,4,80,0,0
50610,-62.5,4,2,3,80,0,0
50810,-125,4,2,3,80,0,0
51010,-125,4,2,4,80,0,0
51810,-1000,4,2,5,20,0,0
52210,-50,4,2,6,80,0,0
52510,-50,4,2,6,5,0,0
52610,-62.5,4,2,9,80,0,0
53410,-83.3333333333333,4,2,9,80,0,0
53810,-62.5,4,2,9,80,0,0
53910,-62.5,4,2,9,5,0,0
54010,-62.5,4,2,9,80,0,0
55010,-83.3333333333333,4,2,9,80,0,0
55410,-71.4285714285714,4,2,3,80,0,0
57210,-62.5,4,2,3,80,0,0
57310,-62.5,4,2,3,5,0,0
57410,-62.5,4,2,3,80,0,0
57510,-62.5,4,2,3,5,0,0
57610,-62.5,4,2,3,80,0,0
57710,-62.5,4,2,3,5,0,0
57810,-62.5,4,2,3,80,0,0
57910,-62.5,4,2,3,5,0,0
58010,-62.5,4,2,3,80,0,0
58110,-62.5,4,2,3,5,0,0
58210,-50,4,2,3,80,0,0
58310,-50,4,2,3,5,0,0
58410,-50,4,2,3,80,0,0
58510,-50,4,2,3,5,0,0
58610,-41.6666666666667,4,2,7,100,0,1
58710,-41.6666666666667,4,2,7,5,0,1
59010,-50,4,2,7,100,0,1
59110,-50,4,2,7,5,0,1
59210,-50,4,2,7,100,0,1
59310,-50,4,2,7,5,0,1
59410,-50,4,2,7,100,0,1
60160,-50,4,2,7,5,0,1
60210,-50,4,2,7,100,0,1
60510,-50,4,2,7,5,0,1
60610,-50,4,2,7,100,0,1
60710,-50,4,2,7,5,0,1
60810,-50,4,2,7,100,0,1
60910,-50,4,2,7,5,0,1
61010,-50,4,2,7,100,0,1
61110,-50,4,2,7,5,0,1
61410,-41.6666666666667,4,2,7,100,0,1
61610,-35.7142857142857,4,2,7,5,0,1
61810,-41.6666666666667,4,2,7,100,0,1
61910,-41.6666666666667,4,2,7,5,0,1
62410,-50,4,2,7,100,0,1
62510,-50,4,2,7,5,0,1
62610,-50,4,2,7,100,0,1
63310,-50,4,2,7,5,0,1
63410,-50,4,2,7,100,0,1
63660,-50,4,2,7,5,0,1
63810,-50,4,2,7,100,0,1
63860,-50,4,2,7,5,0,1
64010,-50,4,2,7,100,0,1
64060,-50,4,2,7,5,0,1
64210,-50,4,2,7,100,0,1
64310,-50,4,2,7,5,0,1
65010,-41.6666666666667,4,2,7,100,0,1
65110,-41.6666666666667,4,2,7,5,0,1
65410,-50,4,2,7,100,0,1
65510,-50,4,2,7,5,0,1
65610,-50,4,2,7,100,0,1
65710,-50,4,2,7,5,0,1
65810,-50,4,2,7,100,0,1
65910,-50,4,2,7,5,0,1
66210,-50,4,2,7,100,0,1
66310,-50,4,2,7,5,0,1
66410,-50,4,2,7,100,0,1
66510,-50,4,2,7,5,0,1
66610,-50,4,2,7,100,0,1
66910,-50,4,2,7,5,0,1
67010,-50,4,2,7,100,0,1
67110,-50,4,2,7,5,0,1
67210,-50,4,2,7,100,0,1
67310,-50,4,2,7,5,0,1
67410,-50,4,2,7,100,0,1
67510,-50,4,2,7,5,0,1
67610,-50,4,2,7,100,0,1
68110,-50,4,2,7,5,0,1
68210,-62.5,4,2,7,100,0,1
68310,-62.5,4,2,7,5,0,1
68410,-62.5,4,2,7,100,0,1
68610,-125,4,2,7,100,0,1
69010,-62.5,4,2,7,100,0,1
69210,-100,4,2,7,100,0,1
69810,-50,4,2,7,100,0,1
69910,-50,4,2,7,5,0,1
70010,-50,4,2,7,100,0,1
70110,-50,4,2,7,5,0,1
70210,-50,4,2,8,100,0,1
70410,-50,4,2,9,100,0,1
70610,-50,4,2,7,100,0,1
70710,-50,4,2,7,5,0,1
70810,-50,4,2,7,100,0,1
70910,-50,4,2,7,5,0,1
71010,-50,4,2,9,100,0,1
71210,-50,4,2,10,100,0,1
71410,-41.6666666666667,4,2,7,100,0,1
71510,-41.6666666666667,4,2,7,5,0,1
71810,-50,4,2,7,100,0,1
71910,-50,4,2,7,5,0,1
72010,-50,4,2,7,100,0,1
72110,-50,4,2,7,5,0,1
72210,-50,4,2,7,100,0,1
72310,-50,4,2,7,5,0,1
72610,-50,4,2,7,100,0,1
72710,-50,4,2,7,5,0,1
72810,-50,4,2,7,100,0,1
72910,-50,4,2,7,5,0,1
73010,-50,4,2,7,100,0,1
73310,-50,4,2,7,5,0,1
73410,-50,4,2,7,100,0,1
73510,-50,4,2,7,5,0,1
73610,-50,4,2,7,100,0,1
73710,-50,4,2,7,5,0,1
73810,-50,4,2,7,100,0,1
73910,-50,4,2,7,5,0,1
74210,-41.6666666666667,4,2,7,100,0,1
74410,-35.7142857142857,4,2,7,5,0,1
74610,-41.6666666666667,4,2,7,100,0,1
74710,-41.6666666666667,4,2,7,5,0,1
75210,-50,4,2,7,100,0,1
75310,-50,4,2,7,5,0,1
75410,-50,4,2,7,100,0,1
75510,-50,4,2,7,5,0,1
75710,-100,4,2,7,100,0,1
75810,-100,4,2,7,5,0,1
75910,-50,4,2,7,100,0,1
76110,-50,4,2,7,5,0,1
76210,-50,4,2,7,100,0,1
76460,-50,4,2,7,5,0,1
76610,-50,4,2,7,100,0,1
76660,-50,4,2,7,5,0,1
76810,-50,4,2,7,100,0,1
76860,-50,4,2,7,5,0,1
77010,-50,4,2,7,100,0,1
77110,-50,4,2,7,5,0,1
77810,-50,4,2,7,100,0,1
78210,-35.7142857142857,4,2,7,100,0,1
78610,-35.7142857142857,4,2,7,100,0,1
78710,-35.7142857142857,4,2,7,5,0,1
79410,-83.3333333333333,4,2,7,100,0,1
79510,-83.3333333333333,4,2,8,60,0,1
80210,-83.3333333333333,4,2,7,100,0,1
80310,-83.3333333333333,4,2,8,60,0,1
81010,-83.3333333333333,4,2,7,100,0,1
81110,-83.3333333333333,4,2,8,60,0,1
81810,-83.3333333333333,4,2,7,100,0,1
81910,-83.3333333333333,4,2,8,60,0,1
82610,-83.3333333333333,4,2,7,100,0,1
82810,-250,4,2,7,40,0,1
82910,-250,4,2,7,5,0,1
83010,-200,4,2,7,50,0,1
83110,-200,4,2,7,5,0,1
83210,-166.666666666667,4,2,7,60,0,1
83310,-166.666666666667,4,2,7,5,0,1
83410,-142.857142857143,4,2,7,70,0,1
83510,-142.857142857143,4,2,7,5,0,1
83610,-125,4,2,7,80,0,1
83710,-125,4,2,7,5,0,1
83810,-62.5,4,2,7,90,0,1
83910,-62.5,4,2,7,5,0,1
84210,-500,4,2,2,100,0,0
84460,-500,4,2,2,5,0,0
84610,-62.5,4,2,2,80,0,0
84710,-62.5,4,2,2,5,0,0
84810,-62.5,4,2,2,80,0,0
84910,-62.5,4,2,2,5,0,0
85010,-62.5,4,2,2,80,0,0
85110,-62.5,4,2,2,5,0,0
85210,-62.5,4,2,2,80,0,0
85310,-62.5,4,2,2,5,0,0
85610,-50,4,2,2,80,0,0
85710,-62.5,4,2,2,5,0,0
87010,-50,4,2,7,100,0,0
87110,-50,4,2,7,5,0,0
87210,-35.7142857142857,4,2,7,100,0,0
87310,-41.6666666666667,4,2,7,5,0,0
87410,-41.6666666666667,4,2,7,100,0,1
87610,-41.6666666666667,4,2,7,5,0,1
87710,-50,4,2,7,100,0,1
87810,-50,4,2,7,5,0,1
87910,-50,4,2,7,100,0,1
88110,-50,4,2,7,5,0,1
88210,-41.6666666666667,4,2,7,100,0,1
88410,-41.6666666666667,4,2,7,5,0,1
88510,-50,4,2,7,100,0,1
88610,-50,4,2,7,5,0,1
88710,-50,4,2,7,100,0,1
88910,-50,4,2,7,5,0,1
89010,-41.6666666666667,4,2,7,100,0,1
89210,-41.6666666666667,4,2,7,5,0,1
89310,-50,4,2,7,100,0,1
89410,-50,4,2,7,5,0,1
89510,-50,4,2,7,100,0,1
89710,-50,4,2,7,5,0,1
89810,-50,4,2,7,100,0,1
90110,-50,4,2,7,5,0,1
90210,-50,4,2,7,100,0,1
90310,-50,4,2,7,5,0,1
90410,-50,4,2,7,100,0,1
90510,-50,4,2,7,5,0,1
90610,-41.6666666666667,4,2,7,100,0,1
90810,-41.6666666666667,4,2,7,5,0,1
90910,-41.6666666666667,4,2,7,100,0,1
91010,-41.6666666666667,4,2,7,5,0,1
91110,-41.6666666666667,4,2,7,100,0,1
91310,-41.6666666666667,4,2,7,5,0,1
91410,-35.7142857142857,4,2,7,100,0,1
91610,-35.7142857142857,4,2,7,5,0,1
91710,-41.6666666666667,4,2,7,100,0,1
91810,-41.6666666666667,4,2,7,5,0,1
91910,-41.6666666666667,4,2,7,100,0,1
92110,-35.7142857142857,4,2,7,5,0,1
92210,-35.7142857142857,4,2,7,100,0,1
92410,-35.7142857142857,4,2,7,5,0,1
92510,-41.6666666666667,4,2,7,100,0,1
92610,-41.6666666666667,4,2,7,5,0,1
92710,-41.6666666666667,4,2,7,100,0,1
93010,-62.5,4,2,7,100,0,1
93310,-62.5,4,2,7,5,0,1
93410,-50,4,2,7,100,0,1
93710,-50,4,2,7,5,0,1
93810,-100,4,2,7,100,0,1
94610,-83.3333333333333,4,2,7,100,0,1
95010,-71.4285714285714,4,2,7,100,0,1
95410,-62.5,4,2,7,100,0,1
95510,-62.5,4,2,7,5,0,1
95610,-62.5,4,2,7,100,0,1
95710,-62.5,4,2,7,5,0,1
95810,-62.5,4,2,7,100,0,1
95910,-62.5,4,2,7,5,0,1
96010,-62.5,4,2,7,100,0,1
96110,-62.5,4,2,7,5,0,1
96210,-41.6666666666667,4,2,7,100,0,1
96310,-50,4,2,7,5,0,1
96410,-125,4,2,7,100,0,1
96510,-100,4,2,7,5,0,1
96610,-41.6666666666667,4,2,7,100,0,1
96710,-50,4,2,7,5,0,1
96810,-125,4,2,7,100,0,1
96910,-100,4,2,7,5,0,1
97010,-41.6666666666667,4,2,7,100,0,1
97210,-41.6666666666667,4,2,7,5,0,1
97310,-41.6666666666667,4,2,7,100,0,1
97410,-41.6666666666667,4,2,7,5,0,1
97510,-41.6666666666667,4,2,7,100,0,1
97710,-41.6666666666667,4,2,7,5,0,1
97810,-41.6666666666667,4,2,7,100,0,1
98010,-41.6666666666667,4,2,7,5,0,1
98110,-41.6666666666667,4,2,7,100,0,1
98210,-41.6666666666667,4,2,7,5,0,1
98310,-41.6666666666667,4,2,7,100,0,1
98510,-41.6666666666667,4,2,7,5,0,1
98610,-41.6666666666667,4,2,7,100,0,1
98810,-41.6666666666667,4,2,7,5,0,1
98910,-41.6666666666667,4,2,7,100,0,1
99010,-41.6666666666667,4,2,7,5,0,1
99110,-41.6666666666667,4,2,7,100,0,1
99710,-41.6666666666667,4,2,7,5,0,1
99810,-62.5,4,2,7,100,0,1
100010,-62.5,4,2,7,5,0,1
100210,-41.6666666666667,4,2,7,100,0,1
100510,-41.6666666666667,4,2,7,5,0,1
100610,-50,4,2,7,100,0,1
100810,-50,4,2,7,5,0,1
100910,-50,4,2,7,100,0,1
101310,-50,4,2,7,5,0,1
101410,-50,4,2,7,100,0,1
101710,-50,4,2,7,5,0,1
101810,-62.5,4,2,7,100,0,1
102110,-200,4,2,7,5,0,1
102210,-50,4,2,7,100,0,1
102410,-50,4,2,7,5,0,1
102510,-50,4,2,7,100,0,1
102910,-50,4,2,7,5,0,1
103010,-50,4,2,7,100,0,1
103310,-50,4,2,7,5,0,1
103410,-41.6666666666667,4,2,7,100,0,1
103660,-41.6666666666667,4,2,7,5,0,1
103810,-50,4,2,7,100,0,1
103910,-50,4,2,7,5,0,1
104010,-100,4,2,7,100,0,1
104110,-50,4,2,7,5,0,1
104210,-50,4,2,7,100,0,1
104510,-50,4,2,7,5,0,1
104610,-50,4,2,7,100,0,1
104710,-50,4,2,7,5,0,1
104810,-100,4,2,7,100,0,1
104910,-50,4,2,7,5,0,1
105010,-50,4,2,7,100,0,1
105110,-50,4,2,7,5,0,1
105210,-50,4,2,7,100,0,1
105310,-50,4,2,7,5,0,1
105410,-50,4,2,7,100,0,1
105510,-50,4,2,7,5,0,1
105610,-100,4,2,7,100,0,1
105710,-100,4,2,7,5,0,1
105810,-62.5,4,2,7,100,0,1
106110,-62.5,4,2,7,5,0,1
106210,-45.4545454545455,4,2,7,100,0,1
106510,-50,4,2,7,5,0,1
106610,-50,4,2,7,100,0,1
107210,-83.3333333333333,4,2,7,100,0,1
107610,-50,4,2,7,100,0,1
108910,-83.3333333333333,4,2,7,100,0,1
109210,-50,4,2,7,100,0,1
109610,-50,4,2,7,80,0,1
109710,-50,4,2,7,60,0,1
109810,-100,4,2,3,80,0,0
118185,-100,4,2,3,5,0,0
119610,400,4,2,4,40,1,0
122310,-100,4,2,4,5,0,0
122410,-100,4,2,4,40,0,0
122710,-100,4,2,4,5,0,0
122810,-100,4,2,4,40,0,0
125510,-100,4,2,4,5,0,0
125610,-100,4,2,4,40,0,0
125910,-100,4,2,4,5,0,0
126010,-100,4,2,4,40,0,0
128710,-100,4,2,4,5,0,0
128810,-100,4,2,4,40,0,0
129110,-100,4,2,4,5,0,0
129210,-100,4,2,4,40,0,0
131910,-100,4,2,4,5,0,0
132010,-100,4,2,4,40,0,0
132310,-100,4,2,4,5,0,0
132410,-100,4,2,4,40,0,0
135110,-100,4,2,4,5,0,0
135210,-100,4,2,4,40,0,0
135510,-100,4,2,4,5,0,0
135610,-100,4,2,4,40,0,0
138310,-100,4,2,4,5,0,0
138410,-100,4,2,4,40,0,0
138710,-100,4,2,4,5,0,0
138810,-100,4,2,4,40,0,0
141510,-100,4,2,4,5,0,0
141610,-100,4,2,4,40,0,0
141910,-100,4,2,4,5,0,0
142010,-100,4,2,4,40,0,0
145210,-83.3333333333333,4,2,4,60,0,0
145310,-83.3333333333333,4,2,4,5,0,0
147410,-83.3333333333333,4,2,4,60,0,0
147910,-83.3333333333333,4,2,4,5,0,0
148010,-83.3333333333333,4,2,4,60,0,0
148210,-83.3333333333333,4,2,4,5,0,0
148310,-83.3333333333333,4,2,4,5,0,0
148410,-83.3333333333333,4,2,4,60,0,0
148510,-83.3333333333333,4,2,4,5,0,0
150610,-83.3333333333333,4,2,4,60,0,0
151110,-83.3333333333333,4,2,4,5,0,0
151210,-83.3333333333333,4,2,4,60,0,0
151410,-83.3333333333333,4,2,4,5,0,0
151510,-83.3333333333333,4,2,4,5,0,0
151610,-83.3333333333333,4,2,4,60,0,0
151710,-83.3333333333333,4,2,4,5,0,0
153810,-83.3333333333333,4,2,4,60,0,0
154310,-83.3333333333333,4,2,4,5,0,0
154410,-83.3333333333333,4,2,4,60,0,0
154610,-83.3333333333333,4,2,4,5,0,0
154710,-83.3333333333333,4,2,4,5,0,0
154810,-83.3333333333333,4,2,4,60,0,0
154910,-83.3333333333333,4,2,4,5,0,0
157010,-83.3333333333333,4,2,4,60,0,0
157510,-83.3333333333333,4,2,4,5,0,0
157610,-83.3333333333333,4,2,4,60,0,0
157810,-83.3333333333333,4,2,4,5,0,0
157910,-83.3333333333333,4,2,4,5,0,0
158010,-83.3333333333333,4,2,4,60,0,0
158110,-83.3333333333333,4,2,4,5,0,0
158810,-83.3333333333333,4,2,4,60,0,0
159010,-83.3333333333333,4,2,4,5,0,0
159210,-83.3333333333333,4,2,4,60,0,0
159410,-83.3333333333333,4,2,4,5,0,0
159610,-83.3333333333333,4,2,4,60,0,0
160710,-83.3333333333333,4,2,4,5,0,0
160810,-83.3333333333333,4,2,4,60,0,0
161010,-83.3333333333333,4,2,4,5,0,0
161210,-83.3333333333333,4,2,4,60,0,0
161310,-83.3333333333333,4,2,4,5,0,0
162010,-83.3333333333333,4,2,4,60,0,0
162210,-83.3333333333333,4,2,4,5,0,0
162410,-83.3333333333333,4,2,4,60,0,0
162610,-83.3333333333333,4,2,4,5,0,0
162810,-83.3333333333333,4,2,4,60,0,0
163910,-83.3333333333333,4,2,4,5,0,0
164010,-83.3333333333333,4,2,4,60,0,0
164210,-83.3333333333333,4,2,4,5,0,0
164410,-83.3333333333333,4,2,4,60,0,0
164510,-83.3333333333333,4,2,4,5,0,0
165210,-83.3333333333333,4,2,4,60,0,0
165410,-83.3333333333333,4,2,4,5,0,0
165610,-83.3333333333333,4,2,4,60,0,0
165810,-83.3333333333333,4,2,4,5,0,0
166010,-83.3333333333333,4,2,4,60,0,0
167110,-83.3333333333333,4,2,4,5,0,0
167210,-83.3333333333333,4,2,4,60,0,0
167410,-83.3333333333333,4,2,4,5,0,0
167610,-83.3333333333333,4,2,4,60,0,0
168310,-83.3333333333333,4,2,4,5,0,0
168410,-83.3333333333333,4,2,4,60,0,0
169910,-250,4,2,4,40,0,0
170010,-250,4,2,4,5,0,0
170560,-250,4,2,4,5,0,0
170660,-200,4,2,4,50,0,0
170810,-200,4,2,4,5,0,0
171810,-200,4,2,4,5,0,0
171910,-166.666666666667,4,2,4,60,0,0
172010,-166.666666666667,4,2,4,5,0,0
173210,-62.5,4,2,4,70,0,0
173310,-125,4,2,4,5,0,0
173610,-62.5,4,2,4,70,0,0
173710,-125,4,2,4,5,0,0
174010,-125,4,2,4,80,0,0
174110,-125,4,2,8,60,0,0
178810,-62.5,4,2,8,80,0,0
179110,-62.5,4,2,8,5,0,0
179210,-125,4,2,8,60,0,0
179610,-62.5,4,2,8,80,0,0
180010,-1000,4,2,5,20,0,0
180410,-50,4,2,3,80,0,0
180710,-50,4,2,3,5,0,0
180810,-83.3333333333333,4,2,4,80,0,0
183610,-166.666666666667,4,2,4,80,0,0
184410,-125,4,2,4,80,0,0
184810,-62.5,4,2,4,80,0,0
185210,-62.5,4,2,3,80,0,0
185410,-250,4,2,4,40,0,0
185510,-250,4,2,4,5,0,0
185610,-200,4,2,4,50,0,0
185710,-200,4,2,4,5,0,0
185810,-166.666666666667,4,2,4,60,0,0
185910,-166.666666666667,4,2,4,5,0,0
186010,-142.857142857143,4,2,4,70,0,0
186110,-142.857142857143,4,2,4,5,0,0
186210,-125,4,2,4,80,0,0
186310,-125,4,2,4,5,0,0
186410,-100,4,2,4,90,0,0
186510,-100,4,2,4,5,0,0
186610,-83.3333333333333,4,2,4,100,0,0
186710,-83.3333333333333,4,2,4,5,0,0
186810,-50,4,2,3,80,0,0
187110,-50,4,2,4,5,0,0
187210,-125,4,2,4,80,0,0
188410,-62.5,4,2,3,80,0,0
188710,-62.5,4,2,4,5,0,0
188810,-125,4,2,4,80,0,0
190010,-62.5,4,2,3,80,0,0
190310,-62.5,4,2,4,5,0,0
190410,-125,4,2,4,80,0,0
191610,-62.5,4,2,3,80,0,0
192010,-125,4,2,4,80,0,0
192810,-1000,4,2,5,20,0,0
193210,-50,4,2,6,80,0,0
193510,-50,4,2,4,5,0,0
193610,-62.5,4,2,9,80,0,0
194410,-83.3333333333333,4,2,9,80,0,0
194810,-62.5,4,2,9,80,0,0
194960,-62.5,4,2,9,5,0,0
195010,-62.5,4,2,9,80,0,0
196010,-83.3333333333333,4,2,9,80,0,0
196410,-71.4285714285714,4,2,3,80,0,0
197260,-71.4285714285714,4,2,3,5,0,0
197310,-71.4285714285714,4,2,3,80,0,0
197660,-71.4285714285714,4,2,3,5,0,0
197710,-71.4285714285714,4,2,3,80,0,0
199610,-83.3333333333333,4,2,4,80,0,0
199710,-83.3333333333333,4,2,4,5,0,0
199810,-166.666666666667,4,2,3,80,0,0
199910,-166.666666666667,4,2,4,5,0,0
200010,-83.3333333333333,4,2,4,80,0,0
200110,-83.3333333333333,4,2,4,5,0,0
200210,-166.666666666667,4,2,3,80,0,0
200310,-166.666666666667,4,2,4,5,0,0
200410,-83.3333333333333,4,2,4,80,0,0
200510,-83.3333333333333,4,2,4,5,0,0
200610,-166.666666666667,4,2,3,80,0,0
200710,-166.666666666667,4,2,4,5,0,0
200810,-83.3333333333333,4,2,4,80,0,0
200910,-83.3333333333333,4,2,4,5,0,0
201010,-166.666666666667,4,2,3,80,0,0
201110,-166.666666666667,4,2,4,5,0,0
201210,-142.857142857143,4,2,3,80,0,0
201310,-142.857142857143,4,2,4,5,0,0
201410,-76.923076923077,4,2,4,80,0,0
201510,-76.923076923077,4,2,4,5,0,0
201610,-125,4,2,3,80,0,0
201710,-125,4,2,4,5,0,0
201810,-71.4285714285714,4,2,4,80,0,0
201910,-71.4285714285714,4,2,4,5,0,0
202010,-111.111111111111,4,2,3,80,0,0
202110,-111.111111111111,4,2,4,5,0,0
202210,-66.6666666666667,4,2,4,80,0,0
202310,-66.6666666666667,4,2,4,5,0,0
202410,-100,4,2,3,80,0,0
202510,-100,4,2,4,5,0,0
202610,-62.5,4,2,4,80,0,0
202710,-62.5,4,2,4,5,0,0
202810,-90.9090909090909,4,2,3,80,0,0
202910,-90.9090909090909,4,2,4,5,0,0
203010,-58.8235294117647,4,2,4,80,0,0
203110,-58.8235294117647,4,2,4,5,0,0
203210,-83.3333333333333,4,2,3,80,0,0
203310,-83.3333333333333,4,2,4,5,0,0
203410,-55.5555555555556,4,2,4,80,0,0
203510,-55.5555555555556,4,2,4,5,0,0
203610,-76.9230769230769,4,2,3,80,0,0
203710,-76.9230769230769,4,2,4,5,0,0
203810,-52.6315789473684,4,2,4,80,0,0
203910,-52.6315789473684,4,2,4,5,0,0
204010,-71.4285714285714,4,2,3,80,0,0
204110,-71.4285714285714,4,2,4,5,0,0
204210,-50,4,2,4,80,0,0
204310,-50,4,2,4,5,0,0
204410,-71.4285714285714,4,2,3,80,0,0
207310,-71.4285714285714,4,2,3,5,0,0
207410,-71.4285714285714,4,2,3,80,0,0
207510,-71.4285714285714,4,2,3,5,0,0
207610,-41.6666666666667,4,2,7,100,0,1
207860,-41.6666666666667,4,2,7,5,0,1
208010,-27.7777777777778,4,2,7,100,0,1
208310,-41.6666666666667,4,2,7,5,0,1
208410,-1000,4,2,7,100,0,1
208710,-1000,4,2,7,5,0,1
208810,-27.7777777777778,4,2,7,100,0,1
209110,-41.6666666666667,4,2,7,5,0,1
209210,-1000,4,2,7,100,0,1
209510,-1000,4,2,7,5,0,1
209610,-50,4,2,7,100,0,1
209710,-50,4,2,7,5,0,1
209810,-50,4,2,7,100,0,1
209910,-50,4,2,7,5,0,1
210010,-50,4,2,7,100,0,1
210110,-50,4,2,7,5,0,1
210210,-50,4,2,7,100,0,1
210310,-50,4,2,7,5,0,1
210410,-41.6666666666667,4,2,7,100,0,1
210510,-41.6666666666667,4,2,7,5,0,1
210610,-100,4,2,7,100,0,1
210710,-100,4,2,7,5,0,1
210810,-41.6666666666667,4,2,7,100,0,1
210910,-41.6666666666667,4,2,7,5,0,1
211010,-100,4,2,7,100,0,1
211110,-100,4,2,7,5,0,1
211210,-27.7777777777778,4,2,7,100,0,1
211510,-27.7777777777778,4,2,7,5,0,1
211610,-1000,4,2,7,100,0,1
211910,-1000,4,2,7,5,0,1
212010,-27.7777777777778,4,2,7,100,0,1
212310,-27.7777777777778,4,2,7,5,0,1
212410,-1000,4,2,7,100,0,1
212710,-1000,4,2,7,5,0,1
212810,-41.6666666666667,4,2,7,100,0,1
212910,-41.6666666666667,4,2,7,5,0,1
213010,-41.6666666666667,4,2,7,100,0,1
213110,-41.6666666666667,4,2,7,5,0,1
213210,-41.6666666666667,4,2,7,100,0,1
213310,-41.6666666666667,4,2,7,5,0,1
214010,-41.6666666666667,4,2,7,100,0,1
214260,-41.6666666666667,4,2,7,5,0,1
214410,-27.7777777777778,4,2,7,100,0,1
214710,-27.7777777777778,4,2,7,5,0,1
214810,-1000,4,2,7,100,0,1
215110,-1000,4,2,7,5,0,1
215210,-27.7777777777778,4,2,7,100,0,1
215510,-27.7777777777778,4,2,7,5,0,1
215610,-1000,4,2,7,100,0,1
215910,-1000,4,2,7,5,0,1
216010,-50,4,2,7,100,0,1
216110,-50,4,2,7,5,0,1
216210,-50,4,2,7,100,0,1
216310,-50,4,2,7,5,0,1
216410,-50,4,2,7,100,0,1
216510,-50,4,2,7,5,0,1
216610,-50,4,2,7,100,0,1
216710,-50,4,2,7,5,0,1
216810,-41.6666666666667,4,2,7,100,0,1
216910,-50,4,2,7,5,0,1
217010,-100,4,2,7,100,0,1
217110,-100,4,2,7,5,0,1
217210,-41.6666666666667,4,2,7,100,0,1
217310,-41.6666666666667,4,2,7,5,0,1
218010,-1000,4,2,7,100,0,1
218310,-41.6666666666667,4,2,7,5,0,1
218410,-27.7777777777778,4,2,7,100,0,1
218710,-27.7777777777778,4,2,7,5,0,1
218810,-50,4,2,7,100,0,1
218876,-50,4,2,7,5,0,1
218943,-58.8235294117647,4,2,7,100,0,1
219010,-58.8235294117647,4,2,7,5,0,1
219076,-71.4285714285714,4,2,7,100,0,1
219143,-71.4285714285714,4,2,7,5,0,1
219210,-90.9090909090909,4,2,7,100,0,1
219276,-90.9090909090909,4,2,7,5,0,1
219343,-125,4,2,7,100,0,1
219410,-125,4,2,7,5,0,1
219476,-200,4,2,7,100,0,1
219543,-200,4,2,7,5,0,1
219610,-500,4,2,7,100,0,1
220410,-41.6666666666667,4,2,7,100,0,1
220660,-41.6666666666667,4,2,7,5,0,1
220810,-27.7777777777778,4,2,7,100,0,1
221110,-27.7777777777778,4,2,7,5,0,1
221210,-1000,4,2,7,100,0,1
221510,-1000,4,2,7,5,0,1
221610,-27.7777777777778,4,2,7,100,0,1
221910,-27.7777777777778,4,2,7,5,0,1
222010,-1000,4,2,7,100,0,1
222310,-1000,4,2,7,5,0,1
222410,-27.7777777777778,4,2,7,100,0,1
222710,-27.7777777777778,4,2,7,5,0,1
222810,-50,4,2,7,100,0,1
222910,-50,4,2,7,5,0,1
223010,-50,4,2,7,100,0,1
223110,-50,4,2,7,5,0,1
223210,-41.6666666666667,4,2,7,100,0,1
223310,-41.6666666666667,4,2,7,5,0,1
223410,-100,4,2,7,100,0,1
223510,-100,4,2,7,5,0,1
223610,-41.6666666666667,4,2,7,100,0,1
223710,-41.6666666666667,4,2,7,5,0,1
223810,-100,4,2,7,100,0,1
223910,-100,4,2,7,5,0,1
224010,-27.7777777777778,4,2,7,100,0,1
224310,-27.7777777777778,4,2,7,5,0,1
224410,-1000,4,2,7,100,0,1
224710,-1000,4,2,7,5,0,1
224810,-27.7777777777778,4,2,7,100,0,1
225110,-27.7777777777778,4,2,7,5,0,1
225210,-1000,4,2,7,100,0,1
225510,-1000,4,2,7,5,0,1
225610,-41.6666666666667,4,2,7,100,0,1
225710,-41.6666666666667,4,2,7,5,0,1
225810,-41.6666666666667,4,2,7,100,0,1
225910,-41.6666666666667,4,2,7,5,0,1
226010,-41.6666666666667,4,2,7,100,0,1
226310,-41.6666666666667,4,2,7,5,0,1
226410,-83.3333333333333,4,2,7,100,0,1
226810,-125,4,2,7,100,0,1
227010,-250,4,2,4,100,0,1
227110,-250,4,2,4,5,0,1
227210,-250,4,2,4,100,0,1
227310,-250,4,2,4,5,0,1
227410,-250,4,2,4,100,0,1
227510,-250,4,2,4,5,0,1
227610,-125,4,2,7,100,0,1
227810,-125,4,2,4,100,0,1
227910,-125,4,2,4,5,0,1
228010,-125,4,2,4,100,0,1
228110,-125,4,2,4,5,0,1
228210,-125,4,2,4,100,0,1
228310,-125,4,2,4,5,0,1
228410,-125,4,2,7,100,0,1
228610,-83.3333333333333,4,2,4,100,0,1
228710,-83.3333333333333,4,2,4,5,0,1
228810,-83.3333333333333,4,2,4,100,0,1
228910,-83.3333333333333,4,2,4,5,0,1
229010,-83.3333333333333,4,2,4,100,0,1
229110,-83.3333333333333,4,2,4,5,0,1
229210,-125,4,2,7,100,0,1
229410,-62.5,4,2,4,100,0,1
229510,-62.5,4,2,4,5,0,1
229610,-62.5,4,2,4,100,0,1
229710,-62.5,4,2,4,5,0,1
229810,-62.5,4,2,4,100,0,1
229910,-62.5,4,2,4,5,0,1
230010,-71.4285714285714,4,2,7,100,0,1
230110,-71.4285714285714,4,2,4,100,0,1
230410,-71.4285714285714,4,2,7,100,0,1
230510,-71.4285714285714,4,2,4,80,0,1
230810,-71.4285714285714,4,2,7,100,0,1
230910,-71.4285714285714,4,2,4,60,0,1
231210,-71.4285714285714,4,2,7,100,0,1
231310,-71.4285714285714,4,2,4,40,0,1
231610,-62.5,4,2,7,80,0,0
231910,-62.5,4,2,7,5,0,0
232010,-62.5,4,2,7,80,0,0
232110,-62.5,4,2,7,5,0,0
232210,-62.5,4,2,7,80,0,0
232310,-62.5,4,2,7,5,0,0
232410,-62.5,4,2,7,80,0,0
232510,-62.5,4,2,7,5,0,0
232610,-62.5,4,2,7,80,0,0
232710,-62.5,4,2,7,5,0,0
232810,-50,4,2,7,80,0,0
232910,-50,4,2,7,5,0,0
233010,-50,4,2,7,80,0,0
233110,-50,4,2,7,5,0,0
233210,-500,4,2,7,100,0,0
233460,-500,4,2,7,5,0,0
233610,-500,4,2,7,80,0,0
233710,-500,4,2,7,5,0,0
233810,-500,4,2,7,80,0,0
233910,-500,4,2,7,5,0,0
234010,-500,4,2,7,80,0,0
234710,-500,4,2,7,5,0,0
234810,-500,4,2,7,80,0,0
235110,-500,4,2,7,5,0,0
235210,-500,4,2,7,80,0,0
235310,-500,4,2,7,5,0,0
235410,-500,4,2,7,80,0,0
235510,-500,4,2,7,5,0,0
235610,-500,4,2,7,80,0,0
235910,-500,4,2,7,5,0,0
236010,-50,4,2,7,80,0,0
236110,-50,4,2,7,5,0,0
236210,-35.7142857142857,4,2,7,80,0,0
236310,-35.7142857142857,4,2,7,5,0,0
236410,-41.6666666666667,4,2,7,100,0,1
236510,-41.6666666666667,4,2,7,5,0,1
237010,-50,4,2,7,100,0,1
237110,-50,4,2,7,5,0,1
237210,-50,4,2,7,100,0,1
237910,-50,4,2,7,5,0,1
238010,-50,4,2,7,100,0,1
238260,-50,4,2,7,5,0,1
238410,-50,4,2,7,100,0,1
238460,-50,4,2,7,5,0,1
238610,-50,4,2,7,100,0,1
238660,-50,4,2,7,5,0,1
238810,-50,4,2,7,100,0,1
238910,-50,4,2,7,5,0,1
239610,-41.6666666666667,4,2,7,100,0,1
239860,-41.6666666666667,4,2,7,5,0,1
240010,-50,4,2,7,100,0,1
240110,-50,4,2,7,5,0,1
240210,-50,4,2,7,100,0,1
240310,-50,4,2,7,5,0,1
240410,-50,4,2,7,100,0,1
240710,-50,4,2,7,5,0,1
240810,-50,4,2,7,100,0,1
240910,-50,4,2,7,5,0,1
241010,-50,4,2,7,100,0,1
241110,-50,4,2,7,5,0,1
241210,-50,4,2,7,100,0,1
241510,-50,4,2,7,5,0,1
241610,-50,4,2,7,100,0,1
241710,-50,4,2,7,5,0,1
241810,-50,4,2,7,100,0,1
241910,-50,4,2,7,5,0,1
242010,-50,4,2,7,100,0,1
242310,-50,4,2,7,5,0,1
242410,-50,4,2,7,100,0,1
242710,-50,4,2,7,5,0,1
242810,-62.5,4,2,7,100,0,1
242910,-62.5,4,2,7,5,0,1
243010,-62.5,4,2,7,100,0,1
243210,-125,4,2,7,100,0,1
243610,-62.5,4,2,7,100,0,1
243810,-100,4,2,7,100,0,1
244410,-50,4,2,7,100,0,1
244510,-50,4,2,7,5,0,1
244610,-100,4,2,7,100,0,1
245210,-50,4,2,7,100,0,1
245310,-50,4,2,7,5,0,1
245410,-50,4,2,7,100,0,1
245510,-50,4,2,7,5,0,1
245610,-83.3333333333333,4,2,8,100,0,1
245810,-83.3333333333333,4,2,9,100,0,1
245910,-83.3333333333333,4,2,10,100,0,1
246010,-41.6666666666667,4,2,7,100,0,1
246260,-41.6666666666667,4,2,7,5,0,1
246410,-50,4,2,7,100,0,1
246510,-50,4,2,7,5,0,1
246610,-50,4,2,7,100,0,1
246710,-50,4,2,7,5,0,1
246810,-50,4,2,7,100,0,1
247110,-50,4,2,7,5,0,1
247210,-50,4,2,7,100,0,1
247510,-50,4,2,7,5,0,1
247610,-66.6666666666667,4,2,7,100,0,1
247810,-66.6666666666667,4,2,7,5,0,1
248010,-50,4,2,7,100,0,1
248310,-50,4,2,7,5,0,1
248410,-50,4,2,7,100,0,1
248610,-50,4,2,7,5,0,1
248810,-41.6666666666667,4,2,7,100,0,1
249010,-41.6666666666667,4,2,7,5,0,1
249210,-41.6666666666667,4,2,7,100,0,1
249310,-41.6666666666667,4,2,7,5,0,1
249810,-50,4,2,7,100,0,1
249910,-50,4,2,7,5,0,1
250010,-50,4,2,7,100,0,1
250110,-50,4,2,7,5,0,1
250310,-100,4,2,7,100,0,1
250410,-100,4,2,7,5,0,1
250510,-50,4,2,7,100,0,1
250710,-50,4,2,7,5,0,1
250810,-50,4,2,7,100,0,1
251060,-50,4,2,7,5,0,1
251210,-50,4,2,7,100,0,1
251260,-50,4,2,7,5,0,1
251410,-50,4,2,7,100,0,1
251460,-50,4,2,7,5,0,1
251610,-50,4,2,7,100,0,1
251710,-50,4,2,7,5,0,1
252410,-50,4,2,7,100,0,1
252710,-35.7142857142857,4,2,7,100,0,1
253310,-35.7142857142857,4,2,7,5,0,1
254010,-83.3333333333333,4,2,7,100,0,1
254110,-83.3333333333333,4,2,8,60,0,1
254810,-83.3333333333333,4,2,7,100,0,1
254910,-83.3333333333333,4,2,8,60,0,1
255610,-83.3333333333333,4,2,7,100,0,1
255710,-83.3333333333333,4,2,8,60,0,1
256410,-83.3333333333333,4,2,7,100,0,1
256510,-83.3333333333333,4,2,8,60,0,1
257210,-83.3333333333333,4,2,7,100,0,1
257410,-250,4,2,7,40,0,1
257510,-250,4,2,7,5,0,1
257610,-200,4,2,7,50,0,1
257710,-200,4,2,7,5,0,1
257810,-166.666666666667,4,2,7,60,0,1
257910,-166.666666666667,4,2,7,5,0,1
258010,-142.857142857143,4,2,7,70,0,1
258110,-142.857142857143,4,2,7,5,0,1
258210,-125,4,2,7,90,0,1
258310,-125,4,2,7,5,0,1
258410,-62.5,4,2,7,100,0,1
258710,-62.5,4,2,7,5,0,1
258810,-62.5,4,2,3,100,0,0
269010,-62.5,4,2,5,5,0,0
269185,474.308300395257,4,2,2,40,1,0
269185,-125,4,2,10,20,0,0
269540,-125,4,2,5,5,0,0
269659,-125,4,2,2,20,0,0
272030,466.926070038911,4,2,2,20,1,0
272030,-125,4,2,10,20,0,0
272380,-125,4,2,5,5,0,0
272496,-125,4,2,2,20,0,0
274831,454.545454545455,4,2,2,20,1,0
274831,-125,4,2,2,20,0,0
275171,-125,4,2,5,5,0,0
275285,-125,4,2,2,20,0,0
276535,-125,4,2,5,5,0,0
276649,-125,4,2,2,20,0,0
277558,451.127819548872,4,2,2,20,1,0
277558,-125,4,2,2,20,0,0
277896,-125,4,2,5,5,0,0
278009,-125,4,2,2,20,0,0
279249,-125,4,2,5,5,0,0
279362,-125,4,2,2,20,0,0
279700,-125,4,2,5,5,0,0
279813,-125,4,2,2,20,0,0
280151,-125,4,2,5,5,0,0
280264,449.438202247191,4,2,2,20,1,0
280264,-125,4,2,2,20,0,0
280601,-125,4,2,5,5,0,0
280713,-125,4,2,2,20,0,0
281949,-125,4,2,5,5,0,0
282061,-125,4,2,2,20,0,0
282960,448.598130841121,4,2,2,20,1,0
282960,-125,4,2,2,20,0,0
283296,-125,4,2,5,5,0,0
283408,-125,4,2,2,20,0,0
285539,-125,4,2,5,5,0,0
285623,-125,4,2,2,20,0,0
285651,444.444444444444,4,2,2,20,1,0
285651,-125,4,2,2,20,0,0
285984,-125,4,2,5,5,0,0
286095,-125,4,2,2,20,0,0
286873,-125,4,2,5,9,0,0
286984,-125,4,2,2,20,0,0
288651,-125,4,2,5,5,0,0
288762,-125,4,2,2,20,0,0
289984,-125,4,2,5,5,0,0
290095,-125,4,2,2,20,0,0
290428,-125,4,2,5,5,0,0
290539,-125,4,2,2,20,0,0
290874,-125,4,2,5,5,0,0
290984,437.956204379562,4,2,2,20,1,0
290984,-125,4,2,2,20,0,0
291312,-125,4,2,5,5,0,0
291421,-125,4,2,2,20,0,0
293940,-125,4,2,5,5,0,0
294049,-125,4,2,2,20,0,0
296239,431.654676258993,4,2,2,20,1,0
296239,-125,4,2,2,20,0,0
296562,-125,4,2,5,5,0,0
296670,-125,4,2,2,20,0,0
297857,-125,4,2,5,10,0,0
297965,-125,4,2,2,20,0,0
298828,436.363636363636,4,2,2,20,1,0
298828,-125,4,2,2,20,0,0
299155,-125,4,2,5,5,0,0
299264,-125,4,2,2,20,0,0
300464,-125,4,2,5,5,0,0
300573,-125,4,2,2,20,0,0
300900,-125,4,2,5,5,0,0
301009,-125,4,2,2,20,0,0
301337,-125,4,2,5,5,0,0
301446,-125,4,2,2,20,0,0
301773,-125,4,2,5,5,0,0
301882,-125,4,2,2,20,0,0
304355,-125,4,2,5,5,0,0
304500,-83.3333333333333,4,2,2,20,0,0
304937,-125,4,2,2,20,0,0
306573,-125,4,2,5,5,0,0
306655,-125,4,2,2,20,0,0
306682,437.956204379562,4,2,2,20,1,0
306682,-125,4,2,2,20,0,0
307010,-125,4,2,5,5,0,0
307119,-125,4,2,2,20,0,0
307338,-125,4,2,5,5,0,0
307557,-125,4,2,2,20,0,0
307886,-125,4,2,5,5,0,0
307995,-125,4,2,2,20,0,0
309364,454.545454545455,4,2,2,20,1,0
309364,-125,4,2,2,20,0,0
309704,-125,4,2,5,5,0,0
309818,-125,4,2,2,20,0,0
310727,480,4,2,2,20,1,0
310727,-62.5,4,2,2,20,0,0
311687,-83.3333333333333,4,2,2,20,0,0
311987,-83.3333333333333,4,2,5,5,0,0
312005,-83.3333333333333,4,2,5,5,0,0
312167,483.870967741935,4,2,2,20,1,0
312167,-125,4,2,2,20,0,0
312528,-125,4,2,5,5,0,0
312650,487.80487804878,4,2,2,20,1,0
312650,-125,4,2,2,20,0,0
313137,495.867768595041,4,2,2,20,1,0
313137,-125,4,2,2,20,0,0
313505,-125,4,2,5,5,0,0
313632,504.201680672269,4,2,2,20,1,0
313632,-125,4,2,2,20,0,0
314010,-125,4,2,5,5,0,0
314136,506.329113924051,4,2,2,20,1,0
314136,-125,4,2,2,20,0,0
314515,-125,4,2,5,5,0,0
314642,508.474576271186,4,2,2,20,1,0
314642,-125,4,2,2,20,0,0
315150,500,4,2,2,20,1,0
315150,-125,4,2,2,20,0,0
315525,-125,4,2,5,5,0,0
315650,566.037735849057,4,2,2,20,1,0
315650,-125,4,2,2,20,0,0
316074,-125,4,2,5,5,0,0
316216,697.674418604651,4,2,2,20,1,0
316216,-125,4,2,2,20,0,0
316739,-125,4,2,5,5,0,0
316913,909.090909090909,4,2,2,20,1,0
316913,-125,4,2,2,20,0,0
317594,-125,4,2,5,5,0,0
317822,979.591836734694,4,2,2,20,1,0
317822,-1000,4,2,2,20,0,0
318066,-125,4,2,5,5,0,0
325658,1200,4,2,2,20,1,0
325658,-25,4,2,2,20,0,0
327458,-125,4,2,5,5,0,0

[Colours]
Combo1 : 120,123,111
Combo2 : 245,170,17
Combo3 : 239,120,22
Combo4 : 216,62,10

[HitObjects]
256,192,4310,12,0,7210,0:0:0:0:
152,248,7410,6,0,B|108:316|108:316|72:116,1,270,4|0,3:2|0:0,0:0:0:0:
92,60,7810,1,8,0:0:0:0:
304,256,8010,6,0,B|372:212|372:212|172:176,1,270,4|0,3:2|0:0,0:0:0:0:
124,216,8410,1,8,0:0:0:0:
312,108,8610,2,8,L|375:94,7,45
232,160,9010,6,8,L|200:296,1,134.999995880127
404,224,9410,1,8,0:0:0:0:
397,256,9510,1,8,0:0:0:0:
389,289,9610,1,8,0:0:0:0:
381,322,9710,1,8,0:0:0:0:
374,354,9810,2,8,L|343:222,1,134.999995880127
396,68,10210,1,8,0:0:0:0:
444,151,10410,1,2,0:0:0:0:
276,360,10610,6,0,B|196:320|196:320|104:336|104:336|152:308|144:248,1,270,4|0,3:2|0:0,0:0:0:0:
118,197,11010,1,8,0:0:0:0:
364,190,11210,6,0,B|444:150|444:150|536:166|536:166|488:138|496:78,1,270,4|0,3:2|0:0,0:0:0:0:
510,19,11610,1,8,0:0:0:0:
456,236,11810,2,8,L|448:284,7,45
444,152,12210,6,8,B|380:184|380:184|292:160,1,134.999995880127
132,96,12610,1,8,0:0:0:0:
116,126,12710,1,8,0:0:0:0:
101,156,12810,1,8,0:0:0:0:
107,188,12910,1,8,0:0:0:0:
116,221,13010,2,8,B|148:285|148:285|124:373,1,134.999995880127
276,276,13410,1,8,0:0:0:0:
212,364,13610,1,2,0:0:0:0:
8,148,13810,6,0,B|60:132|60:132|64:124|64:124|72:128|72:128|113:115|113:115|136:144|177:139|177:139|101:163|101:163|88:200|88:200|83:203|83:203|88:204|88:204|121:231|121:231|221:199|221:199|264:160|244:108,1,562.5,4|0,3:2|0:1,0:1:0:0:
360,40,14410,6,0,B|436:32|436:32|448:24|448:24|376:140|376:140|388:174|388:174|386:181|386:181|391:175|391:175|432:188|432:188|492:92,1,421.875016093255,4|0,3:2|0:0,0:0:0:0:
492,283,15010,2,0,L|421:169,1,112.5,8|0,0:0|0:0,0:0:0:0:
252,64,15410,6,8,P|230:68|211:81,15,45
192,160,16210,2,8,P|132:176|84:140,1,112.5
344,292,16610,2,0,P|387:282|428:299,1,90,8|0,0:0|0:0,0:0:0:0:
480,352,16810,1,2,0:0:0:0:
196,300,17010,6,0,B|164:272|170:238|170:238|164:232|164:232|172:228|172:228|220:148|220:148|228:144|228:144|220:136|220:136|220:96|152:64|88:72|52:128|40:168|40:168|32:172|32:172|40:176|40:176|56:204|88:208|120:191|128:151,1,562.5,4|0,3:2|0:0,0:0:0:0:
256,148,17610,6,0,B|344:144|344:144|352:136|352:136|380:168|420:196|472:188|496:156|496:156|508:156|508:156|468:156|448:112,1,337.500012874604,4|8,3:2|0:0,0:0:0:0:
296,48,18210,2,0,L|180:44,1,112.5,8|0,0:0|0:0,0:0:0:0:
55,220,18610,6,8,B|40:243|40:243|41:264,15,45
104,320,19410,2,8,L|216:316,1,112.5
464,128,19810,2,0,L|459:240,1,90,8|0,0:0|0:0,0:0:0:0:
456,292,20010,1,2,0:0:0:0:
167,112,20210,6,0,B|160:76|192:56|232:68|260:112|244:184|184:220|112:204,1,270,4|0,3:2|0:0,0:0:0:0:
56,176,20610,1,8,0:0:0:0:
324,284,20810,6,0,B|360:291|380:259|368:219|324:191|252:207|216:267|232:339,1,270,4|0,3:2|0:0,0:0:0:0:
288,372,21210,1,8,0:0:0:0:
96,276,21410,2,8,P|64:284|48:304,7,45
64,372,21810,6,8,P|136:364|172:308,1,134.999995880127
284,148,22210,1,8,0:0:0:0:
316,140,22310,1,8,0:0:0:0:
349,152,22410,1,8,0:0:0:0:
375,173,22510,1,8,0:0:0:0:
390,203,22610,2,8,P|455:198|496:147,1,134.999995880127
392,20,23010,1,8,0:0:0:0:
416,124,23210,1,2,0:0:0:0:
136,52,23410,6,0,B|101:108|136:172|136:172|178:241|112:332,1,270,4|0,3:2|0:0,0:0:0:0:
66,344,23810,1,8,0:0:0:0:
234,109,24010,6,0,B|300:58|369:100|369:100|433:135|489:100,1,270,4|0,3:2|0:0,0:0:0:0:
510,33,24410,1,8,0:0:0:0:
436,236,24610,2,8,P|432:268|440:292,7,45
380,340,25010,6,8,P|312:332|264:276,1,134.999995880127
184,84,25410,1,8,0:0:0:0:
156,102,25510,1,8,0:0:0:0:
136,129,25610,1,8,0:0:0:0:
126,161,25710,1,8,0:0:0:0:
128,195,25810,2,8,P|120:263|64:311,1,134.999995880127
232,280,26210,1,8,0:0:0:0:
152,356,26410,1,2,0:0:0:0:
52,83,26610,6,0,B|56:56|36:32|36:32|136:59|136:59|140:67|140:67|248:55|248:55|196:79|196:79|192:134|272:155|344:120|324:28,1,562.5,4|0,3:2|0:0,0:0:0:0:
456,76,27210,6,0,B|581:155|468:274|416:304|342:286|305:191|363:144|413:138|468:166|443:218|412:225|396:198,1,421.875016093255,4|0,3:2|0:0,0:0:0:0:
287,276,27810,2,0,P|306:327|357:347,1,112.5,8|0,0:0|0:0,0:0:0:0:
156,268,28210,6,8,P|152:296|136:320,15,45
76,268,29010,2,8,P|53:211|98:154,1,112.5
364,268,29410,2,0,P|412:244|456:260,1,90,8|0,0:0|0:0,0:0:0:0:
484,312,29610,1,2,0:0:0:0:
256,112,29810,6,0,B|240:60|276:28|276:28|264:40|264:40|240:42|196:90|192:142|240:198|240:198|296:200|316:258|316:258|324:262|324:262|240:216|176:264,1,562.5,4|0,3:2|0:0,0:0:0:0:
116,364,30410,6,0,B|40:324|60:240|60:240|76:200|56:172|56:172|56:160|56:160|44:216|4:236|4:236|8:224|8:224|-28:184|-16:140,1,421.875016093255,4|0,3:2|0:0,0:0:0:0:
68,44,31010,2,0,P|120:52|152:104,1,112.5,8|0,0:0|0:0,0:0:0:0:
152,272,31410,6,0,B|184:288|216:272|216:272|248:260|280:272|280:272|312:284|344:272|344:272|384:256|428:288,1,253.125009655953,10|0,0:0|0:0,0:0:0:0:
484,148,31810,2,0,P|492:120|480:148,1,90,2|0,0:0|0:0,0:0:0:0:
398,271,32010,2,0,P|407:301|407:270,1,90,2|0,0:0|0:0,0:0:0:0:
308,160,32210,1,2,0:0:0:0:
308,160,32310,2,2,P|272:144|232:156,2,56.25
160,316,32610,2,0,P|124:216|212:268,1,270,2|0,0:0|0:0,0:0:0:0:
324,352,33010,6,0,L|356:392,7,45,4|0|0|0|0|0|0|0,3:2|3:0|3:0|3:0|3:0|3:0|3:0|3:0,3:0:0:0:
398,271,33810,2,0,L|369:235,7,45,0|0|0|0|0|0|0|0,3:0|3:0|3:0|3:0|3:0|3:0|3:0|3:0,3:0:0:0:
248,272,34610,6,0,L|212:300,7,45,0|0|0|0|0|0|0|0,3:0|3:0|3:0|3:0|3:0|3:0|3:0|3:0,3:0:0:0:
236,176,35410,2,0,L|271:147,7,45,0|0|0|0|0|0|0|0,3:0|3:0|3:0|3:0|3:0|3:0|3:0|3:0,3:0:0:0:
400,148,36210,6,0,L|428:183,7,45,0|0|0|0|0|0|0|0,3:0|3:0|3:0|3:0|3:0|3:0|3:0|3:0,3:0:0:0:
428,56,37010,2,0,L|399:20,7,45,0|0|0|0|0|0|0|0,3:0|3:0|3:0|3:0|3:0|3:0|3:0|3:0,3:0:0:0:
256,128,37810,6,0,B|192:176|124:128|124:128|52:84|-24:140,1,270
60,236,38210,2,0,L|88:271,3,45,0|0|0|0,3:0|3:0|3:0|3:0,3:0:0:0:
232,280,38610,6,0,B|245:277|245:277|197:336,1,90,2|0,0:0|3:0,0:0:0:0:
88,356,38810,2,0,B|74:359|74:359|122:300,1,90,2|0,0:0|3:0,0:0:0:0:
292,364,39010,6,0,L|303:376,1,16.875
436,156,39410,6,0,B|472:112|472:112|256:172|256:172|308:108,1,337.5,4|0,3:2|0:0,0:0:0:0:
344,32,39810,2,0,L|409:13,3,67.4999979400635,8|0|0|0,0:0|0:0|0:0|0:0,0:0:0:0:
208,100,40210,2,0,L|142:83,3,67.4999979400635,8|0|0|0,0:0|0:0|0:0|0:0,0:0:0:0:
349,146,40610,2,0,L|368:211,3,67.4999979400635,8|0|0|0,0:0|0:0|0:0|0:0,0:0:0:0:
160,268,41010,6,0,L|95:287,3,67.4999979400635,8|0|0|0,0:0|0:0|0:0|0:0,0:0:0:0:
308,324,41410,2,0,L|373:343,3,67.4999979400635,8|0|0|0,0:0|0:0|0:0|0:0,0:0:0:0:
264,156,41810,2,0,L|245:91,3,67.4999979400635,8|0|0|0,0:0|0:0|0:0|0:0,0:0:0:0:
132,276,42210,2,0,L|113:341,3,67.4999979400635,8|0|0|0,0:0|0:0|0:0|0:0,0:0:0:0:
356,216,42610,5,8,0:0:0:0:
386,202,42710,1,0,0:0:0:0:
407,176,42810,1,0,0:0:0:0:
414,143,42910,1,0,0:0:0:0:
404,111,43010,1,8,0:0:0:0:
394,78,43110,1,0,0:0:0:0:
401,46,43210,1,0,0:0:0:0:
422,20,43310,1,0,0:0:0:0:
452,6,43410,5,8,0:0:0:0:
430,44,43510,1,0,0:0:0:0:
391,65,43610,1,0,0:0:0:0:
346,59,43710,1,0,0:0:0:0:
313,31,43810,2,0,P|268:16|216:40,3,90,8|0|0|0,0:0|0:0|0:0|0:0,0:0:0:0:
132,276,44210,5,0,3:0:0:0:
132,276,44410,6,0,L|160:280,1,22.5,8|0,0:3|0:0,0:0:0:0:
216,160,44610,2,0,L|260:152,1,28.125,8|0,0:3|0:0,0:0:0:0:
268,332,44810,2,0,L|328:344,1,33.7499989700318,8|0,0:3|0:0,0:0:0:0:
336,128,45010,2,0,L|408:112,1,39.3749987983704,8|0,0:3|0:0,0:0:0:0:
428,364,45210,2,0,L|504:380,1,45,8|0,0:3|0:0,0:0:0:0:
188,292,45410,2,0,L|174:237,1,56.25,8|0,0:3|0:0,0:0:0:0:
480,180,45610,2,0,L|460:256,1,67.4999979400635,8|0,0:3|0:0,0:0:0:0:
256,56,45810,6,0,B|186:17|146:81|94:89|94:89|146:97|186:161|258:121,1,337.5,4|0,3:2|0:0,0:0:0:0:
332,192,46210,5,8,0:0:0:0:
323,235,46310,1,0,0:0:0:0:
293,268,46410,1,0,0:0:0:0:
250,279,46510,1,0,0:0:0:0:
208,266,46610,1,8,0:0:0:0:
165,253,46710,1,0,0:0:0:0:
122,264,46810,1,0,0:0:0:0:
92,297,46910,1,0,0:0:0:0:
84,340,47010,1,8,0:0:0:0:
120,364,47110,1,0,0:0:0:0:
165,366,47210,1,0,0:0:0:0:
203,344,47310,1,0,0:0:0:0:
224,304,47410,6,0,B|284:264|348:304|348:304|420:356|508:304,1,270,4|0,3:2|0:0,0:0:0:0:
417,226,47810,5,8,0:0:0:0:
395,186,47910,1,0,0:0:0:0:
395,142,48010,1,0,0:0:0:0:
418,103,48110,1,0,0:0:0:0:
456,81,48210,1,8,0:0:0:0:
439,39,48310,1,0,0:0:0:0:
405,10,48410,1,0,0:0:0:0:
362,1,48510,1,0,0:0:0:0:
319,13,48610,1,8,0:0:0:0:
287,44,48710,1,0,0:0:0:0:
273,86,48810,1,0,0:0:0:0:
281,130,48910,1,0,0:0:0:0:
308,165,49010,6,0,P|272:268|220:176,1,270,4|0,3:2|0:0,0:0:0:0:
175,70,49410,5,8,0:0:0:0:
133,54,49510,1,0,0:0:0:0:
89,60,49610,1,0,0:0:0:0:
53,87,49710,1,0,0:0:0:0:
35,127,49810,1,8,0:0:0:0:
53,167,49910,1,0,0:0:0:0:
89,194,50010,1,0,0:0:0:0:
133,200,50110,1,0,0:0:0:0:
174,184,50210,1,8,0:0:0:0:
215,168,50310,1,0,0:0:0:0:
259,174,50410,1,0,0:0:0:0:
295,201,50510,1,0,0:0:0:0:
312,240,50610,6,0,P|320:292|288:336,1,90,4|0,3:2|0:0,0:0:0:0:
448,292,50810,5,0,0:0:0:0:
456,288,50910,1,0,0:0:0:0:
464,284,51010,1,8,0:0:0:0:
479,242,51110,1,0,0:0:0:0:
473,198,51210,1,0,0:0:0:0:
446,162,51310,1,0,0:0:0:0:
406,144,51410,1,8,0:0:0:0:
365,125,51510,1,0,0:0:0:0:
338,89,51610,1,0,0:0:0:0:
332,45,51710,1,0,0:0:0:0:
348,4,51810,6,0,L|355:19,1,16.875
172,184,52210,6,0,B|150:299|150:299|222:275|222:275|306:303|306:303|366:283,1,337.5,4|0,3:2|0:0,0:0:0:0:
440,124,52610,1,4,3:2:0:0:
425,81,52710,1,8,0:0:0:0:
410,39,52810,2,8,L|375:138,1,90,8|8,0:0|0:0,0:0:0:0:
488,268,53010,1,0,3:2:0:0:
473,311,53110,1,8,0:0:0:0:
458,353,53210,2,8,L|423:254,1,90,8|8,0:0|0:0,0:0:0:0:
308,136,53410,2,0,L|266:264,1,134.999995880127,4|2,3:2|0:0,0:0:0:0:
64,72,53810,6,0,P|120:32|192:60,1,135,0|0,3:0|0:0,0:0:0:0:
188,124,54010,2,8,P|222:117|237:103,3,45
284,0,54210,1,4,3:2:0:0:
327,15,54310,1,8,0:0:0:0:
369,30,54410,2,8,L|270:65,1,90,8|8,0:0|0:0,0:0:0:0:
104,144,54610,1,0,3:2:0:0:
61,159,54710,1,8,0:0:0:0:
19,174,54810,2,8,L|118:209,1,90,8|8,0:0|0:0,0:0:0:0:
284,256,55010,2,0,L|156:298,1,134.999995880127,4|2,3:2|0:0,0:0:0:0:
384,108,55410,5,8,0:0:0:0:
412,180,55510,1,0,3:0:0:0:
439,251,55610,2,0,L|476:340,1,78.7499975967408,0|0,3:0|3:0,3:0:0:0:
136,236,55810,5,8,0:0:0:0:
164,164,55910,1,0,3:0:0:0:
191,93,56010,2,0,L|228:0,1,78.7499975967408,0|0,3:0|3:0,3:0:0:0:
450,278,56210,5,8,0:0:0:0:
378,306,56310,1,0,3:0:0:0:
307,333,56410,2,0,L|214:370,1,78.7499975967408,0|0,3:0|3:0,3:0:0:0:
220,19,56610,5,8,0:0:0:0:
292,47,56710,1,0,3:0:0:0:
363,74,56810,2,0,L|456:111,1,78.7499975967408,0|0,3:0|3:0,3:0:0:0:
96,208,57010,5,0,3:2:0:0:
96,208,57210,6,0,P|71:244|75:288,1,90,2|0,0:0|0:0,0:0:0:0:
55,369,57410,2,0,P|79:332|75:288,1,90,2|0,0:0|0:0,0:0:0:0:
73,134,57610,2,0,P|118:130|155:155,1,90,2|0,0:0|0:0,0:0:0:0:
232,284,57810,2,0,P|191:264|171:224,1,90,2|0,0:0|0:0,0:0:0:0:
249,94,58010,2,0,P|251:138|225:174,1,90,2|0,0:0|0:0,0:0:0:0:
324,340,58210,2,0,B|384:344|384:344|388:340|388:340|444:344,1,112.5,2|0,0:0|0:0,0:0:0:0:
504,244,58410,2,0,B|457:247|457:247|453:243|453:243|393:247,1,112.5
182,186,58610,6,0,B|122:144|122:144|223:125|223:125|287:53|287:53|363:37,1,337.499989700318,4|0,3:2|0:0,0:0:0:0:
350,39,59010,2,0,B|286:53|286:53|276:48|276:48|209:122,1,168.75,2|0,0:0|0:0,0:0:0:0:
124,232,59210,2,0,B|118:252|118:252|182:185,1,112.5,2|0,0:0|0:0,0:0:0:0:
400,108,59410,2,0,B|460:96|460:96|501:60|501:60|488:116|488:116|508:175,2,225,10|0|0,0:0|0:0|0:0,0:0:0:0:
222,120,60010,2,0,B|171:100|131:123|131:123|123:121|123:121|103:153|72:161,1,168.75,2|0,0:0|0:0,0:0:0:0:
28,59,60210,5,0,3:0:0:0:
28,59,60410,2,0,B|48:111|48:111|54:115|54:115|80:183,1,112.5,2|0,0:0|0:0,0:0:0:0:
132,292,60610,2,0,B|152:240|152:240|159:236|159:236|176:191,1,112.5,2|0,0:0|0:0,0:0:0:0:
300,95,60810,2,0,B|314:119|306:145|306:145|309:151|309:151|303:153|303:153|291:188|239:198,1,112.5,2|0,0:0|0:0,0:0:0:0:
32,248,61010,2,0,B|44:304|44:304|48:308|48:308|60:364|60:364|108:372|108:372|112:368|112:368|184:384|184:384|268:348,1,337.5,10|0,0:0|0:0,0:0:0:0:
428,269,61410,2,0,B|413:316|466:329|496:296|500:231|428:181|341:196|302:275,1,269.999991760254
168,64,61810,6,0,B|112:84|121:161|121:161|85:314|-90:238|21:110|117:190|117:190|135:201|135:201|188:265|248:281|328:265|336:161|264:153|231:163,1,742.499977340699,4|0,3:2|0:0,0:0:0:0:
280,56,62410,2,0,B|293:31|320:25|320:25|323:20|323:20|328:24|328:24|365:17|399:57,1,112.5,2|0,0:0|0:0,0:0:0:0:
324,304,62610,2,0,B|363:341|411:318|411:318|434:329|422:306|422:306|451:258|411:216,2,225,10|0|0,0:0|0:0|0:0,0:0:0:0:
102,208,63210,2,0,B|111:241|80:219|66:196|88:169|186:179|154:308,1,168.75,2|0,0:0|0:0,0:0:0:0:
214,354,63410,5,0,3:0:0:0:
214,354,63610,2,0,L|242:294,1,56.25,2|0,0:0|0:0,0:0:0:0:
392,144,63810,2,0,L|337:181,1,56.25,2|0,0:0|0:0,0:0:0:0:
116,152,64010,2,0,L|181:146,1,56.25,2|0,0:0|0:0,0:0:0:0:
404,312,64210,2,0,B|316:264|316:264|312:252|312:252|240:216|240:216|273:127|273:127|284:120|284:120|272:12|272:12|264:24|264:24|188:28|188:28|128:60|128:60|64:64|64:64|-2:137|42:212,1,787.5,8|0,0:0|0:0,0:0:0:0:
352,72,65010,6,0,B|424:40|424:40|480:60|480:60|496:56|496:56|460:88|440:136|444:192|484:236,1,337.499989700318,4|0,3:2|0:0,0:0:0:0:
472,221,65410,2,0,B|416:208|416:208|360:224|360:224|292:208,1,168.75,2|0,0:0|0:0,0:0:0:0:
192,132,65610,2,0,B|245:122|245:122|249:118|249:118|324:140,1,112.5,2|0,0:0|0:0,0:0:0:0:
504,368,65810,2,0,B|416:300|416:300|412:284|412:284|408:296|408:296|372:356|308:368|244:356|220:308,1,337.5,10|0,0:0|0:0,0:0:0:0:
136,240,66210,2,0,B|157:223|194:223|194:223|232:236|247:262,1,112.5,2|0,0:0|0:0,0:0:0:0:
320,344,66410,2,0,B|356:341|399:311|407:275|407:275|396:271|396:271|388:240|356:228,1,168.75,2|0,0:0|0:0,0:0:0:0:
299,132,66610,5,0,3:0:0:0:
299,132,66810,2,0,B|280:120|280:120|320:120|320:120|336:112|336:112|388:116,1,112.5,2|0,0:0|0:0,0:0:0:0:
488,184,67010,2,0,B|507:172|507:172|467:172|467:172|451:164|451:164|399:168,1,112.5,2|0,0:0|0:0,0:0:0:0:
237,248,67210,2,0,B|220:269|220:306|220:306|233:344|259:359,1,112.5,2|0,0:0|0:0,0:0:0:0:
460,88,67410,2,0,B|483:56|483:56|340:76,1,168.75,10|0,0:0|0:0,0:0:0:0:
280,84,67610,1,0,0:0:0:0:
364,260,67810,2,0,B|319:276|320:330|365:357|438:326|463:249|420:149|325:148,1,337.5
104,136,68210,6,0,L|84:292,1,135,0|0,3:0|0:0,0:0:0:0:
156,352,68410,2,0,L|151:307,2,45
261,196,68610,1,0,0:0:0:0:
303,181,68710,1,0,0:0:0:0:
347,189,68810,1,0,0:0:0:0:
381,217,68910,1,0,0:0:0:0:
399,258,69010,2,0,P|411:300|394:340,1,90,8|0,0:0|0:0,0:0:0:0:
147,232,69210,5,0,0:0:0:0:
109,191,69310,1,0,0:0:0:0:
104,136,69410,1,0,0:0:0:0:
133,89,69510,1,0,0:0:0:0:
185,70,69610,1,0,0:0:0:0:
238,87,69710,1,0,0:0:0:0:
269,132,69810,6,0,B|327:144|327:144|387:120,1,112.5,0|0,3:0|0:0,0:0:0:0:
483,132,70010,2,0,B|433:112|433:112|375:124,1,112.5,2|0,0:0|0:0,0:0:0:0:
280,276,70210,1,10,0:3:0:0:
280,276,70410,1,10,0:3:0:0:
404,36,70610,2,0,B|354:16|354:16|296:28,1,112.5,10|0,0:0|0:0,0:0:0:0:
161,123,70810,2,0,B|211:143|211:143|269:131,1,112.5,2|0,0:0|0:0,0:0:0:0:
412,240,71010,1,10,0:3:0:0:
192,16,71210,1,8,0:3:0:0:
64,344,71410,6,0,B|120:388|208:352|208:352|212:344|212:344|216:356|216:356|220:348|220:348|300:304|380:348,1,337.499989700318,4|0,3:2|0:0,0:0:0:0:
368,342,71810,2,0,B|344:328|344:328|328:300|328:300|320:268|320:268|324:240,1,112.5,2|0,0:0|0:0,0:0:0:0:
400,132,72010,2,0,B|368:112|368:112|318:111|318:111|273:133|273:133|254:167,1,168.75,2|0,0:0|0:0,0:0:0:0:
212,344,72210,2,0,B|118:297|118:297|98:277|101:246|101:246|95:238|95:238|124:218|158:229|158:229|248:274,1,337.5,10|0,0:0|0:0,0:0:0:0:
440,280,72610,2,0,B|464:270|464:270|388:230,1,112.5,2|0,0:0|0:0,0:0:0:0:
257,159,72810,2,0,B|248:118|279:87|279:87|284:88|284:88|284:84|284:84|308:38|356:40,1,168.75,2|0,0:0|0:0,0:0:0:0:
456,108,73010,5,0,3:0:0:0:
456,108,73210,2,0,B|432:144|388:136|388:136|380:140|380:140|355:134|340:116,1,112.5,2|0,0:0|0:0,0:0:0:0:
188,56,73410,2,0,B|226:36|260:65|260:65|269:66|269:66|288:83|292:107,1,112.5,2|0,0:0|0:0,0:0:0:0:
348,256,73610,2,0,B|304:253|289:211|289:211|282:206|282:206|274:181|283:159,1,112.5,2|0,0:0|0:0,0:0:0:0:
20,64,73810,2,0,B|-4:100|12:164|52:184|52:184|96:204|96:204|90:214|90:214|100:208|100:208|116:256|116:256|120:260|120:260|116:264|116:264|108:296|108:296|100:304|100:304|108:312|108:312|128:360,1,337.5,10|0,0:0|0:0,0:0:0:0:
271,221,74210,2,0,B|289:181|334:175|334:175|257:154|180:212|199:293,1,269.999991760254
424,20,74610,6,0,B|386:80|422:136|422:136|470:200|446:272|374:300|374:300|350:408|542:436|502:220|352:280|323:322|323:322|291:362|242:360,1,742.499977340699,4|0,3:2|0:0,0:0:0:0:
120,316,75210,2,0,B|136:296|136:296|132:264|196:228|252:259,1,168.75,2|0,0:0|0:0,0:0:0:0:
368,316,75410,2,0,B|404:288|404:240|404:240|340:192|376:116|376:116|368:76|384:48,1,281.25,10|0,0:0|0:0,0:0:0:0:
377,62,75710,2,0,P|373:90|377:118,1,56.25,2|0,0:0|0:0,0:0:0:0:
280,107,75910,1,2,0:0:0:0:
280,107,76010,2,0,B|220:127|220:127|208:139|208:139|108:167,1,168.75,2|0,0:0|0:0,0:0:0:0:
20,84,76210,5,0,3:2:0:0:
20,84,76410,2,0,L|35:142,1,56.25,2|0,0:0|0:0,0:0:0:0:
108,336,76610,2,0,L|123:278,1,56.25,2|0,0:0|0:0,0:0:0:0:
280,107,76810,2,0,L|295:165,1,56.25,2|0,0:0|0:0,0:0:0:0:
308,360,77010,2,0,B|349:324|404:348|404:348|350:299|267:337|267:337|172:372|109:319|81:255|84:178|119:97|263:82|328:152|328:243,1,787.5,8|0,0:0|0:0,0:0:0:0:
220,239,77810,5,4,3:2:0:0:
220,239,78210,5,0,0:0:0:0:
220,239,78260,5,0,0:0:0:0:
220,239,78310,6,0,P|180:248|156:280,5,78.7499975967408,0|0|0|0|0|0,0:0|0:0|0:0|0:0|0:0|0:0,0:0:0:0:
270,170,78610,6,0,B|303:219|367:217|417:189|448:119|448:119|435:94|435:94|462:99|462:99|472:72|472:72|489:94|489:94|514:82|514:82|509:109|509:109|536:118|536:118|512:135|512:135|526:160|526:160|498:156|498:156|489:182|489:182|472:160|472:160|447:172|447:172|452:145|452:145|425:136|425:136|448:119|448:119|435:35|369:8|369:8|370:16|370:16|327:-12|287:-9|287:-9|296:-1|296:-1|239:-4|193:16|193:16|201:23|201:23|148:52|135:93|135:93|143:92|143:92|131:119,1,1181.24996395111,8|0,0:2|0:0,0:0:0:0:
143,282,79410,6,0,L|170:343,3,67.4999979400635,0|0|0|0,3:0|3:0|3:0|3:0,3:0:0:0:
159,182,79810,2,0,L|132:121,3,67.4999979400635,0|0|0|0,3:0|3:0|3:0|3:0,3:0:0:0:
415,270,80210,2,0,L|476:297,3,67.4999979400635,8|0|0|0,0:2|3:0|3:0|3:0,3:0:0:0:
315,286,80610,2,0,L|254:259,3,67.4999979400635,0|0|0|0,3:0|3:0|3:0|3:0,3:0:0:0:
151,70,81010,6,0,L|178:9,3,67.4999979400635,0|0|0|0,3:0|3:0|3:0|3:0,3:0:0:0:
167,170,81410,2,0,L|140:231,3,67.4999979400635,0|0|0|0,3:0|3:0|3:0|3:0,3:0:0:0:
383,62,81810,2,0,L|446:37,3,67.4999979400635,8|0|0|0,0:2|3:0|3:0|3:0,3:0:0:0:
324,144,82210,2,0,L|262:168,3,67.4999979400635,0|0|0|0,3:0|3:0|3:0|3:0,3:0:0:0:
447,278,82610,5,0,3:2:0:0:
447,278,82810,6,0,L|455:256,1,22.5,8|0,0:3|0:0,0:0:0:0:
327,302,83010,2,0,L|337:328,1,28.125,8|0,0:3|0:0,0:0:0:0:
427,178,83210,2,0,L|413:146,1,33.7499989700318,8|0,0:3|0:0,0:0:0:0:
419,366,83410,2,0,L|456:380,1,39.3749987983704,8|0,0:3|0:0,0:0:0:0:
324,144,83610,2,0,L|274:127,1,45,8|0,0:3|0:0,0:0:0:0:
72,310,83810,2,0,B|131:353|205:310|205:310|276:270|344:310,1,270,8|0,0:3|0:0,0:0:0:0:
407,54,84210,6,0,B|400:84,1,28.125,4|0,3:2|0:0,0:0:0:0:
324,144,84610,2,0,B|280:156|280:156|276:160|276:160|240:172,1,90,2|0,0:0|0:0,0:0:0:0:
187,102,84810,2,0,B|143:114|143:114|139:118|139:118|103:130,1,90,2|0,0:0|0:0,0:0:0:0:
59,230,85010,2,0,P|50:261|74:238,1,90,2|0,0:0|0:0,0:0:0:0:
199,270,85210,2,0,B|216:270|216:270|230:278|230:278|247:278|247:278|261:286|261:286|278:286|278:286|292:294|292:294|309:295|309:295|323:303|323:303|340:303|340:303|354:311|354:311|371:311|371:311|385:319|385:319|401:319|401:319|416:327|416:327|432:328|432:328|447:336|447:336|462:336|462:336|477:344,1,270,2|0,0:0|0:0,0:0:0:0:
453,336,85610,2,0,P|417:292|435:234,1,112.5,2|0,0:0|0:0,0:0:0:0:
121,44,87010,6,0,P|157:88|139:146,1,112.5,8|0,0:0|0:0,0:0:0:0:
48,232,87210,2,0,P|114:142|221:181,1,236.249992790222,2|0,0:0|0:0,0:0:0:0:
336,280,87410,6,0,B|416:256|416:256|396:256|396:256|384:244|384:244|315:219|315:219|308:220|308:220|228:192,1,269.999991760254,4|0,3:2|0:0,0:0:0:0:
208,20,87710,2,0,B|254:5|254:5|300:4|332:44,1,112.5,2|0,0:0|0:0,0:0:0:0:
440,184,87910,1,2,0:0:0:0:
360,144,88010,2,0,B|345:190|345:190|344:236|384:268,1,112.5,2|0,0:0|0:0,0:0:0:0:
48,328,88210,6,0,B|72:312|72:312|116:312|116:312|156:292|156:292|196:292|196:292|232:276|232:276|280:280|292:320,1,269.999991760254,10|0,0:0|0:0,0:0:0:0:
440,184,88510,2,0,B|461:170|460:124|460:124|445:78,1,112.5,2|0,0:0|0:0,0:0:0:0:
272,40,88710,1,2,0:0:0:0:
264,128,88810,2,0,B|269:152|236:184|236:184|193:206,1,112.5,2|0,0:0|0:0,0:0:0:0:
496,368,89010,6,0,B|512:337|481:300|481:300|445:286|445:286|416:258|416:258|374:243|374:243|343:212|343:212|314:207,1,269.999991760254,2|0,3:2|0:0,0:0:0:0:
178,98,89310,2,0,B|174:141|174:141|170:151|170:151|194:206,1,112.5,2|0,0:0|0:0,0:0:0:0:
340,312,89510,1,2,0:0:0:0:
256,284,89610,2,0,B|213:280|213:280|203:276|203:276|149:299,1,112.5,2|0,0:0|0:0,0:0:0:0:
348,88,89810,1,8,0:0:0:0:
348,88,90010,6,0,B|356:124|335:156|335:156|337:162|337:162|330:163|330:163|301:201|228:201,1,168.75,2|0,0:0|0:0,0:0:0:0:
196,141,90210,2,0,B|223:115|261:117|261:117|266:112|266:112|269:118|269:118|317:123|353:188,1,168.75,2|0,0:0|0:0,0:0:0:0:
317,246,90410,2,0,B|280:235|263:201|263:201|257:199|257:199|260:193|260:193|241:149|279:85,1,168.75,2|0,0:0|0:0,0:0:0:0:
116,36,90610,6,0,B|76:40|76:40|48:68|48:68|56:72|56:72|84:128|84:128|92:132|92:132|112:176|112:176|120:180|120:180|128:256,1,269.999991760254,4|0,3:2|0:0,0:0:0:0:
304,348,90910,2,0,B|256:320|216:336|216:336|204:328|204:328|192:340|176:344,1,134.999995880127,2|0,0:0|0:0,0:0:0:0:
28,195,91110,1,2,0:0:0:0:
114,129,91210,2,0,B|162:101|202:117|202:117|214:109|214:109|226:121|242:125,1,134.999995880127,2|0,0:0|0:0,0:0:0:0:
464,312,91410,6,0,B|472:332|472:332|492:336|492:336|480:320|480:320|476:256|476:256|480:252|480:252|480:164|480:164|484:160|484:160|484:108|484:108|448:68,1,314.999990386963,8|0,0:0|0:0,0:0:0:0:
299,18,91710,2,0,B|288:24|271:24|271:24|268:38|268:38|229:55|215:109,1,134.999995880127,2|0,0:0|0:0,0:0:0:0:
368,264,91910,1,2,0:0:0:0:
440,184,92010,2,0,B|434:173|434:156|434:156|420:152|420:152|403:114|349:99,1,134.999995880127,2|0,0:0|0:0,0:0:0:0:
136,288,92210,6,0,B|110:260|110:260|110:208|110:208|114:204|114:204|114:116|114:116|118:112|118:112|114:48|114:48|102:32|102:32|122:36|122:36|130:56,1,314.999990386963,2|0,3:2|0:0,0:0:0:0:
40,236,92510,2,0,B|40:316|40:316|36:324|36:324|76:368,1,134.999995880127,2|0,0:0|0:0,0:0:0:0:
268,224,92710,1,2,0:0:0:0:
204,320,92810,2,2,B|241:328|241:328|248:324|248:324|292:312,3,67.4999979400635
368,263,93010,2,0,B|382:201|346:141|274:125|230:153|218:193|238:225|273:224,1,270,8|0,0:2|0:0,0:0:0:0:
204,320,93410,2,0,B|171:206|271:155|367:163|383:226|344:261|287:256|268:224,1,337.5,0|0,0:2|0:0,0:0:0:0:
101,66,93810,5,0,3:0:0:0:
142,29,93910,1,0,0:0:0:0:
196,14,94010,1,0,0:0:0:0:
251,23,94110,1,0,0:0:0:0:
297,55,94210,1,0,0:0:0:0:
338,91,94310,1,0,0:0:0:0:
392,107,94410,1,0,0:0:0:0:
447,97,94510,1,0,0:0:0:0:
493,65,94610,5,8,0:0:0:0:
426,60,94710,1,0,0:0:0:0:
365,88,94810,1,0,0:0:0:0:
326,142,94910,1,0,0:0:0:0:
318,208,95010,5,0,3:0:0:0:
271,269,95110,1,0,0:0:0:0:
197,294,95210,1,0,0:0:0:0:
123,272,95310,1,0,0:0:0:0:
74,212,95410,6,0,L|20:120,1,90,0|0,3:0|0:0,0:0:0:0:
156,60,95610,2,0,L|233:14,1,90
308,140,95810,2,0,L|353:217,1,90
232,292,96010,2,0,L|154:337,1,90
79,17,96210,6,0,B|42:48|42:48|26:138,1,134.999995880127,8|0,0:0|0:0,0:0:0:0:
160,192,96410,2,0,L|151:147,1,45,0|0,3:0|0:0,0:0:0:0:
440,0,96610,6,0,B|476:31|476:31|492:121,1,134.999995880127,8|0,0:0|0:0,0:0:0:0:
359,175,96810,2,0,L|367:130,1,45,2|0,3:2|0:0,0:0:0:0:
480,378,97010,6,0,B|488:306|488:306|480:298|480:298|472:242|472:242|464:234|464:234|436:166|436:166|452:186|476:190,1,269.999991760254,4|0,3:2|0:0,0:0:0:0:
256,84,97310,2,0,B|214:74|178:98|178:98|162:102|162:102|181:105|181:105|194:118,1,134.999995880127,2|0,0:0|0:0,0:0:0:0:
324,312,97510,1,2,0:0:0:0:
358,209,97610,2,0,B|400:199|436:223|436:223|452:227|452:227|433:230|433:230|420:243,1,134.999995880127,2|0,0:0|0:0,0:0:0:0:
100,176,97810,6,0,B|37:177|0:240|0:240|20:240|20:240|86:293|144:263,1,269.999991760254,10|0,0:0|0:0,0:0:0:0:
256,84,98110,2,0,B|271:74|271:74|279:57|279:57|279:73|279:73|293:114|272:152,1,134.999995880127,2|0,0:0|0:0,0:0:0:0:
171,346,98310,1,2,0:0:0:0:
220,248,98410,2,0,B|223:230|223:230|217:212|217:212|228:223|228:223|267:243|279:284,1,134.999995880127,2|0,0:0|0:0,0:0:0:0:
492,36,98610,6,0,B|442:9|376:62|376:62|356:62|356:62|393:125|456:126,1,269.999991760254,2|0,3:2|0:0,0:0:0:0:
324,312,98910,2,0,B|348:276|348:276|352:276|352:276|356:224|356:224|352:224|352:224|380:180,1,134.999995880127,2|0,0:0|0:0,0:0:0:0:
224,36,99110,1,2,0:0:0:0:
252,140,99210,2,2,B|264:172|264:172|272:176|272:176|288:212,3,67.4999979400635
356,62,99410,1,8,0:0:0:0:
356,62,99610,6,0,B|387:75|350:87|319:83|311:44|406:-40|453:124,1,202.499993820191,2|0,0:0|0:0,0:0:0:0:
500,156,99810,2,0,P|424:160|400:260,1,180,2|0,0:0|0:0,0:0:0:0:
121,139,100210,6,0,B|153:171|141:219|141:219|133:221|133:221|105:303|105:303|133:319|133:319|149:335|149:335|153:343|161:339|161:339|189:331|189:331|219:331|219:331|257:227|257:227|260:266|293:295,1,472.499985580445,4|0,3:2|0:0,0:0:0:0:
344,220,100610,2,0,B|387:206|387:206|392:208|392:208|424:200|424:200|420:204|420:204|440:260|440:260|440:272|440:272|464:344,1,225,2|0,0:0|0:0,0:0:0:0:
274,274,100910,2,0,B|253:253|253:253|258:166,1,112.5,2|8,0:0|0:0,0:0:0:0:
132,40,101110,1,2,0:0:0:0:
84,116,101210,2,0,B|84:145|84:145|149:203,1,112.5,2|0,0:0|0:0,0:0:0:0:
244,72,101410,2,0,B|296:56|296:56|308:44|308:44|352:32|352:32|388:64|388:64|404:68|404:68|352:96|340:164|372:212,1,337.5,2|0,0:0|0:0,0:0:0:0:
487,254,101810,6,0,B|497:246|497:246|514:245|514:245|513:239|513:239|507:239|507:239|498:231|498:231|492:232|492:232|492:226|492:226|483:219|483:219|482:213|482:213|476:213|476:213|467:206|467:206|462:206|462:206|461:201|461:201|452:193|452:193|451:187|451:187|446:188|446:188|437:180|437:180|433:175|433:175|423:157|430:138|430:138|437:95|402:67,1,270,0|0,3:0|0:0,0:0:0:0:
268,148,102210,1,2,0:0:0:0:
324,218,102310,2,0,B|311:243|284:249|284:249|281:254|281:254|276:250|276:250|239:257|205:217,1,112.5,2|0,0:0|0:0,0:0:0:0:
88,128,102510,2,0,B|111:112|138:121|138:121|143:118|143:118|145:124|145:124|181:136|190:188,1,112.5,2|8,0:0|0:0,0:0:0:0:
124,368,102710,1,2,0:0:0:0:
65,302,102810,2,0,B|62:284|79:257|79:257|78:251|78:251|84:251|84:251|104:231|132:231,1,112.5,2|0,0:0|0:0,0:0:0:0:
240,24,103010,2,0,B|284:-3|333:38|333:38|343:31|343:31|376:64|424:50|424:50|420:64|420:64|432:108|404:140|344:140,1,337.5,2|0,0:0|0:0,0:0:0:0:
208,324,103410,6,0,B|152:284|152:284|240:260|240:260|244:256|244:256|248:260|248:260|337:260|337:260|345:265|345:265|351:257|351:257|416:195,1,337.499989700318,4|0,3:2|0:0,0:0:0:0:
392,217,103810,6,0,B|389:332|389:332|385:318|371:309|371:309|365:298|352:294,1,168.75,2|0,0:0|0:0,0:0:0:0:
324,140,104010,2,0,L|240:136,1,56.25,2|0,0:0|0:0,0:0:0:0:
76,316,104210,2,0,B|40:364|40:364|40:348|40:348|32:336|32:336|52:312|48:276|48:276|44:272|44:272|48:268|48:268|48:228|16:204|16:204|20:192|20:192|16:176|16:176|68:172|92:228,1,337.5,10|0,0:0|0:0,0:0:0:0:
220,228,104610,2,0,B|248:168|204:128|204:128|197:114|197:114|180:140|196:168,1,168.75,2|0,0:0|0:0,0:0:0:0:
108,48,104810,2,0,P|126:25|152:16,1,56.25,2|0,0:0|0:0,0:0:0:0:
340,232,105010,6,0,B|384:224|384:224|400:228|400:228|408:216|408:216|456:192,1,112.5,2|0,3:2|0:0,0:0:0:0:
384,80,105210,2,0,B|352:96|324:84|324:84|320:96|320:96|240:160,1,168.75,2|0,0:0|0:0,0:0:0:0:
112,128,105410,2,0,B|144:112|172:124|172:124|176:112|176:112|256:48,1,168.75,2|0,0:0|0:0,0:0:0:0:
240,192,105610,2,0,L|232:272,1,56.25,2|0,0:0|0:0,0:0:0:0:
452,312,105810,2,0,L|172:336,1,270,10|0,0:0|0:0,0:0:0:0:
154,338,106210,2,0,P|234:254|106:310,1,371.250011329651
316,244,106610,6,0,L|432:232,1,112.5,0|0,3:0|0:0,0:0:0:0:
324,84,106810,2,0,L|212:72,1,112.5,0|0,3:0|0:0,0:0:0:0:
20,192,107010,2,0,L|8:303,1,112.5,8|0,0:0|0:0,0:0:0:0:
124,236,107210,1,0,0:0:0:0:
124,236,107310,2,0,L|116:160,1,67.4999979400635,8|0,0:3|0:0,0:0:0:0:
48,52,107510,1,8,0:3:0:0:
48,52,107610,2,0,P|105:30|171:45,1,112.5,0|0,3:0|0:0,0:0:0:0:
344,160,107810,2,0,P|287:182|221:167,2,112.5,8|0|0,0:0|0:0|0:0,0:0:0:0:
272,44,108110,1,8,0:3:0:0:
272,44,108210,6,0,L|288:164,1,112.5,0|0,3:0|0:0,0:0:0:0:
124,236,108410,2,0,L|140:116,1,112.5,0|0,3:0|0:0,0:0:0:0:
356,72,108610,2,0,L|467:86,1,112.5,8|0,0:0|0:0,0:0:0:0:
388,196,108810,1,0,0:0:0:0:
388,196,108910,2,0,L|321:205,1,67.4999979400635,8|0,0:3|0:0,0:0:0:0:
240,312,109110,1,8,0:3:0:0:
240,312,109210,2,0,P|293:340|362:334,1,112.5,0|0,3:0|0:0,3:0:0:0:
212,156,109410,2,0,P|156:156|107:183,1,112.5,8|0,0:0|0:0,3:0:0:0:
98,315,109610,1,0,0:0:0:0:
98,315,109710,1,0,0:0:0:0:
178,247,109810,5,4,3:2:0:0:
256,192,109910,12,0,118185,0:0:0:0:
248,112,119610,6,0,B|192:80|136:112|136:112|76:152|0:104,2,225,2|0|0,0:0|0:0|0:0,0:0:0:0:
412,36,120810,2,0,B|442:78|402:138|402:138|370:194|402:250,2,225
248,112,121810,5,2,0:0:0:0:
248,112,122010,2,0,L|79:126,1,168.75,2|0,0:0|0:0,0:0:0:0:
45,97,122410,2,0,L|213:82,1,168.75,2|0,0:0|0:0,0:0:0:0:
320,168,122810,6,0,P|332:250|210:294,2,225,2|0|0,0:0|0:0|0:0,0:0:0:0:
168,72,124010,2,0,P|257:18|331:92,2,225
320,168,125010,5,2,0:0:0:0:
320,168,125210,2,0,L|372:328,1,168.75,2|0,0:0|0:0,0:0:0:0:
394,366,125610,2,0,L|446:205,1,168.75,2|0,0:0|0:0,0:0:0:0:
456,72,126010,6,0,B|397:101|397:101|309:77|309:77|249:109,2,225,2|0|0,0:0|0:0|0:0,0:0:0:0:
312,176,127210,2,0,B|341:235|341:235|317:323|317:323|349:383,2,225
196,40,128210,5,2,0:0:0:0:
196,40,128410,2,0,L|40:112,1,168.75,2|0,0:0|0:0,0:0:0:0:
27,153,128810,2,0,L|180:82,1,168.75,2|0,0:0|0:0,0:0:0:0:
308,44,129210,6,0,B|364:28|406:79|406:79|444:140|511:117,2,225,2|0|0,0:0|0:0|0:0,0:0:0:0:
252,216,130410,2,0,B|193:195|155:256|155:256|113:307|57:291,2,225
392,100,131410,5,2,0:0:0:0:
392,100,131610,2,0,L|324:254,1,168.75,2|0,0:0|0:0,0:0:0:0:
308,296,132010,2,0,L|240:141,1,168.75,2|0,0:0|0:0,0:0:0:0:
123,73,132410,5,2,0:0:0:0:
296,24,132610,2,0,L|428:77,1,112.5
123,73,133010,1,2,0:0:0:0:
296,116,133210,2,0,L|351:246,1,112.5
123,73,133610,1,2,0:0:0:0:
240,208,133810,2,0,L|186:338,1,112.5
356,296,134210,2,0,L|460:253,1,112.5
300,108,134610,5,2,0:0:0:0:
300,108,134810,2,0,P|221:102|181:27,1,168.75,2|0,0:0|0:0,0:0:0:0:
220,56,135210,2,0,P|180:127|100:134,1,168.75,2|0,0:0|0:0,0:0:0:0:
24,24,135610,5,2,0:0:0:0:
64,224,135810,2,0,L|86:334,1,112.5
24,24,136210,1,2,0:0:0:0:
148,184,136410,2,0,L|241:246,1,112.5
24,24,136810,1,2,0:0:0:0:
216,92,137010,2,0,L|326:70,1,112.5
432,216,137410,2,0,L|322:194,1,112.5
200,340,137810,5,2,0:0:0:0:
200,340,138010,2,0,P|188:264|96:228,1,168.75,2|0,0:0|0:0,0:0:0:0:
76,196,138410,2,0,P|138:150|228:190,1,168.75,2|0,0:0|0:0,0:0:0:0:
304,280,138810,5,2,0:0:0:0:
380,116,139010,2,0,L|426:13,1,112.5
304,280,139410,1,2,0:0:0:0:
244,108,139610,2,0,L|204:2,1,112.5
304,280,140010,1,2,0:0:0:0:
152,180,140210,2,0,L|49:133,1,112.5
188,56,140610,2,0,L|291:9,1,112.5
424,112,141010,5,2,0:0:0:0:
424,112,141210,2,0,P|456:168|400:252,1,168.75,2|0,0:0|0:0,0:0:0:0:
364,236,141610,2,0,P|332:309|381:373,1,168.75,2|0,0:0|0:0,0:0:0:0:
504,316,142010,5,2,0:0:0:0:
384,124,142210,2,0,L|306:42,1,112.5
504,316,142610,1,2,0:0:0:0:
352,219,142810,2,0,L|239:216,1,112.5
504,316,143210,1,2,0:0:0:0:
368,328,143410,1,2,0:0:0:0:
232,80,143610,5,2,0:0:0:0:
232,80,145210,6,0,B|273:110|276:172|254:220|185:224|97:221|75:139|67:46|117:-39|173:-66|269:-66|334:-39|383:51|382:124|372:183|340:223|315:256|315:256|305:281|195:331|244:422|341:441|398:382|402:279|291:259|255:259|219:280|182:325|182:325|135:379|79:339|79:339|142:332|159:276,1,1417.49995674133,6|0,3:2|0:0,0:0:0:0:
80,256,147410,5,2,0:0:0:0:
288,292,147610,2,0,L|520:308,1,202.499993820191,2|0,3:2|0:0,0:0:0:0:
450,199,148010,2,0,L|262:211,1,134.999995880127,2|0,0:0|0:0,0:0:0:0:
164,68,148410,6,0,B|169:18|111:-25|50:-17|22:82|67:119|109:179|109:179|158:241|123:318|59:342|59:342|133:370|193:322|193:322|237:283|308:286|346:335|346:335|324:269|185:282|181:152|209:68|341:34|432:134|385:204|385:204|361:133|281:141,1,1417.49995674133,6|0,3:2|0:0,0:0:0:0:
284,248,150610,5,2,0:0:0:0:
242,76,150810,2,0,L|201:274,1,202.499993820191,6|0,3:2|0:0,0:0:0:0:
89,332,151210,2,0,L|52:148,1,134.999995880127,2|0,3:2|0:0,0:0:0:0:
108,36,151610,6,0,B|276:-39|401:78|427:379|220:232|-28:50|144:358|446:410|492:-55|84:-75|24:60|48:188|100:296|164:296|309:295|329:221|335:162|335:162|344:200|380:212|400:196|400:196|408:184|408:184|432:180|432:180|480:180|484:234|484:234|492:264|492:264|456:258|456:258|407:257|404:214|404:214|395:154|444:148|444:148|492:143|517:96,1,1417.49995674133,6|0,3:2|0:0,0:0:0:0:
436,60,153810,5,2,0:0:0:0:
492,264,154010,2,0,L|298:323,1,202.499993820191,2|0,3:2|0:0,0:0:0:0:
220,248,154410,2,0,L|405:192,1,134.999995880127,2|0,0:0|0:0,0:0:0:0:
251,28,154810,6,0,B|323:16|383:63|387:127|387:127|395:179|423:223|511:231|575:211|575:135|531:87|443:91|383:143|383:143|331:219|227:223|179:181|103:155|33:117|87:-10|219:-8|235:111|146:183|146:183|71:212|41:268|59:310|116:345|175:289|131:231,1,1417.49995674133,6|0,3:2|0:0,0:0:0:0:
28,56,157010,5,2,0:0:0:0:
171,214,157210,2,0,L|252:28,1,202.499993820191,6|0,3:2|0:0,0:0:0:0:
328,107,157610,2,0,L|406:287,1,134.999995880127,6|0,3:2|0:0,0:0:0:0:
256,344,158010,6,0,B|181:378|87:333|84:248|84:248|80:324|-44:274|13:137|106:149,1,472.499985580445,6|0,3:2|0:0,0:0:0:0:
193,104,158810,2,0,L|331:106,1,134.999995880127,0|0,3:0|0:0,0:0:0:0:
464,196,159210,2,0,L|325:193,1,134.999995880127,0|0,3:0|0:0,0:0:0:0:
184,264,159610,5,0,0:0:0:0:
280,132,159810,1,0,0:0:0:0:
360,272,160010,1,0,3:0:0:0:
440,72,160210,5,2,0:0:0:0:
276,228,160410,2,0,P|273:316|370:366,1,202.499993820191,2|0,3:2|0:0,0:0:0:0:
444,316,160810,2,0,P|455:251|418:196,1,134.999995880127,2|0,0:0|0:0,0:0:0:0:
115,327,161210,6,0,B|46:372|-14:284|69:220|149:292|149:292|198:334|263:336|325:326|372:255,1,472.499985580445,6|0,0:0|0:0,0:0:0:0:
400,166,162010,2,0,P|324:158|271:196,1,134.999995880127,0|0,3:0|0:0,0:0:0:0:
96,68,162410,2,0,P|153:100|218:90,1,134.999995880127,0|0,3:0|0:0,0:0:0:0:
368,24,162810,5,0,0:0:0:0:
264,148,163010,1,0,0:0:0:0:
420,192,163210,1,0,3:0:0:0:
268,40,163410,5,2,0:0:0:0:
184,240,163610,2,0,B|151:276|87:244|87:244|91:188|143:172,1,202.499993820191,6|0,3:2|0:0,0:0:0:0:
182,107,164010,2,0,P|183:42|131:3,1,134.999995880127,2|0,3:2|0:0,0:0:0:0:
320,268,164410,6,0,B|427:323|549:212|543:94|473:57|473:57|476:120|424:140,1,472.499985580445,6|0,0:0|0:0,0:0:0:0:
328,176,165210,2,0,P|260:167|207:117,1,134.999995880127,0|0,3:0|0:0,0:0:0:0:
72,44,165610,2,0,P|28:94|20:160,1,134.999995880127,0|0,3:0|0:0,0:0:0:0:
132,280,166010,5,0,0:0:0:0:
232,152,166210,1,0,0:0:0:0:
336,276,166410,1,0,3:0:0:0:
140,188,166610,5,2,0:0:0:0:
356,160,166810,2,0,B|395:205|368:260|368:260|423:233|476:284,1,202.499993820191,2|0,3:2|0:0,0:0:0:0:
405,339,167210,2,0,P|333:340|285:279,1,134.999995880127,2|0,0:0|0:0,0:0:0:0:
92,84,167610,6,0,B|101:40|60:16|60:16|-12:52|12:156|68:192|68:192|123:225|132:320|72:366,1,472.499985580445,6|0,0:2|0:0,0:0:0:0:
8,356,168410,1,0,0:0:0:0:
128,248,168610,1,0,3:0:0:0:
252,352,168810,1,0,0:0:0:0:
320,268,169010,1,0,0:0:0:0:
320,268,169910,6,0,P|368:324|440:312,1,146.25,2|0,0:0|0:0,0:0:0:0:
473,239,170660,6,0,P|369:115|221:155,1,323.4375,2|0,0:0|0:0,0:0:0:0:
172,226,171910,6,0,P|67:250|157:97,1,404.999987640381,2|0,0:0|0:0,0:0:0:0:
279,196,173210,6,0,B|282:209|282:209|223:161,1,90,2|0,0:0|0:0,0:0:0:0:
208,28,173610,2,0,B|205:15|205:15|264:63,1,90,2|0,0:0|0:0,0:0:0:0:
252,288,174010,6,0,L|218:318,7,45,4|0|0|0|0|0|0|0,3:2|3:2|3:2|3:2|3:2|3:2|3:2|3:2,3:2:0:0:
344,308,174810,2,0,L|377:277,7,45,0|0|0|0|0|0|0|0,3:2|3:2|3:2|3:2|3:2|3:2|3:2|3:2,3:2:0:0:
348,156,175610,6,0,L|317:122,7,45,0|0|0|0|0|0|0|0,3:2|3:2|3:2|3:2|3:2|3:2|3:2|3:2,3:2:0:0:
444,144,176410,2,0,L|474:177,7,45,0|0|0|0|0|0|0|0,3:2|3:2|3:2|3:2|3:2|3:2|3:2|3:2,3:2:0:0:
464,304,177210,6,0,L|431:334,7,45,0|0|0|0|0|0|0|0,3:2|3:2|3:2|3:2|3:2|3:2|3:2|3:2,3:2:0:0:
304,348,178010,2,0,L|337:318,7,45,0|0|0|0|0|0|0|0,3:2|3:2|3:2|3:2|3:2|3:2|3:2|3:2,3:2:0:0:
328,136,178810,6,0,P|268:64|284:176,1,270
368,248,179210,2,0,L|398:281,3,45,0|0|0|0,3:2|3:2|3:2|3:2,3:2:0:0:
220,316,179610,6,0,B|217:329|217:329|276:281,1,90,2|0,0:0|3:0,0:0:0:0:
136,248,179810,2,0,B|139:235|139:235|80:283,1,90,2|0,0:0|3:0,0:0:0:0:
300,360,180010,6,0,L|312:371,1,16.875
443,140,180410,6,0,B|415:76|415:76|383:244|383:244|407:284|407:284|399:340,1,337.5,4|0,3:2|0:0,0:0:0:0:
286,306,180810,2,0,L|219:315,3,67.4999979400635,8|0|0|0,0:0|0:0|0:0|0:0,0:0:0:0:
418,230,181210,2,0,L|485:239,3,67.4999979400635,8|0|0|0,0:0|0:0|0:0|0:0,0:0:0:0:
300,128,181610,2,0,L|309:61,3,67.4999979400635,8|0|0|0,0:0|0:0|0:0|0:0,0:0:0:0:
188,240,182010,6,0,L|121:249,3,67.4999979400635,8|0|0|0,0:0|0:0|0:0|0:0,0:0:0:0:
316,340,182410,2,0,L|383:349,3,67.4999979400635,8|0|0|0,0:0|0:0|0:0|0:0,0:0:0:0:
263,168,182810,2,0,L|272:101,3,67.4999979400635,8|0|0|0,0:0|0:0|0:0|0:0,0:0:0:0:
188,300,183210,2,0,L|197:367,3,67.4999979400635,8|0|0|0,0:0|0:0|0:0|0:0,0:0:0:0:
404,196,183610,5,8,0:0:0:0:
414,164,183710,1,0,0:0:0:0:
415,130,183810,1,0,0:0:0:0:
405,98,183910,1,0,0:0:0:0:
386,70,184010,1,8,0:0:0:0:
359,50,184110,1,0,0:0:0:0:
328,38,184210,1,0,0:0:0:0:
294,37,184310,1,0,0:0:0:0:
260,46,184410,5,8,0:0:0:0:
281,84,184510,1,0,0:0:0:0:
319,109,184610,1,0,0:0:0:0:
363,113,184710,1,0,0:0:0:0:
405,98,184810,2,0,P|448:120|464:160,3,90,8|0|0|0,0:0|0:0|0:0|0:0,0:0:0:0:
240,340,185210,5,0,3:0:0:0:
240,340,185410,6,0,L|234:368,1,22.5,8|0,0:3|0:0,0:0:0:0:
356,256,185610,2,0,L|362:283,1,28.125,8|0,0:3|0:0,0:0:0:0:
200,220,185810,2,0,L|191:252,1,33.7499989700318,8|0,0:3|0:0,0:0:0:0:
360,144,186010,2,0,L|370:181,1,39.3749987983704,8|0,0:3|0:0,0:0:0:0:
184,64,186210,2,0,L|169:106,1,45,8|0,0:3|0:0,0:0:0:0:
362,283,186410,2,0,L|415:265,1,56.25,8|0,0:3|0:0,0:0:0:0:
120,176,186610,2,0,L|56:153,1,67.4999979400635,8|0,0:3|0:0,0:0:0:0:
385,62,186810,6,0,B|424:106|404:162|404:162|391:223|457:254|457:254|419:319|353:278,1,337.5,4|0,3:2|0:0,0:0:0:0:
264,232,187210,5,8,0:0:0:0:
220,223,187310,1,0,0:0:0:0:
178,238,187410,1,0,0:0:0:0:
150,272,187510,1,0,0:0:0:0:
144,316,187610,1,8,0:0:0:0:
179,342,187710,1,0,0:0:0:0:
223,347,187810,1,0,0:0:0:0:
263,327,187910,1,0,0:0:0:0:
288,291,188010,1,8,0:0:0:0:
312,254,188110,1,0,0:0:0:0:
352,234,188210,1,0,0:0:0:0:
396,239,188310,1,0,0:0:0:0:
432,266,188410,6,0,B|496:296|496:296|440:100,1,270,4|0,3:2|0:0,0:0:0:0:
344,52,188810,5,8,0:0:0:0:
300,41,188910,1,0,0:0:0:0:
258,55,189010,1,0,0:0:0:0:
231,90,189110,1,0,0:0:0:0:
227,134,189210,1,8,0:0:0:0:
204,172,189310,1,0,0:0:0:0:
164,191,189410,1,0,0:0:0:0:
120,186,189510,1,0,0:0:0:0:
86,157,189610,1,8,0:0:0:0:
89,112,189710,1,0,0:0:0:0:
117,77,189810,1,0,0:0:0:0:
159,63,189910,1,0,0:0:0:0:
202,74,190010,6,0,P|291:127|224:268,1,270,4|0,3:2|0:0,0:0:0:0:
200,360,190410,5,8,0:0:0:0:
239,381,190510,1,0,0:0:0:0:
283,383,190610,1,0,0:0:0:0:
324,366,190710,1,0,0:0:0:0:
354,332,190810,1,8,0:0:0:0:
393,310,190910,1,0,0:0:0:0:
437,308,191010,1,0,0:0:0:0:
478,325,191110,1,0,0:0:0:0:
512,355,191210,1,8,0:0:0:0:
478,325,191310,1,0,0:0:0:0:
461,284,191410,1,0,0:0:0:0:
463,239,191510,1,0,0:0:0:0:
484,200,191610,6,0,L|456:108,1,90,4|0,3:2|0:0,0:0:0:0:
364,60,191810,5,0,0:0:0:0:
356,64,191910,1,0,0:0:0:0:
347,68,192010,1,8,0:0:0:0:
311,94,192110,1,0,0:0:0:0:
267,101,192210,1,0,0:0:0:0:
224,86,192310,1,0,0:0:0:0:
194,54,192410,1,8,0:0:0:0:
158,27,192510,1,0,0:0:0:0:
114,20,192610,1,0,0:0:0:0:
71,35,192710,1,0,0:0:0:0:
41,67,192810,6,0,L|28:84,1,16.875
176,272,193210,6,0,B|239:299|278:228|278:228|233:148|137:138|77:220,1,337.5,4|0,3:2|0:0,0:0:0:0:
158,27,193610,1,4,3:2:0:0:
201,42,193710,1,8,0:0:0:0:
243,57,193810,2,8,L|144:92,1,90,8|8,0:0|0:0,0:0:0:0:
88,212,194010,1,0,3:2:0:0:
45,227,194110,1,8,0:0:0:0:
3,242,194210,2,8,L|102:277,1,90,8|8,0:0|0:0,0:0:0:0:
280,228,194410,2,0,L|238:356,1,134.999995880127,4|2,3:2|0:0,0:0:0:0:
440,152,194810,6,0,P|424:84|364:64,1,135,0|0,3:0|0:0,0:0:0:0:
337,138,195010,2,8,P|316:128|303:110,3,45
160,92,195210,1,4,3:2:0:0:
117,77,195310,1,8,0:0:0:0:
75,62,195410,2,8,L|174:27,1,90,8|8,0:0|0:0,0:0:0:0:
367,63,195610,1,0,3:2:0:0:
410,48,195710,1,8,0:0:0:0:
452,33,195810,2,8,L|353:-2,1,90,8|8,0:0|0:0,0:0:0:0:
320,172,196010,2,0,L|362:300,1,134.999995880127,4|2,3:2|0:0,0:0:0:0:
48,260,196410,5,8,0:0:0:0:
76,188,196510,1,0,3:0:0:0:
103,117,196610,2,0,L|140:28,1,78.7499975967408,0|0,3:0|3:0,3:0:0:0:
400,144,196810,5,8,0:0:0:0:
428,216,196910,1,0,3:0:0:0:
455,287,197010,2,0,L|492:376,1,78.7499975967408,0|0,3:0|3:0,3:0:0:0:
208,300,197210,6,0,L|160:288,1,39.3749987983704,10|0,0:0|0:0,0:0:0:0:
136,328,197310,2,0,L|47:365,2,78.7499975967408,0|0|0,3:0|3:0|3:0,3:0:0:0:
228,60,197610,6,0,L|266:50,1,39.3749987983704,10|0,0:0|0:0,0:0:0:0:
300,88,197710,2,0,L|389:125,2,78.7499975967408,0|0|0,3:0|3:0|3:0,3:0:0:0:
344,368,198010,5,2,3:2:0:0:
344,368,199610,6,0,L|400:308,1,67.4999979400635,10|0,0:0|0:0,0:0:0:0:
473,228,199810,2,0,L|451:254,1,33.7499989700318,2|0,3:2|0:0,0:0:0:0:
264,333,200010,2,0,L|320:273,1,67.4999979400635,10|0,0:0|0:0,0:0:0:0:
393,193,200210,2,0,L|371:219,1,33.7499989700318,2|0,3:2|0:0,0:0:0:0:
185,299,200410,2,0,L|241:239,1,67.4999979400635,10|0,0:0|0:0,0:0:0:0:
314,159,200610,2,0,L|292:185,1,33.7499989700318,0|0,3:0|0:0,0:0:0:0:
105,264,200810,2,0,L|161:204,1,67.4999979400635,10|0,0:0|0:0,0:0:0:0:
234,124,201010,2,0,L|212:150,1,33.7499989700318,2|0,3:2|0:0,0:0:0:0:
390,318,201210,6,0,L|415:348,1,39.3749987983704,6|0,3:2|0:0,0:0:0:0:
402,202,201410,2,0,L|338:143,1,73.1249966526033,8|0,0:0|0:0,0:0:0:0:
392,315,201610,6,0,L|428:359,1,45,2|0,3:2|0:0,0:0:0:0:
400,160,201810,2,0,L|322:118,1,78.7499975967408,10|0,0:0|0:0,0:0:0:0:
394,313,202010,6,0,L|435:359,1,50.6249984550477,6|0,3:2|0:0,0:0:0:0:
388,120,202210,2,0,L|297:98,1,84.3750032186509,8|0,0:0|0:0,0:0:0:0:
396,310,202410,6,0,L|443:360,1,56.25,2|0,3:2|0:0,0:0:0:0:
372,84,202610,2,0,L|273:86,1,90,10|0,0:0|0:0,0:0:0:0:
398,308,202810,6,0,L|450:360,1,61.8750018882752,6|0,3:2|0:0,0:0:0:0:
348,56,203010,2,0,L|247:85,1,95.6250018239022,8|0,0:0|0:0,0:0:0:0:
400,305,203210,6,0,L|466:368,1,67.4999979400635,2|0,3:2|0:0,0:0:0:0:
308,36,203410,2,0,L|213:93,1,101.249996910095,10|0,0:0|0:0,0:0:0:0:
402,303,203610,6,0,L|475:369,1,73.1249966526033,6|0,3:2|0:0,0:0:0:0:
264,28,203810,2,0,L|182:114,1,106.87499714613,8|0,0:0|0:0,0:0:0:0:
404,300,204010,6,0,L|487:373,1,78.7499975967408,2|0,3:2|0:0,0:0:0:0:
216,32,204210,2,0,L|156:141,1,112.5,10|0,0:0|0:0,0:0:0:0:
268,364,204410,5,14,0:0:0:0:
199,325,204510,1,0,3:0:0:0:
130,287,204610,2,0,L|39:239,1,78.7499975967408,0|0,3:0|3:0,3:0:0:0:
284,136,204810,5,14,0:0:0:0:
353,97,204910,1,0,3:0:0:0:
422,59,205010,2,0,L|513:11,1,78.7499975967408,0|0,3:0|3:0,3:0:0:0:
212,172,205210,5,14,0:0:0:0:
143,133,205310,1,0,3:0:0:0:
74,95,205410,2,0,L|-17:47,1,78.7499975967408,0|0,3:0|3:0,3:0:0:0:
304,293,205610,5,14,0:0:0:0:
373,254,205710,1,0,3:0:0:0:
442,216,205810,2,0,L|533:168,1,78.7499975967408,0|0,3:0|3:0,3:0:0:0:
232,32,206010,5,0,3:0:0:0:
388,304,207210,6,0,P|408:344|452:360,1,78.7499975967408,2|0,0:0|0:0,0:0:0:0:
512,336,207410,2,0,P|492:296|448:280,1,78.7499975967408,2|0,0:0|0:0,0:0:0:0:
209,171,207610,6,0,B|147:136|147:136|147:156|147:156|131:164|131:164|99:228|99:228|115:268|107:312|87:352|49:357,1,337.499989700318,4|0,3:2|0:2,0:2:0:0:
49,357,208010,2,0,B|39:347|32:325|32:325|38:322|38:322|32:325|32:325|30:303|30:303|24:303|24:303|30:303|30:303|34:283|34:283|40:285|40:285|34:283|34:283|43:265|43:265|37:261|37:261|43:265|43:265|56:250|56:250|60:255|60:255|56:250|56:250|73:238|73:238|70:231|70:231|73:238|73:238|92:232|92:232|94:238|94:238|92:232|92:232|112:230|112:230|114:224|114:224|112:230|112:230|132:233|132:233|130:240|130:240|132:233|132:233|152:243|152:243|154:237|154:237|152:243|152:243|167:256|167:256|162:259|162:259|167:256|167:256|178:272|178:272|183:268|183:268|178:272|178:272|185:292|185:292|179:293|179:293|185:292|185:292|186:312|186:312|193:312|193:312|186:312|186:312|183:332|183:332|176:329|176:329|183:332|183:332|174:351|174:351|179:353|179:353|174:351|174:351|160:366|160:366|156:361|156:361|160:366|160:366|136:380|116:381,1,607.499981460572,2|0,0:2|0:2,0:2:0:0:
49,83,208410,6,0,L|44:68,1,16.875,2|0,3:2|0:2,0:2:0:0:
44,68,208810,2,0,B|34:78|27:100|27:100|33:103|33:103|27:100|27:100|25:122|25:122|19:122|19:122|25:122|25:122|29:142|29:142|35:140|35:140|29:142|29:142|38:160|38:160|32:164|32:164|38:160|38:160|51:175|51:175|55:170|55:170|51:175|51:175|68:187|68:187|65:194|65:194|68:187|68:187|87:193|87:193|89:187|89:187|87:193|87:193|107:195|107:195|109:201|109:201|107:195|107:195|127:192|127:192|125:185|125:185|127:192|127:192|147:182|147:182|149:188|149:188|147:182|147:182|162:169|162:169|157:166|157:166|162:169|162:169|173:153|173:153|178:157|178:157|173:153|173:153|180:133|180:133|174:132|174:132|180:133|180:133|181:113|181:113|188:113|188:113|181:113|181:113|178:93|178:93|171:96|171:96|178:93|178:93|169:74|169:74|174:72|174:72|169:74|169:74|155:59|155:59|151:64|151:64|155:59|155:59|131:45|111:44,1,607.499981460572,2|0,0:2|0:2,0:2:0:0:
260,332,209210,6,0,L|268:348,1,16.875,2|0,3:2|0:2,0:2:0:0:
308,216,209610,2,0,B|316:201|316:201|317:193|317:193|326:196|326:196|358:199|358:199|364:204|364:204|370:199|370:199|426:210,1,112.5,2|0,0:2|0:2,0:2:0:0:
464,268,209810,2,0,B|455:282|455:282|454:290|454:290|445:287|445:287|413:284|413:284|407:279|407:279|401:284|401:284|345:273,1,112.5,2|0,0:2|0:2,0:2:0:0:
264,84,210010,6,0,B|255:69|255:69|254:61|254:61|245:64|245:64|213:67|213:67|207:72|207:72|201:67|201:67|145:78,1,112.5,2|0,3:2|0:2,0:2:0:0:
108,136,210210,2,0,B|116:150|116:150|117:158|117:158|126:155|126:155|158:152|158:152|164:147|164:147|170:152|170:152|226:141,1,112.5,2|0,0:2|0:2,0:2:0:0:
468,124,210410,2,0,B|520:133|520:133|504:140|504:140|504:144|504:144|476:160|476:160|476:164|476:164|436:180|436:180|436:184|436:184|408:196|408:196|408:200|408:200|384:212,1,202.499993820191,2|0,0:2|0:2,0:2:0:0:
398,204,210610,2,0,B|424:224|424:224|448:212,1,56.25,2|0,0:2|0:2,0:2:0:0:
176,232,210810,6,0,B|124:241|124:241|140:248|140:248|140:252|140:252|168:268|168:268|168:272|168:272|208:288|208:288|208:292|208:292|236:304|236:304|236:308|236:308|260:320,1,202.499993820191,2|0,3:2|0:2,0:2:0:0:
246,312,211010,2,0,B|220:332|220:332|196:320,1,56.25,2|0,0:2|0:2,0:2:0:0:
262,44,211210,2,0,B|268:52|284:61|284:61|287:58|287:58|284:61|284:61|298:88|298:88|304:109|314:125|314:125|322:122|322:122|314:125|314:125|318:143|318:143|310:142|310:142|318:143|318:143|318:157|318:157|325:159|325:159|318:157|318:157|311:171|311:171|306:165|306:165|311:171|311:171|298:180|298:180|303:188|303:188|298:180|298:180|284:182|284:182|283:175|283:175|284:182|284:182|267:181|267:181|265:188|265:188|267:181|267:181|253:172|253:172|257:166|257:166|253:172|253:172|242:161|242:161|233:166|233:166|242:161|242:161|237:147|237:147|245:145|245:145|237:147|237:147|239:131|239:131|234:129|234:129|239:131|239:131|248:120|248:120|254:124|254:124|248:120|248:120|262:108|262:108|257:101|257:101|262:108|262:108|279:101|298:88|298:88|323:74|323:74|322:70|322:70|323:74|323:74|341:76|355:67,1,607.499981460572,2|0,0:2|0:2,0:2:0:0:
448,300,211610,6,0,L|456:316,1,16.875,2|0,3:2|0:2,0:2:0:0:
456,316,212010,2,0,B|466:306|473:284|473:284|467:281|467:281|473:284|473:284|475:262|475:262|481:262|481:262|475:262|475:262|471:242|471:242|465:244|465:244|471:242|471:242|462:224|462:224|468:220|468:220|462:224|462:224|449:209|449:209|445:214|445:214|449:209|449:209|432:197|432:197|435:190|435:190|432:197|432:197|413:191|413:191|411:197|411:197|413:191|413:191|393:189|393:189|391:183|391:183|393:189|393:189|373:192|373:192|375:199|375:199|373:192|373:192|353:202|353:202|351:196|351:196|353:202|353:202|338:215|338:215|343:218|343:218|338:215|338:215|327:231|327:231|322:227|322:227|327:231|327:231|320:251|320:251|326:252|326:252|320:251|320:251|319:271|319:271|312:271|312:271|319:271|319:271|322:291|322:291|329:288|329:288|322:291|322:291|331:310|331:310|326:312|326:312|331:310|331:310|345:325|345:325|349:320|349:320|345:325|345:325|369:339|389:340,1,607.499981460572,2|0,0:2|0:2,0:2:0:0:
421,58,212410,6,0,L|424:41,1,16.875,2|0,3:2|0:2,0:2:0:0:
275,119,212810,2,0,B|243:118|222:146|222:146|216:146|216:146|217:152|217:152|203:175|214:213,1,134.999995880127,2|0,0:2|0:2,0:2:0:0:
336,296,213010,2,0,B|359:274|353:239|353:239|357:234|357:234|352:231|352:231|346:204|312:187,1,134.999995880127,2|0,0:2|0:2,0:2:0:0:
68,323,213210,6,0,B|32:323|10:359|10:359|16:340|16:340|6:270|56:240|56:240|64:240|64:240|60:232|60:232|60:136|128:100|128:100|138:87|138:87|134:169|186:203|208:204|208:204|214:211|214:211|224:206|224:206|258:215|314:195|314:195|314:187|314:187|322:187|322:187|357:145|424:140|468:180,1,809.999975280762,0|0,3:2|0:2,0:2:0:0:
292,369,214010,6,4,B|283:324|323:276|375:260|423:280|423:280|395:252|395:252|387:252|387:252|351:220|351:220|343:220|343:220|314:188,1,337.499989700318,4|0,3:2|0:2,3:2:0:0:
313,187,214410,2,0,B|295:179|278:185|278:185|275:178|275:178|278:185|278:185|260:192|253:209|253:209|246:207|246:207|253:209|253:209|247:229|259:245|259:245|253:248|253:248|259:245|259:245|271:261|293:260|293:260|292:268|292:268|293:260|293:260|310:259|321:249|329:238|329:238|341:222|356:212|375:214|375:214|374:206|374:206|375:214|375:214|400:215|415:235|415:235|425:229|425:229|415:235|415:235|430:255|424:280|424:280|434:283|434:283|424:280|424:280|415:302|396:311|396:311|399:321|399:321|396:311|396:311|377:318|357:311|357:311|352:320|352:320|357:311|357:311|345:307|336:301,1,607.499981460572,2|0,0:2|0:2,0:2:0:0:
84,321,214810,6,0,L|68:323,1,16.875,2|0,3:2|0:2,0:2:0:0:
67,323,215210,2,0,B|74:341|90:349|90:349|87:356|87:356|90:349|90:349|108:356|124:349|124:349|128:356|128:356|124:349|124:349|143:339|146:320|146:320|152:322|152:322|146:320|146:320|149:300|132:285|132:285|139:280|139:280|132:285|132:285|120:274|105:273|91:275|91:275|71:278|54:274|42:260|42:260|37:266|37:266|42:260|42:260|25:241|28:216|28:216|17:214|17:214|28:216|28:216|32:192|54:178|54:178|49:169|49:169|54:178|54:178|76:169|95:176|95:176|100:167|100:167|95:176|95:176|114:185|123:204|123:204|133:201|133:201|123:204|123:204|128:215|129:226,1,607.499981460572,2|0,0:2|0:2,0:2:0:0:
383,316,215610,6,0,L|399:321,1,16.875,2|0,3:2|0:2,0:2:0:0:
328,204,216010,2,0,B|334:219|316:227|301:219|304:200|312:176|340:168|376:176,1,112.5,2|0,0:2|0:2,0:2:0:0:
452,208,216210,2,0,B|445:192|463:184|478:192|476:212|468:236|440:244|404:236,1,112.5,2|0,0:2|0:2,0:2:0:0:
236,92,216410,6,0,B|242:76|224:68|209:76|212:96|220:120|248:128|284:120,1,112.5,2|0,3:2|0:2,0:2:0:0:
360,88,216610,2,0,B|353:103|371:111|386:103|384:84|376:60|348:52|312:60,1,112.5,2|0,0:2|0:2,0:2:0:0:
220,316,216810,2,0,B|240:347|240:347|278:354|278:354|288:368|288:368|294:353|294:353|309:335|309:335|314:334|314:334|336:306|336:306|334:302|334:302|355:279,1,202.499993820191,2|0,0:2|0:2,0:2:0:0:
351,284,217010,2,0,B|371:308|371:308|371:333,1,56.25,2|0,0:2|0:2,0:2:0:0:
108,128,217210,6,0,B|44:96|68:16|68:16|-24:40|-40:136|16:228|76:244|76:244|80:268|124:368|0:380|0:380|-24:276|104:264|104:264|120:344|192:388|272:376|320:348,1,1012.49996910095,0|0,3:2|0:2,0:2:0:0:
336,264,218010,6,0,L|347:252,1,16.875,2|0,3:2|0:2,0:2:0:0:
347,251,218410,2,0,B|355:233|349:216|349:216|356:213|356:213|349:216|349:216|342:198|325:191|325:191|327:184|327:184|325:191|325:191|305:185|289:197|289:197|286:191|286:191|289:197|289:197|273:209|274:231|274:231|266:230|266:230|274:231|274:231|275:248|285:259|296:267|296:267|312:279|322:294|320:313|320:313|328:312|328:312|320:313|320:313|319:338|299:353|299:353|305:363|305:363|299:353|299:353|279:368|254:362|254:362|251:372|251:372|254:362|254:362|232:353|223:334|223:334|213:337|213:337|223:334|223:334|216:315|223:295|223:295|214:290|214:290|223:295|223:295|227:283|233:274,1,607.499981460572,2|0,0:2|0:2,0:2:0:0:
88,244,218810,6,0,L|40:184,1,75,2|0,3:2|0:2,0:2:0:0:
109,151,218943,6,0,L|149:201,1,63.7500012159348,2|0,0:2|0:2,0:2:0:0:
212,161,219076,6,0,L|172:109,1,52.4999983978272,2|0,0:2|0:2,0:2:0:0:
248,87,219210,6,0,L|274:120,1,41.2500012588501,2|0,0:2|0:2,0:2:0:0:
336,76,219343,6,0,L|317:52,1,30,2|0,0:2|0:2,0:2:0:0:
384,16,219476,6,0,L|395:32,1,18.75,2|0,0:2|0:2,0:2:0:0:
180,40,219610,6,2,L|157:37,3,22.5,2|2|2|2,3:2|0:2|0:2|0:2,0:2:0:0:
312,168,220410,6,0,B|372:212|372:304|288:340|288:340|288:328|288:328|228:284|256:216,1,337.499989700318,4|0,3:2|0:2,0:2:0:0:
250,231,220810,2,0,B|227:230|214:235|214:235|213:227|213:227|214:235|214:235|200:239|190:246|190:246|194:254|194:254|190:246|190:246|177:253|166:265|166:265|160:260|160:260|166:265|166:265|165:284|159:297|159:297|168:300|168:300|159:297|159:297|152:307|138:320|138:320|128:313|128:313|138:320|138:320|126:334|96:348|96:348|128:339|145:343|145:343|142:355|142:355|145:343|145:343|166:345|176:350|176:350|182:343|182:343|176:350|176:350|188:356|201:371|201:371|198:379|198:379|201:371|201:371|216:373|232:373|232:373|230:364|230:364|232:373|232:373|244:372|257:368|257:368|260:377|260:377|257:368|257:368|272:363|290:350,1,607.499981460572,2|0,0:2|0:2,0:2:0:0:
417,146,221210,6,0,L|424:130,1,16.875,2|0,3:2|0:2,0:2:0:0:
423,130,221610,2,0,B|424:153|419:166|419:166|427:167|427:167|419:166|419:166|415:180|408:190|408:190|400:186|400:186|408:190|408:190|401:203|389:214|389:214|394:220|394:220|389:214|389:214|370:215|357:221|357:221|354:212|354:212|357:221|357:221|347:228|334:242|334:242|341:252|341:252|334:242|334:242|320:254|306:284|306:284|315:252|311:235|311:235|299:238|299:238|311:235|311:235|309:214|304:204|304:204|311:198|311:198|304:204|304:204|298:192|283:179|283:179|275:182|275:182|283:179|283:179|281:164|281:148|281:148|290:150|290:150|281:148|281:148|282:136|286:123|286:123|277:120|277:120|286:123|286:123|291:108|304:90,1,607.499981460572,2|0,0:2|0:2,0:2:0:0:
56,35,222010,6,0,L|40:31,1,16.875,2|0,3:2|0:2,0:2:0:0:
12,153,222410,2,0,B|16:184|48:189|48:189|32:177|32:177|40:181|40:181|56:181|56:181|80:189|80:189|72:181|72:181|64:189|64:189|88:181|88:181|112:189|112:189|104:181|104:181|96:189|96:189|120:181|120:181|144:189|144:189|136:181|136:181|128:189|128:189|152:181|152:181|176:189|176:189|168:181|168:181|160:189|160:189|184:181|184:181|208:189|208:189|200:181|200:181|192:189|192:189|216:181|216:181|240:189|240:189|232:181|232:181|224:189|224:189|248:181|248:181|272:189|272:189|264:181|264:181|256:189|256:189|280:181|280:181|304:189|304:189|296:181|296:181|288:189|288:189,1,607.499981460572,2|0,0:2|0:2,0:2:0:0:
400,244,222810,6,0,B|397:276|378:295|378:295|377:301|377:301|372:299|372:299|344:321|315:312,1,112.5,2|0,3:2|0:2,0:2:0:0:
352,178,223010,2,0,B|376:156|403:156|403:156|408:153|408:153|411:158|411:158|445:162|460:189,1,112.5,2|0,0:2|0:2,0:2:0:0:
200,292,223210,2,0,B|148:320|148:320|136:313|136:313|124:316|124:316|108:288|108:288|104:288|104:288|86:251|86:251|88:248|88:248|64:192,1,202.499993820191,2|0,0:2|0:2,0:2:0:0:
73,214,223410,2,0,B|52:244|52:244|60:272,1,56.25,2|0,0:2|0:2,0:2:0:0:
144,32,223610,6,0,B|200:48|200:48|204:62|204:62|214:68|214:68|206:99|206:99|209:102|209:102|195:141|195:141|192:142|192:142|169:198,1,202.499993820191,2|0,3:2|0:2,0:2:0:0:
178,176,223810,2,0,B|214:169|214:169|228:144,1,56.25,2|0,0:2|0:2,0:2:0:0:
404,16,224010,2,0,B|410:24|426:33|426:33|429:30|429:30|426:33|426:33|440:60|440:60|446:81|456:97|456:97|464:94|464:94|456:97|456:97|460:115|460:115|452:114|452:114|460:115|460:115|460:129|460:129|467:131|467:131|460:129|460:129|453:143|453:143|448:137|448:137|453:143|453:143|440:152|440:152|445:160|445:160|440:152|440:152|426:154|426:154|425:147|425:147|426:154|426:154|409:153|409:153|407:160|407:160|409:153|409:153|395:144|395:144|399:138|399:138|395:144|395:144|384:133|384:133|375:138|375:138|384:133|384:133|379:119|379:119|387:117|387:117|379:119|379:119|381:103|381:103|376:101|376:101|381:103|381:103|390:92|390:92|396:96|396:96|390:92|390:92|404:80|404:80|399:73|399:73|404:80|404:80|421:73|440:60|440:60|465:46|465:46|464:42|464:42|465:46|465:46|483:48|497:39,1,607.499981460572,2|0,0:2|0:2,0:2:0:0:
511,299,224410,6,0,L|512:316,1,16.875,2|0,3:2|0:2,0:2:0:0:
511,315,224810,2,0,B|493:328|478:333|478:333|481:342|481:342|478:333|478:333|465:337|453:338|453:338|451:329|451:329|453:338|453:338|437:338|422:336|422:336|419:344|419:344|422:336|422:336|409:321|397:315|397:315|403:308|403:308|397:315|397:315|387:310|366:308|366:308|363:320|363:320|366:308|366:308|349:304|317:313|317:313|347:299|359:285|359:285|349:278|349:278|359:285|359:285|373:272|380:262|380:262|389:265|389:265|380:262|380:262|386:249|387:230|387:230|381:225|381:225|387:230|387:230|398:218|411:211|411:211|415:219|415:219|411:211|411:211|421:204|435:200|435:200|434:192|434:192|435:200|435:200|448:195|471:196,1,607.499981460572,2|0,0:2|0:2,0:2:0:0:
240,82,225210,6,0,L|225:75,1,16.875,2|0,3:2|0:2,0:2:0:0:
376,16,225610,2,0,B|408:8|408:8|440:12|440:12|448:8|448:8|452:16|452:16|480:28|480:28|504:60,1,134.999995880127,2|0,0:2|0:2,0:2:0:0:
434,192,225810,2,0,B|402:200|402:200|370:196|370:196|362:200|362:200|358:192|358:192|330:180|330:180|306:148,1,134.999995880127,2|0,0:2|0:2,0:2:0:0:
76,40,226010,6,0,B|56:104|56:104|76:180|76:180|40:216|48:268|48:268|80:224|126:225|126:225|116:314|200:336,1,472.499985580445,0|0,3:2|0:2,0:2:0:0:
212,248,226410,2,2,P|260:204|326:209,1,134.999995880127,2|2,0:2|0:2,0:2:0:0:
484,360,226810,5,2,3:2:0:0:
420,156,227010,2,0,L|412:180,1,22.5,8|0,0:2|0:2,0:2:0:0:
388,260,227210,2,0,L|412:254,1,22.5,10|0,0:2|0:2,0:2:0:0:
492,232,227410,2,0,L|475:213,1,22.5,10|0,0:2|0:2,0:2:0:0:
324,60,227610,5,2,3:2:0:0:
252,292,227810,2,0,L|236:240,1,45,8|0,0:2|0:2,0:2:0:0:
212,164,228010,2,0,L|265:176,1,45,10|0,0:2|0:2,0:2:0:0:
344,192,228210,2,0,L|306:231,1,45,10|0,0:2|0:2,0:2:0:0:
152,380,228410,5,2,3:2:0:0:
72,124,228610,2,0,L|52:192,1,67.4999979400635,8|0,0:2|0:2,0:2:0:0:
24,280,228810,2,0,L|92:263,1,67.4999979400635,10|0,0:2|0:2,0:2:0:0:
184,244,229010,2,0,L|135:192,1,67.4999979400635,10|0,0:2|0:2,0:2:0:0:
448,56,229210,5,2,3:2:0:0:
360,340,229410,2,0,L|332:244,1,90,8|0,0:2|0:2,0:2:0:0:
300,132,229610,2,0,L|397:155,1,90,10|0,0:2|0:2,0:2:0:0:
504,196,229810,2,0,L|434:268,1,90,10|0,0:2|0:2,0:2:0:0:
159,8,230010,5,2,3:2:0:0:
159,8,230110,1,8,0:2:0:0:
159,8,230210,2,8,P|119:44|119:92,1,78.7499975967408,8|8,0:2|0:2,0:2:0:0:
204,152,230410,5,2,3:2:0:0:
204,152,230510,1,8,0:2:0:0:
204,152,230610,2,8,P|206:98|172:64,1,78.7499975967408,8|8,0:2|0:2,0:2:0:0:
96,200,230810,5,2,3:2:0:0:
96,200,230910,1,8,0:2:0:0:
96,200,231010,2,8,P|56:236|56:284,1,78.7499975967408,8|8,0:2|0:2,0:2:0:0:
216,348,231210,5,2,3:2:0:0:
216,348,231310,1,8,0:2:0:0:
216,348,231410,2,8,P|218:294|184:260,1,78.7499975967408,8|8,0:2|0:2,0:2:0:0:
392,204,231610,5,0,3:2:0:0:
392,204,231810,6,0,P|415:241|410:285,1,90,2|0,0:2|0:2,0:2:0:0:
429,367,232010,2,0,P|405:329|410:285,1,90,2|0,0:2|0:2,0:2:0:0:
415,131,232210,2,0,P|371:126|333:149,1,90,2|0,0:2|0:2,0:2:0:0:
256,280,232410,2,0,P|296:262|317:223,1,90,2|0,0:2|0:2,0:2:0:0:
239,90,232610,2,0,P|237:134|263:169,1,90,2|0,0:2|0:2,0:2:0:0:
144,364,232810,2,0,B|148:304|148:304|144:300|144:300|148:244,1,112.5,2|0,0:2|0:2,0:2:0:0:
48,184,233010,2,0,B|51:231|51:231|47:235|47:235|51:295,1,112.5,0|0,0:2|0:2,0:2:0:0:
320,356,233210,6,0,L|351:366,1,28.125,4|0,3:2|0:0,0:0:0:0:
416,292,233610,2,0,L|405:295,1,11.25,6|0,0:3|0:0,0:0:0:0:
388,216,233810,2,0,L|377:219,1,11.25,2|0,0:0|0:0,0:0:0:0:
280,168,234010,2,0,L|300:180,2,22.5,2|0|4,0:0|0:0|0:3,0:0:0:0:
212,260,234610,2,0,L|209:271,1,11.25,2|0,0:0|0:0,0:0:0:0:
176,344,234810,5,2,0:0:0:0:
176,344,235010,2,0,L|173:333,1,11.25,2|0,0:0|0:0,0:0:0:0:
120,268,235210,2,0,L|117:279,1,11.25,6|0,0:3|0:0,0:0:0:0:
68,348,235410,2,0,L|65:337,1,11.25,2|0,0:0|0:0,0:0:0:0:
28,232,235610,2,0,L|38:199,1,33.75,2|0,0:0|0:0,0:0:0:0:
181,23,236010,6,0,L|147:139,1,112.5,8|0,0:0|0:0,0:0:0:0:
56,156,236210,2,0,B|24:96|24:96|197:144,1,236.249992790222,2|0,0:0|0:0,0:0:0:0:
228,268,236410,6,0,B|304:284|373:270|492:56|160:-44|136:228|213:290|297:310|417:298|461:230|457:142|425:82|373:54|373:54|424:64|453:10,1,742.499977340699,4|0,3:2|0:0,0:0:0:0:
296,36,237010,2,0,B|272:24|272:24|264:29|264:29|223:20|180:49,1,112.5,2|0,0:0|0:0,0:0:0:0:
80,240,237210,2,0,B|104:272|104:272|108:312|108:312|112:292|112:292|124:278|124:278|140:232|140:232|144:232|144:232|172:160,2,225,10|0|0,0:0|0:0|0:0,0:0:0:0:
12,24,237810,2,0,B|21:57|-10:35|-24:12|-2:-15|96:-5|64:124,1,168.75,2|0,0:0|0:0,0:0:0:0:
8,172,238010,5,0,3:0:0:0:
8,172,238210,2,0,L|80:160,1,56.25,2|0,0:0|0:0,0:0:0:0:
167,321,238410,2,0,L|111:311,1,56.25,2|0,0:0|0:0,0:0:0:0:
140,112,238610,2,0,L|212:100,1,56.25,2|0,0:0|0:0,0:0:0:0:
413,312,238810,2,0,B|485:340|485:340|436:201|436:201|429:200|429:200|412:156|369:152|369:152|381:96|338:66|338:66|355:149|293:196|293:196|332:284|240:357|163:319,1,787.5,10|0,0:0|0:0,0:0:0:0:
224,100,239610,6,0,B|144:92|144:92|140:88|140:88|32:124|32:124|88:48|31:-12,1,337.499989700318,4|0,3:2|0:0,0:0:0:0:
39,0,240010,2,0,B|1:25|-7:61|-7:61|-14:65|-14:65|-7:70|-7:70|-8:115|29:152,1,168.75,2|0,0:0|0:0,0:0:0:0:
154,175,240210,2,0,B|173:177|173:177|185:169|185:169|227:93,1,112.5,2|0,0:0|0:0,0:0:0:0:
444,60,240410,2,0,B|484:80|476:132|476:132|468:132|468:132|436:164|448:208|448:208|440:216|440:216|408:304|476:364,1,337.5,10|0,0:0|0:0,0:0:0:0:
336,316,240810,2,0,B|320:320|304:308|304:308|256:324|228:304,1,112.5,2|0,0:0|0:0,0:0:0:0:
105,268,241010,2,0,B|69:256|69:256|85:236|85:236|85:212|85:212|117:168|165:176,1,168.75,2|0,0:0|0:0,0:0:0:0:
288,176,241210,5,0,3:0:0:0:
288,176,241410,2,0,B|284:120|284:120|280:116|280:116|277:64,1,112.5,2|0,0:0|0:0,0:0:0:0:
144,32,241610,2,0,B|140:88|140:88|136:92|136:92|133:143,1,112.5,2|0,0:0|0:0,0:0:0:0:
266,266,241810,2,0,B|318:262|318:262|326:266|326:266|330:258|330:258|374:222,1,112.5,2|0,0:0|0:0,0:0:0:0:
133,142,242010,2,0,B|49:171|49:171|5:171|5:171|25:203|65:199|65:199|93:259|65:319|9:335,1,337.5,10|0,0:0|0:0,0:0:0:0:
266,266,242410,2,0,B|307:285|345:247|332:196|259:166|187:203|146:304|210:369,1,337.5
424,288,242810,6,0,P|436:208|397:145,1,135,0|0,3:0|0:0,0:0:0:0:
356,92,243010,2,0,P|332:112|327:147,2,45
181,223,243210,1,0,0:0:0:0:
136,226,243310,1,0,0:0:0:0:
97,205,243410,1,0,0:0:0:0:
74,167,243510,1,0,0:0:0:0:
75,122,243610,2,0,L|51:31,1,90,8|0,0:0|0:0,0:0:0:0:
36,256,243810,5,0,0:0:0:0:
38,311,243910,1,0,0:0:0:0:
69,357,244010,1,0,0:0:0:0:
120,380,244110,1,0,0:0:0:0:
175,373,244210,1,0,0:0:0:0:
218,338,244310,1,0,0:0:0:0:
236,285,244410,6,0,B|292:268|292:268|360:280,1,112.5,0|0,3:0|0:0,0:0:0:0:
454,269,244610,2,2,B|398:286|398:286|330:274,2,112.5
192,200,245210,2,0,B|248:183|248:183|301:192,1,112.5,10|0,0:0|0:0,0:0:0:0:
376,356,245410,2,0,B|320:373|320:373|266:363,1,112.5,2|0,0:0|0:0,0:0:0:0:
108,336,245610,2,8,L|113:302,2,33.7499989700318,10|8|8,0:3|0:3|0:3,0:3:0:0:
68,180,245810,1,8,0:3:0:0:
60,168,245910,1,8,0:3:0:0:
52,156,246010,6,0,B|24:88|24:88|56:124|120:140|160:116|160:116|168:124|168:124|216:88|288:128,1,337.499989700318,4|0,3:2|0:0,0:0:0:0:
266,117,246410,2,0,B|252:136|252:136|248:172|248:172|256:208|256:208|284:236,1,112.5,2|0,0:0|0:0,0:0:0:0:
416,260,246610,2,0,B|460:276|460:276|416:296|416:296|412:304|412:304|404:300|404:300|340:332,1,168.75,2|0,0:0|0:0,0:0:0:0:
220,292,246810,2,0,B|88:256|88:256|92:264|92:264|64:304|64:304|44:328|-32:256|48:184,1,337.5,10|0,0:0|0:0,0:0:0:0:
106,104,247210,2,0,B|176:60|265:118|265:118|268:100|268:100|352:160|442:92,1,337.5,2|0,0:0|0:0,0:0:0:0:
476,52,247610,6,0,P|498:-2|459:41,1,168.750006437302,2|0,3:2|0:0,0:0:0:0:
348,160,248010,2,0,B|308:204|296:280|348:344|420:332|452:288|436:220|380:208|328:224,1,337.5,2|0,0:0|0:0,0:0:0:0:
228,136,248410,2,0,P|153:113|224:148,1,225,10|0,0:0|0:0,0:0:0:0:
398,279,248810,2,0,B|416:319|461:325|461:325|384:346|307:288|326:207,1,269.999991760254
168,16,249210,6,0,B|96:-12|32:32|32:32|92:36|104:96|104:96|80:152|80:152|116:188|100:240|100:240|64:260|64:300|64:300|52:308|52:308|116:376|192:356|232:296|208:212,1,742.499977340699,4|0,3:2|0:0,0:0:0:0:
280,116,249810,2,0,B|344:108|344:108|348:112|348:112|404:144,1,112.5,2|0,0:0|0:0,0:0:0:0:
464,344,250010,2,0,B|484:260|484:260|488:208|440:188|440:188|368:224|400:292,1,281.25,10|0,0:0|0:0,0:0:0:0:
392,269,250310,2,0,P|391:242|403:216,1,56.25,2|0,0:0|0:0,0:0:0:0:
304,340,250510,1,2,0:0:0:0:
304,340,250610,2,0,B|209:291|209:291|204:300|204:300|148:324,1,168.75,2|0,0:0|0:0,0:0:0:0:
48,240,250810,5,0,3:0:0:0:
48,240,251010,2,0,L|105:264,1,56.25,2|0,0:0|0:0,0:0:0:0:
200,84,251210,2,0,L|148:105,1,56.25,2|0,0:0|0:0,0:0:0:0:
276,256,251410,2,0,L|333:280,1,56.25,2|0,0:0|0:0,0:0:0:0:
481,119,251610,2,0,B|557:51|469:-57|385:55|464:119|464:119|518:206|473:278|415:317|338:328|257:305|213:168|272:93|360:76,1,787.5,8|0,0:0|0:0,0:0:0:0:
376,182,252410,5,4,3:2:0:0:
376,182,252810,5,0,0:0:0:0:
376,182,252860,5,0,0:0:0:0:
376,182,252910,6,0,P|367:222|335:246,5,78.7499975967408,0|0|0|0|0|0,0:0|0:0|0:0|0:0|0:0|0:0,0:0:0:0:
285,81,253210,6,0,B|285:82|296:60|278:20|278:20|266:32|266:32|248:16|208:24|208:24|215:36|215:36|194:48|190:88|190:88|203:83|203:83|208:110|247:124|247:124|246:111|246:111|272:115|298:91|298:91|318:80|337:91|337:91|337:97|337:97|337:91|337:91|354:88|354:88|353:79|353:79|354:88|354:88|380:87|380:87|380:95|380:95|380:87|380:87|405:90|405:90|408:84|408:84|405:90|405:90|428:101|428:101|424:109|424:109|428:101|428:101|447:117|447:117|453:112|453:112|447:117|447:117|461:137|461:137|455:140|455:140|461:137|461:137|471:161|471:161|478:160|478:160|471:161|471:161|473:184|473:184|466:185|466:185|473:184|473:184|469:208|469:208|476:212|476:212|469:208|469:208|458:233|458:233|451:228|451:228|458:233|458:233|442:252|442:252|448:256|448:256|442:252|442:252|422:265|422:265|419:258|419:258|422:265|422:265|399:275|399:275|402:284|402:284|399:275|399:275|374:277|374:277|374:269|374:269|374:277|374:277|350:273|350:273|348:281|348:281|350:273|350:273|328:263|328:263|332:257|332:257|328:263|328:263|308:248|308:248|302:252|302:252|308:248|308:248|293:226|293:226|301:224|301:224|293:226|293:226|285:208|294:179,1,1181.24996395111,8|0,0:0|0:0,0:0:0:0:
407,84,254010,6,0,P|443:60|487:68,3,67.4999979400635,0|0|0|0,3:0|3:0|3:0|3:0,3:0:0:0:
351,161,254410,2,0,P|325:181|291:185,3,67.4999979400635,0|0|0|0,3:0|3:0|3:0|3:0,3:0:0:0:
48,60,254810,2,0,P|56:17|93:-7,3,67.4999979400635,8|0|0|0,0:0|3:0|3:0|3:0,3:0:0:0:
62,154,255210,2,0,P|58:187|37:212,3,67.4999979400635,0|0|0|0,3:0|3:0|3:0|3:0,3:0:0:0:
296,300,255610,6,0,P|338:308|363:345,3,67.4999979400635,0|0|0|0,3:0|3:0|3:0|3:0,3:0:0:0:
201,314,256010,2,0,P|167:310|142:289,3,67.4999979400635,0|0|0|0,3:0|3:0|3:0|3:0,3:0:0:0:
344,112,256410,2,0,P|367:76|360:31,3,67.4999979400635,8|0|0|0,0:0|3:0|3:0|3:0,3:0:0:0:
267,168,256810,2,0,P|246:193|242:227,3,67.4999979400635,0|0|0|0,3:0|3:0|3:0|3:0,3:0:0:0:
480,364,257210,5,0,3:0:0:0:
480,364,257410,6,0,L|485:342,1,22.5,8|0,0:3|0:0,0:0:0:0:
372,288,257610,2,0,L|365:260,1,28.125,8|0,0:3|0:0,0:0:0:0:
460,128,257810,2,0,L|468:96,1,33.7499989700318,8|0,0:3|0:0,0:0:0:0:
268,56,258010,2,0,L|260:17,1,39.3749987983704,8|0,0:3|0:0,0:0:0:0:
228,268,258210,2,0,L|216:320,1,45,8|0,0:3|0:0,0:0:0:0:
28,0,258410,2,0,B|-15:59|28:133|28:133|68:204|28:272,1,270,8|0,0:3|0:0,0:0:0:0:
4,340,258810,5,4,3:2:0:0:
256,192,258910,12,0,269010,0:0:0:0:
152,248,269185,6,0,L|296:294,1,135,2|0,0:0|0:0,0:0:0:0:
348,312,269659,1,0,0:0:0:0:
304,176,270133,1,0,0:0:0:0:
348,40,270607,1,0,0:0:0:0:
212,84,271082,1,0,0:0:0:0:
76,40,271556,1,0,0:0:0:0:
152,248,272030,6,0,L|213:128,1,135,2|0,0:0|0:0,0:0:0:0:
248,64,272496,1,0,0:0:0:0:
316,192,272963,1,0,0:0:0:0:
252,320,273430,1,0,0:0:0:0:
380,384,273897,1,0,0:0:0:0:
508,320,274364,1,0,0:0:0:0:
408,120,274831,6,0,L|346:239,1,135,2|0,0:0|0:0,0:0:0:0:
308,300,275285,1,0,0:0:0:0:
244,172,275740,1,0,0:0:0:0:
144,364,276194,2,0,L|103:236,1,135,2|0,0:0|0:0,0:0:0:0:
80,164,276649,1,0,0:0:0:0:
124,28,277103,1,0,0:0:0:0:
332,96,277558,6,0,L|204:137,1,135,2|0,0:0|0:0,0:0:0:0:
136,160,278009,1,0,0:0:0:0:
272,204,278460,1,0,0:0:0:0:
136,248,278911,2,0,L|95:376,1,135,2|0,0:0|0:0,0:0:0:0:
132,376,279362,2,0,L|260:335,1,135,2|0,0:0|0:0,0:0:0:0:
296,328,279813,2,0,L|424:369,1,135,2|0,0:0|0:0,0:0:0:0:
472,316,280264,6,0,L|431:188,1,135,2|0,0:0|0:0,0:0:0:0:
408,120,280713,1,0,0:0:0:0:
280,188,281162,1,0,0:0:0:0:
238,59,281584,1,2,0:0:0:0:
238,59,281612,2,0,L|110:18,1,135,2|0,0:0|0:0,0:0:0:0:
40,0,282061,1,0,0:0:0:0:
84,136,282511,1,0,0:0:0:0:
16,340,282960,6,0,L|144:299,1,135,2|0,0:0|0:0,0:0:0:0:
212,280,283408,1,0,0:0:0:0:
348,324,283857,1,0,0:0:0:0:
412,196,284305,1,0,0:0:0:0:
480,324,284754,1,0,0:0:0:0:
288,224,285202,2,0,L|168:285,1,135,2|0,0:0|0:0,0:0:0:0:
132,220,285623,1,2,0:0:0:0:
132,220,285651,6,0,L|193:100,1,135,2|0,0:0|0:0,0:0:0:0:
228,36,286095,1,0,0:0:0:0:
356,100,286539,2,0,L|417:220,1,135,2|0,0:0|0:0,0:0:0:0:
452,284,286984,1,0,0:0:0:0:
324,352,287428,1,0,0:0:0:0:
132,252,287873,1,2,0:0:0:0:
166,354,288095,1,2,0:0:0:0:
212,216,288317,6,0,L|253:88,1,135,2|0,0:0|0:0,0:0:0:0:
276,20,288762,1,0,0:0:0:0:
140,64,289206,1,0,0:0:0:0:
245,97,289428,1,2,0:0:0:0:
212,200,289651,2,0,L|253:328,1,135,2|0,0:0|0:0,0:0:0:0:
232,356,290095,2,0,L|104:315,1,135,2|0,0:0|0:0,0:0:0:0:
76,292,290539,2,0,L|204:251,1,135,2|0,0:0|0:0,0:0:0:0:
260,200,290984,6,0,L|301:72,1,135,2|0,0:0|0:0,0:0:0:0:
324,4,291421,1,0,0:0:0:0:
368,140,291859,1,0,0:0:0:0:
496,72,292297,1,0,0:0:0:0:
452,208,292735,1,0,0:0:0:0:
496,344,293173,1,0,0:0:0:0:
288,280,293584,1,2,0:0:0:0:
288,280,293611,6,0,L|160:321,1,135,2|0,0:0|0:0,0:0:0:0:
88,340,294049,1,0,0:0:0:0:
132,204,294487,1,0,0:0:0:0:
88,68,294925,1,0,0:0:0:0:
224,24,295363,1,0,0:0:0:0:
180,160,295801,1,0,0:0:0:0:
352,252,296239,6,0,L|414:133,1,135,2|0,0:0|0:0,0:0:0:0:
444,68,296670,1,0,0:0:0:0:
512,196,297102,1,0,0:0:0:0:
404,384,297533,2,0,L|285:322,1,135,2|0,0:0|0:0,0:0:0:0:
220,284,297965,1,0,0:0:0:0:
92,352,298397,1,0,0:0:0:0:
188,160,298828,6,0,L|315:119,1,135,2|0,0:0|0:0,0:0:0:0:
388,100,299264,1,0,0:0:0:0:
252,56,299700,1,0,0:0:0:0:
48,124,300109,1,2,0:0:0:0:
48,124,300137,2,0,L|7:251,1,135,2|0,0:0|0:0,0:0:0:0:
32,276,300573,2,0,L|159:235,1,135,2|0,0:0|0:0,0:0:0:0:
196,244,301009,2,0,L|323:284,1,135,2|0,0:0|0:0,0:0:0:0:
392,256,301446,6,0,L|351:128,1,135,2|0,0:0|0:0,0:0:0:0:
332,60,301882,1,0,0:0:0:0:
196,104,302318,1,0,0:0:0:0:
248,256,302755,1,0,0:0:0:0:
88,340,303191,1,0,0:0:0:0:
28,152,303628,1,0,0:0:0:0:
220,248,304064,5,2,0:0:0:0:
220,248,304091,2,0,L|339:309,1,135,2|0,0:0|0:0,0:0:0:0:
476,324,304537,2,2,B|472:336|472:336|464:332|464:332|428:336|428:336|396:364,1,89.999997253418,2|2,0:0|0:0,0:0:0:0:
403,357,304791,1,2,0:0:0:0:
388,248,304937,1,0,0:0:0:0:
432,112,305373,1,0,0:0:0:0:
296,68,305809,1,0,0:0:0:0:
92,136,306246,2,0,L|221:177,1,135,2|0,0:0|0:0,0:0:0:0:
252,244,306655,1,2,0:0:0:0:
252,244,306682,6,0,L|123:285,1,135,2|0,0:0|0:0,0:0:0:0:
72,336,307119,2,0,B|66:317|46:336|60:363|95:371|145:354,1,90,2|0,0:0|0:0,0:0:0:0:
236,332,307557,2,0,L|365:291,1,135,2|0,0:0|0:0,0:0:0:0:
432,268,307995,1,0,0:0:0:0:
296,224,308433,1,0,0:0:0:0:
392,32,308871,1,2,0:0:0:0:
441,127,309090,1,2,0:0:0:0:
288,44,309364,6,0,L|167:106,1,135,2|0,0:0|0:0,0:0:0:0:
104,140,309818,1,0,0:0:0:0:
232,208,310273,1,0,0:0:0:0:
136,258,310500,1,2,0:0:0:0:
256,320,310727,5,2,0:0:0:0:
256,320,310847,2,2,B|304:344,4,45
340,320,311177,1,2,0:0:0:0:
384,344,311267,2,2,B|426:329|426:329|463:276,1,90
457,199,311507,2,2,B|415:214|415:214|378:267,1,90
486,278,311717,1,2,0:0:0:0:
486,278,311837,2,0,L|453:189,1,84.3749974250794,2|0,0:0|0:0,0:0:0:0:
388,132,312167,6,0,L|332:284,1,135,2|0,0:0|0:0,0:0:0:0:
312,332,312650,1,0,0:0:0:0:
237,172,312863,2,2,L|252:214,2,45
237,228,313137,6,0,L|181:76,1,135
164,80,313632,2,0,L|108:232,1,135
96,236,314136,2,0,L|40:84,1,135
24,40,314642,1,0,0:0:0:0:
232,112,315086,1,2,0:0:0:0:
232,112,315150,6,0,L|384:168,1,135,2|0,0:0|0:0,0:0:0:0:
380,180,315650,2,0,L|253:226,1,135
228,244,316216,2,0,L|354:290,1,135
380,300,316913,2,0,L|253:346,1,135
188,308,317822,6,0,L|248:144,1,174.375,2|0,0:0|0:0,0:0:0:0:
250,134,325658,6,0,B|251:142|251:142|244:149|244:149|245:157|245:157|239:164|239:164|240:172|240:172|233:179|233:179|234:187|234:187|228:194|228:194|229:203|229:203|222:209|222:209|223:218|223:218|217:224|217:224|218:233|218:233|211:239|211:239|212:248|212:248|206:254|206:254|207:263|207:263|200:269|200:269|201:278|201:278|195:284|195:284|196:293|196:293|189:299|189:299|190:308|190:308|184:314|184:314|185:323|185:323|178:329|178:329,5,225
256,192,327308,12,0,328958,0:0:0:0:
