osu file format v14

[General]
AudioFilename: audio.mp3
AudioLeadIn: 0
PreviewTime: 108907
Countdown: 0
SampleSet: Soft
StackLeniency: 0.7
Mode: 0
LetterboxInBreaks: 0
WidescreenStoryboard: 0

[Editor]
Bookmarks: 43476,60028,71062,82097,93131,102787,111062,122097,133131,144166,149683,155200,177269,188304,199338,210373,221407,232442,243476,253131,266924,277959,288993,300028,302139
DistanceSpacing: 0.71
BeatDivisor: 4
GridSize: 16
TimelineZoom: 1.4

[Metadata]
Title:Overkill
TitleUnicode:Overkill
Artist:RIOT
ArtistUnicode:RIOT
Creator:Xen
Version:Noble
Source:
Tags:drumstep monstercat uncaged vol. 6 english drum and bass dnb beat saber beatsaber weareriot cut xenon- xehn
BeatmapID:2076261
BeatmapSetID:992847

[Difficulty]
HPDrainRate:5
CircleSize:4.2
OverallDifficulty:8.2
ApproachRate:9
SliderMultiplier:1
SliderTickRate:1

[Events]
//Background and Video events
0,0,"bg.jpg",0,0
//Break Periods
//Storyboard Layer 0 (Background)
//Storyboard Layer 1 (Fail)
//Storyboard Layer 2 (Pass)
//Storyboard Layer 3 (Foreground)
//Storyboard Layer 4 (Overlay)
//Storyboard Sound Samples

[TimingPoints]
4856,344.827586206897,4,2,2,40,1,0
43476,-250,4,2,2,40,0,0
60028,-76.9230769230769,4,2,2,60,0,0
63993,-100,4,2,2,60,0,0
65545,-76.9230769230769,4,2,2,60,0,0
68993,-58.8235294117647,4,2,2,60,0,0
71407,-76.9230769230769,4,2,2,60,0,0
76321,-76.9230769230769,4,2,2,5,0,0
76407,-76.9230769230769,4,2,2,60,0,0
78562,-76.9230769230769,4,2,2,5,0,0
78648,-76.9230769230769,4,2,2,60,0,0
80718,-66.6666666666667,4,2,2,60,0,0
82700,-66.6666666666667,4,2,2,5,0,0
82787,-66.6666666666667,4,2,2,60,0,0
85459,-66.6666666666667,4,2,2,5,0,0
85546,-66.6666666666667,4,2,2,60,0,0
90373,-52.6315789473684,4,2,2,60,0,0
91062,-45.4545454545455,4,2,2,60,0,0
92097,-58.8235294117647,4,2,2,60,0,0
93131,-58.8235294117647,4,2,2,70,0,0
101407,-40,4,2,2,70,0,0
102787,-58.8235294117647,4,2,2,70,0,0
104166,-76.9230769230769,4,2,2,70,0,0
104424,-76.9230769230769,4,2,2,5,0,0
104511,-76.9230769230769,4,2,2,70,0,0
104769,-76.9230769230769,4,2,2,5,0,0
104856,-76.9230769230769,4,2,2,70,0,0
105200,-100,4,2,2,70,0,0
106192,-100,4,2,2,5,0,0
106235,-100,4,2,2,70,0,0
106580,-76.9230769230769,4,2,2,70,0,0
107571,-76.9230769230769,4,2,2,5,0,0
107614,-76.9230769230769,4,2,2,70,0,0
107959,-66.6666666666667,4,2,2,70,0,0
108993,-58.8235294117647,4,2,2,70,0,0
109080,-58.8235294117647,4,2,2,5,0,0
109166,-58.8235294117647,4,2,2,70,0,0
109252,-58.8235294117647,4,2,2,5,0,0
109338,-58.8235294117647,4,2,2,70,0,0
109424,-58.8235294117647,4,2,2,5,0,0
109510,-58.8235294117647,4,2,2,70,0,0
109597,-58.8235294117647,4,2,2,5,0,0
109683,-83.3333333333333,4,2,2,70,0,0
111062,-50,4,2,3,80,0,1
112011,-50,4,2,3,5,0,1
112097,-50,4,2,3,80,0,1
118562,-50,4,2,3,5,0,1
118648,-50,4,2,3,80,0,1
119597,-50,4,2,3,5,0,1
119683,-50,4,2,3,80,0,1
121666,-50,4,2,3,5,0,1
121752,-50,4,2,3,80,0,1
122442,-58.8235294117647,4,2,3,80,0,1
122787,-50,4,2,3,80,0,1
123045,-50,4,2,3,5,0,1
123131,-50,4,2,3,80,0,1
128993,-58.8235294117647,4,2,3,80,0,1
129252,-58.8235294117647,4,2,3,5,0,1
129338,-58.8235294117647,4,2,3,80,0,1
131149,-58.8235294117647,4,2,3,5,0,1
131235,-58.8235294117647,4,2,3,80,0,1
131321,-58.8235294117647,4,2,3,5,0,1
131407,-58.8235294117647,4,2,3,80,0,1
131493,-58.8235294117647,4,2,3,5,0,1
131579,-58.8235294117647,4,2,3,80,0,1
131666,-58.8235294117647,4,2,3,5,0,1
131752,-58.8235294117647,4,2,3,80,0,1
132097,-83.3333333333333,4,2,3,80,0,1
132700,-83.3333333333333,4,2,3,5,0,1
132787,-45.4545454545455,4,2,3,80,0,1
133131,-50,4,2,3,80,0,1
140631,-50,4,2,3,5,0,1
140717,-50,4,2,3,80,0,1
141666,-50,4,2,3,5,0,1
141752,-50,4,2,3,80,0,1
143735,-50,4,2,3,5,0,1
143821,-50,4,2,3,80,0,1
144511,-58.8235294117647,4,2,3,80,0,1
144597,-58.8235294117647,4,2,3,5,0,1
144683,-58.8235294117647,4,2,3,80,0,1
144769,-58.8235294117647,4,2,3,5,0,1
144856,-50,4,2,3,80,0,1
145114,-50,4,2,3,5,0,1
145200,-50,4,2,3,80,0,1
148993,-40,4,2,3,80,0,1
149683,-50,4,2,3,80,0,1
149942,-50,4,2,3,5,0,1
150028,-50,4,2,3,80,0,1
150631,-50,4,2,3,5,0,1
150717,-50,4,2,3,80,0,1
152700,-50,4,2,3,5,0,1
152786,-50,4,2,3,80,0,1
154511,-58.8235294117647,4,2,3,80,0,1
155200,-66.6666666666667,4,2,2,60,0,0
163390,-66.6666666666667,4,2,2,5,0,0
163476,-66.6666666666667,4,2,2,60,0,0
166149,-66.6666666666667,4,2,2,5,0,0
166235,-66.6666666666667,4,2,2,60,0,0
174424,-66.6666666666667,4,2,2,5,0,0
174510,-66.6666666666667,4,2,2,60,0,0
177183,-66.6666666666667,4,2,2,5,0,0
177269,-100,4,2,2,45,0,0
177614,-100,4,2,2,30,0,0
180718,-100,4,2,2,35,0,0
182614,-62.5,4,2,2,45,0,0
182787,-83.3333333333333,4,2,2,45,0,0
187614,-50,4,2,2,45,0,0
188304,-58.8235294117647,4,2,2,60,0,0
191321,-58.8235294117647,4,2,2,5,0,0
191407,-58.8235294117647,4,2,2,60,0,0
199338,-76.9230769230769,4,2,2,60,0,0
200028,-66.6666666666667,4,2,2,60,0,0
200976,-66.6666666666667,4,2,2,5,0,0
201062,-66.6666666666667,4,2,2,60,0,0
202528,-66.6666666666667,4,2,2,5,0,0
202614,-66.6666666666667,4,2,2,60,0,0
203735,-66.6666666666667,4,2,2,5,0,0
203821,-66.6666666666667,4,2,2,60,0,0
204856,-76.9230769230769,4,2,2,60,0,0
205546,-66.6666666666667,4,2,2,60,0,0
208907,-66.6666666666667,4,2,2,5,0,0
208993,-66.6666666666667,4,2,2,60,0,0
210373,-125,4,2,2,30,0,0
211407,-125,4,2,2,45,0,0
211560,-125,4,2,2,60,0,0
211580,-86.9565217391304,4,2,2,60,0,0
213131,-58.8235294117647,4,2,2,60,0,0
215114,-58.8235294117647,4,2,2,5,0,0
215200,-58.8235294117647,4,2,2,60,0,0
217873,-58.8235294117647,4,2,2,5,0,0
217959,-58.8235294117647,4,2,2,60,0,0
219597,-58.8235294117647,4,2,2,5,0,0
219683,-58.8235294117647,4,2,2,60,0,0
221062,-47.6190476190476,4,2,2,60,0,0
221407,-58.8235294117647,4,2,2,60,0,0
229424,-58.8235294117647,4,2,2,5,0,0
229510,-58.8235294117647,4,2,2,60,0,0
232442,-76.9230769230769,4,2,2,50,0,0
236149,-76.9230769230769,4,2,2,5,0,0
236235,-76.9230769230769,4,2,2,50,0,0
236580,-66.6666666666667,4,2,2,50,0,0
238907,-66.6666666666667,4,2,2,5,0,0
238993,-66.6666666666667,4,2,2,50,0,0
242097,-125,4,2,2,50,0,0
243476,-58.8235294117647,4,2,2,70,0,0
243735,-58.8235294117647,4,2,2,5,0,0
243821,-58.8235294117647,4,2,2,70,0,0
244252,-58.8235294117647,4,2,2,5,0,0
244338,-58.8235294117647,4,2,2,70,0,0
245631,-58.8235294117647,4,2,2,5,0,0
245717,-58.8235294117647,4,2,2,70,0,0
246493,-58.8235294117647,4,2,2,5,0,0
246579,-58.8235294117647,4,2,2,70,0,0
247011,-58.8235294117647,4,2,2,5,0,0
247097,-58.8235294117647,4,2,2,70,0,0
248390,-58.8235294117647,4,2,2,5,0,0
248476,-58.8235294117647,4,2,2,70,0,0
249769,-58.8235294117647,4,2,2,5,0,0
249855,-58.8235294117647,4,2,2,70,0,0
251149,-58.8235294117647,4,2,2,5,0,0
251235,-58.8235294117647,4,2,2,70,0,0
251752,-45.4545454545455,4,2,2,70,0,0
252011,-45.4545454545455,4,2,2,5,0,0
252097,-45.4545454545455,4,2,2,70,0,0
252700,-45.4545454545455,4,2,2,5,0,0
252786,-45.4545454545455,4,2,2,70,0,0
253131,-58.8235294117647,4,2,2,70,0,0
254510,-76.9230769230769,4,2,2,70,0,0
254769,-76.9230769230769,4,2,2,5,0,0
254856,-76.9230769230769,4,2,2,70,0,0
255114,-76.9230769230769,4,2,2,5,0,0
255200,-76.9230769230769,4,2,2,70,0,0
255545,-165.837479270315,4,2,2,70,0,0
259942,-165.837479270315,4,2,2,5,0,0
260028,-58.8235294117647,4,2,2,70,0,0
261666,-58.8235294117647,4,2,2,5,0,0
261752,-58.8235294117647,4,2,2,70,0,0
264511,-45.4545454545455,4,2,2,70,0,0
266924,-45.4545454545455,4,2,3,80,0,1
271752,-125,4,2,3,80,0,1
272011,-125,4,2,3,5,0,1
272097,-40,4,2,3,80,0,1
272442,-45.4545454545455,4,2,3,80,0,1
277528,-45.4545454545455,4,2,3,5,0,1
277614,-45.4545454545455,4,2,3,80,0,1
277959,-50,4,2,3,80,0,1
278649,-44.4444444444445,4,2,3,80,0,1
278907,-50,4,2,3,5,0,1
278993,-50,4,2,3,80,0,1
283735,-50,4,2,3,5,0,1
283821,-50,4,2,3,80,0,1
286493,-50,4,2,3,5,0,1
286579,-50,4,2,3,80,0,1
288562,-50,4,2,3,5,0,1
288648,-50,4,2,3,80,0,1
289942,-50,4,2,3,5,0,1
290028,-50,4,2,3,80,0,1
293821,-40,4,2,3,80,0,1
294511,-50,4,2,3,80,0,1
294769,-50,4,2,3,5,0,1
294855,-50,4,2,3,80,0,1
295459,-50,4,2,3,5,0,1
295545,-50,4,2,3,80,0,1
296838,-50,4,2,3,5,0,1
296924,-50,4,2,3,80,0,1
297528,-50,4,2,3,5,0,1
297614,-50,4,2,3,80,0,1
300028,-95.2380952380952,4,2,2,70,0,0
300631,-95.2380952380952,4,2,2,5,0,0
300718,-50,4,2,2,70,0,0

[Colours]
Combo1 : 255,155,55
Combo2 : 167,167,167
Combo3 : 190,137,137
Combo4 : 255,32,32
Combo5 : 255,157,157
Combo6 : 251,255,85

[HitObjects]
198,112,43476,6,2,P|123:119|112:193,1,160,2|2,0:0|0:0,0:0:0:0:
248,324,46235,6,2,B|257:248|257:248|260:245|260:245|255:245|255:245|258:241|258:241|267:166,1,160,2|2,0:0|0:0,0:0:0:0:
270,87,48993,6,2,B|369:67|322:135|419:115,2,160,2|2|2,0:0|0:0|0:0,0:0:0:0:
417,245,53131,6,2,P|342:238|331:164,2,160,2|2|2,0:0|0:0|0:0,0:0:0:0:
249,250,57269,6,2,B|149:230|196:298|99:278,1,160,2|2,0:0|0:0,0:0:0:0:
221,64,60028,6,0,L|215:111,1,32.4999985122681,8|8,0:0|0:0,0:0:0:0:
207,171,60200,1,8,0:0:0:0:
297,31,60545,5,8,0:0:0:0:
297,31,60631,1,8,0:0:0:0:
297,31,60718,1,8,0:0:0:0:
427,175,62787,6,0,L|432:222,1,32.4999985122681,8|8,0:0|0:0,0:0:0:0:
441,282,62959,1,8,0:0:0:0:
351,142,63304,5,8,0:0:0:0:
351,142,63390,1,8,0:0:0:0:
351,142,63476,1,8,0:0:0:0:
220,296,63993,6,0,B|128:314|172:250|81:268,2,150,2|2|2,0:0|0:0|0:0,0:0:0:0:
75,143,65545,6,0,L|80:96,1,32.4999985122681,8|8,0:0|0:0,0:0:0:0:
89,36,65718,1,8,0:0:0:0:
26,211,66062,5,8,0:0:0:0:
26,211,66149,1,8,0:0:0:0:
26,211,66235,1,8,0:0:0:0:
263,344,66580,5,0,3:0:0:0:
194,302,66752,2,0,P|189:234|182:171,1,129.999994049073,2|0,0:0|0:0,0:0:0:0:
249,128,67269,2,0,P|227:73|173:97,1,129.999994049073,2|0,3:2|3:0,0:0:0:0:
264,204,67787,2,0,P|297:206|329:209,1,64.9999970245363,2|0,0:0|0:0,0:0:0:0:
395,165,68131,1,2,0:0:0:0:
449,224,68304,5,8,0:0:0:0:
466,223,68390,1,8,0:0:0:0:
482,221,68476,2,0,L|476:267,3,32.4999985122681,8|0|0|0,0:0|3:0|3:0|3:0,0:0:0:0:
424,311,68821,1,8,0:0:0:0:
407,312,68907,1,8,0:0:0:0:
391,314,68993,6,0,L|344:319,1,42.5000008106232,8|0,0:0|3:0,0:0:0:0:
341,314,69166,2,0,L|383:308,1,42.5000008106232,0|0,3:0|3:0,0:0:0:0:
302,243,69338,6,0,L|255:237,1,42.5000008106232,0|0,3:0|3:0,0:0:0:0:
252,243,69511,2,0,L|294:248,1,42.5000008106232,0|0,3:0|3:0,0:0:0:0:
357,197,69683,5,4,3:2:0:0:
351,183,69769,1,0,3:0:0:0:
358,170,69856,1,0,3:0:0:0:
349,151,69942,1,0,3:0:0:0:
349,151,70028,6,0,L|354:109,1,42.5000008106232,0|0,3:0|3:0,0:0:0:0:
428,163,70200,2,0,L|433:121,1,42.5000008106232,0|0,3:0|3:0,0:0:0:0:
270,140,70373,5,0,1:0:0:0:
240,125,70459,1,0,3:0:0:0:
209,125,70545,1,0,3:0:0:0:
181,139,70631,1,0,3:0:0:0:
164,132,70718,5,0,1:0:0:0:
144,155,70804,1,0,3:0:0:0:
114,169,70890,1,0,3:0:0:0:
83,169,70976,1,0,3:0:0:0:
76,181,71062,1,6,0:0:0:0:
204,49,71407,6,0,L|197:-7,3,32.4999985122681,2|0|0|0,0:0|0:0|0:0|0:0,0:0:0:0:
201,15,71752,1,2,0:0:0:0:
314,170,72097,5,2,0:0:0:0:
260,229,72269,2,0,P|267:164|271:99,1,129.999994049073,2|0,0:0|0:0,0:0:0:0:
217,40,72787,1,2,0:0:0:0:
114,136,72959,5,0,1:0:0:0:
191,153,73131,1,0,1:0:0:0:
165,268,73304,1,8,0:0:0:0:
162,256,73649,5,0,3:0:0:0:
95,298,73821,2,0,P|160:291|225:287,1,129.999994049073,6|2,0:0|0:0,0:0:0:0:
234,295,74252,1,0,0:0:0:0:
226,307,74338,1,0,0:0:0:0:
239,320,74424,1,0,0:0:0:0:
239,320,74511,6,0,P|270:289|309:357,1,129.999994049073,2|2,0:0|0:0,0:0:0:0:
386,380,75028,1,2,0:0:0:0:
369,244,75200,5,8,0:0:0:0:
369,244,75287,1,0,3:0:0:0:
369,244,75373,1,0,3:0:0:0:
496,298,75545,5,8,0:0:0:0:
496,298,75631,1,0,3:0:0:0:
496,298,75718,2,0,P|463:294|431:292,1,64.9999970245363,0|0,3:0|0:0,0:0:0:0:
271,252,76062,6,0,P|319:246|368:243,1,97.4999955368044,2|0,0:0|0:0,0:0:0:0:
368,243,76407,1,2,0:0:0:0:
237,324,76580,1,6,0:0:0:0:
35,236,76924,6,0,L|39:203,3,32.4999985122681,2|0|0|0,0:0|0:0|0:0|0:0,0:0:0:0:
38,202,77269,1,2,0:0:0:0:
314,170,77614,5,2,0:0:0:0:
260,229,77787,2,0,P|267:164|271:99,1,129.999994049073,2|0,0:0|0:0,0:0:0:0:
141,30,78304,2,0,B|183:5|183:5|222:34,1,97.4999955368044,2|0,0:0|0:0,0:0:0:0:
222,34,78649,1,4,0:0:0:0:
181,100,78821,2,0,P|183:132|186:164,1,64.9999970245363,2|0,0:0|0:0,0:0:0:0:
103,100,79166,5,0,1:0:0:0:
103,100,79252,1,0,3:0:0:0:
103,100,79338,1,8,0:0:0:0:
221,64,80545,6,0,L|215:111,1,32.4999985122681,0|0,1:0|3:0,0:0:0:0:
207,171,80718,1,8,0:0:0:0:
197,185,80804,1,0,3:0:0:0:
202,200,80890,1,0,1:0:0:0:
199,214,80976,1,0,3:0:0:0:
199,214,81062,5,0,3:0:0:0:
267,254,81235,1,2,0:0:0:0:
131,174,81407,5,0,1:0:0:0:
131,174,81493,1,0,0:0:0:0:
131,174,81580,1,2,0:0:0:0:
76,270,81752,1,12,0:0:0:0:
172,325,81924,1,2,0:0:0:0:
243,288,82097,6,0,P|280:292|318:294,1,75.0000028610231,6|0,0:0|0:0,0:0:0:0:
464,281,82442,2,0,P|411:276|410:336,1,112.500004291535,0|0,3:0|0:0,0:0:0:0:
400,324,82787,2,0,P|396:287|394:249,1,75.0000028610231,0|0,3:0|0:0,0:0:0:0:
218,163,83131,5,2,0:0:0:0:
168,226,83304,2,0,B|238:252|238:252|289:198,1,150.000005722046,2|0,0:0|0:0,0:0:0:0:
268,100,83821,2,0,B|198:74|198:74|147:128,1,150.000005722046,2|0,3:2|0:0,0:0:0:0:
17,189,84338,2,0,P|54:190|91:194,1,75.0000028610231,2|0,0:0|0:0,0:0:0:0:
150,18,84683,1,2,0:0:0:0:
150,18,84769,1,0,3:0:0:0:
150,18,84856,6,0,P|113:19|76:23,1,75.0000028610231,6|0,0:0|0:0,0:0:0:0:
221,70,85200,2,0,P|274:65|275:125,1,112.500004291535,0|0,3:0|0:0,0:0:0:0:
284,113,85545,2,0,P|288:150|289:187,1,75.0000028610231,0|0,3:0|0:0,0:0:0:0:
443,266,85890,5,2,0:0:0:0:
506,219,86062,2,0,P|430:227|355:231,1,150.000005722046,2|0,0:0|0:0,0:0:0:0:
250,194,86580,2,0,B|320:220|320:220|371:166,1,150.000005722046,2|0,3:2|0:0,0:0:0:0:
305,54,87097,2,0,P|303:91|299:128,1,75.0000028610231,2|0,0:0|0:0,0:0:0:0:
227,91,87442,1,0,3:0:0:0:
227,91,87528,1,0,3:0:0:0:
227,91,87614,1,6,0:0:0:0:
152,116,87787,5,0,0:0:0:0:
81,25,87959,2,0,L|87:80,3,37.5000014305115,0|0|0|0,3:0|0:0|0:0|0:0,0:0:0:0:
90,68,88304,1,0,3:0:0:0:
79,145,88476,1,0,0:0:0:0:
62,253,88649,5,2,0:0:0:0:
7,190,88821,2,0,B|75:160|75:160|129:211,1,150.000005722046,2|0,0:0|0:0,0:0:0:0:
283,278,89338,2,0,P|207:286|132:290,1,150.000005722046,2|0,3:2|0:0,0:0:0:0:
210,188,89856,2,0,P|208:225|204:262,1,75.0000028610231,2|0,0:0|0:0,0:0:0:0:
141,148,90200,1,2,0:0:0:0:
141,148,90287,1,0,3:0:0:0:
141,148,90373,6,0,L|146:100,1,47.4999987316132,0|0,1:0|0:0,0:0:0:0:
157,94,90545,2,0,L|151:141,1,47.4999987316132,0|0,3:0|0:0,0:0:0:0:
232,58,90718,6,0,L|226:10,1,47.4999987316132,0|0,1:0|0:0,0:0:0:0:
216,4,90890,2,0,L|221:51,1,47.4999987316132,0|0,3:0|0:0,0:0:0:0:
303,98,91062,6,0,L|296:161,1,55.0000016784668,0|0,1:0|0:0,0:0:0:0:
306,163,91235,2,0,L|313:100,1,55.0000016784668,0|0,3:0|0:0,0:0:0:0:
411,107,91407,5,0,1:0:0:0:
388,87,91493,1,0,3:0:0:0:
374,57,91580,1,0,3:0:0:0:
374,26,91666,1,0,3:0:0:0:
374,26,91752,1,0,1:0:0:0:
236,232,92097,6,0,P|194:228|152:225,1,85.0000016212464,8|0,0:0|3:0,0:0:0:0:
132,201,92356,1,0,3:0:0:0:
144,172,92442,1,8,0:0:0:0:
130,146,92528,1,8,0:0:0:0:
139,131,92614,1,0,3:0:0:0:
137,121,92700,1,0,3:0:0:0:
137,121,92787,2,0,L|145:57,3,42.5000008106232,0|0|0|0,3:0|3:0|3:0|3:0,0:0:0:0:
142,78,93131,6,0,P|184:82|226:83,1,85.0000016212464,0|0,1:0|0:0,0:0:0:0:
282,28,93476,1,0,3:0:0:0:
366,135,93649,6,0,P|323:139|281:140,1,85.0000016212464,0|0,1:0|0:0,0:0:0:0:
226,83,93993,1,2,0:0:0:0:
206,163,94166,1,2,0:0:0:0:
219,75,94338,1,2,0:0:0:0:
131,184,94511,6,0,P|135:226|136:268,1,85.0000016212464,0|0,1:0|0:0,0:0:0:0:
213,239,94856,1,0,3:0:0:0:
284,370,95028,6,0,P|279:327|278:285,1,85.0000016212464,0|0,1:0|0:0,0:0:0:0:
203,316,95373,1,2,0:0:0:0:
285,209,95545,1,2,0:0:0:0:
192,319,95718,1,2,0:0:0:0:
363,326,95890,6,0,P|361:283|356:241,1,85.0000016212464,0|0,1:0|0:0,0:0:0:0:
302,181,96235,1,0,3:0:0:0:
437,254,96407,6,0,P|438:211|443:169,1,85.0000016212464,0|0,1:0|0:0,0:0:0:0:
498,110,96752,1,2,0:0:0:0:
402,37,96924,1,2,0:0:0:0:
329,133,97097,1,2,0:0:0:0:
286,201,97269,6,0,P|243:196|201:194,1,85.0000016212464,0|2,1:0|0:0,0:0:0:0:
151,258,97614,1,0,3:0:0:0:
31,214,97787,5,0,1:0:0:0:
144,246,97959,1,8,0:0:0:0:
149,367,98131,5,8,0:0:0:0:
27,381,98304,1,8,0:0:0:0:
12,306,98476,1,8,0:0:0:0:
144,246,98649,6,0,P|148:160|158:76,1,170.000003242493,0|0,1:0|3:0,0:0:0:0:
240,220,99166,2,0,P|237:177|233:135,1,85.0000016212464,0|0,1:0|3:0,0:0:0:0:
339,32,99511,1,0,3:0:0:0:
339,32,99597,1,0,3:0:0:0:
339,32,99683,2,0,L|402:39,3,42.5000008106232,0|0|0|0,3:0|3:0|3:0|3:0,0:0:0:0:
381,36,100028,6,0,P|443:21|469:113,1,170.000003242493,0|0,1:0|3:0,0:0:0:0:
391,198,100545,2,0,P|393:155|397:113,1,85.0000016212464,0|0,1:0|3:0,0:0:0:0:
503,236,100890,1,0,3:0:0:0:
503,236,100976,1,0,3:0:0:0:
503,236,101062,6,0,L|460:240,1,42.5000008106232,0|0,3:0|3:0,0:0:0:0:
510,311,101235,2,0,L|467:315,1,42.5000008106232,0|0,3:0|3:0,0:0:0:0:
297,276,101407,6,0,B|253:270|253:270|221:288|221:288|177:283,1,125,0|0,1:0|0:0,0:0:0:0:
24,146,101752,2,0,B|67:140|67:140|99:158|99:158|143:153,1,125,0|0,1:0|0:0,0:0:0:0:
243,23,102097,5,0,1:0:0:0:
214,113,102269,1,0,3:0:0:0:
329,106,102442,5,0,1:0:0:0:
132,38,102614,1,0,3:0:0:0:
58,64,102787,6,0,B|215:94|140:-14|295:16,2,255.000004863739,2|2|2,0:0|0:0|0:0,0:0:0:0:
80,196,104166,6,0,P|42:195|21:265,1,97.4999955368044,2|0,0:0|0:0,0:0:0:0:
16,247,104511,2,0,P|54:246|75:316,1,97.4999955368044,2|0,0:0|0:0,0:0:0:0:
83,292,104856,1,2,0:0:0:0:
180,331,105200,6,0,B|168:239|168:239|158:223|158:223|148:149|148:149|154:131|154:131|144:48,1,287.5,4|0,1:2|0:0,0:0:0:0:
144,49,106235,1,8,0:0:0:0:
241,185,106580,6,0,B|377:201|377:201|442:135|442:135|297:118,1,373.749982891084,4|0,1:2|0:0,0:0:0:0:
300,118,107614,1,8,0:0:0:0:
171,224,107959,6,0,B|90:233|90:233|51:238|43:275|59:309|99:304|99:304|195:293|195:293|218:282|218:282|321:269,1,425.000016212464,4|0,1:2|0:0,0:0:0:0:
320,270,108993,6,0,L|312:333,1,42.5000008106232,8|0,0:0|0:0,0:0:0:0:
395,317,109166,2,0,L|402:380,1,42.5000008106232,8|0,0:0|0:0,0:0:0:0:
433,216,109338,6,0,L|440:152,1,42.5000008106232,8|0,0:0|0:0,0:0:0:0:
358,169,109511,2,0,L|350:105,1,42.5000008106232,8|0,0:0|0:0,0:0:0:0:
512,234,109683,6,0,P|452:237|392:242,2,119.999996337891,0|2|2,1:0|0:0|0:0,0:0:0:0:
216,89,111062,6,0,P|165:90|116:96,1,100,4|0,1:2|0:0,0:0:0:0:
51,49,111407,1,2,0:0:0:0:
353,31,111752,6,0,B|292:38|292:38|299:81|303:128,1,150,8|0,0:0|0:0,0:0:0:0:
303,127,112097,1,2,1:2:0:0:
271,201,112269,1,2,0:2:0:0:
229,297,112442,5,2,0:2:0:0:
345,233,112614,1,2,0:2:0:0:
308,303,112787,1,2,0:2:0:0:
197,227,112959,1,2,0:2:0:0:
386,299,113131,5,10,0:2:0:0:
462,189,113304,1,2,0:2:0:0:
458,267,113476,1,2,0:2:0:0:
450,183,113649,1,2,0:2:0:0:
342,115,113821,6,0,B|387:135|387:135|423:100,1,100,2|2,1:2|0:2,0:0:0:0:
262,239,114166,2,0,B|216:259|216:259|180:224,1,100,2|2,0:2|0:2,0:0:0:0:
340,104,114511,6,0,B|385:124|385:124|421:89,1,100,10|2,0:2|0:2,0:0:0:0:
264,228,114856,2,0,B|218:248|218:248|182:213,1,100,2|2,0:2|0:2,0:0:0:0:
32,176,115200,5,2,1:2:0:0:
0,67,115373,1,2,0:2:0:0:
108,35,115545,1,2,0:2:0:0:
140,144,115718,1,2,0:2:0:0:
70,105,115890,5,10,0:2:0:0:
210,183,116062,1,2,0:2:0:0:
278,141,116235,1,2,0:2:0:0:
503,108,116580,6,0,B|380:131|438:47|317:70,1,200,4|2,1:2|0:0,0:0:0:0:
269,135,117097,1,0,3:0:0:0:
138,71,117269,6,0,P|187:64|237:64,1,100,8|0,0:0|0:0,0:0:0:0:
333,222,117614,2,0,P|283:215|233:215,1,100,2|0,0:0|0:0,0:0:0:0:
240,370,117959,5,0,1:0:0:0:
167,259,118131,1,2,0:0:0:0:
105,307,118304,2,0,P|179:297|254:296,1,150,2|0,0:0|0:0,0:0:0:0:
254,296,118649,6,0,B|274:251|274:251|239:215,1,100,8|0,0:0|0:0,0:0:0:0:
136,129,118993,2,0,P|177:107|213:137,1,100,2|0,0:0|0:0,0:0:0:0:
354,161,119338,6,0,B|293:154|293:154|300:111|304:64,1,150,0|0,1:0|0:0,0:0:0:0:
304,65,119683,1,2,0:2:0:0:
358,7,119856,1,2,0:2:0:0:
433,152,120028,5,10,0:2:0:0:
437,14,120200,1,2,0:2:0:0:
358,7,120373,1,2,0:2:0:0:
246,94,120545,1,2,0:2:0:0:
130,7,120718,5,2,1:2:0:0:
205,28,120890,1,2,0:2:0:0:
323,108,121062,1,2,0:2:0:0:
180,137,121235,1,2,0:2:0:0:
362,33,121407,6,0,P|353:107|351:181,1,150,10|0,0:2|0:0,0:0:0:0:
351,182,121752,1,2,0:0:0:0:
160,359,122097,6,0,P|153:309|153:259,1,100,4|0,1:2|0:0,0:0:0:0:
151,160,122442,2,0,P|168:147|189:141,1,42.5000008106232,2|0,0:0|0:0,0:0:0:0:
73,280,122614,2,0,P|56:268|36:262,1,42.5000008106232,2|0,0:0|0:0,0:0:0:0:
75,191,122787,6,0,B|136:184|136:184|129:141|125:94,1,150,8|0,0:0|0:0,0:0:0:0:
125,95,123131,5,2,1:2:0:0:
77,39,123304,1,2,0:2:0:0:
209,124,123476,5,2,0:2:0:0:
266,15,123649,1,2,0:2:0:0:
283,157,123821,1,2,0:2:0:0:
219,203,123993,1,2,0:2:0:0:
347,111,124166,5,10,0:2:0:0:
478,128,124338,1,2,0:2:0:0:
461,259,124511,1,2,0:2:0:0:
330,242,124683,1,2,0:2:0:0:
402,210,124856,6,0,P|352:217|302:216,1,100,2|2,1:2|0:2,0:0:0:0:
165,171,125200,2,0,B|201:136|201:136|246:156,1,100,2|2,0:2|0:2,0:0:0:0:
218,230,125545,5,10,0:2:0:0:
310,301,125718,1,2,0:2:0:0:
412,192,125890,1,2,0:2:0:0:
505,309,126062,1,2,0:2:0:0:
442,264,126235,5,2,1:2:0:0:
512,120,126407,1,2,0:2:0:0:
499,321,126580,1,2,0:2:0:0:
334,270,126752,1,2,0:2:0:0:
224,361,126924,6,0,P|324:349|424:342,1,200,10|0,0:2|0:0,0:0:0:0:
262,103,127614,6,0,B|139:126|197:42|76:65,1,200,4|2,1:2|0:0,0:0:0:0:
27,128,128131,1,2,0:0:0:0:
120,218,128304,5,8,0:0:0:0:
108,141,128476,1,2,0:0:0:0:
91,33,128649,1,2,0:0:0:0:
197,283,128993,6,0,P|201:218|208:154,1,127.50000243187,0|0,1:0|0:0,0:0:0:0:
207,155,129338,1,2,0:0:0:0:
279,200,129511,1,2,0:0:0:0:
120,263,129683,5,8,0:0:0:0:
48,296,129856,1,2,0:0:0:0:
81,368,130028,1,2,0:0:0:0:
153,335,130200,1,0,0:0:0:0:
290,223,130373,6,0,B|231:160|231:160|152:189,1,170.000003242493,0|2,1:0|0:0,0:0:0:0:
120,263,130890,1,2,0:0:0:0:
200,143,131062,6,0,L|157:137,1,42.5000008106232,8|0,0:0|0:0,0:0:0:0:
80,126,131235,2,0,L|37:120,1,42.5000008106232,8|0,0:0|0:0,0:0:0:0:
207,62,131407,6,0,L|250:56,1,42.5000008106232,8|0,0:0|0:0,0:0:0:0:
327,45,131580,2,0,L|370:39,1,42.5000008106232,8|0,0:0|0:0,0:0:0:0:
298,118,131752,5,0,1:0:0:0:
487,297,132097,6,0,B|506:280|508:251|496:235|496:235|496:229|496:229|491:227|491:227|478:211|449:206|433:217|433:217|427:215|427:215|426:222|426:222|407:235|401:263|414:285|414:285,1,209.999993591309,2|0,0:0|0:0,0:0:0:0:
410,271,132787,2,0,L|407:299,4,27.5000008392334,2|0|0|0|2,0:0|0:0|0:0|0:0|0:0,0:0:0:0:
331,340,133131,6,0,P|330:289|324:240,1,100,4|0,1:2|0:0,0:0:0:0:
371,175,133476,1,0,0:0:0:0:
102,23,134166,6,0,P|95:72|95:122,1,100,2|2,1:2|0:2,0:0:0:0:
254,134,134511,1,2,0:2:0:0:
177,120,134683,1,2,0:2:0:0:
77,199,134856,1,2,0:2:0:0:
0,213,135028,1,2,0:2:0:0:
172,132,135200,5,10,0:2:0:0:
299,174,135373,1,2,0:2:0:0:
222,212,135545,1,2,0:2:0:0:
184,135,135718,1,2,0:2:0:0:
333,63,135890,5,2,1:2:0:0:
309,186,136062,1,2,0:2:0:0:
358,247,136235,1,2,0:2:0:0:
272,117,136407,1,2,0:2:0:0:
200,287,136580,5,10,0:2:0:0:
146,228,136752,1,2,0:2:0:0:
195,131,136924,1,2,0:2:0:0:
125,24,137097,1,2,0:2:0:0:
208,130,137269,5,2,1:2:0:0:
236,288,137442,1,2,0:2:0:0:
288,108,137614,1,2,0:2:0:0:
160,193,137787,1,2,0:2:0:0:
123,261,137959,6,0,P|130:212|131:162,1,100,10|2,0:2|0:2,0:0:0:0:
198,122,138304,1,2,0:2:0:0:
371,310,138649,6,0,B|300:300|300:300|249:329|249:329|179:321,1,200,4|2,1:2|0:0,0:0:0:0:
115,366,139166,1,0,3:0:0:0:
208,247,139338,6,0,B|163:227|163:227|127:262,1,100,8|0,0:0|0:0,0:0:0:0:
5,170,139683,2,0,B|50:150|50:150|86:185,1,100,2|0,0:0|0:0,0:0:0:0:
157,149,140028,5,0,1:0:0:0:
254,33,140200,1,2,0:0:0:0:
331,64,140373,2,0,P|257:59|243:136,1,150,2|0,0:0|0:0,0:0:0:0:
236,120,140718,6,0,P|186:113|136:113,1,100,8|0,0:0|0:0,0:0:0:0:
4,64,141062,2,0,B|40:29|40:29|85:49,1,100,2|0,0:0|0:0,0:0:0:0:
137,195,141407,6,0,B|76:202|76:202|83:245|87:292,1,150,0|0,1:0|0:0,0:0:0:0:
86,289,141752,1,2,0:2:0:0:
141,351,141924,1,2,0:2:0:0:
205,239,142097,5,10,0:2:0:0:
279,216,142269,1,2,0:2:0:0:
399,328,142442,1,2,0:2:0:0:
264,294,142614,1,2,0:2:0:0:
394,183,142787,5,2,1:2:0:0:
475,306,142959,1,2,0:2:0:0:
323,345,143131,1,2,0:2:0:0:
242,222,143304,1,2,0:2:0:0:
192,161,143476,6,0,P|201:235|203:309,1,150,10|0,0:2|0:0,0:0:0:0:
203,310,143821,1,2,0:0:0:0:
275,41,144166,6,0,P|268:91|268:141,1,100,4|0,1:2|0:0,0:0:0:0:
358,115,144511,2,0,P|357:94|349:75,1,42.5000008106232,2|0,0:0|0:0,0:0:0:0:
184,120,144683,2,0,P|184:142|192:161,1,42.5000008106232,2|0,0:0|0:0,0:0:0:0:
340,202,144856,6,0,B|347:141|347:141|390:148|437:152,1,150,8|0,0:0|0:0,0:0:0:0:
434,152,145200,1,2,1:2:0:0:
417,228,145373,1,2,0:2:0:0:
511,327,145545,5,2,0:2:0:0:
358,279,145718,1,2,0:2:0:0:
299,330,145890,1,2,0:2:0:0:
417,228,146062,1,2,0:2:0:0:
351,64,146235,5,10,0:2:0:0:
342,202,146407,1,2,0:2:0:0:
492,254,146580,1,2,0:2:0:0:
511,327,146752,1,2,0:2:0:0:
310,371,146924,5,2,1:2:0:0:
236,343,147097,1,2,0:2:0:0:
127,358,147269,2,0,P|176:357|226:350,1,100,2|2,0:2|0:2,0:0:0:0:
371,322,147614,5,10,0:2:0:0:
297,294,147787,1,2,0:2:0:0:
351,154,147959,1,2,0:2:0:0:
488,239,148131,1,2,0:2:0:0:
413,255,148304,5,2,1:2:0:0:
276,170,148476,1,2,0:2:0:0:
361,34,148649,1,2,0:2:0:0:
498,119,148821,1,2,0:2:0:0:
427,157,148993,6,0,P|303:143|179:134,1,250,10|0,0:2|0:0,0:0:0:0:
41,342,149683,6,0,B|133:359|89:296|181:313,1,150,4|0,1:2|0:0,0:0:0:0:
180,313,150028,1,2,0:0:0:0:
204,241,150200,1,2,0:0:0:0:
231,146,150373,6,0,P|173:132|134:211,1,150,8|0,0:0|0:0,0:0:0:0:
131,200,150718,2,0,P|127:150|121:100,1,100,2|0,0:0|0:0,0:0:0:0:
204,0,151062,5,0,1:0:0:0:
198,75,151235,1,2,0:0:0:0:
265,200,151407,2,0,P|268:150|274:100,1,100,2|0,0:0|0:0,0:0:0:0:
434,120,151752,6,0,B|389:100|389:100|353:135,1,100,8|0,0:0|0:0,0:0:0:0:
165,154,152097,2,0,B|210:134|210:134|246:169,1,100,2|0,0:0|0:0,0:0:0:0:
372,239,152442,6,0,P|297:245|222:254,1,150,0|0,1:0|0:0,0:0:0:0:
222,253,152787,1,2,0:0:0:0:
253,329,152959,1,2,0:0:0:0:
147,246,153131,5,8,0:0:0:0:
193,184,153304,1,2,0:0:0:0:
271,193,153476,1,0,1:0:0:0:
223,254,153649,1,0,0:0:0:0:
335,252,153821,5,8,0:0:0:0:
365,229,153907,1,8,0:0:0:0:
395,226,153993,1,0,3:0:0:0:
416,234,154080,1,0,3:0:0:0:
427,246,154166,5,0,3:0:0:0:
441,255,154252,1,0,3:0:0:0:
457,261,154338,1,0,3:0:0:0:
473,262,154424,1,0,3:0:0:0:
489,259,154511,6,0,L|483:306,1,42.5000008106232,0|0,3:0|3:0,0:0:0:0:
412,363,154683,2,0,L|406:320,1,42.5000008106232,0|0,3:0|3:0,0:0:0:0:
312,237,154856,5,8,0:0:0:0:
341,164,155028,1,8,0:0:0:0:
293,51,155200,6,0,P|241:11|215:72,1,150.000005722046,4|0,1:2|0:0,0:0:0:0:
271,125,155718,1,0,0:0:0:0:
144,106,155890,1,8,0:0:0:0:
79,155,156062,5,2,0:0:0:0:
97,281,156235,1,0,1:0:0:0:
24,253,156407,1,2,0:0:0:0:
168,199,156580,6,0,P|176:273|182:348,2,150.000005722046,2|8|0,0:0|0:0|1:0,0:0:0:0:
230,150,157442,1,2,0:0:0:0:
312,97,157614,2,0,P|309:134|305:172,1,75.0000028610231,2|0,0:0|0:0,0:0:0:0:
422,181,157959,6,0,P|317:197|291:300,1,225.000008583069,0|0,1:0|0:0,0:0:0:0:
369,311,158649,1,8,0:0:0:0:
260,238,158821,5,2,0:0:0:0:
180,289,158993,1,0,1:0:0:0:
112,329,159166,1,2,0:0:0:0:
182,276,159338,6,0,P|256:281|331:290,2,150.000005722046,2|8|0,0:0|0:0|1:0,0:0:0:0:
189,354,160200,1,2,0:0:0:0:
282,259,160373,2,0,P|279:222|275:184,1,75.0000028610231,2|0,0:0|0:0,0:0:0:0:
155,123,160718,6,0,B|294:95|228:191|365:163,1,225.000008583069,0|0,1:0|0:0,0:0:0:0:
413,101,161407,1,8,0:0:0:0:
512,191,161580,5,2,0:0:0:0:
426,226,161752,1,0,1:0:0:0:
373,168,161924,1,2,0:0:0:0:
493,267,162097,6,0,P|418:258|343:252,2,150.000005722046,2|8|0,0:0|0:0|1:0,0:0:0:0:
460,339,162959,1,2,0:0:0:0:
378,229,163131,2,0,P|369:184|301:178,1,112.500004291535,2|0,0:0|0:0,0:0:0:0:
310,172,163476,6,0,B|231:161|231:161|173:193|173:193|94:184,1,225.000008583069,0|0,1:0|0:0,0:0:0:0:
39,241,164166,1,8,0:0:0:0:
151,215,164338,5,2,0:0:0:0:
157,114,164511,1,0,1:0:0:0:
104,55,164683,1,2,0:0:0:0:
20,167,164856,5,2,0:0:0:0:
235,134,165200,5,8,0:0:0:0:
101,260,165545,5,0,1:0:0:0:
174,289,165718,1,2,0:0:0:0:
94,270,165890,2,0,P|150:266|205:259,1,112.500004291535,2|0,0:0|0:0,0:0:0:0:
205,259,166235,6,0,B|219:225|219:225|193:198,1,75.0000028610231,4|0,1:2|0:0,0:0:0:0:
256,320,166580,2,0,B|270:353|270:353|244:380,1,75.0000028610231,2|0,0:0|0:0,0:0:0:0:
181,334,166924,1,8,0:0:0:0:
294,252,167097,5,2,0:0:0:0:
373,296,167269,1,0,1:0:0:0:
350,371,167442,1,2,0:0:0:0:
299,240,167614,5,2,0:0:0:0:
491,161,167959,5,8,0:0:0:0:
261,113,168304,5,0,1:0:0:0:
337,132,168476,1,2,0:0:0:0:
413,151,168649,2,0,P|414:113|420:76,1,75.0000028610231,2|0,0:0|0:0,0:0:0:0:
512,203,168993,6,0,B|373:231|439:135|302:163,1,225.000008583069,0|0,1:0|0:0,0:0:0:0:
240,112,169683,1,8,0:0:0:0:
359,28,169856,5,2,0:0:0:0:
270,39,170028,1,0,1:0:0:0:
192,50,170200,1,2,0:0:0:0:
68,90,170373,6,0,B|101:75|101:75|128:101,1,75.0000028610231,2|0,0:0|0:0,0:0:0:0:
110,178,170718,2,0,B|76:192|76:192|49:166,1,75.0000028610231,8|0,0:0|0:0,0:0:0:0:
189,161,171062,5,0,1:0:0:0:
134,255,171235,1,2,0:0:0:0:
228,310,171407,2,0,P|222:272|221:235,1,75.0000028610231,2|0,0:0|0:0,0:0:0:0:
297,353,171752,6,0,P|402:337|428:234,1,225.000008583069,0|0,1:0|0:0,0:0:0:0:
350,223,172442,1,8,0:0:0:0:
239,165,172614,5,2,0:0:0:0:
154,223,172787,1,0,1:0:0:0:
82,189,172959,1,2,0:0:0:0:
173,304,173131,6,0,P|167:266|166:229,1,75.0000028610231,2|0,0:0|0:0,0:0:0:0:
293,101,173476,2,0,P|299:138|300:175,1,75.0000028610231,8|0,0:0|0:0,0:0:0:0:
173,219,173821,5,0,1:0:0:0:
249,236,173993,1,2,0:0:0:0:
338,303,174166,2,0,P|282:311|226:313,1,112.500004291535,2|0,0:0|0:0,0:0:0:0:
226,313,174511,6,0,B|237:234|237:234|205:176|205:176|214:97,1,225.000008583069,0|0,1:0|0:0,0:0:0:0:
262,35,175200,1,8,0:0:0:0:
287,160,175373,5,2,0:0:0:0:
382,134,175545,1,0,1:0:0:0:
448,176,175718,1,2,0:0:0:0:
319,88,175890,5,2,0:0:0:0:
512,220,176235,5,8,0:0:0:0:
439,251,176407,1,2,0:0:0:0:
329,323,176580,5,0,1:0:0:0:
402,354,176752,1,2,0:0:0:0:
429,243,176924,2,0,P|420:187|418:131,1,112.500004291535,2|0,0:0|0:0,0:0:0:0:
417,131,177269,6,0,B|381:96|381:96|334:115,2,100,4|2|2,1:2|0:0|0:0,0:0:0:0:
235,285,178304,5,2,0:0:0:0:
238,296,178649,6,0,B|273:261|273:261|320:280,2,100,2|2|2,0:0|0:0|0:0,0:0:0:0:
115,180,179683,5,2,0:0:0:0:
107,190,180028,6,0,P|114:140|116:90,1,100,2|2,0:0|0:0,0:0:0:0:
197,227,180718,6,0,P|193:202|192:177,1,50,2|0,0:0|0:0,0:0:0:0:
272,169,181062,2,0,P|275:193|276:218,1,50,2|0,0:0|0:0,0:0:0:0:
407,255,181407,6,0,P|359:254|336:296,1,100,2|2,0:0|0:0,0:0:0:0:
395,349,181924,1,2,0:0:0:0:
320,373,182097,6,0,P|295:369|270:368,1,50,2|0,0:0|0:0,0:0:0:0:
195,344,182442,1,2,0:0:0:0:
261,267,182614,2,0,L|257:293,3,26.6666666666667,0|0|0|4,3:0|3:0|3:0|1:2,0:0:0:0:
110,215,183131,5,2,0:0:0:0:
108,225,183476,6,0,B|150:182|150:182|207:205,1,119.999996337891,2|2,0:0|0:0,0:0:0:0:
234,10,184166,2,0,P|237:70|246:129,1,119.999996337891,2|2,0:0|0:0,0:0:0:0:
385,180,184856,2,0,B|342:222|342:222|285:199,1,119.999996337891,2|2,0:0|0:0,0:0:0:0:
106,171,185545,5,2,0:0:0:0:
129,292,185890,1,2,0:0:0:0:
250,269,186235,1,2,0:0:0:0:
227,148,186580,1,2,0:0:0:0:
334,88,186924,5,2,0:0:0:0:
423,172,187269,1,2,0:0:0:0:
250,269,187614,6,0,L|257:330,1,50,8|0,0:0|0:0,0:0:0:0:
308,59,188304,6,0,B|353:53|353:53|377:22|377:22|408:46|408:46|454:41,1,170.000003242493,4|2,1:2|0:0,0:0:0:0:
511,95,188821,1,0,3:0:0:0:
390,141,188993,6,0,B|427:123|427:123|458:153,1,85.0000016212464,0|0,1:0|3:0,0:0:0:0:
411,214,189338,1,0,3:0:0:0:
418,221,189683,5,4,1:2:0:0:
277,352,190028,5,0,3:0:0:0:
297,277,190200,1,0,3:0:0:0:
238,192,190373,5,0,1:0:0:0:
258,117,190545,1,0,3:0:0:0:
227,197,190718,2,0,B|189:179|189:179|158:209,1,85.0000016212464,0|0,3:0|0:0,0:0:0:0:
79,284,191062,6,0,P|142:286|205:295,1,127.50000243187,4|0,1:2|0:0,0:0:0:0:
205,295,191407,2,0,B|242:277|242:277|273:307,1,85.0000016212464,0|0,3:0|3:0,0:0:0:0:
294,217,191752,5,0,1:0:0:0:
370,206,191924,1,0,3:0:0:0:
359,130,192097,1,0,3:0:0:0:
283,141,192269,1,0,3:0:0:0:
283,141,192356,1,0,3:0:0:0:
283,141,192442,6,0,P|288:98|290:56,1,85.0000016212464,4|0,1:2|3:0,0:0:0:0:
223,17,192787,1,0,3:0:0:0:
155,56,192959,1,0,3:0:0:0:
87,95,193131,5,0,1:0:0:0:
83,110,193218,1,0,3:0:0:0:
91,126,193304,1,0,3:0:0:0:
89,146,193390,1,0,3:0:0:0:
89,146,193476,6,0,L|83:194,1,42.5000008106232,0|0,1:0|3:0,0:0:0:0:
167,160,193649,2,0,L|161:208,1,42.5000008106232,0|0,3:0|3:0,0:0:0:0:
220,260,193821,6,0,B|323:239|273:312|378:291,1,170.000003242493,4|2,1:2|0:0,0:0:0:0:
434,237,194338,1,0,3:0:0:0:
485,348,194511,5,0,1:0:0:0:
512,275,194683,1,0,3:0:0:0:
439,248,194856,2,0,P|436:205|432:163,1,85.0000016212464,0|0,3:0|3:0,0:0:0:0:
360,193,195200,5,4,1:2:0:0:
271,138,195373,1,0,0:0:0:0:
196,159,195545,2,0,P|198:116|202:74,1,85.0000016212464,0|0,3:0|3:0,0:0:0:0:
252,216,195890,5,0,1:0:0:0:
233,294,196062,1,0,3:0:0:0:
142,370,196235,2,0,B|172:339|172:339|154:301,1,85.0000016212464,0|0,3:0|3:0,0:0:0:0:
155,302,196493,1,0,3:0:0:0:
155,302,196580,6,0,P|152:259|147:217,1,85.0000016212464,8|0,0:0|0:0,0:0:0:0:
24,183,196924,5,4,0:0:0:0:
96,156,197097,1,0,0:0:0:0:
26,65,197269,2,0,B|64:47|64:47|95:77,1,85.0000016212464,8|0,0:0|0:0,0:0:0:0:
206,110,197614,5,4,0:0:0:0:
206,110,197700,1,0,3:0:0:0:
206,110,197787,2,0,L|126:119,1,42.5000008106232,0|0,3:0|3:0,0:0:0:0:
287,0,197959,5,8,0:0:0:0:
301,29,198045,1,0,3:0:0:0:
285,53,198131,1,0,3:0:0:0:
291,74,198218,1,0,3:0:0:0:
282,87,198304,2,0,L|291:166,3,42.5000008106232,0|0|0|0,3:0|3:0|3:0|3:0,0:0:0:0:
359,169,198649,5,8,0:0:0:0:
359,169,198735,1,8,0:0:0:0:
345,202,198821,1,0,3:0:0:0:
361,226,198907,1,0,3:0:0:0:
354,247,198993,2,0,L|344:326,3,42.5000008106232,0|0|0|0,1:0|3:0|3:0|3:0,0:0:0:0:
422,311,199338,6,0,B|303:286|360:370|239:346,1,194.999991073609,4|0,1:2|0:0,0:0:0:0:
123,307,200028,1,0,3:0:0:0:
197,283,200200,1,0,3:0:0:0:
117,384,200373,1,0,3:0:0:0:
52,173,200718,6,0,B|101:196|101:196|142:157,1,112.500004291535,0|0,1:0|0:0,0:0:0:0:
143,156,201062,2,0,P|138:193|135:230,1,75.0000028610231,0|0,3:0|3:0,0:0:0:0:
213,216,201407,5,0,3:0:0:0:
310,276,201580,1,0,3:0:0:0:
352,209,201752,2,0,B|324:182|324:182|290:197,1,75.0000028610231,0|0,3:0|3:0,0:0:0:0:
191,305,202097,5,4,1:2:0:0:
242,363,202269,2,0,P|233:307|229:251,1,112.500004291535,0|0,3:0|0:0,0:0:0:0:
229,251,202614,1,8,0:0:0:0:
274,118,202787,5,0,3:0:0:0:
298,208,202959,1,0,3:0:0:0:
286,110,203131,1,0,3:0:0:0:
480,274,203476,6,0,P|423:269|368:261,1,112.500004291535,4|0,1:2|0:0,0:0:0:0:
368,261,203821,2,0,B|341:233|341:233|356:199,1,75.0000028610231,0|0,3:0|3:0,0:0:0:0:
407,140,204166,2,0,L|486:130,2,50.0000019073487,0|0|0,3:0|3:0|3:0,0:0:0:0:
347,88,204511,5,0,3:0:0:0:
327,80,204597,1,0,3:0:0:0:
310,94,204683,1,0,3:0:0:0:
291,89,204769,1,0,3:0:0:0:
291,89,204856,6,0,B|222:79|222:79|172:107|172:107|103:99,1,194.999991073609,4|0,1:2|0:0,0:0:0:0:
15,4,205545,1,0,3:0:0:0:
92,17,205718,1,0,3:0:0:0:
44,156,205890,2,0,L|51:219,3,37.5000014305115,0|0|0|0,3:0|3:0|3:0|3:0,0:0:0:0:
48,193,206235,5,0,1:0:0:0:
261,165,206580,5,0,3:0:0:0:
245,241,206752,1,0,3:0:0:0:
395,196,206924,5,0,3:0:0:0:
343,105,207097,1,0,3:0:0:0:
252,157,207269,2,0,B|224:130|224:130|190:145,1,75.0000028610231,0|0,3:0|3:0,0:0:0:0:
120,5,207614,5,4,1:2:0:0:
75,69,207787,1,0,3:0:0:0:
75,69,207873,1,0,3:0:0:0:
75,69,207959,1,0,1:0:0:0:
123,185,208131,1,8,0:0:0:0:
153,77,208304,5,0,3:0:0:0:
230,87,208476,1,0,3:0:0:0:
307,97,208649,2,0,P|311:153|319:208,1,112.500004291535,0|0,3:0|0:0,0:0:0:0:
319,208,208993,5,8,0:0:0:0:
449,241,209166,1,8,0:0:0:0:
512,308,209338,5,8,1:2:0:0:
512,308,209424,1,0,3:0:0:0:
512,308,209511,1,0,3:0:0:0:
411,334,209683,1,0,2:0:0:0:
491,48,210373,6,0,B|461:19|461:19|426:35,2,80,2|0|0,0:0|0:0|0:0,0:0:0:0:
372,96,211407,5,2,0:0:0:0:
447,118,211580,2,0,B|340:96|390:170|285:148,2,172.500003290176,2|2|2,0:0|0:0|0:0,0:0:0:0:
498,180,212787,1,8,0:0:0:0:
277,338,213131,5,4,1:2:0:0:
337,288,213304,1,0,3:0:0:0:
337,288,213390,1,0,3:0:0:0:
337,288,213476,1,0,3:0:0:0:
322,208,213649,1,0,3:0:0:0:
205,296,213821,6,0,B|167:279|167:279|136:309,1,85.0000016212464,0|0,1:0|3:0,0:0:0:0:
184,371,214166,1,0,3:0:0:0:
247,228,214338,6,0,P|234:143|228:59,1,170.000003242493,0|0,3:0|3:0,0:0:0:0:
397,24,214856,2,0,P|331:18|318:91,1,127.50000243187,0|0,3:0|0:0,0:0:0:0:
308,66,215200,1,8,0:0:0:0:
399,171,215373,2,0,B|415:133|415:133|385:102,1,85.0000016212464,0|0,3:0|0:0,0:0:0:0:
323,147,215718,1,8,0:0:0:0:
384,250,215890,5,4,1:2:0:0:
320,295,216062,1,0,3:0:0:0:
320,295,216149,1,0,3:0:0:0:
320,295,216235,1,0,3:0:0:0:
382,237,216407,1,0,3:0:0:0:
328,135,216580,6,0,B|290:118|290:118|259:148,1,85.0000016212464,0|0,1:0|3:0,0:0:0:0:
307,210,216924,1,0,3:0:0:0:
167,195,217097,6,0,B|243:162|243:162|306:223,1,170.000003242493,0|0,3:0|3:0,0:0:0:0:
238,383,217614,2,0,P|228:318|223:255,1,127.50000243187,0|0,3:0|0:0,0:0:0:0:
223,256,217959,1,8,0:0:0:0:
157,189,218131,2,0,P|160:146|166:104,1,85.0000016212464,0|0,3:0|0:0,0:0:0:0:
241,128,218476,1,8,0:0:0:0:
293,28,218649,5,4,1:2:0:0:
303,39,218735,1,0,3:0:0:0:
296,54,218821,1,0,3:0:0:0:
301,74,218907,1,0,3:0:0:0:
301,74,218993,6,0,L|364:66,1,42.5000008106232,0|0,3:0|3:0,0:0:0:0:
370,153,219166,1,0,3:0:0:0:
370,153,219252,1,0,3:0:0:0:
370,153,219338,6,0,P|375:89|384:26,1,127.50000243187,8|0,0:0|0:0,0:0:0:0:
384,26,219683,1,8,0:0:0:0:
457,66,219856,1,0,3:0:0:0:
305,40,220028,5,8,0:0:0:0:
305,40,220114,1,8,0:0:0:0:
272,30,220200,1,0,3:0:0:0:
240,40,220287,1,0,3:0:0:0:
219,66,220373,5,0,3:0:0:0:
202,86,220459,1,0,3:0:0:0:
176,94,220545,1,0,3:0:0:0:
153,89,220631,1,0,3:0:0:0:
153,89,220718,6,0,L|160:152,3,42.5000008106232,8|0|0|0,0:0|3:0|3:0|3:0,0:0:0:0:
157,131,221062,2,0,P|147:156|152:183,1,52.4999983978272,0|0,1:0|3:0,0:0:0:0:
230,189,221235,2,0,P|239:165|234:138,1,52.4999983978272,0|0,3:0|3:0,0:0:0:0:
287,244,221407,5,4,1:2:0:0:
305,260,221493,1,0,3:0:0:0:
296,282,221580,1,0,3:0:0:0:
307,304,221666,1,0,3:0:0:0:
307,304,221752,2,0,L|301:351,3,42.5000008106232,0|0|0|0,3:0|3:0|3:0|3:0,0:0:0:0:
301,346,222097,2,0,B|263:362|263:362|232:332,1,85.0000016212464,0|0,1:0|0:0,0:0:0:0:
180,273,222442,1,0,3:0:0:0:
144,381,222614,6,0,P|156:297|163:212,1,170.000003242493,0|0,3:0|3:0,0:0:0:0:
85,222,223131,1,0,3:0:0:0:
181,137,223304,1,0,3:0:0:0:
181,137,223390,1,0,3:0:0:0:
181,137,223476,1,8,0:0:0:0:
125,73,223649,2,0,B|156:43|156:43|194:59,1,85.0000016212464,0|0,3:0|3:0,0:0:0:0:
264,25,223993,1,0,3:0:0:0:
376,152,224166,5,0,1:0:0:0:
376,152,224252,1,0,3:0:0:0:
376,152,224338,2,0,L|439:159,1,42.5000008106232,0|0,3:0|3:0,0:0:0:0:
306,99,224511,1,0,3:0:0:0:
306,99,224597,1,0,3:0:0:0:
306,99,224683,2,0,L|242:106,1,42.5000008106232,0|0,3:0|3:0,0:0:0:0:
211,191,224856,2,0,P|253:185|295:181,1,85.0000016212464,0|0,1:0|0:0,0:0:0:0:
358,227,225200,1,0,3:0:0:0:
463,227,225373,6,0,P|385:243|368:321,1,170.000003242493,0|0,3:0|3:0,0:0:0:0:
424,375,225890,2,0,P|466:369|508:365,1,85.0000016212464,0|0,3:0|3:0,0:0:0:0:
508,365,226149,1,0,3:0:0:0:
508,365,226235,1,8,0:0:0:0:
368,321,226407,1,0,3:0:0:0:
368,321,226493,1,0,3:0:0:0:
368,321,226580,1,0,3:0:0:0:
271,381,226752,1,0,3:0:0:0:
199,350,226924,5,0,1:0:0:0:
181,334,227011,1,0,3:0:0:0:
190,312,227097,1,0,3:0:0:0:
187,295,227183,1,0,3:0:0:0:
187,295,227269,2,0,L|193:248,3,42.5000008106232,0|0|0|0,3:0|3:0|3:0|3:0,0:0:0:0:
192,252,227614,2,0,P|234:246|276:242,1,85.0000016212464,0|0,1:0|0:0,0:0:0:0:
333,187,227959,1,0,3:0:0:0:
443,184,228131,6,0,P|359:172|275:164,1,170.000003242493,0|0,3:0|3:0,0:0:0:0:
157,120,228649,1,0,3:0:0:0:
231,97,228821,1,0,3:0:0:0:
154,132,228993,1,8,0:0:0:0:
84,168,229166,2,0,P|93:231|99:294,1,127.50000243187,0|0,3:0|0:0,0:0:0:0:
99,294,229511,1,8,0:0:0:0:
194,380,229683,5,0,1:0:0:0:
176,364,229769,1,0,3:0:0:0:
185,342,229856,1,0,3:0:0:0:
182,325,229942,1,0,3:0:0:0:
182,325,230028,2,0,L|188:278,1,42.5000008106232,0|0,3:0|3:0,0:0:0:0:
248,230,230200,2,0,L|242:183,1,42.5000008106232,0|0,3:0|3:0,0:0:0:0:
204,109,230373,6,0,P|246:112|288:117,1,85.0000016212464,8|0,0:0|3:0,0:0:0:0:
304,103,230631,1,0,3:0:0:0:
298,78,230718,1,0,3:0:0:0:
312,57,230804,1,0,3:0:0:0:
300,42,230890,1,0,3:0:0:0:
308,30,230976,1,0,3:0:0:0:
300,25,231062,6,0,P|215:30|130:38,1,170.000003242493,0|0,3:0|3:0,0:0:0:0:
125,52,231493,1,0,3:0:0:0:
129,64,231580,1,0,3:0:0:0:
70,166,231752,2,0,L|64:118,2,42.5000008106232,0|0|0,3:0|3:0|3:0,0:0:0:0:
213,184,232097,5,0,1:0:0:0:
175,178,232183,1,0,3:0:0:0:
143,196,232269,1,0,3:0:0:0:
129,231,232356,1,0,3:0:0:0:
129,231,232442,6,0,B|207:247|169:191|249:207,2,129.999994049073,4|0|0,1:2|3:0|3:0,0:0:0:0:
318,112,233476,1,0,3:0:0:0:
326,125,233821,6,0,P|262:143|260:202,2,129.999994049073,0|0|0,3:0|3:0|3:0,0:0:0:0:
433,294,234856,1,0,3:0:0:0:
454,218,235028,1,0,3:0:0:0:
512,310,235200,6,0,P|447:314|382:324,1,129.999994049073,0|0,3:0|3:0,0:0:0:0:
328,384,235718,1,2,0:0:0:0:
224,321,235890,2,0,B|259:286|259:286|303:306,1,97.4999955368044,0|0,3:0|0:0,0:0:0:0:
303,306,236235,1,8,0:0:0:0:
46,194,236580,5,0,3:0:0:0:
40,175,236666,1,0,3:0:0:0:
46,161,236752,1,0,3:0:0:0:
126,105,236924,1,0,3:0:0:0:
132,123,237011,1,0,3:0:0:0:
125,138,237097,1,0,3:0:0:0:
52,82,237269,5,8,0:0:0:0:
193,60,237442,1,8,0:0:0:0:
215,201,237614,1,8,0:0:0:0:
74,223,237787,1,8,0:0:0:0:
136,173,237959,5,0,3:0:0:0:
149,248,238131,1,0,3:0:0:0:
87,298,238304,1,0,3:0:0:0:
74,223,238476,1,0,3:0:0:0:
211,161,238649,2,0,P|155:157|99:149,1,112.500004291535,0|0,3:0|0:0,0:0:0:0:
99,149,238993,2,0,P|92:111|114:80,1,75.0000028610231,8|0,0:0|3:0,0:0:0:0:
251,90,239338,6,0,B|223:62|223:62|239:28,1,75.0000028610231,0|0,3:0|3:0,0:0:0:0:
379,2,239683,2,0,B|406:29|406:29|390:63,1,75.0000028610231,0|0,3:0|3:0,0:0:0:0:
315,46,240028,1,0,3:0:0:0:
331,123,240200,1,0,3:0:0:0:
287,189,240373,1,0,3:0:0:0:
303,266,240545,1,0,3:0:0:0:
405,162,240718,5,8,0:0:0:0:
382,239,240890,1,0,1:0:0:0:
382,239,240976,1,0,1:0:0:0:
382,239,241062,6,0,P|390:262|388:289,2,50.0000019073487,0|0|0,1:0|3:0|3:0,0:0:0:0:
327,181,241407,5,0,3:0:0:0:
327,181,241522,2,0,P|302:177|280:161,1,50.0000019073487,0|0,3:0|3:0,0:0:0:0:
405,162,241752,5,0,3:0:0:0:
405,162,241867,2,0,P|420:142|445:131,1,50.0000019073487,0|0,3:0|3:0,0:0:0:0:
382,239,242097,6,0,B|320:231|320:231|284:185|284:185|239:221|239:221|177:213,1,240,6|0,0:0|0:0,0:0:0:0:
446,96,243476,6,0,P|374:108|370:165,1,127.50000243187,0|0,1:0|0:0,0:0:0:0:
365,152,243821,1,0,3:0:0:0:
292,248,243993,2,0,P|287:184|278:121,1,127.50000243187,0|0,1:0|0:0,0:0:0:0:
278,121,244338,1,2,0:0:0:0:
222,33,244511,2,0,L|216:81,1,42.5000008106232,2|0,0:0|0:0,0:0:0:0:
208,83,244683,2,0,L|213:40,1,42.5000008106232,2|0,0:0|0:0,0:0:0:0:
145,130,244856,5,0,1:0:0:0:
145,130,244942,1,0,3:0:0:0:
145,130,245028,1,0,3:0:0:0:
161,246,245200,1,0,3:0:0:0:
97,203,245373,2,0,P|160:207|223:216,1,127.50000243187,0|0,1:0|0:0,0:0:0:0:
223,216,245718,1,2,0:0:0:0:
323,160,245890,1,0,3:0:0:0:
306,158,245976,1,0,3:0:0:0:
293,169,246062,1,0,3:0:0:0:
403,273,246235,6,0,B|356:226|356:226|300:253,1,127.50000243187,0|0,1:0|0:0,0:0:0:0:
300,253,246580,1,0,3:0:0:0:
207,346,246752,2,0,P|270:337|333:332,1,127.50000243187,0|0,1:0|0:0,0:0:0:0:
333,332,247097,1,2,0:0:0:0:
256,260,247269,2,0,L|262:212,1,42.5000008106232,2|0,0:0|0:0,0:0:0:0:
270,210,247442,2,0,L|265:253,1,42.5000008106232,2|0,0:0|0:0,0:0:0:0:
177,271,247614,5,0,1:0:0:0:
177,271,247700,1,0,3:0:0:0:
177,271,247787,1,0,3:0:0:0:
161,155,247959,1,0,3:0:0:0:
231,120,248131,6,0,P|168:116|105:107,1,127.50000243187,0|0,1:0|0:0,0:0:0:0:
104,106,248476,1,2,0:0:0:0:
182,198,248649,1,0,3:0:0:0:
184,215,248735,1,0,3:0:0:0:
173,227,248821,1,0,3:0:0:0:
40,288,248993,6,0,B|71:256|71:256|110:274,1,85.0000016212464,0|0,1:0|3:0,0:0:0:0:
114,296,249252,1,0,3:0:0:0:
126,308,249338,1,0,3:0:0:0:
123,327,249424,1,0,3:0:0:0:
123,327,249511,6,0,B|177:301|177:301|225:348,1,127.50000243187,0|0,1:0|3:0,0:0:0:0:
225,348,249856,2,0,L|288:340,1,42.5000008106232,0|0,3:0|3:0,0:0:0:0:
360,288,250028,2,0,L|317:282,3,42.5000008106232,0|0|0|0,3:0|3:0|3:0|3:0,0:0:0:0:
317,282,250373,6,0,P|314:240|308:198,1,85.0000016212464,0|0,1:0|3:0,0:0:0:0:
294,177,250631,1,0,3:0:0:0:
308,153,250718,1,0,3:0:0:0:
293,127,250804,1,0,3:0:0:0:
293,127,250890,6,0,P|233:137|217:195,1,127.50000243187,0|0,1:0|3:0,0:0:0:0:
217,195,251235,2,0,L|174:200,1,42.5000008106232,0|0,3:0|3:0,0:0:0:0:
110,159,251407,1,0,3:0:0:0:
119,146,251493,1,0,3:0:0:0:
111,134,251580,1,0,3:0:0:0:
118,115,251666,1,0,3:0:0:0:
110,98,251752,6,0,P|191:109|273:114,1,165.000005035401,0|0,1:0|3:0,0:0:0:0:
265,139,252097,1,0,1:0:0:0:
291,169,252183,1,0,3:0:0:0:
278,194,252269,1,0,3:0:0:0:
292,219,252356,1,0,3:0:0:0:
279,245,252442,6,0,L|70:269,1,165.000005035401,0|0,1:0|3:0,0:0:0:0:
93,285,252787,1,0,1:0:0:0:
104,317,252873,1,0,3:0:0:0:
90,344,252959,1,0,3:0:0:0:
108,372,253045,1,0,3:0:0:0:
108,372,253131,6,0,B|263:407|192:296|346:332,2,255.000004863739,2|2|2,0:0|0:0|0:0,0:0:0:0:
420,200,254511,6,0,P|458:199|479:269,1,97.4999955368044,2|0,0:0|0:0,0:0:0:0:
484,251,254856,2,0,P|446:250|425:320,1,97.4999955368044,2|0,0:0|0:0,0:0:0:0:
416,296,255201,1,2,0:0:0:0:
163,263,255545,6,0,B|226:270|226:270|282:277|290:206|235:199|235:199|163:190|163:190|108:183|117:112|172:119|172:119|259:129|259:129|323:137|323:137|326:142|326:142|331:138|331:138|363:142|363:142|418:149|427:77|371:71|371:71|300:62,1,768.825002932835,4|0,1:2|0:0,0:0:0:0:
311,66,260028,6,0,P|396:61|481:53,2,170.000003242493,8|8|8,0:0|0:0|0:0,0:0:0:0:
136,10,261062,1,8,0:0:0:0:
143,22,261407,6,0,P|69:50|69:110,1,127.50000243187,8|0,0:0|0:0,0:0:0:0:
62,90,261752,1,8,0:0:0:0:
222,213,262097,6,0,P|219:170|215:128,1,85.0000016212464,8|0,0:0|0:0,0:0:0:0:
138,134,262442,2,0,P|140:176|144:219,1,85.0000016212464,8|0,0:0|0:0,0:0:0:0:
296,154,262787,5,0,1:0:0:0:
220,170,262959,1,0,3:0:0:0:
230,290,263131,5,0,1:0:0:0:
306,274,263304,1,0,3:0:0:0:
174,236,263476,5,0,1:0:0:0:
215,367,263649,1,0,3:0:0:0:
290,348,263821,5,0,1:0:0:0:
144,334,263993,1,0,3:0:0:0:
252,211,264166,5,0,1:0:0:0:
277,192,264252,1,0,3:0:0:0:
308,188,264338,1,0,3:0:0:0:
337,201,264424,1,0,3:0:0:0:
355,227,264511,6,0,P|344:202|343:173,1,55.0000016784668,0|0,1:0|3:0,0:0:0:0:
427,88,264683,2,0,P|426:115|415:140,1,55.0000016784668,0|0,3:0|3:0,0:0:0:0:
472,222,264856,2,0,L|435:217,11,36.6666677856446,0|0|0|0|0|0|0|0|0|0|0|0,1:0|3:0|3:0|3:0|3:0|3:0|3:0|3:0|3:0|3:0|3:0|3:0,0:0:0:0:
432,220,265545,6,0,B|399:245|399:245|407:313,1,110.000003356934,8|0,0:0|0:0,0:0:0:0:
245,126,265890,2,0,B|277:151|277:151|269:219,1,110.000003356934,8|0,0:0|0:0,0:0:0:0:
309,72,266235,5,8,0:0:0:0:
163,142,266407,1,0,3:0:0:0:
126,71,266580,5,8,0:0:0:0:
298,153,266752,1,0,3:0:0:0:
369,193,266924,6,0,B|363:245|363:245|365:248|365:248|358:301,1,110.000003356934,4|0,1:2|0:0,0:0:0:0:
469,290,267269,5,2,1:2:0:0:
393,269,267442,5,2,0:2:0:0:
297,357,267614,5,2,1:2:0:0:
174,327,267787,5,2,0:2:0:0:
315,279,267959,5,2,1:2:0:0:
407,345,268131,5,2,0:2:0:0:
329,355,268304,5,6,1:2:0:0:
362,217,268476,5,2,0:2:0:0:
306,161,268649,5,2,1:2:0:0:
345,58,268821,5,2,0:2:0:0:
376,129,268993,5,2,1:2:0:0:
240,78,269166,5,2,0:2:0:0:
153,190,269338,5,2,1:2:0:0:
289,241,269511,5,2,0:2:0:0:
412,285,269683,5,6,1:2:0:0:
363,225,269856,5,2,0:2:0:0:
261,312,270028,5,2,1:2:0:0:
124,293,270200,5,2,0:2:0:0:
69,167,270373,5,2,1:2:0:0:
25,71,270545,5,2,0:2:0:0:
178,0,270718,5,2,1:2:0:0:
167,167,270890,5,2,0:2:0:0:
162,251,271062,5,6,1:2:0:0:
123,98,271235,5,2,0:2:0:0:
98,296,271407,5,2,1:2:0:0:
194,128,271580,5,2,0:2:0:0:
251,188,271752,6,0,L|310:180,1,60,2|0,1:2|0:0,0:0:0:0:
310,180,272097,2,0,B|304:223|304:223|322:255|322:255|317:299,1,125,8|0,0:0|0:0,0:0:0:0:
385,148,272442,6,0,B|378:95|378:95|380:92|380:92|374:40,1,110.000003356934,4|0,1:2|0:0,0:0:0:0:
440,0,272787,5,2,1:2:0:0:
301,19,272959,5,2,0:2:0:0:
229,136,273131,5,2,1:2:0:0:
304,159,273304,5,2,0:2:0:0:
474,196,273476,5,2,1:2:0:0:
343,278,273649,5,2,0:2:0:0:
415,308,273821,5,6,1:2:0:0:
404,142,273993,5,2,0:2:0:0:
247,67,274166,5,2,1:2:0:0:
265,234,274338,5,2,0:2:0:0:
210,289,274511,5,2,1:2:0:0:
303,370,274683,5,2,0:2:0:0:
422,312,274856,5,2,1:2:0:0:
490,350,275028,5,2,0:2:0:0:
353,276,275200,5,6,1:2:0:0:
289,321,275373,5,2,0:2:0:0:
128,305,275545,5,2,1:2:0:0:
295,337,275718,5,2,0:2:0:0:
322,187,275890,5,2,1:2:0:0:
344,112,276062,5,2,0:2:0:0:
156,22,276235,5,2,1:2:0:0:
237,223,276407,5,2,0:2:0:0:
168,14,276580,5,6,1:2:0:0:
128,190,276752,5,2,0:2:0:0:
95,344,276924,5,2,1:2:0:0:
28,156,277097,5,2,0:2:0:0:
5,81,277269,6,0,B|26:131|26:131|137:118,1,165.000005035401,2|0,1:2|0:0,0:0:0:0:
135,118,277614,1,2,0:0:0:0:
414,229,277959,6,0,P|364:222|314:222,1,100,4|0,1:2|0:0,0:0:0:0:
221,137,278304,2,0,B|243:127|243:127|261:144,1,50,2|0,0:0|0:0,0:0:0:0:
177,204,278476,2,0,B|154:194|154:194|136:211,1,50,2|0,0:0|0:0,0:0:0:0:
269,158,278649,6,0,B|223:163|223:163|192:139|192:139|168:170|168:170|122:175,1,168.750006437302,8|2,0:0|0:0,0:0:0:0:
125,176,278993,1,2,1:2:0:0:
72,117,279166,1,2,0:2:0:0:
100,11,279338,5,2,0:2:0:0:
58,124,279511,1,2,0:2:0:0:
105,209,279683,1,2,0:2:0:0:
63,275,279856,1,2,0:2:0:0:
239,270,280028,5,10,0:2:0:0:
99,198,280200,1,2,0:2:0:0:
134,92,280373,1,2,0:2:0:0:
240,128,280545,1,2,0:2:0:0:
170,163,280718,6,0,B|147:118|147:118|179:80,1,100,2|2,1:2|0:2,0:0:0:0:
310,93,281062,2,0,B|332:137|332:137|300:175,1,100,2|2,0:2|0:2,0:0:0:0:
348,351,281407,5,10,0:2:0:0:
368,224,281580,1,2,0:2:0:0:
463,211,281752,1,2,0:2:0:0:
476,306,281924,1,2,0:2:0:0:
308,280,282097,5,2,1:2:0:0:
247,328,282269,1,2,0:2:0:0:
150,269,282442,1,2,0:2:0:0:
62,320,282614,1,2,0:2:0:0:
102,205,282787,5,10,0:2:0:0:
89,127,282959,1,2,0:2:0:0:
72,27,283131,1,2,0:2:0:0:
63,35,283476,6,0,P|137:40|212:48,1,150,4|0,1:2|0:0,0:0:0:0:
212,48,283821,1,2,0:0:0:0:
186,123,283993,1,2,0:0:0:0:
288,177,284166,6,0,P|234:187|225:240,1,100,8|0,0:0|0:0,0:0:0:0:
85,241,284511,2,0,P|139:251|148:304,1,100,2|0,0:0|0:0,0:0:0:0:
238,381,284856,5,0,1:0:0:0:
230,303,285028,1,2,0:0:0:0:
188,168,285200,2,0,P|237:173|287:176,1,100,2|0,0:0|0:0,0:0:0:0:
347,103,285545,6,0,P|303:122|298:170,1,100,8|0,0:0|0:0,0:0:0:0:
324,282,285890,2,0,P|367:262|372:214,1,100,2|0,0:0|0:0,0:0:0:0:
469,108,286235,6,0,B|377:91|421:154|329:137,1,150,0|0,1:0|0:0,0:0:0:0:
329,137,286580,1,2,0:2:0:0:
263,94,286752,1,2,0:2:0:0:
177,187,286924,5,10,0:2:0:0:
111,144,287097,1,2,0:2:0:0:
197,51,287269,1,2,0:2:0:0:
256,174,287442,1,2,0:2:0:0:
179,267,287614,5,2,1:2:0:0:
317,230,287787,1,2,0:2:0:0:
396,335,287959,1,2,0:2:0:0:
258,372,288131,1,2,0:2:0:0:
334,383,288304,6,0,P|325:309|323:235,1,150,10|0,0:2|0:0,0:0:0:0:
323,234,288649,1,2,0:0:0:0:
188,37,288993,6,0,P|181:87|181:137,1,100,4|0,1:2|0:0,0:0:0:0:
293,172,289338,2,0,B|271:162|271:162|252:179,1,50,2|0,0:0|0:0,0:0:0:0:
173,261,289511,2,0,B|196:251|196:251|214:268,1,50,2|0,0:0|0:0,0:0:0:0:
244,190,289683,6,0,B|336:173|292:236|384:219,1,150,8|0,0:0|0:0,0:0:0:0:
383,219,290028,1,2,1:2:0:0:
409,146,290200,1,2,0:2:0:0:
500,261,290373,5,2,0:2:0:0:
368,302,290545,1,2,0:2:0:0:
316,360,290718,1,2,0:2:0:0:
424,249,290890,1,2,0:2:0:0:
345,89,291062,5,10,0:2:0:0:
217,41,291235,1,2,0:2:0:0:
322,164,291407,1,2,0:2:0:0:
310,241,291580,1,2,0:2:0:0:
178,261,291752,5,2,1:2:0:0:
150,187,291924,1,2,0:2:0:0:
165,78,292097,2,0,P|164:127|157:177,1,100,2|2,0:2|0:2,0:0:0:0:
54,300,292442,5,10,0:2:0:0:
168,259,292614,1,2,0:2:0:0:
254,364,292787,1,2,0:2:0:0:
129,330,292959,1,2,0:2:0:0:
156,177,293131,5,2,1:2:0:0:
291,114,293304,1,2,0:2:0:0:
411,222,293476,1,2,0:2:0:0:
276,285,293649,1,2,0:2:0:0:
472,169,293821,6,0,P|354:160|335:44,1,250,10|0,0:2|0:0,0:0:0:0:
312,371,294511,6,0,P|307:297|299:222,1,150,4|0,1:2|0:0,0:0:0:0:
299,222,294856,1,2,0:0:0:0:
238,172,295028,1,2,0:0:0:0:
103,246,295200,6,0,B|170:215|170:215|226:267,1,150,8|0,0:0|0:0,0:0:0:0:
225,267,295545,2,0,P|219:316|216:366,1,100,2|0,0:0|0:0,0:0:0:0:
333,151,295890,5,0,1:0:0:0:
304,268,296062,1,2,0:0:0:0:
268,198,296235,2,0,P|317:192|367:189,1,100,2|0,0:0|0:0,0:0:0:0:
395,12,296580,6,0,P|330:41|327:112,1,150,8|0,0:0|0:0,0:0:0:0:
327,112,296924,2,0,P|277:106|227:103,1,100,2|0,0:0|0:0,0:0:0:0:
216,256,297269,6,0,B|124:273|168:210|76:227,1,150,0|0,1:0|0:0,0:0:0:0:
77,226,297614,1,2,0:0:0:0:
29,287,297787,1,2,0:0:0:0:
103,151,297959,5,8,0:0:0:0:
87,75,298131,1,2,0:0:0:0:
12,90,298304,1,2,0:0:0:0:
27,166,298476,1,2,0:0:0:0:
171,195,298649,5,0,1:0:0:0:
202,222,298735,1,0,3:0:0:0:
237,228,298821,1,0,3:0:0:0:
263,214,298907,1,0,3:0:0:0:
276,202,298993,5,2,0:0:0:0:
292,192,299080,1,0,3:0:0:0:
311,185,299166,1,0,3:0:0:0:
329,184,299252,1,0,3:0:0:0:
347,187,299338,6,0,L|340:132,1,50,8|0,0:0|3:0,0:0:0:0:
429,73,299511,2,0,L|421:124,1,50,0|0,1:0|3:0,0:0:0:0:
278,94,299683,5,8,0:0:0:0:
338,265,299856,1,8,0:0:0:0:
405,304,300028,6,0,B|348:297|348:297|344:300|344:300|285:285|285:285|281:288|281:288|225:281,1,183.749994392395,6|0,0:0|0:0,0:0:0:0:
222,279,300718,2,0,L|226:318,3,33.3333333333333,0|0|0|0,3:0|3:0|3:0|3:0,0:0:0:0:
