osu file format v14

[General]
AudioFilename: audio.mp3
AudioLeadIn: 0
PreviewTime: 109004
Countdown: 0
SampleSet: Soft
StackLeniency: 0.2
Mode: 0
LetterboxInBreaks: 0
EpilepsyWarning: 1
WidescreenStoryboard: 0

[Editor]
DistanceSpacing: 0.7
BeatDivisor: 4
GridSize: 16
TimelineZoom: 2.699999

[Metadata]
Title:Overkill
TitleUnicode:Overkill
Artist:RIOT
ArtistUnicode:RIOT
Creator:Sotarks
Version:Eternal Death
Source:
Tags:drumstep monstercat english drum and bass dnb beat saber beatsaber aaltopahwi
BeatmapID:2004799
BeatmapSetID:957594

[Difficulty]
HPDrainRate:5
CircleSize:3.8
OverallDifficulty:9.2
ApproachRate:9.6
SliderMultiplier:1.06
SliderTickRate:1

[Events]
//Background and Video events
0,0,"bg.jpg",0,0
Video,-3966,"lightshow.avi"
//Break Periods
//Storyboard Layer 0 (Background)
//Storyboard Layer 1 (Fail)
//Storyboard Layer 2 (Pass)
//Storyboard Layer 3 (Foreground)
//Storyboard Sound Samples

[TimingPoints]
-558,344.827586206897,4,2,22,42,1,0
4384,-100,4,2,22,5,0,0
4959,-100,4,2,22,32,0,0
27028,-192.307692307692,4,2,22,62,0,0
29097,-192.307692307692,4,2,22,12,0,0
29786,-192.307692307692,4,2,22,42,0,0
31166,-192.307692307692,4,2,22,52,0,0
32200,-192.307692307692,4,2,22,12,0,0
32545,-192.307692307692,4,2,22,62,0,0
34614,-192.307692307692,4,2,22,12,0,0
35304,-192.307692307692,4,2,22,62,0,0
37373,-192.307692307692,4,2,22,12,0,0
38062,-192.307692307692,4,2,22,62,0,0
40131,-192.307692307692,4,2,22,12,0,0
40821,-192.307692307692,4,2,22,42,0,0
42200,-192.307692307692,4,2,22,52,0,0
43235,-192.307692307692,4,2,22,12,0,0
43579,-192.307692307692,4,2,22,62,0,0
45648,-192.307692307692,4,2,22,12,0,0
46338,-192.307692307692,4,2,22,62,0,0
48407,-192.307692307692,4,2,22,12,0,0
49097,-192.307692307692,4,2,22,62,0,0
51166,-192.307692307692,4,2,22,12,0,0
51855,-192.307692307692,4,2,22,42,0,0
53235,-192.307692307692,4,2,22,52,0,0
54269,-192.307692307692,4,2,22,12,0,0
54614,-192.307692307692,4,2,22,62,0,0
56683,-192.307692307692,4,2,22,12,0,0
57373,-192.307692307692,4,2,22,62,0,0
59441,-192.307692307692,4,2,22,12,0,0
60131,-98.0392156862744,4,2,22,62,0,0
63924,-98.0392156862744,4,2,22,52,0,0
65648,-98.0392156862744,4,2,22,62,0,0
66510,-98.0392156862744,4,2,22,52,0,0
68407,-98.0392156862744,4,2,22,62,0,0
70476,-98.0392156862744,4,2,22,72,0,0
71166,-98.0392156862744,4,2,22,82,0,0
71252,-98.0392156862744,4,2,22,62,0,0
73407,-70.4225352112676,4,2,22,62,0,0
73924,-98.0392156862745,4,2,22,72,0,0
74010,-98.0392156862745,4,2,22,62,0,0
75304,-70.4225352112676,4,2,22,72,0,0
76683,-98.0392156862745,4,2,22,82,0,0
76769,-98.0392156862745,4,2,22,62,0,0
79441,-98.0392156862745,4,2,22,72,0,0
80648,-98.0392156862745,4,2,22,62,0,0
82200,-98.0392156862745,4,2,22,72,0,0
93235,-70.4225352112676,4,2,22,82,0,0
97373,-70.4225352112676,4,2,22,82,0,0
101510,-54.9450549450549,4,2,22,82,0,0
102976,-54.9450549450549,4,2,22,62,0,0
104269,-49.5049504950495,4,2,22,82,0,0
104614,-49.5049504950495,4,2,22,5,0,0
104700,-43.1034482758621,4,2,22,82,0,0
104873,-43.1034482758621,4,2,22,5,0,0
104959,-65.7894736842105,4,2,22,82,0,0
105217,-65.7894736842105,4,2,22,5,0,0
105304,-54.9450549450549,4,2,22,82,0,0
106252,-54.9450549450549,4,2,22,5,0,0
106338,-54.9450549450549,4,2,22,82,0,0
106683,-49.5049504950495,4,2,22,82,0,0
107631,-49.5049504950495,4,2,22,5,0,0
107717,-49.5049504950495,4,2,22,82,0,0
108062,-45.045045045045,4,2,22,82,0,0
109010,-45.045045045045,4,2,22,5,0,0
109097,-41.3223140495868,4,2,22,82,0,0
109183,-41.3223140495868,4,2,22,5,0,0
109269,-41.3223140495868,4,2,22,82,0,0
109355,-41.3223140495868,4,2,22,5,0,0
109441,-41.3223140495868,4,2,22,82,0,0
109528,-41.3223140495868,4,2,22,5,0,0
109614,-41.3223140495868,4,2,22,82,0,0
109700,-41.3223140495868,4,2,22,5,0,0
109786,-41.3223140495868,4,2,22,82,0,0
109873,-41.3223140495868,4,2,22,62,0,0
111166,-35.4609929078014,4,2,22,82,0,0
111252,-35.4609929078014,4,2,22,62,0,0
111855,-33.112582781457,4,2,22,72,0,0
112114,-33.112582781457,4,2,22,5,0,0
112200,-41.3223140495868,4,2,22,82,0,0
112286,-41.3223140495868,4,2,22,5,0,0
112373,-41.3223140495868,4,2,22,82,0,0
112459,-41.3223140495868,4,2,22,5,0,0
112545,-41.3223140495868,4,2,22,82,0,0
112631,-41.3223140495868,4,2,22,5,0,0
112717,-41.3223140495868,4,2,22,82,0,0
112804,-41.3223140495868,4,2,22,5,0,0
112890,-41.3223140495868,4,2,22,82,0,0
112976,-41.3223140495868,4,2,22,5,0,0
113062,-41.3223140495868,4,2,22,82,0,0
113148,-41.3223140495868,4,2,22,5,0,0
113235,-41.3223140495868,4,2,22,82,0,0
113321,-41.3223140495868,4,2,22,5,0,0
113407,-41.3223140495868,4,2,22,82,0,0
113493,-41.3223140495868,4,2,22,5,0,0
113579,-41.3223140495868,4,2,22,82,0,0
113666,-41.3223140495868,4,2,22,5,0,0
113752,-41.3223140495868,4,2,22,82,0,0
113838,-41.3223140495868,4,2,22,5,0,0
113924,-41.3223140495868,4,2,22,82,0,0
114010,-41.3223140495868,4,2,22,5,0,0
114097,-41.3223140495868,4,2,22,82,0,0
114183,-41.3223140495868,4,2,22,5,0,0
114269,-41.3223140495868,4,2,22,82,0,0
114355,-41.3223140495868,4,2,22,5,0,0
114441,-41.3223140495868,4,2,22,82,0,0
114528,-41.3223140495868,4,2,22,5,0,0
114614,-41.3223140495868,4,2,22,82,0,0
114700,-41.3223140495868,4,2,22,5,0,0
114786,-41.3223140495868,4,2,22,82,0,0
114873,-41.3223140495868,4,2,22,5,0,0
114959,-41.3223140495868,4,2,22,82,0,0
115046,-41.3223140495868,4,2,22,5,0,0
115131,-41.3223140495868,4,2,22,82,0,0
115218,-41.3223140495868,4,2,22,5,0,0
115304,-41.3223140495868,4,2,22,82,0,0
115391,-41.3223140495868,4,2,22,5,0,0
115476,-41.3223140495868,4,2,22,82,0,0
115563,-41.3223140495868,4,2,22,5,0,0
115648,-41.3223140495868,4,2,22,82,0,0
115735,-41.3223140495868,4,2,22,5,0,0
115821,-41.3223140495868,4,2,22,82,0,0
115908,-41.3223140495868,4,2,22,5,0,0
115993,-41.3223140495868,4,2,22,82,0,0
116079,-41.3223140495868,4,2,22,82,0,0
116080,-41.3223140495868,4,2,22,5,0,0
116166,-41.3223140495868,4,2,22,82,0,0
116253,-41.3223140495868,4,2,22,5,0,0
116338,-41.3223140495868,4,2,22,82,0,0
116425,-41.3223140495868,4,2,22,5,0,0
116683,-41.3223140495868,4,2,22,82,0,0
117373,-41.3223140495868,4,2,22,82,0,0
117545,-41.3223140495868,4,2,22,62,0,0
117717,-41.3223140495868,4,2,22,82,0,0
117890,-41.3223140495868,4,2,22,62,0,0
118407,-41.3223140495868,4,2,22,82,0,0
118579,-41.3223140495868,4,2,22,62,0,0
118752,-41.3223140495868,4,2,22,82,0,0
118924,-41.3223140495868,4,2,22,62,0,0
119097,-41.3223140495868,4,2,22,82,0,0
119269,-41.3223140495868,4,2,22,62,0,0
119441,-41.3223140495868,4,2,22,82,0,0
119786,-41.3223140495868,4,2,22,82,0,0
119872,-41.3223140495868,4,2,22,5,0,0
119959,-41.3223140495868,4,2,22,82,0,0
120045,-41.3223140495868,4,2,22,5,0,0
120131,-41.3223140495868,4,2,22,82,0,0
120217,-41.3223140495868,4,2,22,5,0,0
120304,-41.3223140495868,4,2,22,82,0,0
120390,-41.3223140495868,4,2,22,5,0,0
120476,-41.3223140495868,4,2,22,82,0,0
120562,-41.3223140495868,4,2,22,5,0,0
120649,-41.3223140495868,4,2,22,82,0,0
120735,-41.3223140495868,4,2,22,5,0,0
120821,-41.3223140495868,4,2,22,82,0,0
120907,-41.3223140495868,4,2,22,5,0,0
120994,-41.3223140495868,4,2,22,82,0,0
121080,-41.3223140495868,4,2,22,5,0,0
121166,-41.3223140495868,4,2,22,82,0,0
121252,-41.3223140495868,4,2,22,5,0,0
121339,-41.3223140495868,4,2,22,82,0,0
121425,-41.3223140495868,4,2,22,5,0,0
121510,-41.3223140495868,4,2,22,82,0,0
122545,-70.4225352112676,4,2,22,82,0,0
122631,-70.4225352112676,4,2,22,5,0,0
122717,-70.4225352112676,4,2,22,82,0,0
122803,-70.4225352112676,4,2,22,5,0,0
122890,-33.112582781457,4,2,22,82,0,0
123235,-38.1679389312977,4,2,22,82,0,0
123321,-38.1679389312977,4,2,22,5,0,0
123407,-38.1679389312977,4,2,22,82,0,0
123493,-38.1679389312977,4,2,22,5,0,0
123579,-38.1679389312977,4,2,22,82,0,0
123665,-38.1679389312977,4,2,22,5,0,0
123752,-38.1679389312977,4,2,22,82,0,0
123838,-38.1679389312977,4,2,22,5,0,0
123924,-38.1679389312977,4,2,22,82,0,0
124010,-38.1679389312977,4,2,22,5,0,0
124097,-38.1679389312977,4,2,22,82,0,0
124183,-38.1679389312977,4,2,22,5,0,0
124269,-38.1679389312977,4,2,22,82,0,0
124355,-38.1679389312977,4,2,22,5,0,0
124441,-38.1679389312977,4,2,22,82,0,0
124527,-38.1679389312977,4,2,22,5,0,0
124614,-38.1679389312977,4,2,22,82,0,0
124700,-38.1679389312977,4,2,22,5,0,0
124786,-38.1679389312977,4,2,22,82,0,0
124872,-38.1679389312977,4,2,22,5,0,0
124959,-38.1679389312977,4,2,22,82,0,0
125045,-38.1679389312977,4,2,22,5,0,0
125131,-38.1679389312977,4,2,22,82,0,0
125217,-38.1679389312977,4,2,22,5,0,0
125304,-38.1679389312977,4,2,22,82,0,0
125390,-38.1679389312977,4,2,22,5,0,0
125476,-38.1679389312977,4,2,22,82,0,0
125562,-38.1679389312977,4,2,22,5,0,0
125648,-38.1679389312977,4,2,22,82,0,0
125734,-38.1679389312977,4,2,22,5,0,0
125821,-38.1679389312977,4,2,22,82,0,0
125907,-38.1679389312977,4,2,22,5,0,0
125993,-38.1679389312977,4,2,22,82,0,0
126079,-38.1679389312977,4,2,22,5,0,0
126166,-38.1679389312977,4,2,22,82,0,0
126252,-38.1679389312977,4,2,22,5,0,0
126338,-38.1679389312977,4,2,22,82,0,0
126424,-38.1679389312977,4,2,22,5,0,0
126510,-38.1679389312977,4,2,22,82,0,0
126596,-38.1679389312977,4,2,22,5,0,0
126683,-38.1679389312977,4,2,22,82,0,0
126769,-38.1679389312977,4,2,22,5,0,0
126855,-38.1679389312977,4,2,22,82,0,0
126941,-38.1679389312977,4,2,22,5,0,0
127028,-38.1679389312977,4,2,22,82,0,0
127114,-38.1679389312977,4,2,22,5,0,0
127717,-45.045045045045,4,2,22,82,0,0
127804,-45.045045045045,4,2,22,72,0,0
130390,-45.045045045045,4,2,22,5,0,0
130476,-45.045045045045,4,2,22,82,0,0
130562,-45.045045045045,4,2,22,72,0,0
131166,-45.045045045045,4,2,22,82,0,0
131252,-45.045045045045,4,2,22,5,0,0
131338,-45.045045045045,4,2,22,82,0,0
131424,-45.045045045045,4,2,22,5,0,0
131510,-45.045045045045,4,2,22,82,0,0
131596,-45.045045045045,4,2,22,5,0,0
131683,-45.045045045045,4,2,22,82,0,0
131769,-45.045045045045,4,2,22,5,0,0
131855,-45.045045045045,4,2,22,82,0,0
132200,-81.9672131147541,4,2,22,62,0,0
132804,-81.9672131147541,4,2,22,5,0,0
132890,-81.9672131147541,4,2,22,52,0,0
133235,-35.4609929078014,4,2,22,82,0,0
133321,-35.4609929078014,4,2,22,62,0,0
134269,-35.4609929078014,4,2,22,82,0,0
134355,-35.4609929078014,4,2,22,5,0,0
134441,-35.4609929078014,4,2,22,82,0,0
134527,-35.4609929078014,4,2,22,5,0,0
134614,-35.4609929078014,4,2,22,82,0,0
134700,-35.4609929078014,4,2,22,5,0,0
134786,-35.4609929078014,4,2,22,82,0,0
134872,-35.4609929078014,4,2,22,5,0,0
134959,-35.4609929078014,4,2,22,82,0,0
135045,-35.4609929078014,4,2,22,5,0,0
135131,-35.4609929078014,4,2,22,82,0,0
135217,-35.4609929078014,4,2,22,5,0,0
135304,-35.4609929078014,4,2,22,82,0,0
135390,-35.4609929078014,4,2,22,5,0,0
135476,-35.4609929078014,4,2,22,82,0,0
135562,-35.4609929078014,4,2,22,5,0,0
135649,-35.4609929078014,4,2,22,82,0,0
135735,-35.4609929078014,4,2,22,5,0,0
135821,-35.4609929078014,4,2,22,82,0,0
135907,-35.4609929078014,4,2,22,5,0,0
135994,-35.4609929078014,4,2,22,82,0,0
136080,-35.4609929078014,4,2,22,5,0,0
136166,-35.4609929078014,4,2,22,82,0,0
136252,-35.4609929078014,4,2,22,5,0,0
136338,-35.4609929078014,4,2,22,82,0,0
136424,-35.4609929078014,4,2,22,5,0,0
136510,-35.4609929078014,4,2,22,82,0,0
136596,-35.4609929078014,4,2,22,5,0,0
136683,-35.4609929078014,4,2,22,82,0,0
136769,-35.4609929078014,4,2,22,5,0,0
136855,-35.4609929078014,4,2,22,82,0,0
136941,-35.4609929078014,4,2,22,5,0,0
137028,-35.4609929078014,4,2,22,82,0,0
137114,-35.4609929078014,4,2,22,5,0,0
137200,-35.4609929078014,4,2,22,82,0,0
137286,-35.4609929078014,4,2,22,5,0,0
137373,-35.4609929078014,4,2,22,82,0,0
137459,-35.4609929078014,4,2,22,5,0,0
137545,-35.4609929078014,4,2,22,82,0,0
137631,-35.4609929078014,4,2,22,5,0,0
137718,-35.4609929078014,4,2,22,82,0,0
137804,-35.4609929078014,4,2,22,5,0,0
137890,-35.4609929078014,4,2,22,82,0,0
137976,-35.4609929078014,4,2,22,5,0,0
138063,-35.4609929078014,4,2,22,82,0,0
138149,-35.4609929078014,4,2,22,5,0,0
138235,-35.4609929078014,4,2,22,82,0,0
138321,-35.4609929078014,4,2,22,5,0,0
138407,-35.4609929078014,4,2,22,82,0,0
139441,-38.1679389312977,4,2,22,82,0,0
139614,-38.1679389312977,4,2,22,62,0,0
139786,-38.1679389312977,4,2,22,82,0,0
139959,-38.1679389312977,4,2,22,62,0,0
140476,-38.1679389312977,4,2,22,82,0,0
140649,-38.1679389312977,4,2,22,62,0,0
140821,-38.1679389312977,4,2,22,82,0,0
140994,-38.1679389312977,4,2,22,62,0,0
141166,-38.1679389312977,4,2,22,82,0,0
141339,-38.1679389312977,4,2,22,62,0,0
141510,-38.1679389312977,4,2,22,82,0,0
141855,-38.1679389312977,4,2,22,82,0,0
141941,-38.1679389312977,4,2,22,5,0,0
142028,-38.1679389312977,4,2,22,82,0,0
142114,-38.1679389312977,4,2,22,5,0,0
142200,-38.1679389312977,4,2,22,82,0,0
142286,-38.1679389312977,4,2,22,5,0,0
142373,-38.1679389312977,4,2,22,82,0,0
142459,-38.1679389312977,4,2,22,5,0,0
142545,-38.1679389312977,4,2,22,82,0,0
142631,-38.1679389312977,4,2,22,5,0,0
142717,-38.1679389312977,4,2,22,82,0,0
142803,-38.1679389312977,4,2,22,5,0,0
142890,-38.1679389312977,4,2,22,82,0,0
142976,-38.1679389312977,4,2,22,5,0,0
143062,-38.1679389312977,4,2,22,82,0,0
143148,-38.1679389312977,4,2,22,5,0,0
143235,-38.1679389312977,4,2,22,82,0,0
143321,-38.1679389312977,4,2,22,5,0,0
143407,-38.1679389312977,4,2,22,82,0,0
143493,-38.1679389312977,4,2,22,5,0,0
143579,-38.1679389312977,4,2,22,82,0,0
143665,-38.1679389312977,4,2,22,5,0,0
143924,-38.1679389312977,4,2,22,72,0,0
144010,-38.1679389312977,4,2,22,5,0,0
144269,-38.1679389312977,4,2,22,82,0,0
144355,-38.1679389312977,4,2,22,5,0,0
144614,-61.7283950617284,4,2,22,82,0,0
144700,-61.7283950617284,4,2,22,5,0,0
144786,-61.7283950617284,4,2,22,82,0,0
144872,-61.7283950617284,4,2,22,5,0,0
144959,-33.112582781457,4,2,22,82,0,0
145217,-33.112582781457,4,2,22,5,0,0
145304,-33.112582781457,4,2,22,82,0,0
145390,-33.112582781457,4,2,22,5,0,0
145476,-33.112582781457,4,2,22,82,0,0
145562,-33.112582781457,4,2,22,5,0,0
145648,-33.112582781457,4,2,22,82,0,0
145734,-33.112582781457,4,2,22,5,0,0
145821,-33.112582781457,4,2,22,82,0,0
145907,-33.112582781457,4,2,22,5,0,0
145993,-33.112582781457,4,2,22,82,0,0
146079,-33.112582781457,4,2,22,5,0,0
146166,-33.112582781457,4,2,22,82,0,0
146252,-33.112582781457,4,2,22,5,0,0
146338,-33.112582781457,4,2,22,82,0,0
146424,-33.112582781457,4,2,22,5,0,0
146510,-33.112582781457,4,2,22,82,0,0
146596,-33.112582781457,4,2,22,5,0,0
146683,-33.112582781457,4,2,22,82,0,0
146769,-33.112582781457,4,2,22,5,0,0
146855,-33.112582781457,4,2,22,82,0,0
146941,-33.112582781457,4,2,22,5,0,0
147028,-33.112582781457,4,2,22,82,0,0
147114,-33.112582781457,4,2,22,5,0,0
147200,-33.112582781457,4,2,22,82,0,0
147286,-33.112582781457,4,2,22,5,0,0
147373,-33.112582781457,4,2,22,82,0,0
147459,-33.112582781457,4,2,22,5,0,0
147545,-33.112582781457,4,2,22,82,0,0
147631,-33.112582781457,4,2,22,5,0,0
147717,-33.112582781457,4,2,22,82,0,0
147803,-33.112582781457,4,2,22,5,0,0
147890,-33.112582781457,4,2,22,82,0,0
147976,-33.112582781457,4,2,22,5,0,0
148062,-33.112582781457,4,2,22,82,0,0
148148,-33.112582781457,4,2,22,5,0,0
148235,-33.112582781457,4,2,22,82,0,0
148321,-33.112582781457,4,2,22,5,0,0
148407,-33.112582781457,4,2,22,82,0,0
148493,-33.112582781457,4,2,22,5,0,0
148579,-33.112582781457,4,2,22,82,0,0
148665,-33.112582781457,4,2,22,5,0,0
148752,-33.112582781457,4,2,22,82,0,0
148838,-33.112582781457,4,2,22,5,0,0
148924,-33.112582781457,4,2,22,82,0,0
149010,-33.112582781457,4,2,22,5,0,0
149097,-33.112582781457,4,2,22,82,0,0
149183,-33.112582781457,4,2,22,5,0,0
149786,-38.1679389312977,4,2,22,82,0,0
149959,-38.1679389312977,4,2,22,62,0,0
150476,-38.1679389312977,4,2,22,82,0,0
150649,-38.1679389312977,4,2,22,62,0,0
150821,-38.1679389312977,4,2,22,82,0,0
150994,-38.1679389312977,4,2,22,62,0,0
151510,-38.1679389312977,4,2,22,82,0,0
151683,-38.1679389312977,4,2,22,62,0,0
151855,-38.1679389312977,4,2,22,82,0,0
152028,-38.1679389312977,4,2,22,62,0,0
152200,-38.1679389312977,4,2,22,82,0,0
152373,-38.1679389312977,4,2,22,62,0,0
152545,-38.1679389312977,4,2,22,82,0,0
152804,-38.1679389312977,4,2,22,5,0,0
152890,-38.1679389312977,4,2,22,82,0,0
153235,-38.1679389312977,4,2,22,82,0,0
153408,-38.1679389312977,4,2,22,62,0,0
153579,-38.1679389312977,4,2,22,82,0,0
155304,-61.7283950617284,4,2,22,82,0,0
155390,-61.7283950617284,4,2,22,72,0,0
156683,-61.7283950617284,4,2,22,72,0,0
156855,-61.7283950617284,4,2,22,52,0,0
157028,-61.7283950617284,4,2,22,72,0,0
157200,-61.7283950617284,4,2,22,52,0,0
157372,-61.7283950617284,4,2,22,72,0,0
157544,-61.7283950617284,4,2,22,52,0,0
157717,-61.7283950617284,4,2,22,72,0,0
159441,-61.7283950617284,4,2,22,72,0,0
159613,-61.7283950617284,4,2,22,52,0,0
159786,-61.7283950617284,4,2,22,72,0,0
159958,-61.7283950617284,4,2,22,52,0,0
160131,-61.7283950617284,4,2,22,72,0,0
160303,-61.7283950617284,4,2,22,52,0,0
160476,-61.7283950617284,4,2,22,72,0,0
160648,-61.7283950617284,4,2,22,52,0,0
160821,-61.7283950617284,4,2,22,72,0,0
160993,-61.7283950617284,4,2,22,52,0,0
161510,-61.7283950617284,4,2,22,72,0,0
162200,-61.7283950617284,4,2,22,72,0,0
162372,-61.7283950617284,4,2,22,52,0,0
162545,-61.7283950617284,4,2,22,72,0,0
162717,-61.7283950617284,4,2,22,52,0,0
162890,-61.7283950617284,4,2,22,72,0,0
163062,-61.7283950617284,4,2,22,52,0,0
163235,-61.7283950617284,4,2,22,72,0,0
163407,-61.7283950617284,4,2,22,52,0,0
163579,-61.7283950617284,4,2,22,72,0,0
164097,-61.7283950617284,4,2,22,52,0,0
164269,-61.7283950617284,4,2,22,72,0,0
164959,-61.7283950617284,4,2,22,72,0,0
165131,-61.7283950617284,4,2,22,52,0,0
165304,-61.7283950617284,4,2,22,72,0,0
165476,-61.7283950617284,4,2,22,52,0,0
165648,-61.7283950617284,4,2,22,72,0,0
165820,-61.7283950617284,4,2,22,52,0,0
165993,-61.7283950617284,4,2,22,72,0,0
166165,-61.7283950617284,4,2,22,52,0,0
166338,-61.7283950617284,4,2,22,72,0,0
166510,-61.7283950617284,4,2,22,52,0,0
166683,-61.7283950617284,4,2,22,72,0,0
166855,-61.7283950617284,4,2,22,52,0,0
167028,-61.7283950617284,4,2,22,72,0,0
167717,-61.7283950617284,4,2,22,72,0,0
167889,-61.7283950617284,4,2,22,52,0,0
168062,-61.7283950617284,4,2,22,72,0,0
168234,-61.7283950617284,4,2,22,52,0,0
168407,-61.7283950617284,4,2,22,72,0,0
168579,-61.7283950617284,4,2,22,52,0,0
168752,-61.7283950617284,4,2,22,72,0,0
169097,-61.7283950617284,4,2,22,72,0,0
169614,-61.7283950617284,4,2,22,52,0,0
169786,-61.7283950617284,4,2,22,72,0,0
170476,-61.7283950617284,4,2,22,72,0,0
170648,-61.7283950617284,4,2,22,52,0,0
170821,-61.7283950617284,4,2,22,72,0,0
170993,-61.7283950617284,4,2,22,52,0,0
171166,-61.7283950617284,4,2,22,72,0,0
171338,-61.7283950617284,4,2,22,52,0,0
171510,-61.7283950617284,4,2,22,72,0,0
171682,-61.7283950617284,4,2,22,52,0,0
171855,-61.7283950617284,4,2,22,72,0,0
172372,-61.7283950617284,4,2,22,52,0,0
172545,-61.7283950617284,4,2,22,72,0,0
173235,-61.7283950617284,4,2,22,72,0,0
173407,-61.7283950617284,4,2,22,52,0,0
173579,-61.7283950617284,4,2,22,72,0,0
173751,-61.7283950617284,4,2,22,52,0,0
173924,-61.7283950617284,4,2,22,72,0,0
174096,-61.7283950617284,4,2,22,52,0,0
174269,-61.7283950617284,4,2,22,72,0,0
175131,-61.7283950617284,4,2,22,52,0,0
175993,-61.7283950617284,4,2,22,72,0,0
176166,-61.7283950617284,4,2,22,52,0,0
176338,-61.7283950617284,4,2,22,72,0,0
176511,-61.7283950617284,4,2,22,52,0,0
176683,-61.7283950617284,4,2,22,72,0,0
176856,-61.7283950617284,4,2,22,52,0,0
177028,-61.7283950617284,4,2,22,72,0,0
177201,-61.7283950617284,4,2,22,52,0,0
177372,-61.7283950617284,4,2,22,72,0,0
177545,-61.7283950617284,4,2,22,42,0,0
182717,-61.7283950617284,4,2,22,52,0,0
182890,-312.5,4,2,22,62,0,0
182976,-312.5,4,2,22,12,0,0
185648,-238.095238095238,4,2,22,62,0,0
185735,-238.095238095238,4,2,22,12,0,0
187631,-238.095238095238,4,2,22,5,0,0
187717,-238.095238095238,4,2,22,62,0,0
188407,-38.1679389312977,4,2,22,82,0,0
188493,-38.1679389312977,4,2,22,72,0,0
188924,-38.1679389312977,4,2,22,52,0,0
189097,-38.1679389312977,4,2,22,72,0,0
191166,-45.045045045045,4,2,22,72,0,0
196683,-49.5049504950495,4,2,22,72,0,0
196769,-49.5049504950495,4,2,22,12,0,0
196855,-49.5049504950495,4,2,22,72,0,0
199441,-54.9450549450549,4,2,22,82,0,0
199528,-54.9450549450549,4,2,22,72,0,0
199959,-54.9450549450549,4,2,22,52,0,0
200131,-54.9450549450549,4,2,22,72,0,0
204959,-70.4225352112676,4,2,22,82,0,0
205045,-70.4225352112676,4,2,22,72,0,0
205476,-70.4225352112676,4,2,22,52,0,0
205648,-70.4225352112676,4,2,22,72,0,0
210476,-70.4225352112676,4,2,22,42,0,0
211683,-192.307692307692,4,2,22,52,0,0
212200,-138.888888888889,4,2,22,52,0,0
212717,-138.888888888889,4,2,22,62,0,0
212890,-138.888888888889,4,2,22,72,0,0
213235,-49.5049504950495,4,2,22,82,0,0
232545,-58.1395348837209,4,2,22,82,0,0
232631,-58.1395348837209,4,2,22,62,0,0
233924,-65.7894736842105,4,2,22,62,0,0
235304,-58.1395348837209,4,2,22,62,0,0
237372,-58.1395348837209,4,2,22,72,0,0
238062,-54.9450549450549,4,2,22,62,0,0
240821,-54.9450549450549,4,2,22,72,0,0
242200,-121.951219512195,4,2,22,82,0,0
242286,-121.951219512195,4,2,22,5,0,0
243579,-54.9450549450549,4,2,22,82,0,0
253321,-54.9450549450549,4,2,22,62,0,0
254614,-49.5049504950495,4,2,22,82,0,0
254872,-49.5049504950495,4,2,22,5,0,0
254959,-43.1034482758621,4,2,22,82,0,0
255217,-49.5049504950495,4,2,22,5,0,0
255304,-65.7894736842105,4,2,22,82,0,0
255562,-49.5049504950495,4,2,22,5,0,0
255648,-238.095238095238,4,2,22,82,0,0
260045,-312.5,4,2,22,5,0,0
260131,-81.9672131147541,4,2,22,82,0,0
260390,-81.9672131147541,4,2,22,5,0,0
260476,-81.9672131147541,4,2,22,82,0,0
260735,-81.9672131147541,4,2,22,5,0,0
260821,-70.4225352112676,4,2,22,82,0,0
261079,-70.4225352112676,4,2,22,5,0,0
261166,-70.4225352112676,4,2,22,82,0,0
261424,-70.4225352112676,4,2,22,5,0,0
261510,-61.7283950617284,4,2,22,82,0,0
261769,-61.7283950617284,4,2,22,5,0,0
261855,-61.7283950617284,4,2,22,82,0,0
262114,-61.7283950617284,4,2,22,5,0,0
262200,-54.9450549450549,4,2,22,82,0,0
262459,-54.9450549450549,4,2,22,5,0,0
262545,-54.9450549450549,4,2,22,82,0,0
262804,-54.9450549450549,4,2,22,5,0,0
262890,-54.9450549450549,4,2,22,82,0,0
265304,-49.5049504950495,4,2,22,82,0,0
267028,-35.4609929078014,4,2,22,82,0,0
267286,-35.4609929078014,4,2,22,5,0,0
267373,-38.1679389312977,4,2,22,92,0,1
267459,-38.1679389312977,4,2,22,5,0,1
267545,-38.1679389312977,4,2,22,92,0,1
267632,-38.1679389312977,4,2,22,5,0,1
267717,-38.1679389312977,4,2,22,92,0,1
267804,-38.1679389312977,4,2,22,5,0,1
267890,-38.1679389312977,4,2,22,92,0,1
267977,-38.1679389312977,4,2,22,5,0,1
268062,-38.1679389312977,4,2,22,92,0,1
268149,-38.1679389312977,4,2,22,5,0,1
268235,-38.1679389312977,4,2,22,92,0,1
268322,-38.1679389312977,4,2,22,5,0,1
268407,-38.1679389312977,4,2,22,92,0,1
268494,-38.1679389312977,4,2,22,5,0,1
268580,-38.1679389312977,4,2,22,92,0,1
268667,-38.1679389312977,4,2,22,5,0,1
268752,-38.1679389312977,4,2,22,92,0,1
268839,-38.1679389312977,4,2,22,5,0,1
268925,-38.1679389312977,4,2,22,92,0,1
269012,-38.1679389312977,4,2,22,5,0,1
269097,-38.1679389312977,4,2,22,92,0,1
269184,-38.1679389312977,4,2,22,5,0,1
269270,-38.1679389312977,4,2,22,92,0,1
269357,-38.1679389312977,4,2,22,5,0,1
269441,-38.1679389312977,4,2,22,92,0,1
269528,-38.1679389312977,4,2,22,5,0,1
269614,-38.1679389312977,4,2,22,92,0,1
269701,-38.1679389312977,4,2,22,5,0,1
269786,-38.1679389312977,4,2,22,92,0,1
269873,-38.1679389312977,4,2,22,5,0,1
269959,-38.1679389312977,4,2,22,92,0,1
270046,-38.1679389312977,4,2,22,5,0,1
270131,-38.1679389312977,4,2,22,92,0,1
270218,-38.1679389312977,4,2,22,5,0,1
270304,-38.1679389312977,4,2,22,92,0,1
270391,-38.1679389312977,4,2,22,5,0,1
270476,-38.1679389312977,4,2,22,92,0,1
270563,-38.1679389312977,4,2,22,5,0,1
270649,-38.1679389312977,4,2,22,92,0,1
270736,-38.1679389312977,4,2,22,5,0,1
270821,-38.1679389312977,4,2,22,92,0,1
270908,-38.1679389312977,4,2,22,5,0,1
270994,-38.1679389312977,4,2,22,92,0,1
271081,-38.1679389312977,4,2,22,5,0,1
271166,-38.1679389312977,4,2,22,92,0,1
271253,-38.1679389312977,4,2,22,5,0,1
271339,-38.1679389312977,4,2,22,92,0,1
271426,-38.1679389312977,4,2,22,5,0,1
271510,-38.1679389312977,4,2,22,92,0,1
271597,-38.1679389312977,4,2,22,5,0,1
271683,-38.1679389312977,4,2,22,92,0,1
271770,-38.1679389312977,4,2,22,5,0,1
271855,-38.1679389312977,4,2,22,92,0,0
271942,-38.1679389312977,4,2,22,5,0,0
272200,-32.0512820512821,4,2,22,82,0,0
272286,-32.0512820512821,4,2,22,5,0,0
272545,-35.4609929078014,4,2,22,82,0,0
272804,-35.4609929078014,4,2,22,5,0,0
272890,-35.4609929078014,4,2,22,92,0,1
272977,-38.1679389312977,4,2,22,5,0,1
273062,-35.4609929078014,4,2,22,92,0,1
273150,-38.1679389312977,4,2,22,5,0,1
273234,-35.4609929078014,4,2,22,92,0,1
273321,-38.1679389312977,4,2,22,5,0,1
273407,-35.4609929078014,4,2,22,92,0,1
273494,-38.1679389312977,4,2,22,5,0,1
273578,-35.4609929078014,4,2,22,92,0,1
273665,-38.1679389312977,4,2,22,5,0,1
273751,-35.4609929078014,4,2,22,92,0,1
273838,-38.1679389312977,4,2,22,5,0,1
273923,-35.4609929078014,4,2,22,92,0,1
274010,-38.1679389312977,4,2,22,5,0,1
274096,-35.4609929078014,4,2,22,92,0,1
274183,-38.1679389312977,4,2,22,5,0,1
274268,-35.4609929078014,4,2,22,92,0,1
274355,-38.1679389312977,4,2,22,5,0,1
274441,-35.4609929078014,4,2,22,92,0,1
274528,-38.1679389312977,4,2,22,5,0,1
274613,-35.4609929078014,4,2,22,92,0,1
274700,-38.1679389312977,4,2,22,5,0,1
274786,-35.4609929078014,4,2,22,92,0,1
274873,-38.1679389312977,4,2,22,5,0,1
274958,-35.4609929078014,4,2,22,92,0,1
275045,-38.1679389312977,4,2,22,5,0,1
275131,-35.4609929078014,4,2,22,92,0,1
275218,-38.1679389312977,4,2,22,5,0,1
275303,-35.4609929078014,4,2,22,92,0,1
275390,-38.1679389312977,4,2,22,5,0,1
275476,-35.4609929078014,4,2,22,92,0,1
275563,-38.1679389312977,4,2,22,5,0,1
275647,-35.4609929078014,4,2,22,92,0,1
275734,-38.1679389312977,4,2,22,5,0,1
275820,-35.4609929078014,4,2,22,92,0,1
275907,-38.1679389312977,4,2,22,5,0,1
275992,-35.4609929078014,4,2,22,92,0,1
276079,-38.1679389312977,4,2,22,5,0,1
276165,-35.4609929078014,4,2,22,92,0,1
276252,-38.1679389312977,4,2,22,5,0,1
276337,-35.4609929078014,4,2,22,92,0,1
276424,-38.1679389312977,4,2,22,5,0,1
276510,-35.4609929078014,4,2,22,92,0,1
276597,-38.1679389312977,4,2,22,5,0,1
276682,-35.4609929078014,4,2,22,92,0,1
276769,-38.1679389312977,4,2,22,5,0,1
276855,-35.4609929078014,4,2,22,92,0,1
276942,-38.1679389312977,4,2,22,5,0,1
277027,-35.4609929078014,4,2,22,92,0,1
277114,-38.1679389312977,4,2,22,5,0,1
277199,-35.4609929078014,4,2,22,92,0,1
277286,-38.1679389312977,4,2,22,5,0,1
277373,-35.4609929078014,4,2,22,92,0,0
277459,-38.1679389312977,4,2,22,62,0,0
278407,-70.4225352112676,4,2,22,82,0,0
278493,-70.4225352112676,4,2,22,5,0,0
278579,-70.4225352112676,4,2,22,82,0,0
278665,-70.4225352112676,4,2,22,5,0,0
278752,-31.055900621118,4,2,22,82,0,0
279010,-31.055900621118,4,2,22,5,0,0
279097,-41.3223140495868,4,2,22,82,0,0
279183,-41.3223140495868,4,2,22,5,0,0
279270,-41.3223140495868,4,2,22,82,0,0
279356,-41.3223140495868,4,2,22,5,0,0
279442,-41.3223140495868,4,2,22,82,0,0
279528,-41.3223140495868,4,2,22,5,0,0
279614,-41.3223140495868,4,2,22,82,0,0
279701,-41.3223140495868,4,2,22,5,0,0
279787,-41.3223140495868,4,2,22,82,0,0
279873,-41.3223140495868,4,2,22,5,0,0
279959,-41.3223140495868,4,2,22,82,0,0
280045,-41.3223140495868,4,2,22,5,0,0
280132,-41.3223140495868,4,2,22,82,0,0
280218,-41.3223140495868,4,2,22,5,0,0
280304,-41.3223140495868,4,2,22,82,0,0
280390,-41.3223140495868,4,2,22,5,0,0
280476,-41.3223140495868,4,2,22,82,0,0
280563,-41.3223140495868,4,2,22,5,0,0
280649,-41.3223140495868,4,2,22,82,0,0
280735,-41.3223140495868,4,2,22,5,0,0
280821,-41.3223140495868,4,2,22,82,0,0
280907,-41.3223140495868,4,2,22,5,0,0
280994,-41.3223140495868,4,2,22,82,0,0
281080,-41.3223140495868,4,2,22,5,0,0
281166,-41.3223140495868,4,2,22,82,0,0
281252,-41.3223140495868,4,2,22,5,0,0
281338,-41.3223140495868,4,2,22,82,0,0
281425,-41.3223140495868,4,2,22,5,0,0
281511,-41.3223140495868,4,2,22,82,0,0
281597,-41.3223140495868,4,2,22,5,0,0
281683,-41.3223140495868,4,2,22,82,0,0
281770,-41.3223140495868,4,2,22,5,0,0
281856,-41.3223140495868,4,2,22,82,0,0
281942,-41.3223140495868,4,2,22,5,0,0
282028,-41.3223140495868,4,2,22,82,0,0
282115,-41.3223140495868,4,2,22,5,0,0
282201,-41.3223140495868,4,2,22,82,0,0
282288,-41.3223140495868,4,2,22,5,0,0
282373,-41.3223140495868,4,2,22,82,0,0
282460,-41.3223140495868,4,2,22,5,0,0
282545,-41.3223140495868,4,2,22,82,0,0
282632,-41.3223140495868,4,2,22,5,0,0
282718,-41.3223140495868,4,2,22,82,0,0
282805,-41.3223140495868,4,2,22,5,0,0
282890,-41.3223140495868,4,2,22,82,0,0
282976,-41.3223140495868,4,2,22,82,0,0
282977,-41.3223140495868,4,2,22,5,0,0
283063,-41.3223140495868,4,2,22,82,0,0
283150,-41.3223140495868,4,2,22,5,0,0
283235,-41.3223140495868,4,2,22,82,0,0
283322,-41.3223140495868,4,2,22,5,0,0
283580,-41.3223140495868,4,2,22,82,0,0
284270,-41.3223140495868,4,2,22,82,0,0
284442,-41.3223140495868,4,2,22,62,0,0
284614,-41.3223140495868,4,2,22,82,0,0
284786,-41.3223140495868,4,2,22,62,0,0
285304,-41.3223140495868,4,2,22,82,0,0
285476,-41.3223140495868,4,2,22,62,0,0
285649,-41.3223140495868,4,2,22,82,0,0
285821,-41.3223140495868,4,2,22,62,0,0
285994,-41.3223140495868,4,2,22,82,0,0
286166,-41.3223140495868,4,2,22,62,0,0
286338,-41.3223140495868,4,2,22,82,0,0
286683,-41.3223140495868,4,2,22,82,0,0
286769,-41.3223140495868,4,2,22,5,0,0
286855,-41.3223140495868,4,2,22,82,0,0
286941,-41.3223140495868,4,2,22,5,0,0
287028,-41.3223140495868,4,2,22,82,0,0
287114,-41.3223140495868,4,2,22,5,0,0
287200,-41.3223140495868,4,2,22,82,0,0
287286,-41.3223140495868,4,2,22,5,0,0
287372,-41.3223140495868,4,2,22,82,0,0
287458,-41.3223140495868,4,2,22,5,0,0
287545,-41.3223140495868,4,2,22,82,0,0
287631,-41.3223140495868,4,2,22,5,0,0
287717,-41.3223140495868,4,2,22,82,0,0
287803,-41.3223140495868,4,2,22,5,0,0
287890,-41.3223140495868,4,2,22,82,0,0
287976,-41.3223140495868,4,2,22,5,0,0
288062,-41.3223140495868,4,2,22,82,0,0
288148,-41.3223140495868,4,2,22,5,0,0
288235,-41.3223140495868,4,2,22,82,0,0
288321,-41.3223140495868,4,2,22,5,0,0
288407,-41.3223140495868,4,2,22,82,0,0
288493,-41.3223140495868,4,2,22,62,0,0
289441,-70.4225352112676,4,2,22,82,0,0
289528,-70.4225352112676,4,2,22,5,0,0
289614,-70.4225352112676,4,2,22,82,0,0
289701,-70.4225352112676,4,2,22,5,0,0
289786,-33.112582781457,4,2,22,82,0,0
290045,-33.112582781457,4,2,22,5,0,0
290131,-38.1679389312977,4,2,22,82,0,0
290217,-38.1679389312977,4,2,22,5,0,0
290303,-38.1679389312977,4,2,22,82,0,0
290389,-38.1679389312977,4,2,22,5,0,0
290475,-38.1679389312977,4,2,22,82,0,0
290561,-38.1679389312977,4,2,22,5,0,0
290648,-38.1679389312977,4,2,22,82,0,0
290734,-38.1679389312977,4,2,22,5,0,0
290820,-38.1679389312977,4,2,22,82,0,0
290906,-38.1679389312977,4,2,22,5,0,0
290993,-38.1679389312977,4,2,22,82,0,0
291079,-38.1679389312977,4,2,22,5,0,0
291165,-38.1679389312977,4,2,22,82,0,0
291251,-38.1679389312977,4,2,22,5,0,0
291337,-38.1679389312977,4,2,22,82,0,0
291423,-38.1679389312977,4,2,22,5,0,0
291510,-38.1679389312977,4,2,22,82,0,0
291596,-38.1679389312977,4,2,22,5,0,0
291682,-38.1679389312977,4,2,22,82,0,0
291768,-38.1679389312977,4,2,22,5,0,0
291855,-38.1679389312977,4,2,22,82,0,0
291941,-38.1679389312977,4,2,22,5,0,0
292027,-38.1679389312977,4,2,22,82,0,0
292113,-38.1679389312977,4,2,22,5,0,0
292200,-38.1679389312977,4,2,22,82,0,0
292286,-38.1679389312977,4,2,22,5,0,0
292372,-38.1679389312977,4,2,22,82,0,0
292458,-38.1679389312977,4,2,22,5,0,0
292544,-38.1679389312977,4,2,22,82,0,0
292630,-38.1679389312977,4,2,22,5,0,0
292717,-38.1679389312977,4,2,22,82,0,0
292803,-38.1679389312977,4,2,22,5,0,0
292889,-38.1679389312977,4,2,22,82,0,0
292975,-38.1679389312977,4,2,22,5,0,0
293062,-38.1679389312977,4,2,22,82,0,0
293148,-38.1679389312977,4,2,22,5,0,0
293234,-38.1679389312977,4,2,22,82,0,0
293320,-38.1679389312977,4,2,22,5,0,0
293406,-38.1679389312977,4,2,22,82,0,0
293492,-38.1679389312977,4,2,22,5,0,0
293579,-38.1679389312977,4,2,22,82,0,0
293665,-38.1679389312977,4,2,22,5,0,0
293751,-38.1679389312977,4,2,22,82,0,0
293837,-38.1679389312977,4,2,22,5,0,0
293924,-38.1679389312977,4,2,22,82,0,0
294010,-38.1679389312977,4,2,22,5,0,0
294614,-38.1679389312977,4,2,22,82,0,0
294787,-38.1679389312977,4,2,22,62,0,0
295304,-38.1679389312977,4,2,22,82,0,0
295477,-38.1679389312977,4,2,22,62,0,0
295649,-38.1679389312977,4,2,22,82,0,0
295822,-38.1679389312977,4,2,22,62,0,0
296338,-38.1679389312977,4,2,22,82,0,0
296511,-38.1679389312977,4,2,22,62,0,0
296683,-38.1679389312977,4,2,22,82,0,0
296856,-38.1679389312977,4,2,22,62,0,0
297028,-38.1679389312977,4,2,22,82,0,0
297201,-38.1679389312977,4,2,22,62,0,0
297373,-38.1679389312977,4,2,22,82,0,0
300735,-38.1679389312977,4,2,22,12,0,0
300821,-38.1679389312977,4,2,22,72,0,0

[Colours]
Combo1 : 255,155,55
Combo2 : 167,167,167
Combo3 : 190,137,137
Combo4 : 255,32,32
Combo5 : 255,157,157
Combo6 : 251,255,85

[HitObjects]
256,192,131,12,0,4384,0:2:0:0:
151,67,4959,5,2,0:2:0:0:
210,118,5131,1,0,0:2:0:0:
289,119,5304,1,0,0:2:0:0:
353,73,5476,1,0,0:2:0:0:
342,151,5648,1,0,0:2:0:0:
327,229,5821,1,2,0:2:0:0:
311,306,5993,1,2,0:2:0:0:
327,229,6166,1,2,0:2:0:0:
252,254,6338,5,2,0:2:0:0:
176,278,6510,1,0,0:2:0:0:
190,199,6683,1,0,0:2:0:0:
113,179,6855,1,0,0:2:0:0:
174,128,7028,1,0,0:2:0:0:
127,63,7200,1,2,0:2:0:0:
75,1,7373,1,0,0:2:0:0:
127,63,7545,1,2,0:2:0:0:
204,48,7717,69,2,0:2:0:0:
282,32,7890,1,0,0:2:0:0:
360,17,8062,1,0,0:2:0:0:
336,93,8235,1,0,0:2:0:0:
414,79,8407,1,0,0:2:0:0:
471,134,8579,1,2,0:2:0:0:
475,213,8752,1,2,0:2:0:0:
408,251,8924,1,2,0:2:0:0:
332,234,9097,5,2,0:2:0:0:
386,176,9269,1,0,0:2:0:0:
408,251,9441,1,0,0:2:0:0:
332,234,9614,1,0,0:2:0:0:
386,176,9786,1,0,0:2:0:0:
408,251,9959,1,2,0:2:0:0:
332,234,10131,1,0,0:2:0:0:
386,176,10304,1,2,0:2:0:0:
332,234,10476,69,2,0:2:0:0:
255,255,10648,1,0,0:2:0:0:
177,235,10821,1,0,0:2:0:0:
120,179,10993,1,0,0:2:0:0:
196,154,11166,1,0,0:2:0:0:
152,87,11338,1,2,0:2:0:0:
228,107,11510,1,2,0:2:0:0:
241,28,11683,1,2,0:2:0:0:
269,102,11855,5,2,0:2:0:0:
345,81,12028,1,0,0:2:0:0:
410,126,12200,1,0,0:2:0:0:
427,203,12373,1,0,0:2:0:0:
350,181,12545,1,0,0:2:0:0:
365,258,12717,1,2,0:2:0:0:
288,234,12890,1,2,0:2:0:0:
300,312,13062,1,2,0:2:0:0:
258,243,13235,69,2,0:2:0:0:
183,216,13407,1,0,0:2:0:0:
103,221,13579,1,0,0:2:0:0:
54,284,13752,1,0,0:2:0:0:
125,250,13924,1,0,0:2:0:0:
154,175,14097,1,2,0:2:0:0:
140,96,14269,1,2,0:2:0:0:
78,45,14441,1,2,0:2:0:0:
110,118,14614,5,2,0:2:0:0:
157,54,14786,1,0,0:2:0:0:
194,124,14959,1,0,0:2:0:0:
235,44,15131,1,0,0:2:0:0:
278,110,15304,1,0,0:2:0:0:
316,40,15476,1,2,0:2:0:0:
379,87,15648,1,0,0:2:0:0:
438,34,15821,1,2,0:2:0:0:
408,107,15993,69,2,0:2:0:0:
430,183,16166,1,2,0:2:0:0:
452,259,16338,1,2,0:2:0:0:
474,334,16510,1,0,0:2:0:0:
396,316,16683,1,0,0:2:0:0:
320,292,16855,1,2,0:2:0:0:
245,263,17028,1,2,0:2:0:0:
323,255,17200,1,2,0:2:0:0:
250,287,17373,5,2,0:2:0:0:
322,319,17545,1,0,0:2:0:0:
243,327,17717,1,2,0:2:0:0:
313,363,17890,1,0,0:2:0:0:
233,366,18062,1,0,0:2:0:0:
296,317,18235,1,2,0:2:0:0:
314,239,18407,1,0,0:2:0:0:
304,160,18579,1,2,0:2:0:0:
250,100,18752,69,2,0:2:0:0:
262,178,18924,1,0,0:2:0:0:
182,170,19097,1,2,0:2:0:0:
165,247,19269,1,0,0:2:0:0:
85,247,19441,1,0,0:2:0:0:
150,291,19614,1,2,0:2:0:0:
229,295,19786,1,2,0:2:0:0:
299,257,19959,1,2,0:2:0:0:
219,263,20131,5,2,0:2:0:0:
283,310,20304,1,0,0:2:0:0:
293,231,20476,1,2,0:2:0:0:
219,263,20648,1,0,0:2:0:0:
283,310,20821,1,0,0:2:0:0:
293,231,20993,1,2,0:2:0:0:
219,263,21166,1,0,0:2:0:0:
283,310,21338,1,2,0:2:0:0:
357,282,21510,69,2,0:2:0:0:
366,202,21683,1,0,0:2:0:0:
309,145,21855,1,2,0:2:0:0:
284,69,22028,1,0,0:2:0:0:
348,22,22200,1,2,0:2:0:0:
306,90,22373,1,2,0:2:0:0:
234,55,22545,1,0,0:2:0:0:
189,120,22717,1,2,0:2:0:0:
120,79,22890,5,2,0:2:0:0:
166,143,23062,1,0,0:2:0:0:
156,222,23235,1,0,0:2:0:0:
84,255,23407,1,0,0:2:0:0:
119,325,23579,1,0,0:2:0:0:
192,293,23752,1,2,0:2:0:0:
156,222,23924,1,2,0:2:0:0:
84,255,24097,1,2,0:2:0:0:
163,256,24269,69,2,0:2:0:0:
235,224,24441,1,0,0:2:0:0:
264,150,24614,1,2,0:2:0:0:
329,105,24786,1,0,0:2:0:0:
408,111,24959,1,2,0:2:0:0:
338,150,25131,1,2,0:2:0:0:
416,165,25304,1,0,0:2:0:0:
345,201,25476,1,2,0:2:0:0:
422,215,25648,5,2,0:2:0:0:
350,250,25821,1,0,0:2:0:0:
279,286,25993,1,2,0:2:0:0:
206,320,26166,1,0,0:2:0:0:
257,260,26338,1,2,0:2:0:0:
184,229,26510,1,2,0:2:0:0:
111,196,26683,1,2,0:2:0:0:
39,162,26855,1,2,0:2:0:0:
210,142,27028,70,0,B|424:161|278:33|538:54,1,330.719997981445,6|0,0:2|0:2,0:0:0:0:
512,52,29786,2,0,P|498:87|487:152,2,82.6799994953613,2|0|0,0:2|0:2|0:2,0:0:0:0:
428,222,31166,2,0,P|401:146|302:138,1,165.359998990723,2|0,0:2|0:2,0:0:0:0:
203,289,32545,6,0,P|153:341|129:187,1,330.719997981445,6|0,0:2|0:2,0:0:0:0:
108,189,35304,2,0,B|297:135|229:280|426:278,1,330.719997981445,6|0,0:2|0:2,0:0:0:0:
408,277,38062,70,0,P|376:247|502:243,1,330.719997981445,6|0,0:2|0:2,0:0:0:0:
502,240,40821,2,0,P|463:229|420:227,2,82.6799994953613,2|2|2,0:2|0:2|0:2,0:0:0:0:
334,292,42200,2,0,P|250:314|167:323,1,165.359998990723,2|0,0:2|0:2,0:0:0:0:
13,158,43579,6,0,P|38:92|261:124,1,330.719997981445,6|0,0:2|0:2,0:0:0:0:
255,110,46338,2,0,B|340:110|377:201|377:201|426:114|521:116,1,330.719997981445,6|0,0:2|0:2,0:0:0:0:
512,116,49097,70,0,B|459:168|470:328|470:328|470:248|509:218,1,330.719997981445,6|0,0:2|0:2,0:0:0:0:
500,226,51855,2,0,P|451:244|399:243,2,82.6799994953613,2|0|0,0:2|0:2|0:2,0:0:0:0:
358,180,53235,2,0,P|311:150|192:147,1,165.359998990723,2|0,0:2|0:2,0:0:0:0:
81,341,54614,6,0,B|148:124|8:226|79:1,1,330.719997981445,6|0,0:2|0:2,0:0:0:0:
72,22,57373,2,0,P|174:126|340:83,1,330.719997981445,6|0,0:2|0:2,0:0:0:0:
124,302,60131,69,8,1:2:0:0:
88,291,60217,1,8,1:2:0:0:
53,283,60303,1,8,1:2:0:0:
391,82,60648,1,8,1:2:0:0:
426,71,60734,1,8,1:2:0:0:
461,63,60820,1,8,1:2:0:0:
79,33,62890,5,8,1:2:0:0:
75,64,62976,1,8,1:2:0:0:
71,96,63062,1,8,1:2:0:0:
373,291,63407,1,8,1:2:0:0:
369,258,63493,1,8,1:2:0:0:
365,226,63579,1,8,1:2:0:0:
83,350,63924,1,0,0:2:0:0:
151,222,64097,1,0,0:2:0:0:
260,347,64269,2,0,L|386:326,1,108.120000659912,4|2,0:2|0:2,0:0:0:0:
395,338,65131,1,2,0:2:0:0:
431,349,65476,1,2,0:2:0:0:
284,116,65648,69,8,1:2:0:0:
278,83,65734,1,8,1:2:0:0:
272,51,65820,1,8,1:2:0:0:
76,263,66166,1,8,1:2:0:0:
70,294,66252,1,8,1:2:0:0:
64,327,66338,1,8,1:2:0:0:
114,98,66510,1,0,1:2:0:0:
220,236,66683,1,8,1:3:0:0:
273,69,66855,1,0,1:2:0:0:
86,228,67028,5,4,1:3:0:0:
354,249,67200,1,0,1:2:0:0:
203,126,67373,1,8,1:3:0:0:
338,4,67545,1,0,1:2:0:0:
220,236,67717,1,4,1:3:0:0:
78,17,67890,1,0,1:2:0:0:
315,160,68062,1,8,1:3:0:0:
108,327,68235,1,0,1:2:0:0:
273,69,68407,69,8,1:2:0:0:
318,59,68493,1,8,1:2:0:0:
361,48,68579,2,0,L|408:39,1,27.030000164978,8|0,1:2|1:2,0:0:0:0:
227,187,68752,2,0,L|200:181,1,27.030000164978,8|0,1:3|1:2,0:0:0:0:
374,245,68924,1,8,1:2:0:0:
414,236,69010,1,8,1:2:0:0:
455,226,69096,2,0,L|502:217,1,27.030000164978,8|0,1:2|1:2,0:0:0:0:
328,363,69269,2,0,L|301:357,1,27.030000164978,8|0,1:3|1:2,0:0:0:0:
206,209,69441,2,0,L|232:214,1,27.030000164978,4|0,1:3|1:2,0:0:0:0:
442,258,69614,2,0,L|415:263,1,27.030000164978,4|0,1:3|1:2,0:0:0:0:
320,168,69786,5,0,1:2:0:0:
321,151,69872,1,0,1:2:0:0:
322,135,69958,1,0,1:2:0:0:
323,119,70044,1,0,1:2:0:0:
324,103,70130,1,0,1:2:0:0:
325,87,70217,1,0,1:2:0:0:
326,70,70303,1,0,1:2:0:0:
328,54,70389,1,0,1:2:0:0:
329,38,70475,5,8,1:2:0:0:
294,80,70562,1,8,1:2:0:0:
240,84,70648,1,8,1:2:0:0:
194,53,70735,1,8,1:2:0:0:
140,51,70821,1,8,1:2:0:0:
99,86,70907,1,8,1:2:0:0:
90,139,70993,1,8,1:2:0:0:
112,188,71079,1,8,1:2:0:0:
161,211,71166,70,0,L|228:200,1,54.0600003299561,6|0,1:2|0:2,0:0:0:0:
390,170,71510,1,0,3:2:0:0:
390,170,71597,1,0,3:2:0:0:
390,170,71683,1,0,3:2:0:0:
390,170,71769,1,0,3:2:0:0:
390,170,71855,2,0,P|385:199|382:228,1,54.0600003299561,2|0,3:2|0:2,0:0:0:0:
230,67,72200,1,2,0:2:0:0:
181,133,72373,2,0,P|185:159|188:186,1,54.0600003299561,2|0,0:2|0:2,0:0:0:0:
426,38,72717,1,2,0:2:0:0:
460,114,72890,1,2,0:2:0:0:
255,28,73062,69,0,1:2:0:0:
206,220,73235,1,2,1:2:0:0:
28,27,73407,2,0,L|43:117,1,75.2599962103579,10|0,0:2|0:2,0:0:0:0:
57,186,73752,1,2,1:2:0:0:
332,93,73924,6,0,P|366:84|394:83,1,54.0600003299561,6|0,1:2|0:2,0:0:0:0:
287,212,74269,1,0,3:2:0:0:
287,212,74355,1,0,3:2:0:0:
287,212,74441,1,0,3:2:0:0:
287,212,74528,1,0,3:2:0:0:
287,212,74614,2,0,P|260:209|234:201,1,54.0600003299561,2|0,3:2|0:2,0:0:0:0:
162,253,74873,1,0,0:2:0:0:
162,253,74959,2,0,L|124:260,1,27.030000164978,2|0,0:2|0:2,0:0:0:0:
149,117,75131,1,2,1:2:0:0:
367,258,75304,69,8,1:2:0:0:
375,203,75390,1,8,1:2:0:0:
382,148,75476,2,0,L|386:110,1,37.6299981051789,8|0,1:2|1:2,0:0:0:0:
204,240,75648,1,8,1:2:0:0:
196,185,75734,1,8,1:2:0:0:
188,131,75820,2,0,L|183:94,1,37.6299981051789,8|0,1:2|1:2,0:0:0:0:
292,186,75993,2,0,L|298:135,1,37.6299981051789,8|0,1:3|1:2,0:0:0:0:
116,275,76166,2,0,L|110:224,1,37.6299981051789,8|0,1:3|1:2,0:0:0:0:
275,306,76338,1,4,1:3:0:0:
275,313,76424,1,4,1:3:0:0:
276,321,76510,1,4,1:3:0:0:
276,328,76596,1,4,1:3:0:0:
277,336,76683,6,0,P|310:348|342:351,1,54.0600003299561,6|0,1:2|0:2,0:0:0:0:
407,214,77028,1,0,3:2:0:0:
407,214,77114,1,0,3:2:0:0:
407,214,77200,1,0,3:2:0:0:
407,214,77286,1,0,3:2:0:0:
407,214,77373,2,0,P|374:226|342:229,1,54.0600003299561,2|0,3:2|0:2,0:0:0:0:
170,116,77717,1,2,0:2:0:0:
206,188,77890,2,0,P|218:227|219:259,1,54.0600003299561,2|0,0:2|0:2,0:0:0:0:
378,75,78235,1,2,0:2:0:0:
342,147,78408,2,0,P|330:186|329:218,1,54.0600003299561,2|0,0:2|0:2,0:0:0:0:
145,99,78752,1,2,0:2:0:0:
181,171,78925,2,0,P|193:210|194:242,1,54.0600003299561,2|0,0:2|0:2,0:0:0:0:
33,351,79269,1,0,1:2:0:0:
36,297,79355,1,0,1:2:0:0:
40,243,79441,69,14,1:2:0:0:
422,339,80648,2,0,L|427:300,1,27.030000164978,0|0,1:2|1:2,0:0:0:0:
435,113,80821,1,8,1:2:0:0:
393,118,80907,1,8,1:2:0:0:
350,126,80993,2,0,L|307:135,1,27.030000164978,8|0,1:2|1:2,0:0:0:0:
281,257,81166,2,0,L|254:251,1,27.030000164978,0|0,1:2|1:2,0:0:0:0:
203,49,81338,2,0,L|176:54,1,27.030000164978,8|0,1:2|1:2,0:0:0:0:
66,215,81510,1,8,1:2:0:0:
53,161,81597,1,8,1:2:0:0:
37,109,81683,2,0,L|28:71,1,27.030000164978,8|0,1:2|1:2,0:0:0:0:
164,279,81855,1,8,1:2:0:0:
300,11,82028,1,8,1:2:0:0:
474,205,82200,5,4,1:2:0:0:
454,186,82286,1,0,3:2:0:0:
430,174,82372,1,0,3:2:0:0:
403,170,82458,1,0,3:2:0:0:
377,174,82544,1,0,1:2:0:0:
352,185,82631,1,0,3:2:0:0:
333,204,82717,1,0,3:2:0:0:
319,227,82803,1,0,3:2:0:0:
314,253,82889,1,0,1:2:0:0:
308,280,82976,1,0,3:2:0:0:
295,303,83062,1,0,3:2:0:0:
275,322,83148,1,0,3:2:0:0:
251,333,83235,1,0,1:2:0:0:
225,337,83321,1,0,3:2:0:0:
198,333,83407,70,0,L|191:288,3,27.030000164978,2|0|0|0,3:2|3:2|1:2|3:2,0:0:0:0:
109,241,83752,2,0,L|104:280,1,27.030000164978,0|0,3:2|3:2,0:0:0:0:
241,187,83924,2,0,L|236:160,3,27.030000164978,2|0|0|0,1:2|3:2|3:2|3:2,0:0:0:0:
129,74,84269,2,0,L|124:113,1,27.030000164978,0|0,1:2|3:2,0:0:0:0:
216,180,84441,2,0,L|220:206,3,27.030000164978,2|0|0|0,3:2|3:2|1:2|3:2,0:0:0:0:
327,82,84786,2,0,L|323:55,1,27.030000164978,2|0,3:2|3:2,0:0:0:0:
416,194,84959,5,4,1:2:0:0:
429,217,85045,1,0,3:2:0:0:
434,243,85131,1,0,3:2:0:0:
430,270,85217,1,0,3:2:0:0:
418,294,85303,1,0,1:2:0:0:
398,312,85390,1,0,3:2:0:0:
374,324,85476,1,0,3:2:0:0:
347,326,85562,1,0,3:2:0:0:
321,323,85648,1,0,1:2:0:0:
300,305,85734,1,0,3:2:0:0:
277,292,85820,1,0,3:2:0:0:
251,283,85906,1,0,3:2:0:0:
224,280,85992,1,0,1:2:0:0:
197,282,86079,1,0,3:2:0:0:
171,294,86166,70,0,L|127:310,3,27.030000164978,2|0|0|0,3:2|3:2|1:2|3:2,0:0:0:0:
239,175,86510,1,0,3:2:0:0:
239,175,86597,1,0,3:2:0:0:
239,175,86683,2,0,L|282:182,3,27.030000164978,2|0|0|0,1:2|3:2|3:2|3:2,0:0:0:0:
131,83,87028,1,0,1:2:0:0:
131,83,87114,1,0,3:2:0:0:
131,83,87200,2,0,L|88:90,3,27.030000164978,2|0|0|0,3:2|3:2|1:2|3:2,0:0:0:0:
276,11,87545,1,2,3:2:0:0:
276,11,87631,1,0,3:2:0:0:
276,11,87717,5,4,1:2:0:0:
302,11,87803,1,0,3:2:0:0:
328,20,87889,1,0,3:2:0:0:
350,36,87975,1,0,3:2:0:0:
367,57,88061,1,0,1:2:0:0:
376,82,88148,1,0,3:2:0:0:
379,109,88234,1,0,3:2:0:0:
373,135,88320,1,0,3:2:0:0:
360,158,88407,1,0,1:2:0:0:
340,139,88493,1,0,3:2:0:0:
316,127,88579,1,0,3:2:0:0:
290,122,88665,1,0,3:2:0:0:
263,125,88751,1,0,1:2:0:0:
238,136,88838,1,0,3:2:0:0:
218,153,88924,70,0,P|183:167|173:167,3,27.030000164978,2|0|0|0,3:2|3:2|1:0|3:0,0:0:0:0:
101,69,89269,2,0,P|65:55|55:55,1,27.030000164978,0|0,3:2|3:2,0:0:0:0:
50,225,89441,2,0,P|14:238|4:238,3,27.030000164978,2|0|0|0,1:2|3:2|3:0|3:0,0:0:0:0:
82,85,89786,2,0,P|94:89|106:96,1,27.030000164978,0|0,1:2|3:2,0:0:0:0:
198,255,89959,2,0,P|210:250|222:243,3,27.030000164978,2|0|0|0,3:2|3:2|1:2|3:2,0:0:0:0:
308,89,90304,1,2,3:2:0:0:
308,89,90390,1,0,3:2:0:0:
308,89,90476,6,0,L|316:131,1,27.030000164978,0|0,1:2|3:2,0:0:0:0:
376,225,90648,2,0,L|381:198,1,27.030000164978,0|0,1:2|3:2,0:0:0:0:
401,46,90821,2,0,L|393:88,1,27.030000164978,0|0,1:2|3:2,0:0:0:0:
289,251,90993,2,0,L|283:224,1,27.030000164978,0|0,1:2|3:2,0:0:0:0:
212,41,91166,2,0,L|220:83,1,27.030000164978,0|0,1:2|3:2,0:0:0:0:
455,275,91338,2,0,L|460:248,1,27.030000164978,0|0,1:2|3:2,0:0:0:0:
187,157,91510,1,0,1:2:0:0:
141,179,91596,1,0,1:2:0:0:
112,221,91682,1,0,1:2:0:0:
107,271,91768,1,0,1:2:0:0:
126,318,91854,69,8,1:2:0:0:
282,132,92028,1,0,1:2:0:0:
354,371,92200,1,8,1:2:0:0:
104,102,92373,1,0,1:2:0:0:
104,102,92459,1,0,1:2:0:0:
104,102,92545,1,8,1:2:0:0:
144,66,92631,1,8,1:2:0:0:
197,57,92717,1,8,1:3:0:0:
246,80,92804,1,8,1:3:0:0:
262,131,92890,1,4,1:3:0:0:
306,160,92976,1,4,1:3:0:0:
359,161,93062,1,4,1:3:0:0:
406,135,93148,1,4,1:3:0:0:
422,82,93235,5,14,1:2:0:0:
348,306,93407,1,0,1:2:0:0:
334,61,93579,1,0,1:2:0:0:
168,344,93752,1,8,1:2:0:0:
116,122,93924,1,0,1:2:0:0:
312,287,94097,2,0,P|302:241|297:211,1,75.2599962103579,0|0,1:0|1:0,0:0:0:0:
127,348,94441,1,4,1:3:0:0:
434,338,94614,69,12,1:2:0:0:
336,55,94786,1,0,1:2:0:0:
281,266,94959,1,0,1:2:0:0:
73,17,95131,1,8,1:2:0:0:
310,144,95304,1,0,1:2:0:0:
4,229,95476,1,0,1:2:0:0:
179,125,95648,1,4,1:3:0:0:
23,197,95821,1,4,1:3:0:0:
266,353,95993,5,12,1:2:0:0:
167,94,96166,1,0,1:2:0:0:
301,263,96338,1,0,1:2:0:0:
389,14,96510,1,8,1:2:0:0:
87,129,96683,1,0,1:2:0:0:
302,47,96855,2,0,P|247:35|213:17,1,75.2599962103579,0|0,1:0|1:0,0:0:0:0:
377,186,97200,1,4,1:3:0:0:
48,287,97373,70,0,L|36:190,1,75.2599962103579,8|0,1:2|1:2,0:0:0:0:
192,70,97717,1,0,1:2:0:0:
328,335,97890,1,8,1:2:0:0:
265,7,98062,1,8,1:2:0:0:
197,372,98235,1,8,1:2:0:0:
357,19,98407,1,8,1:2:0:0:
442,384,98579,1,8,1:2:0:0:
192,70,98752,6,0,L|183:169,1,75.2599962103579,14|0,1:2|1:2,0:0:0:0:
307,229,99010,1,0,1:2:0:0:
307,229,99097,2,0,L|298:300,1,37.6299981051789,0|0,1:2|1:2,0:0:0:0:
93,110,99269,2,0,L|102:209,1,75.2599962103579,10|0,1:2|1:2,0:0:0:0:
220,277,99528,1,0,1:2:0:0:
220,277,99615,2,0,L|229:348,1,37.6299981051789,0|0,1:2|1:2,0:0:0:0:
386,180,99786,2,0,L|390:142,1,37.6299981051789,0|0,1:2|1:2,0:0:0:0:
194,263,99959,2,0,L|203:334,1,37.6299981051789,0|0,1:2|1:2,0:0:0:0:
479,204,100131,70,0,L|468:98,1,75.2599962103579,10|0,1:2|1:2,0:0:0:0:
336,60,100390,1,0,1:2:0:0:
336,60,100476,2,0,L|345:17,1,37.6299981051789,0|0,1:2|1:2,0:0:0:0:
182,229,100648,2,0,L|189:154,1,75.2599962103579,10|0,1:2|1:2,0:0:0:0:
46,56,100907,1,0,1:2:0:0:
46,56,100993,2,0,L|37:13,1,37.6299981051789,0|0,1:2|1:2,0:0:0:0:
171,123,101166,2,0,L|163:159,1,37.6299981051789,0|0,1:2|1:2,0:0:0:0:
23,263,101338,2,0,L|15:226,1,37.6299981051789,0|0,1:2|1:2,0:0:0:0:
267,106,101510,6,0,L|281:183,1,48.2300016190491,10|0,1:2|1:2,0:0:0:0:
255,280,101683,2,0,L|262:232,1,48.2300016190491,0|0,1:2|1:2,0:0:0:0:
184,43,101855,70,0,L|170:120,1,48.2300016190491,8|0,1:2|1:2,0:0:0:0:
367,216,102028,2,0,L|359:168,1,48.2300016190491,0|0,1:2|1:2,0:0:0:0:
419,0,102200,6,0,L|410:47,1,48.2300016190491,8|0,1:2|1:2,0:0:0:0:
122,189,102373,2,0,L|113:141,1,48.2300016190491,0|0,1:2|1:2,0:0:0:0:
464,128,102545,70,0,L|455:175,1,48.2300016190491,8|0,1:2|1:2,0:0:0:0:
129,338,102718,2,0,L|120:290,1,48.2300016190491,0|0,1:2|1:2,0:0:0:0:
274,31,102890,5,10,1:2:0:0:
464,328,103407,1,2,0:2:0:0:
29,177,103924,1,2,0:2:0:0:
459,134,104269,70,0,P|324:137|241:84,1,214.119995752625,6|0,1:2|0:2,0:0:0:0:
196,156,104700,2,0,P|95:190|69:188,1,122.960003752442,2|0,0:2|0:2,0:0:0:0:
12,133,104959,2,0,P|42:110|62:170,1,120.839998524902,2|0,0:2|0:2,0:0:0:0:
44,282,105304,6,0,B|150:379|319:286|227:170|388:68|503:183,1,530.53001780954,4|0,1:2|0:2,0:0:0:0:
504,256,106338,1,8,0:2:0:0:
511,159,106683,70,0,B|399:59|215:135|324:268|148:376|11:241,1,588.829988319718,6|0,1:2|0:2,0:0:0:0:
38,114,107717,1,8,0:2:0:0:
0,194,108062,6,0,B|106:375|329:245|180:102|445:18|539:172,1,647.130015799073,4|0,1:2|0:2,0:0:0:0:
480,271,109097,70,0,L|468:194,1,64.1299981896897,10|0,1:2|0:2,0:0:0:0:
289,57,109269,2,0,L|279:120,1,64.1299981896897,2|0,1:2|0:2,0:0:0:0:
230,343,109441,2,0,L|218:266,1,64.1299981896897,2|0,1:2|0:2,0:0:0:0:
39,129,109613,2,0,L|29:192,1,64.1299981896897,2|0,1:2|0:2,0:0:0:0:
342,270,109786,5,2,1:2:0:0:
109,29,110131,1,2,0:2:0:0:
419,345,110476,1,2,0:2:0:0:
249,41,111166,70,0,L|228:225,1,149.459992360062,2|0,1:2|0:2,0:0:0:0:
280,341,111510,1,2,0:2:0:0:
133,59,111855,2,0,B|59:16|-9:134|122:234,1,240.089997252388,12|0,0:2|0:2,0:0:0:0:
171,224,112200,22,0,P|233:194|253:198,1,64.1299981896897,2|0,1:2|0:2,0:0:0:0:
364,220,112373,2,0,P|332:223|302:213,1,64.1299981896897,2|0,0:2|0:2,0:0:0:0:
169,254,112545,2,0,P|221:208|241:207,1,64.1299981896897,2|0,0:2|0:2,0:0:0:0:
388,193,112717,2,0,P|358:204|326:202,1,64.1299981896897,2|0,0:2|0:2,0:0:0:0:
182,287,112890,2,0,P|220:230|240:223,1,64.1299981896897,2|0,0:2|0:2,0:0:0:0:
398,158,113062,2,0,P|372:177|341:183,1,64.1299981896897,2|0,0:2|0:2,0:0:0:0:
136,7,113235,6,0,P|188:56|191:82,1,64.1299981896897,10|0,0:2|0:2,0:0:0:0:
252,161,113407,2,0,P|200:112|197:86,1,64.1299981896897,2|0,0:2|0:2,0:0:0:0:
100,15,113579,2,0,P|162:48|172:73,1,64.1299981896897,2|0,0:2|0:2,0:0:0:0:
284,149,113751,2,0,P|221:115|211:90,1,64.1299981896897,2|0,0:2|0:2,0:0:0:0:
60,128,113924,70,0,L|140:110,1,64.1299981896897,2|0,1:2|0:2,0:0:0:0:
305,63,114097,2,0,L|242:48,1,64.1299981896897,2|0,0:2|0:2,0:0:0:0:
47,165,114269,2,0,L|119:126,1,64.1299981896897,2|0,0:2|0:2,0:0:0:0:
325,36,114442,2,0,L|260:38,1,64.1299981896897,2|0,0:2|0:2,0:0:0:0:
172,231,114614,6,0,P|158:298|162:317,1,64.1299981896897,10|0,0:2|0:2,0:0:0:0:
320,196,114786,2,0,P|317:164|305:134,1,64.1299981896897,2|0,0:2|0:2,0:0:0:0:
141,249,114959,2,0,P|144:317|153:334,1,64.1299981896897,2|0,0:2|0:2,0:0:0:0:
344,173,115131,2,0,P|333:142|314:117,1,64.1299981896897,2|0,0:2|0:2,0:0:0:0:
265,288,115304,70,0,L|258:360,1,64.1299981896897,2|0,1:2|0:2,0:0:0:0:
228,158,115476,2,0,L|221:94,1,64.1299981896897,2|0,0:2|0:2,0:0:0:0:
292,304,115648,2,0,L|303:375,1,64.1299981896897,2|0,0:2|0:2,0:0:0:0:
198,154,115820,2,0,L|175:93,1,64.1299981896897,2|0,0:2|0:2,0:0:0:0:
354,262,115993,6,0,P|427:275|451:268,1,64.1299981896897,10|0,0:2|0:2,0:0:0:0:
146,213,116166,2,0,P|114:215|84:227,1,64.1299981896897,2|0,0:2|0:2,0:0:0:0:
288,106,116338,1,2,0:2:0:0:
292,304,116683,70,0,B|259:356|259:356|220:149,1,256.519992758759,6|0,1:2|1:2,0:0:0:0:
180,360,117200,1,0,1:2:0:0:
237,50,117373,6,0,L|261:193,1,128.259996379379,10|0,0:2|0:2,0:0:0:0:
380,371,117717,2,0,L|401:244,1,128.259996379379,2|0,0:2|0:2,0:0:0:0:
125,262,118062,69,2,1:2:0:0:
420,162,118235,1,2,0:2:0:0:
125,262,118407,2,0,L|-25:233,1,128.259996379379,2|0,0:2|0:2,0:0:0:0:
362,24,118752,6,0,P|374:87|396:164,1,128.259996379379,10|2,0:2|0:2,0:0:0:0:
132,373,119097,2,0,P|148:311|160:248,1,128.259996379379,2|0,0:2|0:2,0:0:0:0:
51,20,119441,1,4,1:2:0:0:
51,20,119786,70,0,P|83:88|85:106,1,64.1299981896897,2|0,0:2|0:0,0:0:0:0:
135,225,119959,2,0,P|103:157|101:139,1,64.1299981896897,2|0,0:2|0:0,0:0:0:0:
90,22,120131,2,0,P|103:95|100:113,1,64.1299981896897,10|0,0:2|0:0,0:0:0:0:
128,271,120304,2,0,P|79:213|72:196,1,64.1299981896897,2|0,0:2|0:0,0:0:0:0:
128,23,120476,2,0,P|121:97|114:114,1,64.1299981896897,2|0,0:2|0:0,0:0:0:0:
121,310,120649,2,0,P|59:267|48:252,1,64.1299981896897,2|0,0:2|0:0,0:0:0:0:
251,80,120821,6,0,P|323:61|340:67,1,64.1299981896897,2|0,1:2|0:0,0:0:0:0:
335,304,120993,2,0,P|303:299|276:283,1,64.1299981896897,2|0,0:2|0:0,0:0:0:0:
218,73,121166,2,0,P|282:36|300:37,1,64.1299981896897,2|0,0:2|0:0,0:0:0:0:
367,282,121338,2,0,P|335:285|304:277,1,64.1299981896897,2|0,0:2|0:0,0:0:0:0:
97,140,121510,1,10,0:2:0:0:
493,197,121855,1,2,0:2:0:0:
39,336,122200,1,2,1:2:0:0:
39,336,122545,38,0,L|89:323,1,37.6299981051789,2|0,1:2|0:2,0:0:0:0:
134,181,122717,2,0,L|170:190,1,37.6299981051789,2|0,1:2|0:2,0:0:0:0:
273,345,122890,2,0,B|432:307|290:244|506:200,1,240.089997252388,10|0,0:2|0:2,0:0:0:0:
487,136,123235,22,0,P|412:116|395:101,1,69.4300012713013,2|0,1:2|0:0,0:0:0:0:
269,77,123407,2,0,P|301:64|335:62,1,69.4300012713013,2|0,0:2|0:0,0:0:0:0:
465,169,123579,2,0,P|387:169|367:159,1,69.4300012713013,2|0,0:2|0:0,0:0:0:0:
228,136,123751,2,0,P|255:115|288:104,1,69.4300012713013,2|0,0:2|0:0,0:0:0:0:
455,206,123924,2,0,P|380:226|357:221,1,69.4300012713013,2|0,0:2|0:0,0:0:0:0:
201,214,124096,2,0,P|222:186|251:167,1,69.4300012713013,2|0,0:2|0:0,0:0:0:0:
463,246,124269,2,0,P|395:284|373:286,1,69.4300012713013,10|0,0:2|0:0,0:0:0:0:
193,302,124441,2,0,P|206:270|229:244,1,69.4300012713013,2|0,0:2|0:0,0:0:0:0:
488,279,124614,2,0,P|433:333|411:341,1,69.4300012713013,2|0,0:2|0:0,0:0:0:0:
231,384,124786,2,0,P|236:349|251:318,1,69.4300012713013,2|0,0:2|0:0,0:0:0:0:
323,79,124959,6,0,P|348:159|339:192,1,69.4300012713013,2|0,1:2|0:0,0:0:0:0:
109,213,125131,2,0,P|116:179|134:149,1,69.4300012713013,2|0,0:2|0:0,0:0:0:0:
361,101,125304,2,0,P|364:184|347:214,1,69.4300012713013,2|0,0:2|0:0,0:0:0:0:
86,186,125476,2,0,P|101:155|126:131,1,69.4300012713013,2|0,0:2|0:0,0:0:0:0:
395,122,125648,2,0,P|376:203|352:227,1,69.4300012713013,10|0,0:2|0:0,0:0:0:0:
63,162,125820,2,0,P|86:136|116:119,1,69.4300012713013,2|0,0:2|0:0,0:0:0:0:
430,140,125993,2,0,P|390:213|361:230,1,69.4300012713013,2|0,0:2|0:0,0:0:0:0:
43,135,126165,2,0,P|71:115|105:107,1,69.4300012713013,2|0,0:2|0:0,0:0:0:0:
306,318,126338,70,0,P|305:280|284:232,1,69.4300012713013,2|0,1:2|0:0,0:0:0:0:
207,40,126510,2,0,P|208:78|229:126,1,69.4300012713013,2|0,0:2|0:0,0:0:0:0:
277,347,126683,2,0,P|285:310|278:258,1,69.4300012713013,2|0,0:2|0:0,0:0:0:0:
248,16,126855,2,0,P|239:52|246:104,1,69.4300012713013,2|0,0:2|0:0,0:0:0:0:
408,305,127028,6,0,B|486:283|471:143|409:137|242:96|123:306,1,486.010008899109,14|0,0:2|0:2,0:0:0:0:
114,351,127717,38,0,L|100:208,1,117.660002872559,0|0,1:2|0:2,0:0:0:0:
225,61,128062,1,2,0:2:0:0:
298,249,128235,1,2,0:2:0:0:
70,101,128407,1,10,0:2:0:0:
368,120,128579,1,2,0:2:0:0:
70,101,128752,1,2,0:2:0:0:
487,126,129097,5,2,1:2:0:0:
182,109,129441,69,2,0:2:0:0:
487,126,129614,1,2,0:2:0:0:
282,331,129786,1,10,0:2:0:0:
375,38,129959,2,0,P|401:90|408:148,1,117.660002872559,2|0,0:2|0:2,0:0:0:0:
111,249,130304,2,0,L|168:238,1,58.8300014362793,2|0,0:2|0:2,0:0:0:0:
436,235,130476,6,0,B|278:246|388:147|190:168,1,235.320005745117,2|0,1:2|0:2,0:0:0:0:
408,148,130993,1,2,0:2:0:0:
270,308,131166,2,0,P|250:250|253:232,1,58.8300014362793,10|0,0:2|0:2,0:0:0:0:
148,103,131338,2,0,P|133:128|127:156,1,58.8300014362793,2|0,1:2|0:2,0:0:0:0:
247,330,131510,2,0,P|227:272|230:254,1,58.8300014362793,2|0,1:2|0:2,0:0:0:0:
123,82,131682,2,0,P|108:107|102:135,1,58.8300014362793,2|0,1:2|0:2,0:0:0:0:
229,349,131855,1,2,1:2:0:0:
327,92,132200,70,0,P|332:47|266:111,1,226.309990676316,2|0,0:2|0:2,0:0:0:0:
299,161,132890,2,0,L|303:190,4,16.1649993340226,0|0|0|0|0,3:2|3:2|3:2|3:2|3:2,0:0:0:0:
118,343,133235,6,0,L|91:188,1,149.459992360062,6|0,1:2|0:2,0:0:0:0:
157,37,133579,1,2,0:2:0:0:
157,37,134269,6,0,P|209:64|246:66,1,74.729996180031,6|0,1:2|0:0,0:0:0:0:
432,88,134441,2,0,P|395:97|364:117,1,74.729996180031,2|0,0:2|0:0,0:0:0:0:
222,263,134614,2,0,P|242:231|251:195,1,74.729996180031,2|0,0:2|0:0,0:0:0:0:
125,56,134786,2,0,P|193:71|237:61,1,74.729996180031,2|0,0:2|0:0,0:0:0:0:
430,52,134958,2,0,P|390:73|361:106,1,74.729996180031,2|0,0:2|0:0,0:0:0:0:
254,287,135131,2,0,P|267:244|266:199,1,74.729996180031,2|0,0:2|0:0,0:0:0:0:
53,117,135304,6,0,P|73:197|87:216,1,74.729996180031,10|0,0:2|0:0,0:0:0:0:
279,118,135476,2,0,P|291:82|294:45,1,74.729996180031,2|0,0:2|0:0,0:0:0:0:
23,147,135648,2,0,P|63:219|81:233,1,74.729996180031,2|0,0:2|0:0,0:0:0:0:
314,137,135820,2,0,P|317:99|310:63,1,74.729996180031,2|0,0:2|0:0,0:0:0:0:
166,291,135993,70,0,P|90:330|53:321,1,74.729996180031,2|0,1:2|0:0,0:0:0:0:
345,232,136166,2,0,P|379:244|406:270,1,74.729996180031,2|0,0:2|0:0,0:0:0:0:
96,244,136338,2,0,P|25:195|16:158,1,74.729996180031,2|0,0:2|0:0,0:0:0:0:
334,314,136511,2,0,P|349:347|350:384,1,74.729996180031,2|0,0:2|0:0,0:0:0:0:
222,106,136683,6,0,P|202:27|208:5,1,74.729996180031,10|0,0:2|0:0,0:0:0:0:
447,182,136855,2,0,P|442:218|425:252,1,74.729996180031,2|0,0:2|0:0,0:0:0:0:
207,192,137028,2,0,P|136:150|125:130,1,74.729996180031,2|0,0:2|0:0,0:0:0:0:
456,94,137200,2,0,P|479:123|490:158,1,74.729996180031,2|0,0:2|0:0,0:0:0:0:
334,314,137373,70,0,L|317:215,1,74.729996180031,2|0,1:2|0:0,0:0:0:0:
273,27,137545,2,0,L|285:100,1,74.729996180031,2|0,0:2|0:0,0:0:0:0:
308,330,137717,2,0,L|291:231,1,74.729996180031,2|0,0:2|0:0,0:0:0:0:
299,11,137889,2,0,L|311:84,1,74.729996180031,2|0,0:2|0:0,0:0:0:0:
184,246,138062,6,0,P|140:267|91:262,1,74.729996180031,10|0,0:2|0:0,0:0:0:0:
371,153,138235,2,0,P|407:156|440:174,1,74.729996180031,2|0,0:2|0:0,0:0:0:0:
127,175,138407,1,2,0:2:0:0:
127,175,138752,70,0,B|179:133|297:145|245:293|410:275,1,298.919984720124,4|0,1:2|1:2,0:0:0:0:
184,246,139269,1,0,1:2:0:0:
349,16,139441,6,0,L|372:159,1,138.860002542603,10|0,0:2|0:2,0:0:0:0:
80,232,139786,2,0,L|102:94,1,138.860002542603,2|0,0:2|0:2,0:0:0:0:
268,317,140131,69,2,1:2:0:0:
213,33,140304,1,2,0:2:0:0:
268,317,140476,2,0,L|412:285,1,138.860002542603,2|0,0:2|0:2,0:0:0:0:
163,128,140821,6,0,P|68:87|31:90,1,138.860002542603,10|0,0:2|0:2,0:0:0:0:
334,255,141166,2,0,P|402:251|461:216,1,138.860002542603,2|0,0:2|0:2,0:0:0:0:
293,34,141510,1,0,1:2:0:0:
293,34,141855,70,0,L|277:124,1,69.4300012713013,2|0,0:2|0:0,0:0:0:0:
309,321,142028,2,0,P|296:248|281:231,1,69.4300012713013,2|0,0:2|0:0,0:0:0:0:
159,35,142200,2,0,L|175:125,1,69.4300012713013,10|0,0:2|0:0,0:0:0:0:
154,322,142373,2,0,P|167:249|182:232,1,69.4300012713013,2|0,0:2|0:0,0:0:0:0:
321,23,142545,2,0,L|305:113,1,69.4300012713013,2|0,0:2|0:0,0:0:0:0:
337,310,142718,2,0,P|324:237|309:220,1,69.4300012713013,2|0,0:2|0:0,0:0:0:0:
130,25,142890,6,0,L|146:115,1,69.4300012713013,2|0,1:2|0:0,0:0:0:0:
114,312,143063,2,0,P|127:239|142:222,1,69.4300012713013,2|0,0:2|0:0,0:0:0:0:
356,11,143235,2,0,L|340:101,1,69.4300012713013,2|0,0:2|0:0,0:0:0:0:
372,298,143408,2,0,P|359:225|344:208,1,69.4300012713013,2|0,0:2|0:0,0:0:0:0:
94,13,143579,1,10,0:2:0:0:
474,170,143924,1,2,0:2:0:0:
41,335,144269,1,2,1:2:0:0:
41,335,144614,38,0,L|101:320,1,42.9300010480957,2|0,1:2|0:2,0:0:0:0:
145,132,144786,2,0,L|186:142,1,42.9300010480957,2|0,1:2|0:2,0:0:0:0:
328,332,144959,2,0,B|341:357|414:370|460:268|351:116,1,240.089997252388,10|0,0:2|0:2,0:0:0:0:
283,95,145304,22,0,P|187:88|181:92,1,80.0299990841293,2|0,1:2|0:0,0:0:0:0:
74,161,145476,2,0,P|113:154|144:131,1,80.0299990841293,2|0,0:2|0:0,0:0:0:0:
300,87,145648,2,0,P|209:55|202:58,1,80.0299990841293,2|0,0:2|0:0,0:0:0:0:
69,188,145820,2,0,P|108:192|145:177,1,80.0299990841293,2|0,0:2|0:0,0:0:0:0:
327,87,145993,2,0,P|248:33|240:33,1,80.0299990841293,2|0,0:2|0:0,0:0:0:0:
56,214,146165,2,0,P|92:228|132:223,1,80.0299990841293,2|0,0:2|0:0,0:0:0:0:
346,93,146338,2,0,P|283:20|276:19,1,80.0299990841293,10|0,0:2|0:0,0:0:0:0:
35,234,146510,2,0,P|66:257|106:263,1,80.0299990841293,2|0,0:2|0:0,0:0:0:0:
368,106,146683,2,0,P|326:20|319:16,1,80.0299990841293,2|0,0:2|0:0,0:0:0:0:
6,249,146855,2,0,P|30:279|67:295,1,80.0299990841293,2|0,0:2|0:0,0:0:0:0:
440,256,147028,6,0,P|386:206|355:202,1,80.0299990841293,2|0,1:2|0:0,0:0:0:0:
62,77,147200,2,0,P|116:127|147:131,1,80.0299990841293,2|0,0:2|0:0,0:0:0:0:
425,295,147373,2,0,P|385:232|356:220,1,80.0299990841293,2|0,0:2|0:0,0:0:0:0:
70,50,147545,2,0,P|109:112|138:124,1,80.0299990841293,2|0,0:2|0:0,0:0:0:0:
392,326,147717,2,0,P|370:255|345:236,1,80.0299990841293,10|0,0:2|0:0,0:0:0:0:
89,28,147889,2,0,P|110:98|135:117,1,80.0299990841293,2|0,0:2|0:0,0:0:0:0:
349,343,148062,2,0,P|346:269|327:244,1,80.0299990841293,2|0,0:2|0:0,0:0:0:0:
118,17,148234,2,0,P|120:90|139:115,1,80.0299990841293,2|0,0:2|0:0,0:0:0:0:
209,384,148407,70,0,L|221:284,1,80.0299990841293,2|0,1:2|0:0,0:0:0:0:
264,6,148579,2,0,L|273:85,1,80.0299990841293,2|0,0:2|0:0,0:0:0:0:
301,384,148752,2,0,L|289:284,1,80.0299990841293,2|0,0:2|0:0,0:0:0:0:
246,6,148924,2,0,L|236:85,1,80.0299990841293,2|0,0:2|0:0,0:0:0:0:
209,384,149097,6,0,P|112:351|325:270,1,560.209993588905,14|0,0:2|0:2,0:0:0:0:
349,292,149786,2,0,P|426:256|521:263,1,138.860002542603,4|0,1:2|0:2,0:0:0:0:
196,258,150131,69,2,0:2:0:0:
472,136,150304,1,2,0:2:0:0:
173,346,150476,2,0,L|148:201,1,138.860002542603,10|0,0:2|0:2,0:0:0:0:
441,58,150821,2,0,L|417:194,1,138.860002542603,2|0,0:2|0:2,0:0:0:0:
216,18,151166,5,2,1:2:0:0:
311,343,151338,1,2,0:2:0:0:
216,18,151510,2,0,P|123:30|88:78,1,138.860002542603,2|2,0:2|0:2,0:0:0:0:
447,210,151855,70,0,L|470:73,1,138.860002542603,10|0,0:2|0:2,0:0:0:0:
125,197,152200,2,0,L|148:333,1,138.860002542603,2|0,0:2|0:2,0:0:0:0:
393,31,152545,6,0,B|256:24|348:122|153:117,1,208.290003813904,2|0,1:2|0:2,0:0:0:0:
140,61,152890,1,2,0:2:0:0:
378,118,153062,1,2,0:2:0:0:
157,226,153235,2,0,P|132:123|116:93,1,138.860002542603,10|0,0:2|0:2,0:0:0:0:
285,268,153579,1,2,1:2:0:0:
312,19,153752,1,2,0:2:0:0:
131,313,153924,69,8,1:2:0:0:
84,282,154010,1,8,1:2:0:0:
65,229,154097,1,8,1:3:0:0:
76,176,154183,1,8,1:3:0:0:
117,139,154269,1,4,1:3:0:0:
172,134,154355,1,4,1:3:0:0:
220,160,154441,1,8,1:3:0:0:
243,210,154528,1,8,1:3:0:0:
288,241,154614,1,8,1:3:0:0:
343,243,154700,1,8,1:3:0:0:
392,218,154786,1,4,1:3:0:0:
416,167,154873,1,4,1:3:0:0:
410,111,154959,5,8,1:2:0:0:
157,226,155131,1,8,1:2:0:0:
438,300,155304,6,0,L|454:34,1,257.580006288574,4|0,1:2|0:2,0:0:0:0:
263,302,155993,1,8,0:2:0:0:
321,144,156166,1,2,0:2:0:0:
143,328,156338,1,2,1:2:0:0:
80,92,156510,1,2,0:2:0:0:
302,292,156683,6,0,P|351:274|423:262,1,85.8600020961915,2|0,0:2|0:2,0:0:0:0:
218,88,157028,2,0,P|259:98|299:113,1,85.8600020961915,0|0,1:2|0:2,0:0:0:0:
85,308,157373,2,0,P|67:211|59:191,1,85.8600020961915,8|0,0:2|0:2,0:0:0:0:
240,55,157717,1,2,0:2:0:0:
166,279,157890,1,2,0:2:0:0:
440,44,158062,70,0,B|263:35|405:165|183:156,1,257.580006288574,6|0,1:2|0:2,0:0:0:0:
497,203,158752,1,8,0:2:0:0:
240,55,158924,1,2,0:2:0:0:
356,231,159097,1,2,1:2:0:0:
74,284,159269,1,2,0:2:0:0:
294,140,159441,6,0,P|383:105|399:108,1,85.8600020961915,2|0,0:2|0:2,0:0:0:0:
266,302,159786,2,0,P|355:337|371:334,1,85.8600020961915,0|0,1:2|0:2,0:0:0:0:
138,71,160131,2,0,P|103:160|107:180,1,85.8600020961915,8|0,0:2|0:2,0:0:0:0:
356,231,160476,2,0,P|346:189|320:155,1,85.8600020961915,2|0,0:2|0:2,0:0:0:0:
85,306,160821,70,0,L|50:21,1,257.580006288574,6|0,1:2|0:2,0:0:0:0:
199,261,161510,1,8,0:2:0:0:
292,47,161683,1,2,0:2:0:0:
106,189,161855,1,2,1:2:0:0:
313,345,162028,1,2,0:2:0:0:
186,106,162200,6,0,P|100:71|81:77,1,85.8600020961915,2|0,0:2|0:2,0:0:0:0:
301,250,162545,2,0,P|215:285|196:279,1,85.8600020961915,0|0,1:2|0:2,0:0:0:0:
327,25,162890,2,0,P|348:119|352:130,1,85.8600020961915,8|0,0:2|0:2,0:0:0:0:
115,258,163235,2,0,P|125:216|132:174,1,85.8600020961915,2|0,0:2|0:2,0:0:0:0:
381,296,163579,70,0,B|424:143|308:206|382:13,1,257.580006288574,6|0,1:2|0:2,0:0:0:0:
301,250,164269,1,8,0:2:0:0:
451,104,164441,1,2,0:2:0:0:
170,148,164614,1,2,1:2:0:0:
483,129,164786,1,2,0:2:0:0:
162,242,164959,6,0,P|77:216|59:191,1,85.8600020961915,2|0,0:2|0:2,0:0:0:0:
200,56,165304,2,0,P|115:82|97:107,1,85.8600020961915,0|0,1:2|0:2,0:0:0:0:
253,300,165648,2,0,P|273:211|281:194,1,85.8600020961915,8|0,0:2|0:2,0:0:0:0:
433,20,165993,2,0,P|445:61|450:103,1,85.8600020961915,2|0,0:2|0:2,0:0:0:0:
170,148,166338,70,0,L|52:132,1,85.8600020961915,2|0,1:2|0:2,0:0:0:0:
365,273,166683,2,0,L|450:261,1,85.8600020961915,2|0,0:2|0:2,0:0:0:0:
297,66,167028,1,8,0:2:0:0:
227,278,167200,1,2,0:2:0:0:
118,33,167372,1,2,1:2:0:0:
337,182,167545,1,2,0:2:0:0:
61,205,167717,6,0,P|146:167|159:169,1,85.8600020961915,2|0,0:2|0:2,0:0:0:0:
37,339,168062,2,0,P|69:366|110:377,1,85.8600020961915,0|0,1:2|0:2,0:0:0:0:
216,81,168407,2,0,P|233:172|240:192,1,85.8600020961915,8|0,0:2|0:2,0:0:0:0:
401,332,168752,1,2,0:2:0:0:
454,94,168924,1,2,0:2:0:0:
208,285,169097,70,0,L|174:8,1,257.580006288574,6|0,1:2|0:2,0:0:0:0:
299,222,169786,1,8,0:2:0:0:
39,150,169959,1,2,0:2:0:0:
321,46,170131,1,2,1:2:0:0:
62,176,170304,1,2,0:2:0:0:
365,288,170476,6,0,P|385:196|377:178,1,85.8600020961915,2|0,0:2|0:2,0:0:0:0:
150,327,170821,2,0,P|130:235|138:217,1,85.8600020961915,0|0,1:2|0:2,0:0:0:0:
406,103,171166,2,0,P|310:129|287:126,1,85.8600020961915,8|0,0:2|0:2,0:0:0:0:
76,137,171510,2,0,P|172:163|195:160,1,85.8600020961915,2|0,0:2|0:2,0:0:0:0:
471,19,171855,70,0,B|310:41|403:123|208:131,1,257.580006288574,6|0,1:2|0:2,0:0:0:0:
451,189,172545,1,8,0:2:0:0:
154,79,172717,1,2,0:2:0:0:
363,227,172890,1,2,1:2:0:0:
83,329,173062,1,2,0:2:0:0:
307,127,173235,6,0,P|333:233|331:263,1,85.8600020961915,2|0,0:2|0:2,0:0:0:0:
122,88,173579,2,0,P|96:194|98:224,1,85.8600020961915,0|0,1:2|0:2,0:0:0:0:
310,336,173924,2,0,P|409:309|426:312,1,85.8600020961915,8|0,0:2|0:2,0:0:0:0:
118,205,174269,1,2,0:2:0:0:
395,90,174441,1,2,0:2:0:0:
99,299,174614,70,0,B|264:288|134:190|354:175,1,257.580006288574,6|0,1:2|0:2,0:0:0:0:
63,138,175304,1,8,0:2:0:0:
291,278,175476,1,2,0:2:0:0:
225,43,175648,1,2,1:2:0:0:
266,313,175821,1,2,0:2:0:0:
333,71,175993,6,0,P|424:40|448:50,1,85.8600020961915,2|0,0:2|0:2,0:0:0:0:
215,244,176338,2,0,P|248:270|290:277,1,85.8600020961915,0|0,1:2|0:2,0:0:0:0:
135,28,176683,2,0,P|126:117|120:130,1,85.8600020961915,8|0,0:2|0:2,0:0:0:0:
351,196,177028,2,0,P|341:154|343:111,1,85.8600020961915,2|0,0:2|0:2,0:0:0:0:
120,305,177372,5,6,1:2:0:0:
163,230,177545,1,0,0:2:0:0:
230,283,177717,1,0,0:2:0:0:
270,206,177890,1,0,0:2:0:0:
332,261,178062,1,0,0:2:0:0:
296,182,178235,1,2,0:2:0:0:
311,97,178407,1,2,0:2:0:0:
369,34,178579,1,2,0:2:0:0:
399,114,178752,5,2,0:2:0:0:
311,97,178924,1,0,0:2:0:0:
369,34,179097,1,0,0:2:0:0:
399,114,179269,1,0,0:2:0:0:
318,85,179441,1,0,0:2:0:0:
240,48,179614,1,2,0:2:0:0:
177,106,179786,1,2,0:2:0:0:
96,75,179959,1,2,0:2:0:0:
155,137,180131,69,2,0:2:0:0:
182,218,180304,1,0,0:2:0:0:
179,303,180476,1,0,0:2:0:0:
131,374,180648,1,0,0:2:0:0:
139,296,180821,1,0,0:2:0:0:
215,334,180993,1,2,0:2:0:0:
267,265,181166,1,2,0:2:0:0:
293,346,181338,1,2,0:2:0:0:
373,315,181510,5,2,0:2:0:0:
387,230,181683,1,0,0:2:0:0:
326,169,181855,1,0,0:2:0:0:
296,88,182028,1,0,0:2:0:0:
339,14,182200,1,0,0:2:0:0:
378,89,182372,1,2,0:2:0:0:
294,66,182545,1,2,0:2:0:0:
213,36,182717,1,2,1:2:0:0:
213,36,182775,1,0,1:2:0:0:
213,36,182832,1,0,1:0:0:0:
213,36,182890,70,0,P|156:33|111:190,1,254.4,6|0,1:2|0:2,0:0:0:0:
215,171,185648,2,0,P|279:153|472:140,1,255.989992187805,2|8,0:2|1:2,0:0:0:0:
483,161,187717,1,8,0:0:0:0:
483,161,188407,6,0,B|503:106|431:49|332:61|259:171|440:374,1,416.580007627808,6|0,1:2|0:2,0:0:0:0:
266,89,189097,1,10,0:2:0:0:
476,269,189269,1,0,1:2:0:0:
115,346,189441,1,2,1:2:0:0:
446,37,189786,69,2,1:2:0:0:
43,275,190131,5,2,1:2:0:0:
357,335,190304,1,0,1:2:0:0:
42,171,190476,1,8,0:2:0:0:
294,80,190648,1,2,1:2:0:0:
171,324,190821,1,2,1:2:0:0:
222,139,190993,1,0,0:2:0:0:
401,340,191166,70,0,P|430:245|424:187,1,117.660002872559,6|0,1:2|0:2,0:0:0:0:
355,22,191510,1,0,1:2:0:0:
269,256,191683,1,0,1:2:0:0:
55,48,191855,1,10,0:2:0:0:
389,109,192028,1,0,1:2:0:0:
53,205,192200,1,2,1:2:0:0:
380,150,192372,1,8,0:2:0:0:
380,150,192459,1,8,0:2:0:0:
380,150,192545,5,2,1:2:0:0:
90,27,192717,1,8,0:2:0:0:
276,263,192890,1,2,1:2:0:0:
207,46,193062,1,8,1:3:0:0:
150,308,193235,69,10,0:2:0:0:
150,308,193321,1,0,1:2:0:0:
150,308,193407,2,0,L|145:379,1,58.8300014362793,0|0,1:2|1:2,0:0:0:0:
398,196,193579,1,10,0:2:0:0:
398,196,193665,1,0,1:2:0:0:
398,196,193751,2,0,L|403:267,1,58.8300014362793,0|0,1:2|1:2,0:0:0:0:
195,75,193924,6,0,P|71:41|19:130,1,235.320005745117,6|0,1:2|0:2,0:0:0:0:
185,286,194441,1,0,1:2:0:0:
306,38,194614,1,8,0:2:0:0:
404,344,194786,1,0,1:2:0:0:
224,100,194959,1,2,1:2:0:0:
489,214,195131,1,8,0:2:0:0:
149,297,195304,69,2,1:2:0:0:
456,134,195476,1,8,0:2:0:0:
137,79,195648,1,2,1:2:0:0:
342,211,195821,1,2,1:2:0:0:
63,334,195993,1,8,0:2:0:0:
224,100,196166,1,2,1:2:0:0:
299,331,196338,1,2,1:2:0:0:
154,168,196510,1,0,1:2:0:0:
154,168,196597,1,0,1:2:0:0:
154,168,196683,6,0,P|200:206|212:210,1,53.5299989381562,14|0,0:0|0:0,0:0:0:0:
323,244,196855,2,0,P|426:184|398:82,1,214.119995752625,0|0,1:2|1:2,0:0:0:0:
100,40,197372,2,0,P|132:144|132:165,1,107.059997876312,8|0,0:2|0:2,0:0:0:0:
292,282,197717,1,0,1:2:0:0:
292,265,197803,1,0,1:2:0:0:
293,249,197889,1,0,1:2:0:0:
294,233,197975,1,0,1:2:0:0:
294,217,198061,69,8,1:2:0:0:
249,247,198148,1,0,1:2:0:0:
195,249,198235,1,0,1:2:0:0:
153,214,198321,1,0,1:2:0:0:
150,160,198407,2,0,L|159:87,1,53.5299989381562,8|0,1:3|1:2,0:0:0:0:
378,177,198579,2,0,L|384:230,1,53.5299989381562,8|0,1:3|1:2,0:0:0:0:
269,89,198752,5,8,1:2:0:0:
320,75,198838,1,8,1:2:0:0:
371,61,198924,2,0,L|456:39,1,53.5299989381562,0|0,1:2|1:2,0:0:0:0:
249,247,199097,1,8,1:2:0:0:
198,261,199183,1,0,1:2:0:0:
148,277,199269,1,0,1:2:0:0:
97,290,199355,1,0,1:2:0:0:
41,306,199441,70,0,B|258:271|105:396|354:369,1,289.380009714295,6|0,1:2|0:2,0:0:0:0:
443,194,200131,1,2,1:2:0:0:
154,120,200304,1,2,1:2:0:0:
480,164,200476,1,10,1:3:0:0:
66,277,200821,5,10,1:2:0:0:
409,46,201166,69,2,1:2:0:0:
316,276,201338,1,2,1:2:0:0:
176,18,201510,1,2,1:2:0:0:
388,229,201683,1,2,1:2:0:0:
107,265,201855,1,2,1:2:0:0:
326,109,202028,1,10,1:2:0:0:
194,354,202200,5,2,1:2:0:0:
252,145,202372,2,0,L|273:344,1,192.920006476197,8|8,1:2|0:2,0:0:0:0:
167,124,202890,1,2,1:2:0:0:
351,356,203062,1,2,1:2:0:0:
239,58,203235,1,10,1:3:0:0:
73,370,203579,69,10,0:2:0:0:
450,182,203924,5,10,0:2:0:0:
79,102,204097,1,2,1:2:0:0:
291,293,204269,2,0,L|377:274,2,64.3066688253988,0|0|0,1:0|1:0|1:0,0:0:0:0:
307,136,204614,1,8,1:2:0:0:
307,136,204700,1,0,1:0:0:0:
307,136,204786,1,0,1:0:0:0:
307,136,204872,1,0,1:0:0:0:
307,136,204959,70,0,P|179:85|82:120,1,225.779988631074,6|0,1:2|0:2,0:0:0:0:
306,224,205648,1,2,1:2:0:0:
51,288,205821,1,2,1:2:0:0:
204,125,205993,1,2,1:2:0:0:
205,137,206079,1,0,1:2:0:0:
206,150,206165,1,0,1:2:0:0:
208,163,206251,1,0,1:2:0:0:
209,176,206337,1,10,1:2:0:0:
448,36,206683,5,2,1:2:0:0:
348,300,206855,1,2,1:2:0:0:
269,69,207028,1,2,1:2:0:0:
413,358,207200,1,2,1:2:0:0:
154,261,207372,1,2,1:2:0:0:
412,125,207545,1,2,1:2:0:0:
412,125,207631,1,0,1:2:0:0:
412,125,207717,69,2,1:2:0:0:
216,300,207890,1,8,0:2:0:0:
174,295,207976,1,8,0:2:0:0:
132,288,208062,1,8,0:2:0:0:
274,61,208235,1,8,0:2:0:0:
338,332,208407,1,10,0:2:0:0:
247,89,208579,1,0,1:2:0:0:
100,364,208752,1,2,1:2:0:0:
345,183,208924,1,0,1:2:0:0:
72,39,209097,5,10,0:2:0:0:
382,159,209269,1,8,0:2:0:0:
119,277,209441,1,8,1:2:0:0:
117,260,209527,1,4,1:3:0:0:
115,244,209613,1,4,1:3:0:0:
113,228,209699,1,4,1:3:0:0:
111,212,209785,1,6,1:3:0:0:
422,334,210476,69,0,0:2:0:0:
411,327,210821,1,0,0:2:0:0:
423,317,211166,1,0,0:2:0:0:
434,329,211510,1,0,0:2:0:0:
375,251,211683,6,0,L|382:216,2,27.5599998317871,2|0|0,0:2|0:2|0:2,0:0:0:0:
207,299,212200,2,0,L|199:252,2,38.1600009316406,2|0|0,0:2|0:2|0:2,0:0:0:0:
434,329,212717,69,2,0:2:0:0:
181,180,212890,1,0,0:2:0:0:
478,44,213062,1,2,0:2:0:0:
313,330,213235,54,0,P|297:271|294:196,1,107.059997876312,6|0,1:2|1:2,0:0:0:0:
326,143,213493,1,0,1:2:0:0:
326,143,213579,1,0,1:2:0:0:
172,342,213752,1,0,1:2:0:0:
414,154,213924,2,0,P|408:207|393:258,1,107.059997876312,10|0,0:2|1:2,0:0:0:0:
265,77,214269,1,0,1:2:0:0:
148,314,214441,6,0,P|133:262|127:209,1,107.059997876312,2|0,1:2|0:2,0:0:0:0:
239,52,214786,1,0,1:2:0:0:
57,254,214959,2,0,P|71:202|77:149,1,107.059997876312,2|0,1:2|1:2,0:0:0:0:
252,298,215304,1,8,0:2:0:0:
352,47,215476,2,0,P|357:100|372:151,1,107.059997876312,2|0,1:2|1:2,0:0:0:0:
136,49,215821,1,10,0:2:0:0:
405,214,215993,70,0,P|328:174|293:175,1,107.059997876312,2|0,1:2|1:2,0:0:0:0:
233,216,216252,1,0,1:2:0:0:
233,216,216338,1,0,1:2:0:0:
471,119,216510,1,0,1:2:0:0:
260,286,216683,2,0,P|172:246|131:244,1,107.059997876312,10|0,0:2|1:2,0:0:0:0:
326,90,217028,1,0,1:2:0:0:
348,338,217200,6,0,P|260:378|219:380,1,107.059997876312,10|0,0:2|0:2,0:0:0:0:
175,134,217545,1,0,1:2:0:0:
175,134,217631,1,0,1:2:0:0:
175,134,217717,2,0,P|165:94|188:18,1,107.059997876312,2|0,1:2|1:2,0:0:0:0:
260,0,217976,1,0,1:2:0:0:
260,0,218062,1,8,0:2:0:0:
189,250,218235,2,0,P|137:236|91:208,1,107.059997876312,2|0,1:2|1:2,0:0:0:0:
350,89,218579,1,10,0:2:0:0:
248,323,218752,69,0,1:2:0:0:
246,307,218838,1,0,1:2:0:0:
245,291,218924,1,0,1:2:0:0:
243,275,219010,1,0,1:2:0:0:
242,259,219096,1,0,1:2:0:0:
240,243,219183,1,0,1:2:0:0:
239,227,219269,1,0,1:2:0:0:
237,211,219355,1,0,1:2:0:0:
237,198,219441,6,0,L|226:82,1,107.059997876312,10|0,0:2|1:2,0:0:0:0:
163,337,219786,1,8,0:2:0:0:
240,45,219959,1,2,1:2:0:0:
351,284,220131,1,8,0:2:0:0:
390,293,220217,1,8,0:2:0:0:
429,305,220304,2,0,L|500:323,1,53.5299989381562,0|0,1:2|1:2,0:0:0:0:
237,198,220476,1,2,1:3:0:0:
198,207,220562,1,8,1:3:0:0:
159,219,220649,2,0,L|88:237,1,53.5299989381562,0|0,1:2|1:2,0:0:0:0:
325,54,220821,69,8,1:2:0:0:
376,41,220907,1,8,0:2:0:0:
427,55,220993,1,10,0:2:0:0:
463,94,221079,1,8,0:2:0:0:
475,145,221165,1,8,1:2:0:0:
459,196,221252,1,8,0:2:0:0:
420,231,221338,1,10,0:2:0:0:
369,242,221424,1,8,0:2:0:0:
318,232,221510,5,2,1:2:0:0:
333,229,221596,1,0,1:2:0:0:
349,227,221682,1,0,1:2:0:0:
365,224,221768,1,0,1:2:0:0:
381,222,221854,1,0,1:2:0:0:
396,218,221941,1,0,1:2:0:0:
413,217,222027,1,0,1:2:0:0:
429,214,222113,1,0,1:2:0:0:
444,212,222200,2,0,P|454:127|447:90,1,107.059997876312,14|0,0:2|0:2,0:0:0:0:
348,317,222545,1,2,1:2:0:0:
320,41,222717,70,0,P|344:88|355:140,1,107.059997876312,2|0,1:2|0:2,0:0:0:0:
206,296,223062,1,2,1:2:0:0:
422,111,223235,2,0,P|397:158|386:210,1,107.059997876312,2|0,1:2|1:2,0:0:0:0:
408,288,223493,1,0,1:2:0:0:
408,288,223579,1,10,0:2:0:0:
243,116,223752,2,0,P|179:89|103:108,1,107.059997876312,2|0,1:2|1:2,0:0:0:0:
306,292,224097,1,10,0:2:0:0:
92,37,224269,5,0,1:2:0:0:
94,58,224355,1,0,1:2:0:0:
97,79,224441,1,0,1:2:0:0:
100,100,224527,1,0,1:2:0:0:
103,121,224613,1,0,1:2:0:0:
106,143,224700,1,0,1:2:0:0:
109,164,224786,1,0,1:2:0:0:
111,185,224872,1,0,1:2:0:0:
114,206,224959,2,0,P|15:165|-11:170,1,107.059997876312,14|0,0:2|1:2,0:0:0:0:
165,306,225304,1,2,1:2:0:0:
222,86,225476,70,0,P|321:45|347:50,1,107.059997876312,2|0,1:2|0:2,0:0:0:0:
333,266,225821,1,2,1:2:0:0:
141,112,225993,2,0,P|193:121|235:153,1,107.059997876312,2|0,1:2|1:2,0:0:0:0:
256,233,226252,1,0,1:2:0:0:
256,233,226338,1,10,0:2:0:0:
47,129,226510,1,2,1:2:0:0:
47,129,226597,1,0,1:2:0:0:
47,129,226683,1,8,0:2:0:0:
280,22,226855,1,2,1:2:0:0:
155,240,227028,5,0,1:2:0:0:
153,224,227114,1,0,1:2:0:0:
151,208,227200,1,0,1:2:0:0:
149,192,227286,1,0,1:2:0:0:
148,176,227372,1,0,1:2:0:0:
146,160,227459,1,0,1:2:0:0:
144,144,227545,1,0,1:2:0:0:
143,128,227631,1,0,1:2:0:0:
141,112,227717,2,0,P|221:141|272:135,1,107.059997876312,12|0,0:2|1:2,0:0:0:0:
75,275,228062,1,2,1:2:0:0:
244,176,228235,70,0,P|324:147|375:153,1,107.059997876312,2|0,1:2|0:2,0:0:0:0:
246,324,228579,1,2,1:2:0:0:
382,77,228752,2,0,P|401:166|416:197,1,107.059997876312,2|0,1:2|1:2,0:0:0:0:
265,45,229097,1,10,0:2:0:0:
421,257,229269,2,0,P|438:206|446:153,1,107.059997876312,2|0,1:2|1:2,0:0:0:0:
329,333,229614,1,10,0:2:0:0:
215,126,229786,5,0,1:2:0:0:
195,117,229872,1,0,1:2:0:0:
174,114,229958,1,0,1:2:0:0:
153,117,230044,1,0,1:2:0:0:
133,125,230130,1,0,1:2:0:0:
117,139,230217,1,0,1:2:0:0:
105,157,230303,1,0,1:2:0:0:
98,177,230389,1,0,1:2:0:0:
97,198,230476,2,0,L|104:262,3,53.5299989381562,8|0|0|0,0:2|1:2|1:2|1:2,0:0:0:0:
226,292,230821,2,0,L|231:238,3,53.5299989381562,0|0|0|0,1:2|1:2|1:2|1:2,0:0:0:0:
349,124,231166,69,8,1:2:0:0:
396,149,231252,1,8,1:2:0:0:
417,197,231338,1,8,1:2:0:0:
405,249,231424,1,0,1:2:0:0:
363,282,231510,1,0,1:2:0:0:
309,277,231597,1,0,1:2:0:0:
267,243,231683,1,8,1:2:0:0:
213,243,231769,1,8,1:2:0:0:
177,282,231855,5,8,1:2:0:0:
229,288,231941,1,0,1:2:0:0:
278,266,232028,1,0,1:2:0:0:
311,224,232114,1,0,1:2:0:0:
312,170,232200,1,8,1:2:0:0:
298,118,232286,1,8,1:2:0:0:
258,82,232372,1,8,1:2:0:0:
204,75,232459,1,8,1:2:0:0:
154,95,232545,6,0,P|102:119|49:120,1,91.1600013909912,6|0,1:2|0:2,0:0:0:0:
98,263,232890,2,0,P|46:239|-7:238,1,91.1600013909912,0|0,1:2|0:2,0:0:0:0:
217,180,233235,2,0,B|344:188|257:236|410:252,1,182.320002781982,2|0,1:2|1:2,0:0:0:0:
380,248,233924,2,0,P|385:188|398:154,1,80.5599990166016,0|0,1:2|0:2,0:0:0:0:
233,268,234269,2,0,P|243:306|244:347,1,80.5599990166016,0|0,1:2|0:2,0:0:0:0:
411,264,234614,2,0,P|416:204|429:170,1,80.5599990166016,0|0,1:2|0:2,0:0:0:0:
264,284,234959,2,0,P|274:322|275:363,1,80.5599990166016,0|0,1:2|0:2,0:0:0:0:
331,119,235304,5,2,1:2:0:0:
190,143,235476,1,2,0:2:0:0:
411,264,235648,1,2,1:2:0:0:
264,284,235821,1,2,0:2:0:0:
465,96,235993,1,2,1:2:0:0:
45,167,236338,1,8,0:2:0:0:
45,167,236683,69,2,1:2:0:0:
50,121,236769,1,2,1:2:0:0:
55,76,236855,1,2,1:2:0:0:
264,284,237028,1,2,1:2:0:0:
258,238,237114,1,2,1:2:0:0:
253,193,237200,1,2,1:2:0:0:
25,322,237372,5,8,0:2:0:0:
237,56,237545,1,8,0:2:0:0:
420,352,237717,1,8,0:2:0:0:
219,88,237890,1,8,0:2:0:0:
124,335,238062,70,0,P|114:276|96:218,1,96.4600032380983,10|8,1:3|1:3,0:0:0:0:
377,198,238407,2,0,P|364:244|357:292,1,96.4600032380983,6|4,1:3|1:3,0:0:0:0:
125,121,238752,1,2,1:2:0:0:
341,214,238924,1,0,1:2:0:0:
24,321,239097,2,0,P|36:274|44:227,1,96.4600032380983,8|0,1:2|1:2,0:0:0:0:
273,327,239441,5,8,1:3:0:0:
240,87,239614,1,0,1:2:0:0:
236,301,239786,1,8,1:3:0:0:
275,106,239959,1,0,1:2:0:0:
162,254,240131,1,8,1:3:0:0:
378,212,240304,1,4,1:3:0:0:
180,220,240476,1,4,1:3:0:0:
354,241,240648,1,4,1:3:0:0:
36,182,240821,69,10,0:2:0:0:
273,327,240993,1,8,0:2:0:0:
273,327,241079,1,8,0:2:0:0:
273,327,241166,2,0,L|336:316,2,64.3066688253988,10|8|8,0:2|1:3|1:3,0:0:0:0:
195,183,241510,2,0,L|132:172,2,64.3066688253988,10|4|4,1:3|1:3|1:3,0:0:0:0:
289,54,241855,2,0,L|352:43,2,64.3066688253988,4|4|4,1:3|1:3|1:3,0:0:0:0:
100,260,242200,6,0,B|291:243|163:148|391:127,1,325.950004973602,4|0,1:2|0:2,0:0:0:0:
464,176,243579,70,0,P|450:240|450:252,3,48.2300016190491,14|0|0|0,1:2|1:2|1:2|1:2,0:0:0:0:
365,291,243924,2,0,P|314:313|301:314,1,48.2300016190491,0|0,1:2|1:2,0:0:0:0:
215,188,244097,2,0,P|229:124|229:112,3,48.2300016190491,10|0|0|0,1:2|1:2|1:2|1:2,0:0:0:0:
314,73,244442,2,0,P|365:51|378:50,1,48.2300016190491,8|0,1:2|1:2,0:0:0:0:
356,260,244614,2,0,P|305:282|292:283,1,48.2300016190491,0|0,1:2|1:2,0:0:0:0:
136,137,244786,1,8,1:2:0:0:
136,137,244872,1,0,1:2:0:0:
136,137,244959,6,0,P|68:119|54:122,3,48.2300016190491,10|0|0|0,1:2|1:2|1:2|1:2,0:0:0:0:
256,196,245304,2,0,P|279:189|300:177,1,48.2300016190491,0|0,1:2|1:2,0:0:0:0:
136,293,245476,2,0,P|68:311|54:308,3,48.2300016190491,10|0|0|0,1:2|1:2|1:2|1:2,0:0:0:0:
269,231,245821,2,0,P|292:237|313:249,1,48.2300016190491,8|0,1:2|1:2,0:0:0:0:
116,165,245993,2,0,P|92:158|71:146,1,48.2300016190491,0|0,1:2|1:2,0:0:0:0:
257,319,246166,1,8,1:2:0:0:
257,319,246252,1,0,1:2:0:0:
257,319,246338,70,0,L|324:310,3,48.2300016190491,14|0|0|0,1:2|1:2|1:2|1:2,0:0:0:0:
246,147,246683,2,0,L|187:132,1,48.2300016190491,0|0,1:2|1:2,0:0:0:0:
281,342,246855,2,0,L|348:333,3,48.2300016190491,10|0|0|0,1:2|1:2|1:2|1:2,0:0:0:0:
265,174,247200,2,0,L|206:159,1,48.2300016190491,8|0,1:2|1:2,0:0:0:0:
305,363,247372,2,0,L|372:354,1,48.2300016190491,0|0,1:2|1:2,0:0:0:0:
282,203,247545,2,0,L|223:188,1,48.2300016190491,8|0,1:2|1:2,0:0:0:0:
101,301,247717,6,0,L|168:292,3,48.2300016190491,10|0|0|0,1:2|1:2|1:2|1:2,0:0:0:0:
90,129,248062,2,0,L|31:114,1,48.2300016190491,8|0,1:2|1:2,0:0:0:0:
125,324,248234,2,0,L|192:315,1,48.2300016190491,2|0,1:2|1:2,0:0:0:0:
232,135,248407,1,8,1:3:0:0:
232,135,248493,1,8,1:3:0:0:
232,135,248579,2,0,P|242:73|239:60,1,48.2300016190491,8|0,1:2|1:2,0:0:0:0:
89,254,248752,2,0,P|91:277|100:300,1,48.2300016190491,0|0,1:2|1:2,0:0:0:0:
263,155,248924,2,0,P|273:93|270:80,1,48.2300016190491,0|0,1:2|1:2,0:0:0:0:
371,289,249097,70,0,L|475:271,1,96.4600032380983,14|0,1:2|1:2,0:0:0:0:
294,248,249355,1,0,1:2:0:0:
294,248,249441,2,0,L|229:234,1,48.2300016190491,0|0,1:2|1:2,0:0:0:0:
406,145,249614,2,0,L|420:31,1,96.4600032380983,14|0,1:2|1:2,0:0:0:0:
263,155,249872,1,0,1:2:0:0:
263,155,249958,2,0,L|198:141,1,48.2300016190491,0|0,1:2|1:2,0:0:0:0:
437,240,250131,2,0,L|502:226,1,48.2300016190491,0|0,1:2|1:2,0:0:0:0:
249,129,250304,2,0,L|184:115,1,48.2300016190491,0|0,1:2|1:2,0:0:0:0:
64,326,250476,6,0,L|46:223,1,96.4600032380983,14|0,1:2|1:2,0:0:0:0:
197,353,250735,1,0,1:2:0:0:
197,353,250821,2,0,L|207:298,1,48.2300016190491,0|0,1:2|1:2,0:0:0:0:
116,102,250993,70,0,L|98:-1,1,96.4600032380983,14|0,1:2|1:2,0:0:0:0:
249,129,251252,1,0,1:2:0:0:
249,129,251338,2,0,L|259:74,1,48.2300016190491,0|0,1:2|1:2,0:0:0:0:
89,246,251510,2,0,L|79:191,1,48.2300016190491,0|0,1:2|1:2,0:0:0:0:
303,341,251683,2,0,L|313:286,1,48.2300016190491,0|0,1:2|1:2,0:0:0:0:
134,77,251855,5,12,1:2:0:0:
158,30,251941,1,0,1:2:0:0:
215,13,252028,1,0,1:2:0:0:
265,29,252114,1,0,1:2:0:0:
290,75,252200,1,8,1:2:0:0:
337,97,252286,1,0,1:2:0:0:
389,91,252372,1,0,1:2:0:0:
427,53,252459,1,0,1:2:0:0:
422,0,252545,69,8,1:2:0:0:
386,38,252631,1,0,1:2:0:0:
372,89,252717,1,0,1:2:0:0:
377,142,252804,1,0,1:2:0:0:
398,190,252890,1,8,1:2:0:0:
428,233,252976,1,0,1:2:0:0:
441,284,253062,1,0,1:2:0:0:
437,336,253148,1,0,1:2:0:0:
408,381,253235,5,14,1:2:0:0:
219,11,253752,1,2,0:2:0:0:
46,384,254269,1,2,0:2:0:0:
364,43,254614,70,0,B|261:54|318:106|200:121,1,160.589996814468,2|0,1:2|0:2,0:0:0:0:
151,64,254959,2,0,P|117:2|83:81,1,184.440005628662,2|0,0:2|0:2,0:0:0:0:
121,144,255304,2,0,L|137:278,1,120.839998524902,2|0,0:2|0:2,0:0:0:0:
64,384,255648,6,0,B|383:327|120:93|465:48,1,567.629982677308,6|0,1:2|0:2,0:0:0:0:
307,69,260131,70,0,B|248:77|280:107|190:112,1,96.9899960041353,8|0,0:2|0:2,0:0:0:0:
200,97,260476,2,0,B|254:92|227:65|286:57,1,96.9899960041353,8|0,0:2|0:2,0:0:0:0:
377,138,260821,6,0,B|394:211|360:187|379:254,1,112.889994315537,8|0,0:2|0:2,0:0:0:0:
398,260,261166,2,0,B|381:196|409:218|396:144,1,112.889994315537,8|0,0:2|0:2,0:0:0:0:
289,232,261510,70,0,B|211:240|238:200|153:212,1,128.790003144287,8|0,0:2|0:2,0:0:0:0:
153,189,261855,2,0,B|231:181|204:221|277:210,1,128.790003144287,8|0,0:2|0:2,0:0:0:0:
137,99,262200,6,0,B|50:126|111:162|14:191,1,144.690004857147,8|0,0:2|0:2,0:0:0:0:
4,179,262545,2,0,B|86:154|32:119|112:91,1,144.690004857147,8|0,0:2|0:2,0:0:0:0:
234,77,262890,70,0,P|287:61|298:50,1,48.2300016190491,8|0,0:2|0:2,0:0:0:0:
137,99,263062,2,0,P|114:89|90:87,1,48.2300016190491,8|0,0:2|0:2,0:0:0:0:
320,134,263235,6,0,P|354:90|356:75,1,48.2300016190491,8|0,0:2|0:2,0:0:0:0:
95,167,263407,2,0,P|71:172|50:184,1,48.2300016190491,8|0,0:2|0:2,0:0:0:0:
410,188,263579,70,0,P|413:132|406:118,1,48.2300016190491,8|0,0:2|0:2,0:0:0:0:
105,247,263751,2,0,P|88:264|78:286,1,48.2300016190491,8|0,0:2|0:2,0:0:0:0:
512,174,263924,6,0,P|482:126|469:119,1,48.2300016190491,8|0,0:2|0:2,0:0:0:0:
164,308,264096,2,0,P|160:331|165:355,1,48.2300016190491,8|0,0:2|0:2,0:0:0:0:
417,50,264269,69,8,0:2:0:0:
368,20,264355,1,8,0:2:0:0:
310,15,264441,1,8,0:2:0:0:
258,38,264527,1,8,0:2:0:0:
221,82,264613,1,8,0:2:0:0:
208,138,264700,1,8,0:2:0:0:
222,193,264786,1,8,0:2:0:0:
260,236,264872,1,8,0:2:0:0:
314,257,264959,6,0,L|358:251,6,24.1150008095246,8|8|8|8|8|8|8,0:2|0:2|0:2|0:2|0:2|0:2|0:2,0:0:0:0:
342,126,265304,2,0,L|292:119,6,26.7649994690781,8|8|8|8|8|8|8,0:2|0:2|0:2|0:2|0:2|0:2|0:2,0:0:0:0:
125,297,265648,69,8,0:2:0:0:
182,14,265821,1,0,1:2:0:0:
512,330,265993,1,8,0:2:0:0:
455,47,266166,1,0,1:2:0:0:
90,315,266338,1,8,0:2:0:0:
147,32,266511,1,0,1:2:0:0:
477,348,266683,1,8,0:2:0:0:
420,65,266856,1,0,1:2:0:0:
57,332,267028,6,0,P|17:217|62:115,1,224.189988540093,6|0,1:2|0:2,0:0:0:0:
124,0,267373,6,0,P|156:78|154:94,1,69.4300012713013,2|0,1:2|0:2,0:2:0:0:
296,293,267545,2,0,L|296:208,1,69.4300012713013,2|0,3:2|0:2,0:2:0:0:
388,0,267717,2,0,P|356:78|358:94,1,69.4300012713013,2|0,1:2|0:2,0:2:0:0:
216,294,267890,2,0,L|216:209,1,69.4300012713013,2|0,3:2|0:2,0:2:0:0:
93,31,268062,22,0,P|144:98|146:114,1,69.4300012713013,2|0,1:2|0:2,0:2:0:0:
320,306,268235,2,0,L|320:221,1,69.4300012713013,2|0,3:2|0:2,0:2:0:0:
419,31,268407,2,0,P|367:98|365:114,1,69.4300012713013,2|0,1:2|0:2,0:2:0:0:
197,309,268580,2,0,L|197:224,1,69.4300012713013,2|0,3:2|0:2,0:2:0:0:
66,64,268752,54,0,P|132:115|138:130,1,69.4300012713013,2|0,1:2|0:2,0:2:0:0:
343,322,268924,2,0,L|343:237,1,69.4300012713013,2|0,3:2|0:2,0:2:0:0:
446,64,269097,2,0,P|379:115|373:130,1,69.4300012713013,2|0,1:2|0:2,0:2:0:0:
176,326,269269,2,0,L|176:241,1,69.4300012713013,2|0,3:2|0:2,0:2:0:0:
45,95,269441,22,0,P|122:127|132:140,1,69.4300012713013,2|0,1:2|0:2,0:2:0:0:
363,342,269614,2,0,L|363:257,1,69.4300012713013,2|0,3:2|0:2,0:2:0:0:
465,95,269786,2,0,P|387:127|377:140,1,69.4300012713013,2|0,1:2|0:2,0:2:0:0:
157,342,269959,2,0,L|157:257,1,69.4300012713013,2|0,3:2|0:2,0:2:0:0:
24,128,270131,54,0,P|110:139|123:149,1,69.4300012713013,2|0,1:2|0:2,0:2:0:0:
388,361,270304,2,0,L|388:276,1,69.4300012713013,2|0,3:2|0:2,0:2:0:0:
486,128,270476,2,0,P|399:139|386:149,1,69.4300012713013,2|0,1:2|0:2,0:2:0:0:
130,363,270648,2,0,L|130:278,1,69.4300012713013,2|0,3:2|0:2,0:2:0:0:
388,23,270821,22,0,L|388:108,1,69.4300012713013,2|0,1:2|0:2,0:2:0:0:
388,361,270993,2,0,L|388:276,1,69.4300012713013,2|0,3:2|0:2,0:2:0:0:
130,21,271165,2,0,L|130:106,1,69.4300012713013,2|0,1:2|0:2,0:2:0:0:
130,363,271338,2,0,L|130:293,1,69.4300012713013,2|0,3:2|0:2,0:2:0:0:
500,192,271510,54,0,P|433:156|416:158,1,69.4300012713013,2|0,1:2|0:2,0:2:0:0:
20,272,271683,2,0,P|52:260|77:236,1,69.4300012713013,2|0,3:2|0:2,0:2:0:0:
256,0,271855,1,2,1:2:0:0:
256,0,272200,54,0,B|221:143|309:90|269:264,1,248.040008326538,14|0,0:2|0:2,0:0:0:0:
230,321,272545,6,0,P|225:219|102:272,1,224.189988540093,6|0,1:2|0:2,0:0:0:0:
88,278,272890,6,0,L|72:176,1,74.729996180031,6|0,1:2|0:2,0:0:0:0:
169,83,273062,2,0,P|203:145|204:173,1,74.729996180031,2|0,3:2|0:2,0:0:0:0:
159,301,273234,2,0,P|170:265|193:236,1,74.729996180031,2|0,1:2|0:2,0:0:0:0:
338,240,273407,2,0,P|260:200|243:204,1,74.729996180031,2|0,3:2|0:2,0:0:0:0:
73,293,273579,22,0,L|74:189,1,74.729996180031,6|0,1:2|0:2,0:0:0:0:
190,71,273751,2,0,P|224:133|225:161,1,74.729996180031,2|0,3:2|0:2,0:0:0:0:
181,315,273924,2,0,P|192:279|215:250,1,74.729996180031,2|0,1:2|0:2,0:0:0:0:
375,243,274097,2,0,P|297:203|280:207,1,74.729996180031,2|0,3:2|0:2,0:0:0:0:
54,311,274269,54,0,L|73:209,1,74.729996180031,6|0,1:2|0:2,0:0:0:0:
218,59,274441,2,0,P|252:121|253:149,1,74.729996180031,2|0,3:2|0:2,0:0:0:0:
205,329,274614,2,0,P|216:293|239:264,1,74.729996180031,2|0,1:2|0:2,0:0:0:0:
415,245,274786,2,0,P|337:205|320:209,1,74.729996180031,2|0,3:2|0:2,0:0:0:0:
39,328,274959,22,0,L|76:231,1,74.729996180031,6|0,1:2|0:2,0:0:0:0:
248,50,275131,2,0,P|282:112|283:140,1,74.729996180031,2|0,3:2|0:2,0:0:0:0:
238,344,275304,2,0,P|249:308|272:279,1,74.729996180031,2|0,1:2|0:2,0:0:0:0:
450,247,275476,2,0,P|372:207|355:211,1,74.729996180031,2|0,3:2|0:2,0:0:0:0:
29,341,275648,54,0,L|82:252,1,74.729996180031,6|0,1:2|0:2,0:0:0:0:
276,44,275820,2,0,P|310:106|311:134,1,74.729996180031,2|0,3:2|0:2,0:0:0:0:
264,356,275993,2,0,P|275:320|298:291,1,74.729996180031,2|0,1:2|0:2,0:0:0:0:
482,247,276165,2,0,P|404:207|387:211,1,74.729996180031,2|0,3:2|0:2,0:0:0:0:
16,359,276338,22,0,L|83:281,1,74.729996180031,6|0,1:2|0:2,0:0:0:0:
312,40,276510,2,0,P|346:102|347:130,1,74.729996180031,2|0,3:2|0:2,0:0:0:0:
291,367,276683,2,0,P|302:331|325:302,1,74.729996180031,2|0,1:2|0:2,0:0:0:0:
512,249,276855,2,0,P|434:209|417:213,1,74.729996180031,2|0,3:2|0:2,0:0:0:0:
0,374,277028,54,0,L|80:309,1,74.729996180031,6|0,1:2|0:2,0:0:0:0:
346,38,277200,2,0,P|380:100|381:128,1,74.729996180031,2|0,3:2|0:2,0:0:0:0:
192,371,277372,1,2,1:2:0:0:
96,9,277717,1,2,0:2:0:0:
431,351,278062,1,6,1:2:0:0:
431,351,278407,54,0,L|367:344,1,37.6299981051789,2|0,1:2|0:2,0:0:0:0:
246,371,278579,2,0,L|208:375,1,37.6299981051789,0|0,1:2|0:2,0:0:0:0:
100,261,278752,6,0,B|77:236|23:251|39:302|61:350|200:315|272:204,1,255.99000039061,10|0,0:2|0:2,0:0:0:0:
346,161,279097,6,0,P|284:191|264:187,1,64.1299981896897,2|0,1:2|0:2,0:0:0:0:
153,165,279270,2,0,P|185:162|215:172,1,64.1299981896897,2|0,0:2|0:2,0:0:0:0:
348,131,279442,2,0,P|296:177|276:178,1,64.1299981896897,2|0,0:2|0:2,0:0:0:0:
129,192,279614,2,0,P|159:181|191:183,1,64.1299981896897,2|0,0:2|0:2,0:0:0:0:
335,98,279787,2,0,P|297:155|277:162,1,64.1299981896897,2|0,0:2|0:2,0:0:0:0:
119,227,279959,2,0,P|145:208|176:202,1,64.1299981896897,2|0,0:2|0:2,0:0:0:0:
381,378,280132,6,0,P|329:329|326:303,1,64.1299981896897,10|0,0:2|0:2,0:0:0:0:
265,224,280304,2,0,P|317:273|320:299,1,64.1299981896897,2|0,0:2|0:2,0:0:0:0:
417,370,280476,2,0,P|355:337|345:312,1,64.1299981896897,2|0,0:2|0:2,0:0:0:0:
233,236,280648,2,0,P|296:270|306:295,1,64.1299981896897,2|0,0:2|0:2,0:0:0:0:
457,257,280821,70,0,L|377:275,1,64.1299981896897,2|0,1:2|0:2,0:0:0:0:
212,322,280994,2,0,L|275:337,1,64.1299981896897,2|0,0:2|0:2,0:0:0:0:
470,220,281166,2,0,L|398:259,1,64.1299981896897,2|0,0:2|0:2,0:0:0:0:
192,349,281339,2,0,L|257:347,1,64.1299981896897,2|0,0:2|0:2,0:0:0:0:
345,154,281511,6,0,P|359:87|355:68,1,64.1299981896897,10|0,0:2|0:2,0:0:0:0:
197,189,281683,2,0,P|200:221|212:251,1,64.1299981896897,2|0,0:2|0:2,0:0:0:0:
376,136,281856,2,0,P|373:68|364:51,1,64.1299981896897,2|0,0:2|0:2,0:0:0:0:
173,212,282028,2,0,P|184:243|203:268,1,64.1299981896897,2|0,0:2|0:2,0:0:0:0:
252,97,282201,70,0,L|259:25,1,64.1299981896897,2|0,1:2|0:2,0:0:0:0:
289,227,282373,2,0,L|296:291,1,64.1299981896897,2|0,0:2|0:2,0:0:0:0:
225,81,282545,2,0,L|214:10,1,64.1299981896897,2|0,0:2|0:2,0:0:0:0:
319,231,282717,2,0,L|342:292,1,64.1299981896897,2|0,0:2|0:2,0:0:0:0:
163,123,282890,6,0,P|90:110|66:117,1,64.1299981896897,10|0,0:2|0:2,0:0:0:0:
371,172,283063,2,0,P|403:170|433:158,1,64.1299981896897,2|0,0:2|0:2,0:0:0:0:
229,279,283235,1,2,0:2:0:0:
415,23,283579,70,0,B|261:48|361:125|173:145,1,256.519992758759,6|0,1:2|1:2,0:0:0:0:
398,131,284097,1,0,1:2:0:0:
162,32,284269,6,0,P|149:124|131:178,1,128.259996379379,10|0,0:2|0:2,0:0:0:0:
394,297,284614,2,0,P|377:235|370:171,1,128.259996379379,2|0,0:2|0:2,0:0:0:0:
161,296,284959,69,2,1:2:0:0:
464,224,285131,1,2,0:2:0:0:
161,296,285304,2,0,P|80:266|24:264,1,128.259996379379,2|0,0:2|0:2,0:0:0:0:
398,131,285648,6,0,P|415:48|402:1,1,128.259996379379,10|2,0:2|0:2,0:0:0:0:
131,137,285993,2,0,P|120:199|137:260,1,128.259996379379,2|0,0:2|0:2,0:0:0:0:
461,364,286338,1,4,1:2:0:0:
461,364,286683,70,0,P|429:296|427:278,1,64.1299981896897,2|0,0:2|0:0,0:0:0:0:
377,159,286856,2,0,P|409:227|411:245,1,64.1299981896897,2|0,0:2|0:0,0:0:0:0:
422,362,287028,2,0,P|409:289|412:271,1,64.1299981896897,10|0,0:2|0:0,0:0:0:0:
384,113,287201,2,0,P|433:171|440:188,1,64.1299981896897,2|0,0:2|0:0,0:0:0:0:
384,361,287373,2,0,P|391:287|398:270,1,64.1299981896897,2|0,0:2|0:0,0:0:0:0:
391,74,287546,2,0,P|453:117|464:132,1,64.1299981896897,2|0,0:2|0:0,0:0:0:0:
261,304,287718,6,0,P|189:323|172:317,1,64.1299981896897,2|0,1:2|0:0,0:0:0:0:
177,80,287890,2,0,P|209:85|236:101,1,64.1299981896897,2|0,0:2|0:0,0:0:0:0:
294,311,288063,2,0,P|230:348|212:347,1,64.1299981896897,2|0,0:2|0:0,0:0:0:0:
145,102,288235,2,0,P|177:99|208:107,1,64.1299981896897,2|0,0:2|0:0,0:0:0:0:
415,244,288407,1,10,0:2:0:0:
19,187,288752,1,2,0:2:0:0:
473,48,289097,1,2,1:2:0:0:
473,48,289441,38,0,L|402:60,1,37.6299981051789,0|0,1:2|0:2,0:0:0:0:
318,188,289614,2,0,L|280:181,1,37.6299981051789,0|0,1:2|0:2,0:0:0:0:
111,54,289786,6,0,B|86:1|86:1|53:180,1,240.089997252388,8|0,0:2|0:2,0:0:0:0:
25,248,290131,6,0,P|100:268|117:283,1,69.4300012713013,2|0,1:2|0:0,0:0:0:0:
243,307,290303,2,0,P|211:320|177:322,1,69.4300012713013,2|0,0:2|0:0,0:0:0:0:
47,215,290475,2,0,P|125:215|145:225,1,69.4300012713013,2|0,0:2|0:0,0:0:0:0:
284,248,290648,2,0,P|257:269|224:280,1,69.4300012713013,2|0,0:2|0:0,0:0:0:0:
57,178,290820,2,0,P|132:158|155:163,1,69.4300012713013,2|0,0:2|0:0,0:0:0:0:
311,170,290992,2,0,P|290:198|261:217,1,69.4300012713013,2|0,0:2|0:0,0:0:0:0:
49,138,291165,2,0,P|117:100|139:98,1,69.4300012713013,10|0,0:2|0:0,0:0:0:0:
319,82,291337,2,0,P|306:114|283:140,1,69.4300012713013,2|0,0:2|0:0,0:0:0:0:
24,105,291510,2,0,P|79:51|101:43,1,69.4300012713013,2|0,0:2|0:0,0:0:0:0:
281,0,291682,2,0,P|276:35|261:66,1,69.4300012713013,2|0,0:2|0:0,0:0:0:0:
189,305,291855,6,0,P|164:225|173:192,1,69.4300012713013,2|0,1:2|0:0,0:0:0:0:
403,171,292027,2,0,P|396:205|378:235,1,69.4300012713013,2|0,0:2|0:0,0:0:0:0:
151,283,292200,2,0,P|148:200|165:170,1,69.4300012713013,2|0,0:2|0:0,0:0:0:0:
426,198,292372,2,0,P|411:229|386:253,1,69.4300012713013,2|0,0:2|0:0,0:0:0:0:
117,262,292544,2,0,P|136:181|160:157,1,69.4300012713013,10|0,0:2|0:0,0:0:0:0:
449,222,292717,2,0,P|426:248|396:265,1,69.4300012713013,2|0,0:2|0:0,0:0:0:0:
82,244,292889,2,0,P|122:171|151:154,1,69.4300012713013,2|0,0:2|0:0,0:0:0:0:
469,249,293061,2,0,P|441:269|407:277,1,69.4300012713013,2|0,0:2|0:0,0:0:0:0:
206,66,293234,70,0,P|207:104|228:152,1,69.4300012713013,2|0,1:2|0:0,0:0:0:0:
305,344,293406,2,0,P|304:306|283:258,1,69.4300012713013,2|0,0:2|0:0,0:0:0:0:
235,37,293579,2,0,P|227:74|234:126,1,69.4300012713013,2|0,0:2|0:0,0:0:0:0:
264,368,293751,2,0,P|273:332|266:280,1,69.4300012713013,2|0,0:2|0:0,0:0:0:0:
413,77,293924,2,0,B|139:75|303:308|20:324,1,486.010008899109,14|0,0:2|0:2,0:0:0:0:
30,243,294614,6,0,P|49:157|43:103,1,138.860002542603,4|0,1:2|0:2,0:0:0:0:
168,331,294959,1,2,0:2:0:0:
255,56,295131,1,2,0:2:0:0:
379,336,295304,70,0,P|466:360|523:349,1,138.860002542603,10|0,0:2|0:2,0:0:0:0:
223,83,295648,2,0,P|154:76|89:99,1,138.860002542603,2|0,0:2|0:2,0:0:0:0:
447,237,295993,5,2,1:2:0:0:
106,285,296166,1,2,0:2:0:0:
447,237,296338,2,0,L|464:81,1,138.860002542603,2|2,0:2|0:2,0:0:0:0:
142,205,296683,70,0,P|130:281|149:341,1,138.860002542603,10|0,0:2|0:2,0:0:0:0:
405,172,297028,2,0,P|423:105|410:38,1,138.860002542603,2|0,0:2|0:2,0:0:0:0:
32,190,297372,6,0,B|196:188|88:91|302:90,1,277.720005085205,2|2,1:2|0:2,0:0:0:0:
53,92,297890,1,2,0:2:0:0:
290,200,298062,2,0,P|300:107|323:48,1,138.860002542603,10|0,0:2|0:2,0:0:0:0:
385,275,298407,1,2,1:2:0:0:
198,62,298579,1,2,0:2:0:0:
118,312,298752,69,8,1:2:0:0:
82,278,298838,1,8,1:2:0:0:
76,229,298924,1,8,1:3:0:0:
104,190,299010,1,8,1:3:0:0:
152,183,299097,1,4,1:3:0:0:
190,212,299183,1,4,1:3:0:0:
211,255,299269,1,8,1:3:0:0:
253,278,299355,1,8,1:3:0:0:
301,276,299441,1,8,1:3:0:0:
345,256,299528,1,8,1:3:0:0:
368,213,299614,1,4,1:3:0:0:
371,164,299700,1,4,1:3:0:0:
353,118,299786,5,8,1:2:0:0:
241,368,299959,1,8,1:2:0:0:
457,28,300131,70,0,B|194:47|359:270|32:280,1,486.010008899109,6|0,1:2|0:2,0:0:0:0:
28,210,300821,2,0,L|18:154,3,46.2866675142009,4|4|4|12,1:3|1:3|1:3|1:3,0:0:0:0:
