osu file format v14

[General]
AudioFilename: audio.mp3
AudioLeadIn: 0
PreviewTime: 104320
Countdown: 1
SampleSet: Normal
StackLeniency: 0.7
Mode: 0
LetterboxInBreaks: 0
WidescreenStoryboard: 0

[Editor]
Bookmarks: 38113,75182,80527,91216,105354,106389,107768,108803,111561,119665,121561,132251,132941,133285,138458,138630,187768,256389,257078,257165,258113,258803,259147,259492,260182,265010,277423,277596,277768,277941,278113,278285,280182,280872,281561,282251,283285,283630,284320,285010,285699,286389,287078,287768,288458,289147,289837,300182
DistanceSpacing: 6
BeatDivisor: 4
GridSize: 8
TimelineZoom: 2.7

[Metadata]
Title:Overkill
TitleUnicode:Overkill
Artist:RIOT
ArtistUnicode:RIOT
Creator:Emukko
Version:Overload
Source:
Tags:
BeatmapID:1924511
BeatmapSetID:921555

[Difficulty]
HPDrainRate:6
CircleSize:4
OverallDifficulty:8.5
ApproachRate:9
SliderMultiplier:1.7
SliderTickRate:1

[Events]
//Background and Video events
0,0,"oloco.jpg",0,0
//Break Periods
2,61072,62341
2,177622,182168
//Storyboard Layer 0 (Background)
//Storyboard Layer 1 (Fail)
//Storyboard Layer 2 (Pass)
//Storyboard Layer 3 (Foreground)
//Storyboard Sound Samples

[TimingPoints]
5010,344.827586206897,4,1,0,100,1,0
27078,-250,4,1,0,100,0,0
60182,-100,4,1,0,100,0,0
79492,-454.545454545455,4,1,0,100,0,0
80699,-100,4,1,0,100,0,0
94665,-86.9565217391304,4,1,0,100,0,0
96044,-76.9230769230769,4,1,0,100,0,0
97423,-62.5,4,1,0,100,0,0
100182,-57.1428571428571,4,1,0,100,0,0
102941,-100,4,1,0,100,0,0
104320,-100,4,1,0,100,0,1
105354,-66.6666666666667,4,1,0,100,0,1
106734,-100,4,1,0,100,0,1
112251,-66.6666666666667,4,1,0,100,0,1
122596,-100,4,1,0,100,0,1
123285,-100,4,1,0,100,0,1
127768,-100,4,1,0,100,0,0
132251,-66.6666666666667,4,1,0,100,0,0
133630,-100,4,1,0,100,0,0
155354,-66.6666666666667,4,1,0,100,0,1
177423,-100,4,1,0,100,0,0
186044,-111.111111111111,4,1,0,100,0,0
186389,-125,4,1,0,100,0,0
186734,-142.857142857143,4,1,0,100,0,0
187078,-166.666666666667,4,1,0,100,0,0
187423,-200,4,1,0,100,0,0
188458,-66.6666666666667,4,1,0,100,0,1
191216,-50,4,1,0,100,0,1
191561,-66.6666666666667,4,1,0,100,0,1
199492,-66.6666666666667,4,1,0,100,0,1
210527,-100,4,1,0,100,0,0
213285,-90.9090909090909,4,1,0,100,0,1
221561,-66.6666666666667,4,1,0,100,0,1
232596,-100,4,1,0,100,0,0
243630,-66.6666666666667,4,1,0,100,0,0
254837,-100,4,1,0,100,0,0
267251,-50,4,1,0,100,0,1
271906,-100,4,1,0,100,0,1
272251,-50,4,1,0,100,0,1
277423,-66.6666666666667,4,1,0,100,0,1
278458,-100,4,1,0,100,0,1
279147,-50,4,1,0,100,0,1
280182,-33.3333333333333,4,1,0,100,0,1
280268,-50,4,1,0,100,0,1
280872,-33.3333333333333,4,1,0,100,0,1
280958,-50,4,1,0,100,0,1
281561,-33.3333333333333,4,1,0,100,0,1
281647,-50,4,1,0,100,0,1
282251,-33.3333333333333,4,1,0,100,0,1
282337,-50,4,1,0,100,0,1
282941,-33.3333333333333,4,1,0,100,0,1
283027,-50,4,1,0,100,0,1
283285,-100,4,1,0,100,0,1
283630,-50,4,1,0,100,0,1
300182,-100,4,1,0,100,0,0

[HitObjects]
368,192,5009,5,0,0:0:0:0:
296,112,5182,1,0,0:0:0:0:
192,192,5354,2,0,P|208:240|240:256,1,85
344,320,5699,1,0,0:0:0:0:
400,192,5872,2,0,L|464:120,2,85
304,96,6389,5,0,0:0:0:0:
208,160,6561,1,0,0:0:0:0:
152,56,6734,2,0,P|120:88|112:136,1,85
112,288,7078,1,0,0:0:0:0:
256,256,7251,2,0,L|336:224,2,85
176,80,7768,6,0,L|248:160,1,85
352,96,8113,1,0,0:0:0:0:
208,248,8285,1,0,0:0:0:0:
392,256,8458,1,0,0:0:0:0:
352,96,8630,2,0,L|256:96,1,85
344,96,8975,1,0,0:0:0:0:
152,208,9147,6,0,L|88:120,1,85
96,296,9492,1,0,0:0:0:0:
248,192,9664,1,0,0:0:0:0:
256,344,9837,1,0,0:0:0:0:
96,296,10010,2,0,L|-16:296,1,85
96,296,10355,1,0,0:0:0:0:
336,144,10527,6,0,L|408:88,1,85
184,144,10872,2,0,L|128:72,1,85
256,208,11216,1,0,0:0:0:0:
256,304,11389,1,0,0:0:0:0:
256,208,11561,2,0,L|256:120,1,85
176,240,11906,6,0,L|104:296,1,85
328,240,12251,6,0,L|384:312,1,85
256,80,12596,2,0,L|256:192,1,85
256,312,12941,1,0,0:0:0:0:
256,200,13113,1,0,0:0:0:0:
336,104,13285,2,0,P|376:56|408:48,1,85
480,144,13630,2,0,P|440:192|408:200,1,85
264,240,13975,2,0,P|304:192|336:184,1,85
408,280,14320,2,0,P|368:328|336:336,1,85
144,176,14665,6,0,L|80:96,1,85
272,192,15010,2,0,L|208:120,1,85
344,288,15354,6,0,L|408:368,1,85
216,272,15699,2,0,L|280:344,1,85
240,136,16044,1,0,0:0:0:0:
386,41,16216,1,0,0:0:0:0:
395,215,16389,1,0,0:0:0:0:
240,136,16561,1,0,0:0:0:0:
386,41,16734,2,0,L|496:40,1,85
395,215,17078,2,0,L|396:325,1,85
162,270,17423,5,0,0:0:0:0:
234,71,17596,1,0,0:0:0:0:
371,233,17768,1,0,0:0:0:0:
162,270,17941,1,0,0:0:0:0:
317,85,18113,1,0,0:0:0:0:
317,298,18285,1,0,0:0:0:0:
133,191,18458,1,0,0:0:0:0:
317,85,18630,1,0,0:0:0:0:
208,272,18803,6,0,L|112:336,1,85
344,168,19147,2,0,L|424:104,1,85
191,204,19492,2,0,L|80:175,1,85
360,235,19837,2,0,L|456:272,1,85
208,144,20182,6,0,L|144:72,2,85
208,144,20699,1,0,0:0:0:0:
304,240,20872,6,0,L|368:312,1,85
189,259,21216,6,0,L|253:331,1,85
328,136,21561,6,0,L|400:72,1,85
232,96,21906,2,0,L|128:96,1,85
200,184,22251,2,0,L|200:272,1,85
152,368,22596,2,0,L|272:320,1,85
392,272,22941,6,0,P|376:312|328:320,1,85
304,184,23285,6,0,P|320:144|368:136,1,85
312,264,23630,6,0,P|296:304|248:312,1,85
224,176,23974,6,0,P|240:136|288:128,1,85
224,256,24320,5,0,0:0:0:0:
280,168,24492,1,0,0:0:0:0:
296,296,24665,1,0,0:0:0:0:
208,152,24837,1,0,0:0:0:0:
368,208,25010,1,0,0:0:0:0:
152,288,25182,1,0,0:0:0:0:
368,64,25354,1,0,0:0:0:0:
200,376,25527,1,0,0:0:0:0:
192,152,25699,6,0,P|104:152|64:128,1,85
256,56,26044,2,0,L|320:144,1,85
192,152,26389,6,0,P|104:152|64:128,1,85
305,124,26734,1,0,0:0:0:0:
216,208,27078,6,0,P|264:184|432:296,1,272,4|0,0:0|0:0,0:0:0:0:
336,312,29837,2,0,P|272:320|224:256,1,136
320,184,30872,1,0,0:0:0:0:
248,64,31216,6,0,P|208:96|120:96,1,136,4|0,0:0|0:0,0:0:0:0:
96,184,32596,2,0,P|112:224|64:312,1,136,4|0,0:0|0:0,0:0:0:0:
232,296,33630,1,0,0:0:0:0:
280,176,33975,2,0,P|304:136|392:120,1,136
328,320,35354,2,0,L|216:232,1,136,4|0,0:0|0:0,0:0:0:0:
288,96,36389,1,0,0:0:0:0:
40,144,36734,2,0,B|96:248|101:245|149:66|194:60|215:94|208:136,1,272,0|4,0:0|0:0,0:0:0:0:
360,296,38803,6,0,P|368:264|400:248,1,68
134,125,39492,2,0,B|151:95|176:80|221:75|254:98|254:98|215:145|215:145|288:144,1,272
72,320,41561,6,0,P|96:320|120:280,1,68
64,128,42251,2,0,B|192:64|192:64|312:128,1,272,4|4,0:0|0:0,0:0:0:0:
200,312,44320,5,0,0:0:0:0:
368,240,44665,1,0,0:0:0:0:
312,96,45010,2,0,P|288:88|120:224,1,272,0|4,0:0|0:0,0:0:0:0:
392,208,47078,1,0,0:0:0:0:
208,144,47423,1,0,0:0:0:0:
32,296,47768,2,0,B|82:249|82:249|153:227|153:227|141:342|193:307|193:307|192:304|192:304|200:296,1,272,0|4,0:0|0:0,0:0:0:0:
368,256,49837,6,0,P|344:216|328:192,1,68
192,176,50527,2,0,P|200:160|232:216,1,136
176,280,51906,2,0,P|168:296|136:240,1,136
280,152,52941,1,0,0:0:0:0:
416,160,53285,6,0,P|432:176|368:248,2,136,4|0|4,0:0|0:0|0:0,0:0:0:0:
104,112,55354,6,0,B|112:112|112:112|112:104|112:104|120:104|120:104|120:112|120:112|160:112,1,68
296,64,56044,2,0,B|288:80|208:192|208:192|200:184|200:184|200:192|200:192|192:184|192:184|192:192|192:192|184:184|184:184|184:192|184:192|152:176|144:136,1,272,0|4,0:0|0:0,0:0:0:0:
80,144,58113,6,0,L|136:104,1,68
288,80,58803,2,0,P|312:112|256:176,1,136
200,96,60182,5,4,0:0:0:0:
216,96,60268,1,4,0:0:0:0:
232,96,60354,1,0,0:0:0:0:
352,272,60699,5,4,0:0:0:0:
336,272,60785,1,4,0:0:0:0:
320,272,60872,1,0,0:0:0:0:
48,312,62941,5,4,0:0:0:0:
48,296,63027,1,4,0:0:0:0:
48,280,63113,1,0,0:0:0:0:
224,160,63458,2,0,L|224:208,2,42.5,4|4|0,0:0|0:0|0:0,0:0:0:0:
304,152,63975,1,0,0:0:0:0:
392,88,64147,1,0,0:0:0:0:
440,168,64320,2,0,P|424:224|304:240,1,170
72,216,65010,2,0,P|88:160|208:144,1,170
344,304,65699,5,4,0:0:0:0:
344,288,65785,1,4,0:0:0:0:
344,272,65872,1,0,0:0:0:0:
160,80,66216,1,4,0:0:0:0:
160,96,66303,1,4,0:0:0:0:
160,112,66389,1,0,0:0:0:0:
208,256,66561,5,0,0:0:0:0:
266,96,66734,1,0,0:0:0:0:
375,226,66906,1,0,0:0:0:0:
184,192,67078,1,0,0:0:0:0:
331,107,67251,1,0,0:0:0:0:
331,277,67423,1,0,0:0:0:0:
194,115,67596,1,0,0:0:0:0:
352,176,67768,1,0,0:0:0:0:
220,283,67941,1,0,0:0:0:0:
194,115,68113,2,0,L|192:16,1,85
368,272,68458,6,0,L|416:272,2,42.5,4|4|0,0:0|0:0|0:0,0:0:0:0:
344,272,68716,1,0,0:0:0:0:
328,272,68803,1,0,0:0:0:0:
312,272,68889,1,0,0:0:0:0:
296,272,68975,2,0,L|240:272,2,42.5,4|4|0,0:0|0:0|0:0,0:0:0:0:
296,256,69234,1,0,0:0:0:0:
296,240,69320,1,0,0:0:0:0:
296,224,69406,1,0,0:0:0:0:
296,208,69492,1,0,0:0:0:0:
296,192,69578,1,0,0:0:0:0:
288,184,69665,1,0,0:0:0:0:
272,176,69751,1,0,0:0:0:0:
256,168,69837,6,0,L|216:144,1,42.5
88,80,70010,2,0,L|144:112,1,42.5
262,168,70182,6,0,L|229:135,1,42.5
122,40,70354,2,0,L|168:85,1,42.5
268,171,70527,6,0,L|245:130,1,42.5
166,11,70699,2,0,L|199:66,1,42.5
272,175,70872,6,0,L|264:167|261:164|257:160|253:156|250:153|246:149|242:145|239:142|235:138|231:134|228:131|224:127|213:81,1,42.5
216,0,71044,2,0,L|233:56,1,42.5
272,175,71216,6,0,L|368:176,1,85
400,264,71561,1,0,0:0:0:0:
392,280,71647,1,0,0:0:0:0:
376,288,71734,1,0,0:0:0:0:
360,296,71820,1,0,0:0:0:0:
344,304,71906,6,8,P|304:320|264:304,1,85
216,120,72251,1,0,0:0:0:0:
216,120,72423,2,8,P|160:136|120:184,1,85
368,120,72769,1,0,0:0:0:0:
368,120,72941,2,8,P|352:64|304:24,1,85
248,280,73285,1,0,0:0:0:0:
248,280,73458,2,8,P|304:264|344:216,2,85
128,104,73975,6,0,L|224:104,1,85
320,128,74320,2,0,L|320:176,1,42.5
360,208,74492,2,0,L|360:160,1,42.5
248,88,74665,2,8,P|184:64|152:72,2,85
104,163,75182,2,8,P|135:134|171:123,1,42.5
155,119,75354,1,0,0:0:0:0:
181,104,75441,1,0,0:0:0:0:
207,88,75527,1,0,0:0:0:0:
236,73,75613,1,0,0:0:0:0:
273,76,75699,6,0,P|283:105|269:130,1,42.5
265,130,75872,1,0,0:0:0:0:
248,145,75958,1,0,0:0:0:0:
234,164,76044,1,0,0:0:0:0:
229,188,76130,1,0,0:0:0:0:
229,214,76216,6,0,P|238:245|224:269,1,42.5
216,273,76389,1,0,0:0:0:0:
187,276,76475,1,0,0:0:0:0:
167,249,76561,2,0,P|181:211|215:197,1,42.5
221,194,76734,6,0,B|221:186|221:186|229:186|229:186|229:194|229:194|237:194|237:194|237:186|237:186|245:186|245:186|293:186,1,85
440,232,77078,2,0,L|440:280,1,42.5
376,248,77251,2,0,L|344:280,1,42.5
320,208,77423,2,8,L|232:208,1,85
216,136,77768,1,0,0:0:0:0:
320,208,77941,2,8,L|232:208,1,85
216,288,78285,1,0,0:0:0:0:
320,208,78458,2,8,L|232:208,1,85
152,208,78803,1,0,0:0:0:0:
320,208,78975,2,8,L|232:208,2,85
224,80,79492,6,0,B|227:80|227:80|224:88|224:88|226:82|225:82|224:82|224:82|228:81|228:81|225:80|225:80|226:80|226:80|223:82|227:84|223:83|225:83|225:83|224:83|224:83|222:82|222:82|220:82|220:82|222:81|223:81|225:81|222:80|220:80|220:80|222:77|223:79|227:82|227:82|228:82|228:82|223:78|223:78|224:78|224:79|225:79|225:79|226:83|226:84|226:85|225:85|224:85|223:84|222:84|222:83|222:83|224:81|224:81|222:78|222:78|225:84|225:84|221:84|221:83|221:82|221:81|221:81|226:79|227:81|227:81|228:84|228:85|227:85|226:86|226:86|224:86|224:86|223:85|223:85|225:78|225:78|229:78|229:78|229:83|229:83|226:81|226:81|229:80|229:80|222:79|225:77|225:77,1,130.900003994751
368,168,80872,6,0,L|336:208,1,42.5
240,320,81044,2,0,L|280:280,1,42.5
240,176,81216,2,0,P|208:128|216:88,1,85
104,48,81561,2,0,L|144:80,1,42.5
280,128,81734,2,0,L|224:128,1,42.5
112,208,81906,2,0,L|136:168,1,42.5
104,48,82078,2,0,L|144:80,1,42.5
280,128,82251,6,8,P|336:128|384:168,1,85
384,272,82596,1,0,0:0:0:0:
288,344,82768,1,0,0:0:0:0:
184,304,82941,2,0,L|96:304,2,85
128,64,83458,2,8,L|208:120,1,85
280,80,83803,1,0,0:0:0:0:
272,288,83975,2,8,L|192:232,1,85
120,272,84320,1,0,0:0:0:0:
168,48,84492,2,8,L|248:104,2,85
208,200,85010,6,0,L|112:264,1,85
296,248,85354,2,0,L|416:248,1,85
288,120,85699,2,0,L|288:32,1,85
288,120,86044,1,0,0:0:0:0:
192,208,86216,6,8,L|88:208,1,85
192,208,86561,1,0,0:0:0:0:
328,240,86734,2,8,L|400:296,1,85
328,240,87078,1,0,0:0:0:0:
256,304,87251,2,8,L|256:219,1,85
256,59,87596,2,8,L|256:144,1,85
152,296,87941,5,0,0:0:0:0:
184,288,88027,1,0,0:0:0:0:
224,280,88113,2,0,L|336:280,1,85
416,128,88458,2,0,L|416:232,1,85
309,280,88803,1,0,0:0:0:0:
176,160,88975,6,8,L|96:104,2,85
232,232,89492,2,8,L|232:328,2,85
288,160,90010,2,8,L|344:79,2,85
112,296,90527,5,0,0:0:0:0:
120,280,90613,1,0,0:0:0:0:
136,272,90699,1,0,0:0:0:0:
152,264,90785,1,0,0:0:0:0:
168,264,90872,1,0,0:0:0:0:
184,256,90958,1,0,0:0:0:0:
192,240,91044,1,0,0:0:0:0:
192,224,91130,1,0,0:0:0:0:
200,192,91216,6,0,L|232:160,1,42.5
304,72,91389,2,0,L|272:112,1,42.5
152,104,91561,2,0,L|224:96,1,42.5
344,168,91734,2,0,L|272:176,1,42.5
152,176,91906,2,0,L|96:256,1,85
280,280,92251,2,0,L|184:240,1,85
336,152,92596,2,0,L|248:184,1,85
376,296,92941,2,0,L|432:216,1,85
96,96,93285,6,0,P|152:72|192:104,1,85,4|0,0:0|0:0,0:0:0:0:
280,176,93630,1,0,0:0:0:0:
96,96,93803,6,0,P|152:72|192:104,1,85,4|0,0:0|0:0,0:0:0:0:
272,240,94147,1,0,0:0:0:0:
336,96,94320,1,0,0:0:0:0:
462,160,94492,1,0,0:0:0:0:
416,288,94665,6,0,P|360:312|312:280,1,97.7500018644333,4|0,0:0|0:0,0:0:0:0:
240,144,95010,1,0,0:0:0:0:
416,288,95182,6,0,P|360:312|312:280,1,97.7500018644333,4|0,0:0|0:0,0:0:0:0:
176,248,95527,1,0,0:0:0:0:
200,264,95613,1,0,0:0:0:0:
224,280,95699,1,0,0:0:0:0:
312,176,95872,1,0,0:0:0:0:
96,96,96044,6,0,P|152:72|208:112,1,110.499994941712,4|0,0:0|0:0,0:0:0:0:
280,176,96389,1,0,0:0:0:0:
96,96,96561,6,0,P|152:72|208:112,1,110.499994941712,4|0,0:0|0:0,0:0:0:0:
280,224,96906,1,0,0:0:0:0:
355,76,97078,1,0,0:0:0:0:
467,155,97251,1,0,0:0:0:0:
416,288,97423,6,0,P|360:312|296:272,1,136,4|0,0:0|0:0,0:0:0:0:
240,144,97768,1,0,0:0:0:0:
416,288,97940,6,0,P|360:312|280:240,1,136,4|0,0:0|0:0,0:0:0:0:
144,200,98285,2,0,L|64:200,2,68
272,192,98630,1,0,0:0:0:0:
96,96,98803,6,0,P|152:72|216:120,1,136,4|0,0:0|0:0,0:0:0:0:
280,176,99148,1,0,0:0:0:0:
96,96,99320,6,0,P|152:72|216:128,1,136,4|0,0:0|0:0,0:0:0:0:
376,112,99665,1,0,0:0:0:0:
360,136,99751,1,0,0:0:0:0:
360,160,99837,1,0,0:0:0:0:
360,184,99923,1,0,0:0:0:0:
376,200,100010,1,0,0:0:0:0:
392,216,100096,1,0,0:0:0:0:
416,288,100182,6,0,P|360:312|288:264,1,148.750001418591,4|0,0:0|0:0,0:0:0:0:
240,144,100527,1,0,0:0:0:0:
416,288,100699,6,0,P|360:312|280:256,1,148.750001418591,4|0,0:0|0:0,0:0:0:0:
96,120,101044,2,0,L|168:192,1,74.3750007092953
224,312,101216,2,0,L|112:264,1,74.3750007092953
296,144,101389,2,0,L|216:192,1,74.3750007092953
432,128,101561,6,0,L|424:216,1,74.3750007092953,4|0,0:0|0:0,0:0:0:0:
408,224,101734,1,0,0:0:0:0:
384,240,101820,1,0,0:0:0:0:
344,248,101906,2,0,L|280:200,1,74.3750007092953,4|0,0:0|0:0,0:0:0:0:
248,192,102078,1,0,0:0:0:0:
216,184,102164,1,0,0:0:0:0:
176,192,102250,2,0,L|104:216,1,74.3750007092953,4|0,0:0|0:0,0:0:0:0:
80,208,102423,1,0,0:0:0:0:
64,184,102510,1,0,0:0:0:0:
48,152,102596,2,0,L|112:96,1,74.3750007092953,4|0,0:0|0:0,0:0:0:0:
154,100,102768,1,0,0:0:0:0:
199,89,102854,1,0,0:0:0:0:
248,88,102941,6,0,P|304:144|392:104,1,170
358,210,103458,6,0,P|293:255|317:349,1,170
220,289,103975,6,0,P|186:217|90:225,1,170
72,144,104492,6,0,B|64:144|64:144|64:136|64:136|72:136|72:136|72:128|72:128|64:128|64:128|64:120|64:120|72:120|72:120|72:112|72:112|64:112|64:112|64:104|64:104|72:104|72:104,1,85
136,208,104837,6,0,B|144:208|144:208|144:216|144:216|136:216|136:216|136:224|136:224|144:224|144:224|144:232|144:232|136:232|136:232|136:240|136:240|144:240|144:240|144:248|144:248|136:248|136:248,1,85
136,64,105354,6,0,B|136:48|136:48|136:80|136:80|144:64|144:64|144:48|144:48|144:80|144:80|152:64|152:64|152:48|152:48|152:80|152:80|160:64|160:64|160:48|160:48|160:80|160:80|168:64|168:64|168:48|168:48|168:80|168:80|176:64|176:64|176:48|176:48|176:80|176:80|184:64|184:64|184:48|184:56|184:56|184:80|184:80|192:64|192:64|192:48|192:48|192:80|192:80|200:64|200:64|200:48|200:48|200:80|200:80|208:64|208:64|208:48|208:48|208:80|208:80|216:64|216:64|216:48|216:48|216:80|216:80|224:64|224:64|224:48|224:48|224:80|224:80|232:64|232:64,1,765.000029182435
272,328,106734,2,0,B|288:328|288:328|288:320|288:320|272:320|272:320|272:312|272:312|288:312|288:312|288:304|288:304|272:304|272:304|272:296|272:296|288:296|288:296|288:288|288:288|272:288|272:288|272:280|272:280|288:280|288:280|288:272|288:272|272:272|272:272|272:264|272:264|288:264|288:264|288:256|288:256|272:256|272:256|272:248|272:248|288:248|288:248|288:240|288:240|272:240|272:240|272:232|272:232|288:232|288:232|288:224|288:224|272:224|272:224|272:216|272:216|288:216|288:216|288:208|288:208|272:208|272:208|272:200|272:200|288:200|288:200|288:192|288:192|272:192|272:192|272:184|272:184|288:184|288:184|288:176|288:176|272:176|272:176|272:168|272:168|288:168|288:168|288:160|288:160|280:160|280:160,1,510.000019454957
124,136,108113,6,4,B|160:152|160:152|168:152|168:152|168:156|168:156|160:156|160:156|160:160|160:160|168:160|168:160|168:164|168:164|160:164|160:164|160:168|160:168|168:168|168:168|168:172|168:172|160:172|160:172|164:176|160:176|160:176|168:176|168:176|168:180|168:180|160:180|160:180|160:184|160:184|168:184|168:184|168:188|168:188|160:188|160:188|160:192|160:192|168:192|168:192|168:196|168:196|160:196|160:196|160:200|160:200|168:200|168:200|168:204|168:204|160:204|160:204|160:208|160:208|168:208|168:208|168:212|168:212|160:212|160:212|160:216|160:216|168:216|168:216|168:220|168:220|160:220|160:220|160:224|160:224|168:224|168:224|168:228|168:228|160:228|160:228|160:232|160:232|168:232|168:232|168:236|168:236|160:236|160:236|160:240|160:240|168:240|168:240|168:244|168:244|160:244|160:244|160:248|160:248|168:248|168:248|168:252|168:252|160:252|160:252|160:276,1,340
344,288,108975,6,0,L|336:264,2,21.25
392,136,109147,2,0,L|352:176,1,42.5
232,264,109319,2,0,L|272:224,1,42.5
272,80,109491,2,0,L|288:144,1,42.5
392,272,109665,2,0,L|344:240,1,42.5
272,176,109837,6,0,L|168:176,1,85
24,88,110182,2,0,L|120:88,1,85
272,248,110527,6,0,L|168:248,1,85
24,16,110872,2,0,L|120:16,1,85
311,3,111216,6,0,B|313:172|313:172|310:173|310:173|313:175|313:175|314:173|314:173|310:170|310:170|315:170|315:170|312:168|312:168|311:174|311:177|311:177|317:173|317:173|308:172|308:172|311:173|311:173|312:176|312:176|314:176|314:176|316:174|316:174|312:173|312:173|314:172|314:172|314:174|314:174|314:171|314:171|313:171|313:171|311:175|311:175|314:175|314:175|310:175|310:175|313:178|313:178|314:278,1,340
163,165,112251,6,0,P|178:134|229:119,1,63.7500024318696
349,219,112423,6,0,P|334:250|283:265,1,63.7500024318696
188,122,112596,6,0,P|217:102|269:115,1,63.7500024318696
323,261,112768,6,0,P|294:281|242:268,1,63.7500024318696
232,97,112941,6,0,P|267:95|305:132,1,63.7500024318696
279,286,113113,6,0,P|244:288|206:251,1,63.7500024318696
283,99,113285,6,0,P|314:113|329:165,1,63.7500024318696,4|0,0:0|0:0,0:0:0:0:
229,285,113458,6,0,P|198:270|183:219,1,63.7500024318696
325,124,113630,6,0,P|345:153|332:205,1,63.7500024318696
186,259,113803,6,0,P|166:230|179:178,1,63.7500024318696
341,173,113975,6,0,L|380:237,1,63.7500024318696,8|0,0:0|0:0,0:0:0:0:
401,128,114147,2,0,L|425:59,1,63.7500024318696
339,218,114320,2,0,L|340:292,1,63.7500024318696
413,209,114492,2,0,L|468:161,1,63.7500024318696
314,256,114665,2,0,L|279:321,1,63.7500024318696,4|0,0:0|0:0,0:0:0:0:
383,285,114837,2,0,L|455:271,1,63.7500024318696
274,277,115010,2,0,L|211:316,1,63.7500024318696
320,336,115182,2,0,L|389:361,1,63.7500024318696
229,275,115354,6,0,L|155:276,1,63.7500024318696,8|0,0:0|0:0,0:0:0:0:
189,193,115527,2,0,L|133:240,1,63.7500024318696
191,250,115699,2,0,L|126:215,1,63.7500024318696
197,159,115872,2,0,L|125:173,1,63.7500024318696
170,210,116044,2,0,L|132:147,1,63.7500024318696,4|0,0:0|0:0,0:0:0:0:
221,134,116216,2,0,L|152:110,1,63.7500024318696
172,165,116389,2,0,B|160:76|160:76|207:48,1,127.500004863739
272,54,116734,6,0,P|349:309|349:309,1,255.000009727478
380,203,117423,2,0,B|380:197|380:197|383:197|383:197|383:203|383:203|386:204|386:204|386:197|386:197|388:197|388:197|389:205|389:205|392:205|392:205|392:197|392:197|394:197|394:197|394:205|394:205|397:205|397:205|398:196|398:196|400:197|400:197|400:205|400:205|403:205|403:205|403:197|403:197|405:197|405:197|405:205|405:205|407:205|407:205|408:197|408:197|410:197|410:197|410:203|410:203|412:204|412:204|413:196|413:196|413:195,1,127.500004863739
290,266,117768,2,0,B|296:266|296:266|296:269|296:269|290:269|290:269|289:272|289:272|296:272|296:272|296:274|296:274|288:275|288:275|288:278|288:278|296:278|296:278|296:280|296:280|288:280|288:280|288:283|288:283|297:284|297:284|296:286|296:286|288:286|288:286|288:289|288:289|296:289|296:289|296:291|296:291|288:291|288:291|288:293|288:293|296:294|296:294|296:296|296:296|290:296|290:296|289:298|289:298|297:299|297:299|298:299,1,127.500004863739
248,128,118113,2,0,L|240:120|237:117|233:113|229:109|226:106|222:102|218:98|215:95|211:91|207:87|204:84|200:80|152:32,1,63.7500024318696
136,144,118285,2,0,L|192:203,1,63.7500024318696
248,128,118458,2,0,P|304:160|376:144,1,127.500004863739
352,64,118803,2,0,P|358:126|401:172,1,127.500004863739
472,111,119147,2,0,P|419:144|410:205,1,127.500004863739
272,288,119492,6,0,B|264:288|264:288|264:280|264:280|272:280|272:280|272:272|272:272|264:272|264:272|264:264|264:264|272:264|272:264|272:256|272:256|264:256|264:256|264:248|264:248|272:248|272:248|272:240|272:240|264:240|264:240|264:232|264:232|272:232|272:232|272:224|272:224|264:224|264:224,1,127.500004863739
152,176,119837,2,0,P|176:160|184:112,1,63.7500024318696
296,200,120010,2,0,P|272:216|264:264,1,63.7500024318696
179,119,120182,2,0,P|208:119|242:85,1,63.7500024318696,4|0,0:0|0:0,0:0:0:0:
284,221,120354,2,0,P|255:220|221:255,1,63.7500024318696
235,88,120527,2,0,P|258:105|306:96,1,63.7500024318696
262,232,120699,2,0,P|238:215|191:224,1,63.7500024318696
298,95,120872,2,0,P|307:123|351:143,1,63.7500024318696,8|0,0:0|0:0,0:0:0:0:
237,228,121044,2,0,P|228:201|184:181,1,63.7500024318696
345,137,121216,2,0,B|337:129|334:126|330:122|326:118|323:115|319:111|315:107|312:104|308:100|304:96|301:93|297:89|289:117|314:159,1,63.7500024318696
220,211,121389,2,0,P|228:183|203:141,1,63.7500024318696
344,136,121561,6,0,L|440:240,1,127.500004863739
304,328,121906,2,0,L|176:328,1,127.500004863739
128,48,122251,6,0,B|136:48|136:48|120:48|120:48|128:56|128:56|136:56|136:56|120:56|120:56|128:64|128:64|136:64|136:64|120:64|120:64|128:72|128:72|128:112,1,127.500004863739
384,128,122596,6,0,L|392:184,1,42.5
280,200,122768,2,0,L|272:144,1,42.5
384,272,122941,2,0,P|336:304|288:304,1,85
168,160,123285,6,0,L|232:160,1,42.5
344,224,123458,2,0,L|288:224,1,42.5
202,115,123630,6,0,L|254:152,1,42.5
309,268,123803,2,0,L|263:236,1,42.5
255,98,123975,6,0,L|277:158,1,42.5
256,285,124147,2,0,L|236:233,1,42.5
309,115,124320,6,0,L|293:177,1,42.5,4|0,0:0|0:0,0:0:0:0:
202,268,124492,2,0,L|216:214,1,42.5
343,159,124665,6,0,L|294:201,1,42.5
168,224,124837,2,0,L|210:188,1,42.5
424,216,125010,6,0,L|360:221,1,42.5,8|0,0:0|0:0,0:0:0:0:
88,168,125182,2,0,L|143:163,1,42.5
384,288,125354,6,0,L|328:256,1,42.5
128,96,125527,2,0,L|176:124,1,42.5
312,320,125699,6,0,L|284:261,1,42.5,4|0,0:0|0:0,0:0:0:0:
200,64,125872,2,0,L|223:114,1,42.5
232,312,126044,6,0,L|243:248,1,42.5
280,72,126216,2,0,L|270:127,1,42.5
176,256,126389,6,0,L|221:210,1,42.5,8|0,0:0|0:0,0:0:0:0:
336,128,126561,2,0,L|296:167,1,42.5
160,176,126734,6,0,L|223:164,1,42.5
358,185,126906,2,0,L|303:195,1,42.5
186,123,127078,6,0,L|344:208,1,170,4|0,0:0|0:0,0:0:0:0:
416,272,127768,1,0,0:0:0:0:
80,104,128113,2,0,L|176:144,1,85
112,248,128458,1,0,0:0:0:0:
320,72,128803,1,0,0:0:0:0:
424,80,128975,1,0,0:0:0:0:
360,192,129147,2,0,L|296:128,1,85
216,240,129492,2,0,L|312:216,1,85
96,80,129837,5,0,0:0:0:0:
200,136,130010,1,0,0:0:0:0:
360,48,130182,2,0,L|280:104,1,85
424,88,130527,2,0,B|432:88|432:88|416:88|416:88|424:96|424:96|432:96|432:96|416:96|416:96|424:104|424:104|432:104|432:104|416:104|416:104|424:112|424:112|424:176,1,170
424,320,131044,1,0,0:0:0:0:
304,240,131216,2,0,L|208:304,1,85
96,232,131561,2,0,L|200:160,1,85
280,128,131906,1,0,0:0:0:0:
376,60,132251,6,0,B|376:80|376:80|384:80|384:80|368:80|368:80|376:84|376:84|384:84|384:84|368:84|368:84|376:88|376:88|384:88|384:88|368:88|368:88|376:92|376:92|384:92|384:92|368:92|368:92|376:96|376:96|384:96|384:96|368:96|368:96|376:100|376:100|384:100|384:100|368:100|368:100|376:104|376:104|384:104|384:104|368:104|368:104|376:108|376:108|384:108|384:108|368:108|368:108|376:112|376:112|384:112|384:112|368:112|368:112|376:116|376:116|384:116|384:116|368:116|368:116|376:120|376:120|384:120|384:120|368:120|368:120|376:124|376:124|384:124|384:124|368:124|368:124|376:128|376:128|384:128|384:128|368:128|368:128|376:132|376:132|392:136|392:136|360:132|360:132|376:136|376:136|380:136|384:136|384:136|360:136|360:136|376:140|376:140|392:140|392:140|360:140|360:140|376:144|376:144|392:144|392:144|360:144|360:144|376:148|376:148|392:148|392:148|360:148|360:148|376:152|376:152|392:152|392:152|392:156|392:156|360:152|360:152,1,765.000029182435
128,128,133630,1,0,0:0:0:0:
192,168,133803,2,0,L|208:168,12,14.1666666666667
392,320,134320,2,0,P|368:272|384:232,1,85,4|0,0:0|0:0,0:0:0:0:
280,208,134665,1,0,0:0:0:0:
400,160,134837,1,0,0:0:0:0:
280,104,135010,1,0,0:0:0:0:
384,248,135182,1,0,0:0:0:0:
280,104,135354,2,0,P|216:96|160:88,1,85,4|0,0:0|0:0,0:0:0:0:
56,48,135699,5,0,0:0:0:0:
128,152,135872,1,0,0:0:0:0:
200,248,136044,2,0,L|88:232,1,85,4|0,0:0|0:0,0:0:0:0:
304,120,136389,1,0,0:0:0:0:
184,184,136561,1,0,0:0:0:0:
304,336,136734,2,0,L|272:240,1,85,4|0,0:0|0:0,0:0:0:0:
304,120,137078,1,0,0:0:0:0:
440,192,137251,1,0,0:0:0:0:
456,40,137423,2,0,L|384:104,1,85,4|0,0:0|0:0,0:0:0:0:
168,96,137768,5,0,0:0:0:0:
296,176,137941,1,0,0:0:0:0:
128,304,138113,2,0,L|176:216,1,85,4|0,0:0|0:0,0:0:0:0:
88,56,138458,2,0,L|112:64,6,14.1666666666667
288,192,138803,1,0,0:0:0:0:
320,64,139147,6,0,P|320:48|288:72,1,85
176,112,139492,1,0,0:0:0:0:
328,160,139665,1,0,0:0:0:0:
184,232,139837,1,0,0:0:0:0:
272,40,140010,1,0,0:0:0:0:
360,104,140182,2,0,L|400:136,1,42.5
336,216,140354,2,0,L|336:160,1,42.5
232,184,140527,2,0,L|312:128,1,85
464,224,140872,2,0,L|360:208,1,85
392,32,141216,2,0,L|360:112,1,85
152,160,141561,6,0,B|160:160|160:160|160:152|160:152|168:152|168:152|168:160|168:160|152:152|152:152|152:168|152:168|160:168|160:168|168:168|168:168|176:160|176:160|256:160,1,170
344,264,142078,1,0,0:0:0:0:
368,160,142251,2,0,L|368:56,1,85
192,72,142596,2,0,L|280:104,1,85
224,256,142941,1,0,0:0:0:0:
352,96,143113,1,0,0:0:0:0:
400,192,143285,1,0,0:0:0:0:
224,152,143458,1,0,0:0:0:0:
104,104,143630,6,0,B|112:104|112:104|96:104|96:104|104:112|104:112|112:112|112:112|96:112|96:112|104:120|104:120|112:120|112:120|96:120|96:120|104:128|104:128|112:128|112:128|96:128|96:128|104:136|104:136|104:192,1,170
96,288,144320,1,0,0:0:0:0:
304,224,144665,6,0,L|344:208,1,42.5
320,96,144837,2,0,L|272:120,1,42.5
384,144,145010,2,0,L|472:104,1,85
408,224,145354,5,0,0:0:0:0:
296,48,145527,1,0,0:0:0:0:
248,216,145699,1,0,0:0:0:0:
392,96,145872,1,0,0:0:0:0:
248,216,146044,2,0,L|160:216,1,85
120,304,146389,1,0,0:0:0:0:
192,144,146561,1,0,0:0:0:0:
32,112,146734,2,0,L|112:168,1,85
168,72,147078,5,0,0:0:0:0:
80,264,147251,1,0,0:0:0:0:
256,296,147423,2,0,L|240:184,1,85
128,208,147768,1,0,0:0:0:0:
352,144,147941,1,0,0:0:0:0:
448,40,148113,2,0,L|384:112,1,85
272,56,148458,1,0,0:0:0:0:
456,192,148630,1,0,0:0:0:0:
288,200,148803,2,0,L|224:288,1,85
88,272,149147,6,0,L|160:184,1,85
144,104,149492,2,0,L|208:32,1,85
320,80,149837,1,0,0:0:0:0:
384,240,150182,6,0,L|336:264,1,42.5
296,192,150354,2,0,L|256:208,1,42.5
224,328,150527,2,0,P|168:288|168:256,1,85
288,56,150872,2,0,P|344:96|344:128,1,85
160,192,151216,1,0,0:0:0:0:
288,56,151389,1,0,0:0:0:0:
160,192,151561,2,0,P|112:144|120:120,1,85
264,120,151906,2,0,L|352:120,1,85
400,240,152251,2,0,L|328:184,1,85
200,312,152596,6,0,B|192:312|192:312|208:312|208:312|200:304|200:304|192:304|192:304|208:304|208:304|200:296|200:296|192:296|192:296|208:296|208:296|200:288|200:288|192:288|192:288|208:288|208:288|200:280|200:280|200:248,1,170
200,80,153113,1,0,0:0:0:0:
200,312,153285,2,0,B|240:312|240:312|288:264,1,85
232,160,153630,2,0,B|263:128|263:128|303:128,1,85
400,264,153975,5,0,0:0:0:0:
392,248,154061,1,0,0:0:0:0:
384,232,154147,1,0,0:0:0:0:
384,216,154234,1,0,0:0:0:0:
384,208,154320,1,0,0:0:0:0:
376,192,154406,1,0,0:0:0:0:
368,184,154492,1,0,0:0:0:0:
368,176,154578,1,0,0:0:0:0:
360,168,154665,1,0,0:0:0:0:
360,160,154751,1,0,0:0:0:0:
352,144,154837,1,0,0:0:0:0:
352,136,154923,1,0,0:0:0:0:
344,128,155010,1,0,0:0:0:0:
216,160,155182,1,0,0:0:0:0:
96,272,155354,6,0,P|160:296|232:272,1,127.500004863739,4|0,0:0|0:0,0:0:0:0:
352,152,155699,6,0,P|288:128|216:152,1,127.500004863739
176,224,156044,1,8,0:0:0:0:
296,56,156216,1,0,0:0:0:0:
296,56,156303,1,0,0:0:0:0:
296,56,156389,1,4,0:0:0:0:
176,224,156561,1,0,0:0:0:0:
208,56,156734,2,0,P|120:56|72:88,1,127.500004863739
216,256,157078,2,0,P|304:256|352:224,1,127.500004863739,4|0,0:0|0:0,0:0:0:0:
240,88,157423,5,8,0:0:0:0:
328,256,157596,1,0,0:0:0:0:
408,88,157768,1,0,0:0:0:0:
224,216,157941,1,0,0:0:0:0:
408,88,158113,2,0,L|408:224,1,127.500004863739,4|0,0:0|0:0,0:0:0:0:
296,296,158458,2,0,L|296:160,1,127.500004863739
136,56,158803,5,8,0:0:0:0:
72,240,158975,1,0,0:0:0:0:
72,240,159061,1,0,0:0:0:0:
72,240,159147,1,4,0:0:0:0:
264,224,159320,1,0,0:0:0:0:
272,64,159492,6,0,P|344:40|400:64,1,127.500004863739
408,224,159837,2,0,L|328:104,1,127.500004863739,4|0,0:0|0:0,0:0:0:0:
130,220,160182,1,8,0:0:0:0:
293,68,160354,1,0,0:0:0:0:
343,286,160527,1,0,0:0:0:0:
158,107,160699,1,0,0:0:0:0:
104,256,160872,6,0,P|72:176|88:144,1,127.500004863739,4|0,0:0|0:0,0:0:0:0:
256,272,161216,2,0,L|144:192,1,127.500004863739
296,104,161561,1,8,0:0:0:0:
416,240,161734,1,0,0:0:0:0:
416,240,161820,1,0,0:0:0:0:
416,240,161906,1,4,0:0:0:0:
192,272,162078,1,0,0:0:0:0:
72,88,162251,6,0,B|112:56|112:56|192:56,1,127.500004863739
104,160,162596,6,0,B|144:128|144:128|224:128,1,127.500004863739,4|0,0:0|0:0,0:0:0:0:
304,272,162941,6,0,B|264:304|264:304|184:304,1,127.500004863739,8|0,0:0|0:0,0:0:0:0:
272,200,163286,6,0,B|232:232|232:232|152:232,1,127.500004863739
160,48,163630,2,0,B|232:80|232:80|304:80,1,127.500004863739,4|0,0:0|0:0,0:0:0:0:
360,40,163975,2,0,P|376:48|320:80,1,127.500004863739
168,184,164320,1,8,0:0:0:0:
272,56,164492,1,0,0:0:0:0:
368,184,164665,1,4,0:0:0:0:
128,88,164837,1,12,0:0:0:0:
240,256,165010,6,0,P|192:296|120:296,1,127.500004863739
152,168,165354,6,0,P|104:208|32:208,1,127.500004863739,4|0,0:0|0:0,0:0:0:0:
272,128,165699,6,0,P|320:88|392:88,1,127.500004863739,8|0,0:0|0:0,0:0:0:0:
360,216,166043,6,0,P|408:176|480:176,1,127.500004863739
152,256,166389,1,4,0:0:0:0:
272,48,166561,1,0,0:0:0:0:
352,256,166734,1,0,0:0:0:0:
152,256,166906,1,8,0:0:0:0:
352,256,167078,2,0,L|488:256,1,127.500004863739
304,128,167423,2,0,L|168:128,1,127.500004863739,4|0,0:0|0:0,0:0:0:0:
136,288,167768,5,0,0:0:0:0:
184,32,167941,1,0,0:0:0:0:
40,144,168113,1,4,0:0:0:0:
304,32,168285,1,0,0:0:0:0:
336,176,168458,6,0,B|392:176|392:176|456:240,1,127.500004863739,8|0,0:0|0:0,0:0:0:0:
384,336,168803,2,0,L|256:256,1,127.500004863739
128,48,169147,2,0,L|256:128,1,127.500004863739,4|0,0:0|0:0,0:0:0:0:
176,240,169492,1,0,0:0:0:0:
328,64,169665,1,0,0:0:0:0:
424,280,169837,1,8,0:0:0:0:
208,120,170010,1,0,0:0:0:0:
208,120,170096,1,0,0:0:0:0:
208,120,170182,1,4,0:0:0:0:
216,320,170354,1,0,0:0:0:0:
312,192,170527,6,0,L|432:136,1,127.500004863739
328,56,170872,2,0,L|208:120,1,127.500004863739,4|0,0:0|0:0,0:0:0:0:
296,268,171216,6,0,L|184:328,1,127.500004863739,8|0,0:0|0:0,0:0:0:0:
84,245,171561,2,0,L|200:192,1,127.500004863739
280,160,171906,6,0,B|320:152|168:136|152:272|296:320|392:256|392:128|296:56|200:48|120:80|88:232|80:232|152:304|176:304,1,510.000019454957,4|8,0:0|0:0,0:0:0:0:
352,96,172768,1,0,0:0:0:0:
352,96,172854,1,0,0:0:0:0:
352,96,172941,1,4,0:0:0:0:
232,232,173113,1,0,0:0:0:0:
216,56,173285,1,0,0:0:0:0:
72,120,173458,1,0,0:0:0:0:
40,304,173630,2,0,L|176:304,1,127.500004863739,4|0,0:0|0:0,0:0:0:0:
336,264,173975,2,0,B|296:208|296:208|216:208,1,127.500004863739,8|0,0:0|0:0,0:0:0:0:
128,48,174320,2,0,L|128:184,1,127.500004863739
232,104,174665,6,0,B|368:104|368:104|464:192,1,255.000009727478,4|0,0:0|0:0,0:0:0:0:
240,312,175354,1,8,0:0:0:0:
152,112,175527,1,0,0:0:0:0:
152,112,175613,1,0,0:0:0:0:
152,112,175699,1,4,0:0:0:0:
56,304,175872,1,0,0:0:0:0:
256,240,176044,2,0,P|336:224|352:176,1,127.500004863739
336,80,176389,2,0,L|224:152,2,127.500004863739,4|0|8,0:0|0:0|0:0,0:0:0:0:
136,80,176906,1,0,0:0:0:0:
64,224,177078,6,0,B|64:241|64:241|76:242|76:242|89:238|89:238|63:207|63:207|80:203|80:203|94:203|94:203|80:220|80:220|92:220|92:220|102:219|256:216,1,255.000009727478
408,88,182768,5,0,0:0:0:0:
408,88,182854,1,0,0:0:0:0:
408,88,182941,2,0,L|344:160,1,85
128,200,183285,2,0,L|192:128,1,85
272,184,183630,1,0,0:0:0:0:
402,81,183803,1,0,0:0:0:0:
425,246,183975,1,0,0:0:0:0:
272,184,184147,1,0,0:0:0:0:
184,272,184320,6,0,L|96:352,1,85
152,168,184665,6,0,L|64:248,1,85
256,64,185010,2,0,L|352:64,1,85
448,168,185354,2,0,L|352:168,1,85
328,256,185699,6,0,L|272:320,1,85
270,287,186044,6,0,L|192:304,1,76.4999976654053
205,274,186389,6,0,L|136:232,1,68
164,222,186734,6,0,L|136:144,1,59.4999981842042
166,156,187078,6,0,L|200:96,1,50.9999984436036
210,107,187423,6,0,L|264:80,1,42.5
275,97,187768,1,0,0:0:0:0:
112,272,188458,6,0,B|128:248|144:232|176:208|200:216|224:248|224:248|240:208|240:208|256:248|256:248|280:208|280:208|336:208|352:176|352:136,1,382.500014591218
144,48,189147,2,0,B|224:80|224:80|168:144,1,127.500004863739
112,280,189492,1,0,0:0:0:0:
112,168,189665,1,0,0:0:0:0:
248,152,189837,2,0,B|368:200|368:200|216:296,1,255.000009727478
248,152,190354,1,0,0:0:0:0:
312,64,190527,2,0,P|336:64|296:104,2,127.500004863739
160,64,191044,1,0,0:0:0:0:
64,248,191216,6,0,B|93:228|120:214|144:192|165:202|189:235|189:235|218:201|218:201|251:242|248:264|328:248,1,318.750012159348
360,112,191734,1,0,0:0:0:0:
456,256,191906,1,0,0:0:0:0:
232,280,192078,2,0,B|232:272|232:272|240:272|240:272|240:288|240:288|240:280|240:280|248:280|248:280|248:272|248:272|240:264|240:264|248:264|248:264|304:232,1,127.500004863739
248,88,192423,5,0,0:0:0:0:
232,96,192510,1,0,0:0:0:0:
216,104,192596,2,0,B|160:144|160:144|192:208,1,127.500004863739
296,280,192941,2,0,B|352:240|352:240|320:176,1,127.500004863739
112,216,193285,6,0,L|176:184,1,63.7500024318696
272,56,193458,2,0,L|208:96,1,63.7500024318696
171,310,193630,2,0,L|193:242,1,63.7500024318696
171,84,193803,2,0,L|154:158,1,63.7500024318696
240,168,193975,2,0,B|256:168|264:152|272:136|272:112|272:88|280:96|304:112|320:128|336:160|336:192|336:208|368:200|384:144|384:96,1,255.000009727478
392,320,194492,6,0,L|248:264,1,127.500004863739
200,287,194837,1,0,0:0:0:0:
200,96,195010,1,0,0:0:0:0:
366,192,195182,1,0,0:0:0:0:
200,287,195354,2,0,L|56:288,1,127.500004863739
200,96,195699,2,0,L|344:96,1,127.500004863739
416,296,196044,1,0,0:0:0:0:
416,152,196216,6,0,B|408:152|408:152|424:152|424:152|408:144|416:144|416:144|424:144|424:144|416:136|416:136|408:136|408:136|424:136|424:136|416:128|416:128|408:128|408:128|424:128|424:128|416:120|416:120|408:120|408:120|424:120|424:120|416:112|416:112|408:112|408:112|424:112|424:112|416:104|416:104|416:24,1,255.000009727478
280,88,196734,1,0,0:0:0:0:
200,208,196906,1,0,0:0:0:0:
152,64,197078,2,0,L|16:64,1,127.500004863739
104,272,197423,1,0,0:0:0:0:
104,136,197596,1,0,0:0:0:0:
216,312,197768,2,0,L|352:312,1,127.500004863739
408,280,198113,5,0,0:0:0:0:
416,264,198199,1,0,0:0:0:0:
424,248,198285,1,0,0:0:0:0:
424,232,198372,1,0,0:0:0:0:
424,216,198458,1,0,0:0:0:0:
424,200,198544,1,0,0:0:0:0:
416,184,198630,1,0,0:0:0:0:
408,168,198716,1,0,0:0:0:0:
400,152,198803,2,0,L|344:96,1,63.7500024318696
216,120,198975,2,0,L|296:120,1,63.7500024318696
416,24,199147,2,0,L|336:24,1,63.7500024318696
248,208,199320,2,0,L|304:152,1,63.7500024318696
232,48,199492,6,0,B|232:40|232:40|232:56|232:56|224:48|224:48|224:40|224:40|224:56|224:56|208:48|216:48|216:48|216:40|216:40|216:56|216:56|208:40|208:40|208:56|208:56|200:48|200:48|72:48,1,255.000009727478
40,272,200010,1,0,0:0:0:0:
248,272,200182,2,0,L|104:272,1,127.500004863739
112,104,200527,1,0,0:0:0:0:
112,224,200699,1,0,0:0:0:0:
208,104,200872,2,0,L|344:104,1,127.500004863739
400,264,201216,1,0,0:0:0:0:
400,144,201389,1,0,0:0:0:0:
192,272,201561,2,0,L|320:272,1,127.500004863739
224,128,201906,2,0,L|80:128,1,127.500004863739
64,296,202251,6,0,B|64:304|64:304|64:288|64:288|72:296|72:296|72:304|72:304|72:288|72:288|88:296|80:296|80:296|80:304|80:304|80:288|80:288|88:304|88:304|88:288|88:288|96:296|96:296|224:296,1,255.000009727478
360,296,202768,1,0,0:0:0:0:
360,56,202941,2,0,L|360:192,1,127.500004863739
192,48,203285,1,0,0:0:0:0:
192,200,203458,1,0,0:0:0:0:
56,48,203630,2,0,L|216:48,1,127.500004863739
296,176,203975,2,0,L|152:176,1,127.500004863739
48,168,204320,2,0,L|48:96,2,63.7500024318696
40,304,204665,2,0,L|192:304,1,127.500004863739
392,56,205010,6,0,B|384:56|384:56|400:56|400:56|392:64|392:64|384:64|384:64|400:64|400:64|392:80|392:72|392:72|384:72|384:72|400:72|400:72|384:80|384:80|400:80|400:80|392:88|392:88|392:198,1,255.000009727478
288,304,205527,1,0,0:0:0:0:
184,224,205699,2,0,L|96:112,1,127.500004863739
272,48,206044,1,0,0:0:0:0:
144,48,206217,1,0,0:0:0:0:
400,48,206389,2,0,L|400:208,1,127.500004863739
264,248,206734,2,0,L|264:104,1,127.500004863739
168,72,207078,1,0,0:0:0:0:
32,64,207251,2,0,L|32:200,2,127.500004863739
152,32,207768,6,0,L|288:32,1,127.500004863739
368,176,208113,2,0,L|232:176,1,127.500004863739
96,104,208458,6,0,L|232:104,1,127.500004863739
312,248,208803,2,0,L|176:248,1,127.500004863739
223,168,209147,6,0,L|96:168,2,127.500004863739
256,168,209578,2,0,L|376:168,2,85.0000032424928
256,192,210527,5,0,0:0:0:0:
256,192,210872,1,0,0:0:0:0:
256,192,211216,1,0,0:0:0:0:
256,192,211561,1,0,0:0:0:0:
256,192,211906,1,0,0:0:0:0:
256,192,212251,1,0,0:0:0:0:
256,192,212596,1,0,0:0:0:0:
256,192,212941,1,0,0:0:0:0:
256,192,213113,6,0,B|248:192|248:192|264:192|264:192|256:184|256:184|248:184|248:184|264:184|264:184|256:176|256:176|256:160,1,85
256,24,213458,1,0,0:0:0:0:
88,112,213630,6,0,L|88:176,1,46.7500014266968
16,224,213803,2,0,L|16:168,1,46.7500014266968
16,56,213975,2,0,B|72:56|72:56|120:88,1,93.5000028533936
104,192,214320,1,0,0:0:0:0:
144,136,214492,2,0,B|200:136|200:136|248:168,1,93.5000028533936
232,272,214837,1,0,0:0:0:0:
272,216,215010,2,0,B|328:216|328:216|376:248,1,93.5000028533936
360,352,215355,1,0,0:0:0:0:
452,236,215527,2,0,L|348:236,2,93.5000028533936
456,64,216044,6,0,L|456:176,1,93.5000028533936
248,144,216389,2,0,L|168:144,1,46.7500014266968
144,48,216561,2,0,L|208:48,1,46.7500014266968
296,48,216734,2,0,B|296:96|296:96|248:128,2,93.5000028533936
293,336,217251,2,0,B|269:295|269:295|294:243,2,93.5000028533936
151,85,217768,2,0,B|192:109|192:109|196:166,2,93.5000028533936
400,232,218285,2,0,B|351:231|351:231|320:183,2,93.5000028533936
408,40,218803,2,0,B|408:32|408:32|408:48|408:48|400:40|400:40|400:32|400:32|400:48|400:48|392:40|392:40|360:40,1,93.5000028533936
240,24,219147,6,0,L|184:24,1,46.7500014266968
144,104,219320,2,0,L|192:104,1,46.7500014266968
296,96,219492,2,0,L|296:232,1,93.5000028533936
296,312,219837,1,0,0:0:0:0:
136,312,220010,1,0,0:0:0:0:
96,224,220182,6,0,L|96:176,1,46.7500014266968
104,144,220354,1,0,0:0:0:0:
112,112,220441,1,0,0:0:0:0:
104,80,220527,1,0,0:0:0:0:
88,56,220613,1,0,0:0:0:0:
56,56,220699,2,0,L|128:56,1,46.7500014266968
144,48,220872,1,0,0:0:0:0:
176,40,220958,1,0,0:0:0:0:
208,48,221044,1,0,0:0:0:0:
240,72,221130,1,0,0:0:0:0:
256,104,221216,2,0,L|232:144,1,46.7500014266968
248,240,221389,2,0,L|256:176,1,46.7500014266968
312,128,221561,6,0,B|384:128|384:128|440:72,1,127.500004863739
352,32,221820,1,0,0:0:0:0:
256,48,221906,2,0,B|248:40|245:37|241:33|237:29|234:26|230:22|226:18|223:15|219:11|215:7|212:4|208:0|208:40|208:40|176:72,1,63.7500024318696
120,104,222078,2,0,B|120:64|120:64|152:32,1,63.7500024318696
256,48,222251,2,0,B|256:120|256:120|192:184,1,127.500004863739
120,232,222596,1,0,0:0:0:0:
304,328,222768,2,0,B|232:328|232:328|168:264,1,127.500004863739
152,144,223113,1,0,0:0:0:0:
336,240,223285,2,0,B|264:240|264:240|200:176,1,127.500004863739
184,64,223630,1,0,0:0:0:0:
368,160,223802,2,0,B|296:160|296:160|232:96,2,127.500004863739
360,296,224320,6,0,B|344:272|344:272|320:304|320:304|288:272|224:272,1,127.500004863739
232,224,224578,1,0,0:0:0:0:
144,216,224665,2,0,B|128:232|128:232|112:216|112:216|88:216,1,63.7500024318696
216,144,224837,2,0,B|200:128|200:128|216:112|216:112|216:88,1,63.7500024318696
304,56,225010,6,0,B|328:80|328:80|344:56|344:56|368:56|400:72|408:104,1,127.500004863739
400,184,225354,1,0,0:0:0:0:
208,328,225527,6,0,B|184:304|184:304|168:328|168:328|144:328|112:312|104:280,1,127.500004863739
112,200,225872,1,0,0:0:0:0:
304,56,226044,6,0,B|328:80|328:80|344:56|344:56|368:56|400:72|408:104,2,127.500004863739
208,328,226561,6,0,B|184:304|184:304|168:328|168:328|144:328|112:312|104:280,2,127.500004863739
344,320,227078,6,0,B|344:304|344:304|344:312|344:312|344:288|344:288|344:296|344:296|344:272|344:272|344:280|344:280|344:256|344:256|344:264|344:264|344:240,1,127.500004863739
344,208,227337,1,0,0:0:0:0:
344,144,227423,2,0,B|328:144|328:144|336:144|336:144|312:144|312:144|320:144|320:144|304:144,1,63.7500024318696
240,88,227596,2,0,B|256:88|256:88|248:88|248:88|272:88|272:88|264:88|264:88|280:88,1,63.7500024318696
192,184,227768,2,0,B|192:200|192:200|192:192|192:192|192:216|192:216|192:208|192:208|176:224|176:224|184:216|184:216|168:240|168:240|168:232|168:232,1,127.500004863739
112,288,228113,1,0,0:0:0:0:
320,200,228285,2,0,B|320:184|320:184|320:192|320:192|320:168|320:168|320:176|320:176|336:160|336:160|328:168|328:168|344:144|344:144|344:152|344:152,1,127.500004863739
392,88,228630,1,0,0:0:0:0:
264,128,228803,2,0,B|248:128|248:128|256:128|256:128|232:128|232:128|240:128|240:128|224:112|224:112|232:120|232:120|208:104|208:104|216:104|216:104,1,127.500004863739
160,48,229148,1,0,0:0:0:0:
248,256,229320,2,0,B|264:256|264:256|256:256|256:256|280:256|280:256|272:256|272:256|288:272|288:272|280:264|280:264|304:280|304:280|296:280|296:280,1,127.500004863739
360,328,229665,1,0,0:0:0:0:
376,120,229837,5,0,0:0:0:0:
360,120,229923,1,0,0:0:0:0:
344,120,230010,1,0,0:0:0:0:
328,128,230096,1,0,0:0:0:0:
312,136,230182,1,0,0:0:0:0:
304,152,230268,1,0,0:0:0:0:
304,168,230354,1,0,0:0:0:0:
296,184,230441,1,0,0:0:0:0:
288,200,230527,2,0,L|232:256,1,63.7500024318696
136,224,230699,2,0,L|200:224,1,63.7500024318696
320,248,230872,2,0,L|248:272,1,63.7500024318696
176,176,231044,2,0,L|240:208,1,63.7500024318696
256,176,231216,5,0,0:0:0:0:
256,152,231303,1,0,0:0:0:0:
256,128,231389,1,0,0:0:0:0:
240,112,231475,1,0,0:0:0:0:
200,96,231561,2,0,L|136:96,1,63.7500024318696
80,32,231734,2,0,L|152:32,1,63.7500024318696
184,32,231906,1,0,0:0:0:0:
208,32,231992,1,0,0:0:0:0:
240,32,232079,1,0,0:0:0:0:
272,32,232165,1,0,0:0:0:0:
296,56,232251,2,0,L|296:128,1,63.7500024318696
352,192,232423,2,0,L|352:120,1,63.7500024318696
400,48,232596,5,0,0:0:0:0:
400,48,232941,1,0,0:0:0:0:
400,48,233285,1,0,0:0:0:0:
400,48,233630,1,0,0:0:0:0:
400,48,233975,1,0,0:0:0:0:
400,48,234320,1,0,0:0:0:0:
400,48,234665,1,0,0:0:0:0:
496,48,235010,2,0,L|496:144,1,85
400,48,235354,1,0,0:0:0:0:
400,48,235699,1,0,0:0:0:0:
400,48,236044,1,0,0:0:0:0:
400,48,236389,1,4,0:0:0:0:
416,312,236734,5,0,0:0:0:0:
400,312,236820,1,0,0:0:0:0:
384,312,236907,1,0,0:0:0:0:
96,72,237078,5,0,0:0:0:0:
112,72,237164,1,0,0:0:0:0:
128,72,237251,1,0,0:0:0:0:
336,280,237423,6,0,L|304:248,1,42.5
136,64,237596,2,0,L|168:96,1,42.5
240,309,237768,6,0,L|243:264,1,42.5
276,17,237941,2,0,L|272:62,1,42.5
155,255,238113,6,0,B|169:191|232:192|232:192,1,85
368,192,238458,1,0,0:0:0:0:
272,192,238630,1,0,0:0:0:0:
155,255,238803,6,0,B|144:202|81:203|102:206,1,85
152,48,239147,2,0,L|152:80,3,21.25
336,80,239492,6,0,B|320:88|312:104|320:120|320:120|304:128|304:128|320:152|248:208,1,170
120,152,240010,1,0,0:0:0:0:
216,248,240182,1,0,0:0:0:0:
96,336,240354,1,0,0:0:0:0:
224,88,240527,1,0,0:0:0:0:
216,248,240699,1,0,0:0:0:0:
224,88,240872,2,0,B|272:88|272:88|296:120,1,85
392,136,241130,2,0,L|336:136,1,42.5
344,192,241331,5,0,0:0:0:0:
360,240,241446,1,0,0:0:0:0:
336,280,241561,1,0,0:0:0:0:
296,304,241676,1,0,0:0:0:0:
248,296,241791,1,0,0:0:0:0:
192,296,241906,2,0,L|136:296,1,56.6666666666667
80,176,242136,2,0,L|112:232,1,56.6666666666667
104,72,243630,6,0,P|184:72|208:96,1,63.7500024318696
200,80,243803,1,0,0:0:0:0:
232,88,243889,1,0,0:0:0:0:
264,96,243975,1,0,0:0:0:0:
296,112,244061,1,0,0:0:0:0:
304,152,244147,2,0,L|248:192,1,63.7500024318696
224,200,244320,5,0,0:0:0:0:
192,200,244406,1,0,0:0:0:0:
160,200,244492,1,0,0:0:0:0:
136,224,244578,1,0,0:0:0:0:
136,256,244665,1,0,0:0:0:0:
152,272,244751,1,0,0:0:0:0:
184,288,244837,1,0,0:0:0:0:
216,304,244923,1,0,0:0:0:0:
240,320,245010,6,0,L|312:320,1,63.7500024318696
336,312,245182,1,0,0:0:0:0:
360,288,245268,1,0,0:0:0:0:
392,272,245354,1,0,0:0:0:0:
424,264,245441,1,0,0:0:0:0:
440,232,245527,2,0,L|408:176,1,63.7500024318696
392,144,245699,1,0,0:0:0:0:
360,120,245785,1,0,0:0:0:0:
328,96,245872,2,0,L|176:96,2,127.500004863739
320,128,246389,6,0,L|304:192,1,63.7500024318696
280,224,246561,1,0,0:0:0:0:
256,248,246647,1,0,0:0:0:0:
224,264,246734,1,0,0:0:0:0:
192,280,246820,1,0,0:0:0:0:
152,288,246906,2,0,L|184:232,1,63.7500024318696
184,192,247078,5,0,0:0:0:0:
176,168,247165,1,0,0:0:0:0:
152,144,247251,1,0,0:0:0:0:
120,128,247337,1,0,0:0:0:0:
88,112,247423,1,0,0:0:0:0:
80,80,247510,1,0,0:0:0:0:
104,48,247596,1,0,0:0:0:0:
136,32,247682,1,0,0:0:0:0:
168,32,247768,6,0,L|232:32,1,63.7500024318696
264,48,247941,1,0,0:0:0:0:
288,72,248027,1,0,0:0:0:0:
304,104,248113,1,0,0:0:0:0:
312,136,248199,1,0,0:0:0:0:
312,176,248285,2,0,L|384:168,1,63.7500024318696
400,192,248458,1,0,0:0:0:0:
400,224,248544,1,0,0:0:0:0:
392,272,248630,2,0,L|264:272,2,127.500004863739
80,280,249147,6,0,L|24:224,4,63.7500024318696
192,112,249578,6,0,L|136:56,5,63.7500024318696
184,248,250096,6,0,L|229:293,4,63.7500024318696
376,184,250527,6,0,L|421:229,4,63.7500024318696
272,304,250958,6,0,L|317:349,5,63.7500024318696
248,176,251476,6,0,L|192:120,4,63.7500024318696
368,72,251906,2,0,L|304:32,3,63.7500024318696
264,28,252251,2,0,L|189:38,3,63.7500024318696
157,60,252596,2,0,L|106:116,3,63.7500024318696
96,155,252941,2,0,L|93:230,3,63.7500024318696
88,312,253285,6,0,B|88:304|88:304|88:320|88:320|96:312|96:312|96:304|96:304|96:320|96:320|104:312|104:312|104:304|104:304|104:320|104:320|112:312|112:312|112:304|112:304|112:320|112:320|120:312|120:312|120:304|120:304|120:328|120:328|128:312|128:312|200:312,1,255.000009727478
424,72,253803,6,0,B|424:80|424:80|424:64|424:64|416:72|416:72|416:80|416:80|416:64|416:64|408:72|408:72|408:80|408:80|408:64|408:64|400:72|400:72|400:80|400:80|400:64|400:64|392:72|392:72|392:80|392:80|392:56|392:56|384:72|384:72|312:72,1,255.000009727478
48,80,254320,6,0,B|48:72|48:72|48:88|48:88|56:80|56:80|56:72|56:72|56:88|56:88|64:80|64:80|64:72|64:72|64:88|64:88|72:80|72:80|72:72|72:72|72:88|72:88|80:80|80:80|80:72|80:72|80:88|80:88|88:80|88:80|88:72|88:72|88:88|88:88|96:80|96:80|96:72|96:72|96:88|96:88|104:80|104:80|104:72|104:72,1,255.000009727478
72,144,254837,6,0,B|64:144|64:144|64:136|64:136|72:136|72:136|72:128|72:128|64:128|64:128|64:120|64:120|72:120|72:120|72:112|72:112|64:112|64:112|64:104|64:104|72:104|72:104,1,85
136,208,255182,6,0,B|144:208|144:208|144:216|144:216|136:216|136:216|136:224|136:224|144:224|144:224|144:232|144:232|136:232|136:232|136:240|136:240|144:240|144:240|144:248|144:248|136:248|136:248,1,85
256,192,255699,12,0,259837,0:0:0:0:
104,104,260182,6,0,L|104:208,1,85
176,272,260527,2,0,L|176:168,1,85
408,280,260872,6,0,L|408:176,1,85
336,112,261217,2,0,L|336:216,1,85
112,344,261561,6,0,L|216:344,1,85
280,272,261906,2,0,L|176:272,1,85
400,40,262251,6,0,L|296:40,1,85
232,112,262596,2,0,L|336:112,1,85
400,224,262941,5,0,0:0:0:0:
368,168,263113,1,0,0:0:0:0:
328,224,263285,1,0,0:0:0:0:
296,168,263458,1,0,0:0:0:0:
256,224,263630,1,0,0:0:0:0:
224,168,263802,1,0,0:0:0:0:
184,224,263974,1,0,0:0:0:0:
152,168,264147,1,0,0:0:0:0:
40,296,264320,5,0,0:0:0:0:
72,312,264406,1,0,0:0:0:0:
104,320,264492,1,0,0:0:0:0:
136,320,264578,1,0,0:0:0:0:
176,328,264665,1,0,0:0:0:0:
208,344,264751,1,0,0:0:0:0:
240,352,264837,1,0,0:0:0:0:
272,352,264923,1,0,0:0:0:0:
312,352,265010,2,0,L|352:352,12,28.3333333333333
392,280,265872,6,0,B|392:232|392:232|368:192,1,85
216,280,266216,2,0,B|216:232|216:232|192:192,1,85
48,280,266561,2,0,B|48:232|48:232|24:192,1,85
372,200,266906,2,0,B|392:232|392:232|392:280,1,85
168,64,267423,6,0,L|80:128,1,85
344,320,267596,6,0,L|432:256,1,85
101,177,267768,6,0,L|93:285,1,85
410,206,267941,6,0,L|418:98,1,85
145,300,268113,6,0,L|223:376,1,85
366,83,268285,6,0,L|288:7,1,85
101,177,268458,6,0,L|93:285,1,85
410,206,268630,6,0,L|418:98,1,85
168,64,268803,6,0,L|79:127,1,85
344,320,268975,6,0,L|432:256,1,85
297,42,269147,6,0,L|191:16,1,85
214,341,269320,6,0,L|320:367,1,85
397,127,269492,6,0,L|349:29,1,85
114,256,269665,6,0,L|162:354,1,85
80,48,269837,6,0,L|192:48,1,85
264,168,270010,2,0,L|168:168,1,85
432,336,270182,6,0,L|320:336,1,85
248,216,270355,2,0,L|344:216,1,85
400,16,270527,6,0,L|400:128,1,85
280,200,270700,2,0,L|280:104,1,85
112,368,270872,6,0,L|112:256,1,85
232,184,271045,2,0,L|232:280,1,85
256,56,271216,6,0,L|256:160,1,85
352,280,271389,2,0,L|280:208,1,85
220,164,271561,6,0,L|160:104,1,85
256,243,271734,2,0,L|256:328,1,85
168,200,271906,2,0,L|120:200,3,28.3333333333333
256,192,272251,2,0,P|352:192|408:104,1,170
184,152,272596,2,0,L|336:8,1,170
296,296,272941,6,0,P|336:280|360:192,1,85
192,72,273113,6,0,P|152:88|128:176,1,85
219,297,273285,6,0,P|260:310|335:258,1,85
284,58,273458,6,0,P|243:45|168:97,1,85
160,249,273630,6,0,P|183:286|274:294,1,85
363,108,273803,6,0,P|340:71|249:63,1,85
145,174,273975,6,0,P|139:217|204:282,1,85
391,196,274147,6,0,P|398:153|333:89,1,85
182,107,274320,6,0,P|150:136|158:227,1,85
357,282,274492,6,0,P|389:254|381:163,1,85
253,80,274665,6,0,P|210:81|158:156,1,85
275,326,274837,6,0,P|318:325|370:250,1,85,0|0,0:3|0:3,0:3:0:0:
326,105,275010,6,0,P|292:78|203:101,1,85
184,307,275182,6,0,P|217:334|306:310,1,85,0|0,0:3|0:3,0:3:0:0:
128,56,275354,2,0,L|208:152,1,85
352,288,275527,2,0,L|288:224,1,85
99,294,275699,2,0,L|208:232,1,85
367,114,275872,2,0,L|293:166,1,85
329,363,276044,2,0,L|287:246,1,85
198,68,276216,2,0,L|236:150,1,85
437,149,276389,2,0,L|314:170,1,85
124,227,276561,2,0,L|212:203,1,85
296,304,276734,6,0,P|336:288|352:240,1,85
216,80,276906,6,0,P|176:96|160:144,1,85
358,252,277078,6,0,P|360:208|360:167,1,85
153,131,277251,6,0,P|152:176|151:216,1,85
152,328,277423,6,0,B|152:320|152:320|152:336|152:336|160:328|160:328|160:320|160:320|160:336|160:336|168:328|168:328|168:320|168:320|168:336|168:336|176:328|176:328|176:320|176:320|176:336|176:336,1,127.500004863739
104,113,277768,6,0,B|111:111|111:111|96:114|96:114|105:121|105:121|113:119|113:119|97:122|97:122|106:128|106:128|114:127|114:127|98:130|98:130|108:136|108:136|116:135|116:135|100:138|100:138,1,127.500004863739
307,28,278113,6,0,B|309:36|309:36|304:21|304:21|299:31|299:31|302:38|302:38|296:23|296:23|292:34|292:34|294:41|294:41|289:26|289:26|284:36|284:36|287:44|287:44|281:29|281:29,1,127.500004863739
368,192,278458,6,0,L|368:240,1,42.5
288,288,278630,2,0,L|288:224,1,42.5
288,152,278803,2,0,P|216:152|192:184,1,85
120,80,279147,6,0,L|120:176,1,85
392,304,279320,6,0,L|392:208,1,85
91,253,279492,6,0,L|174:301,1,85
420,130,279665,6,0,L|337:82,1,85
227,365,279837,6,0,L|310:317,1,85
284,18,280010,6,0,L|201:66,1,85
392,304,280182,6,0,L|392:168,1,127.500004863739
120,80,280354,6,0,L|120:176,1,85
420,130,280527,6,0,L|337:82,1,85
91,253,280699,6,0,L|174:301,1,85
284,18,280872,6,0,L|168:88,1,127.500004863739
227,365,281044,6,0,L|310:317,1,85
119,79,281216,6,0,L|120:175,1,85
392,304,281389,6,0,L|391:208,1,85
91,253,281561,6,0,L|200:320,1,127.500004863739
420,130,281734,6,0,L|337:82,1,85
227,365,281906,6,0,L|310:317,1,85
284,18,282078,6,0,L|201:66,1,85
392,304,282251,6,0,L|392:176,1,127.500004863739
120,80,282423,6,0,L|120:176,1,85
420,130,282596,6,0,L|337:82,1,85
91,253,282768,6,0,L|174:301,1,85
284,18,282941,6,0,L|168:88,1,127.500004863739
227,365,283113,6,0,L|310:317,1,85
119,79,283285,6,0,B|120:136|120:136|96:168,1,85
248,232,283630,2,0,L|64:232,1,170
