osu file format v14

[General]
AudioFilename: audio.mp3
AudioLeadIn: 0
PreviewTime: 66228
Countdown: 0
SampleSet: Soft
StackLeniency: 0.3
Mode: 0
LetterboxInBreaks: 0
WidescreenStoryboard: 1

[Editor]
Bookmarks: 5090,11711,24952,38193,51435,64676,67987,79573,94469,111021,120952,124262,130883,157366,183849,197090,211987,225228,245090,259987,268262,274883,284814,309642
DistanceSpacing: 1.6
BeatDivisor: 4
GridSize: 4
TimelineZoom: 3.099999

[Metadata]
Title:Jungle Fury
TitleUnicode:Jungle Fury
Artist:RIOT
ArtistUnicode:RIOT
Creator:Niviro1
Version:Sound of a Machine
Source:
Tags:Electronic instrumental Dubstep Trap Psytrance Breaks Brostep Hybrid Trap Monstercat Uncaged English Dogma Resistance
BeatmapID:2807077
BeatmapSetID:1356332

[Difficulty]
HPDrainRate:5.4
CircleSize:4
OverallDifficulty:8
ApproachRate:9.2
SliderMultiplier:2.9
SliderTickRate:1

[Events]
//Background and Video events
0,0,"riot-jungle-fury-music-cover-monstercat.jpg",0,0
//Break Periods
//Storyboard Layer 0 (Background)
//Storyboard Layer 1 (Fail)
//Storyboard Layer 2 (Pass)
//Storyboard Layer 3 (Foreground)
//Storyboard Layer 4 (Overlay)
//Storyboard Sound Samples

[TimingPoints]
125,413.793103448276,4,2,2,100,1,0
5090,-200,4,2,2,20,0,0
5504,-200,4,2,2,5,0,0
5918,-200,4,2,2,20,0,0
6952,-200,4,2,2,5,0,0
7159,-200,4,2,2,20,0,0
8400,-166.666666666667,4,2,2,40,0,0
8814,-166.666666666667,4,2,2,5,0,0
9228,-166.666666666667,4,2,2,40,0,0
10056,-142.857142857143,4,2,2,60,0,0
10262,-142.857142857143,4,2,2,5,0,0
10469,-142.857142857143,4,2,2,60,0,0
10573,-142.857142857143,4,2,2,5,0,0
10676,-142.857142857143,4,2,2,60,0,0
10780,-142.857142857143,4,2,2,5,0,0
10883,-142.857142857143,4,2,2,60,0,0
11090,-142.857142857143,4,2,2,5,0,0
11297,-83.3333333333333,4,2,2,80,0,0
11607,-83.3333333333333,4,2,2,5,0,0
11711,-100,4,2,2,80,0,0
12021,-100,4,2,2,5,0,0
12125,-125,4,2,2,80,0,0
12331,-125,4,2,2,5,0,0
12538,-125,4,2,2,80,0,0
12849,-125,4,2,2,5,0,0
12952,-125,4,2,2,80,0,0
13573,-125,4,2,2,5,0,0
13780,-125,4,2,2,80,0,0
14504,-125,4,2,2,5,0,0
14607,-125,4,2,2,80,0,0
14814,-125,4,2,2,5,0,0
15021,-125,4,2,2,80,0,0
15228,-125,4,2,2,5,0,0
15435,-125,4,2,2,80,0,0
15642,-125,4,2,2,5,0,0
15849,-125,4,2,2,80,0,0
16159,-125,4,2,2,5,0,0
16262,-125,4,2,2,80,0,0
16883,-125,4,2,2,5,0,0
17090,-125,4,2,2,80,0,0
17814,-125,4,2,2,5,0,0
17918,-125,4,2,2,80,0,0
18125,-125,4,2,2,5,0,0
18331,-125,4,2,2,80,0,0
18538,-125,4,2,2,5,0,0
18642,-250,4,2,2,80,0,0
19262,-250,4,2,2,5,0,0
19366,-250,4,2,2,80,0,0
19469,-250,4,2,2,5,0,0
19573,-250,4,2,2,80,0,0
19676,-250,4,2,2,5,0,0
19780,-250,4,2,2,80,0,0
19883,-250,4,2,2,5,0,0
19987,-250,4,2,2,80,0,0
20090,-250,4,2,2,5,0,0
20193,-250,4,2,2,80,0,0
20297,-250,4,2,2,5,0,0
20400,-250,4,2,2,80,0,0
20504,-250,4,2,2,5,0,0
20607,-250,4,2,2,80,0,0
20711,-250,4,2,2,5,0,0
20814,-250,4,2,2,80,0,0
20918,-250,4,2,2,5,0,0
21021,-250,4,2,2,80,0,0
21125,-250,4,2,2,5,0,0
21228,-250,4,2,2,80,0,0
21331,-250,4,2,2,5,0,0
21435,-250,4,2,2,80,0,0
21538,-250,4,2,2,5,0,0
21642,-125,4,2,2,80,0,0
21952,-250,4,2,2,80,0,0
22469,-125,4,2,2,80,0,0
22780,-125,4,2,2,5,0,0
22883,-125,4,2,2,80,0,0
24952,-100,4,2,2,80,0,0
25262,-100,4,2,2,5,0,0
25366,-125,4,2,2,80,0,0
25573,-125,4,2,2,5,0,0
25780,-125,4,2,2,80,0,0
26090,-125,4,2,2,5,0,0
26193,-125,4,2,2,80,0,0
26814,-125,4,2,2,5,0,0
27021,-125,4,2,2,80,0,0
28573,-250,4,2,2,80,0,0
29090,-125,4,2,2,80,0,0
29400,-125,4,2,2,5,0,0
29504,-125,4,2,2,80,0,0
30125,-125,4,2,2,5,0,0
30331,-125,4,2,2,80,0,0
31883,-250,4,2,2,80,0,0
32504,-250,4,2,2,5,0,0
32607,-250,4,2,2,80,0,0
32711,-250,4,2,2,5,0,0
32814,-250,4,2,2,80,0,0
32918,-250,4,2,2,5,0,0
33021,-250,4,2,2,80,0,0
33125,-250,4,2,2,5,0,0
33228,-333.333333333333,4,2,2,60,0,0
33331,-333.333333333333,4,2,2,5,0,0
33435,-333.333333333333,4,2,2,60,0,0
33538,-333.333333333333,4,2,2,5,0,0
33642,-333.333333333333,4,2,2,60,0,0
33745,-333.333333333333,4,2,2,5,0,0
33849,-333.333333333333,4,2,2,60,0,0
33952,-333.333333333333,4,2,2,5,0,0
34056,-500,4,2,2,40,0,0
34159,-500,4,2,2,5,0,0
34262,-500,4,2,2,40,0,0
34366,-500,4,2,2,5,0,0
34469,-500,4,2,2,40,0,0
34573,-500,4,2,2,5,0,0
34676,-500,4,2,2,40,0,0
34780,-500,4,2,2,5,0,0
34883,-500,4,2,2,40,0,0
36849,-500,4,2,2,5,0,0
36952,-83.3333333333333,4,2,2,40,0,0
37056,-83.3333333333333,4,2,2,5,0,0
37159,-83.3333333333333,4,2,2,40,0,0
37262,-83.3333333333333,4,2,2,5,0,0
37366,-83.3333333333333,4,2,2,60,0,0
37676,-83.3333333333333,4,2,2,5,0,0
37780,-100,4,2,2,80,0,0
38090,-100,4,2,2,5,0,0
38193,-55.5555555555556,4,2,3,100,0,0
38297,-55.5555555555556,4,2,3,5,0,0
38607,-83.3333333333333,4,2,3,60,0,0
38711,-83.3333333333333,4,2,3,5,0,0
38814,-76.9230769230769,4,2,3,60,0,0
38918,-76.9230769230769,4,2,3,5,0,0
39021,-71.4285714285714,4,2,3,60,0,0
39125,-71.4285714285714,4,2,3,5,0,0
39228,-66.6666666666667,4,2,3,60,0,0
39331,-66.6666666666667,4,2,3,5,0,0
39435,-33.3333333333333,4,2,2,60,0,0
39487,-33.3333333333333,4,2,3,5,0,0
39849,-55.5555555555556,4,2,3,100,0,0
39952,-55.5555555555556,4,2,3,5,0,0
40056,-83.3333333333333,4,2,3,60,0,0
40159,-83.3333333333333,4,2,3,5,0,0
40262,-83.3333333333333,4,2,3,60,0,0
40366,-83.3333333333333,4,2,3,5,0,0
40469,-76.9230769230769,4,2,3,60,0,0
40573,-76.9230769230769,4,2,3,5,0,0
40676,-71.4285714285714,4,2,3,60,0,0
40780,-71.4285714285714,4,2,3,5,0,0
40883,-66.6666666666667,4,2,3,60,0,0
40987,-66.6666666666667,4,2,3,5,0,0
41090,-66.6666666666667,4,2,3,100,0,0
41400,-66.6666666666667,4,2,3,5,0,0
41504,-55.5555555555556,4,2,3,100,0,0
41814,-55.5555555555556,4,2,3,5,0,0
41918,-83.3333333333333,4,2,3,60,0,0
42021,-83.3333333333333,4,2,3,5,0,0
42125,-76.9230769230769,4,2,3,60,0,0
42228,-76.9230769230769,4,2,3,5,0,0
42331,-71.4285714285714,4,2,3,60,0,0
42435,-71.4285714285714,4,2,3,5,0,0
42538,-66.6666666666667,4,2,3,60,0,0
42642,-66.6666666666667,4,2,3,5,0,0
42745,-133.333333333333,4,2,2,60,0,0
42952,-133.333333333333,4,2,3,5,0,0
43159,-55.5555555555556,4,2,3,100,0,0
43262,-55.5555555555556,4,2,3,5,0,0
43366,-400,4,2,3,60,0,0
43469,-1000,4,2,3,5,0,0
43573,-400,4,2,3,60,0,0
43676,-1000,4,2,3,5,0,0
43780,-400,4,2,3,60,0,0
43883,-1000,4,2,3,5,0,0
43987,-400,4,2,3,60,0,0
44090,-1000,4,2,3,5,0,0
44193,-400,4,2,3,60,0,0
44297,-1000,4,2,3,5,0,0
44400,-50,4,2,3,40,0,0
44814,-55.5555555555556,4,2,3,100,0,0
45125,-55.5555555555556,4,2,3,5,0,0
45228,-83.3333333333333,4,2,3,60,0,0
45331,-83.3333333333333,4,2,3,5,0,0
45435,-76.9230769230769,4,2,3,60,0,0
45538,-76.9230769230769,4,2,3,5,0,0
45642,-71.4285714285714,4,2,3,60,0,0
45745,-71.4285714285714,4,2,3,5,0,0
45849,-66.6666666666667,4,2,3,60,0,0
45952,-66.6666666666667,4,2,3,5,0,0
46056,-33.3333333333333,4,2,2,60,0,0
46107,-33.3333333333333,4,2,3,5,0,0
46469,-55.5555555555556,4,2,3,100,0,0
46573,-55.5555555555556,4,2,3,5,0,0
46676,-83.3333333333333,4,2,3,60,0,0
46780,-83.3333333333333,4,2,3,5,0,0
46883,-83.3333333333333,4,2,3,60,0,0
46987,-83.3333333333333,4,2,3,5,0,0
47090,-76.9230769230769,4,2,3,60,0,0
47193,-76.9230769230769,4,2,3,5,0,0
47297,-71.4285714285714,4,2,3,60,0,0
47400,-71.4285714285714,4,2,3,5,0,0
47504,-66.6666666666667,4,2,3,60,0,0
47607,-66.6666666666667,4,2,3,5,0,0
47711,-66.6666666666667,4,2,3,100,0,0
48021,-66.6666666666667,4,2,3,5,0,0
48125,-55.5555555555556,4,2,3,100,0,0
48435,-55.5555555555556,4,2,3,5,0,0
48538,-83.3333333333333,4,2,3,60,0,0
48642,-83.3333333333333,4,2,3,5,0,0
48745,-76.9230769230769,4,2,3,60,0,0
48849,-76.9230769230769,4,2,3,5,0,0
48952,-71.4285714285714,4,2,3,60,0,0
49056,-71.4285714285714,4,2,3,5,0,0
49159,-66.6666666666667,4,2,3,60,0,0
49262,-66.6666666666667,4,2,3,5,0,0
49366,-133.333333333333,4,2,2,60,0,0
49573,-133.333333333333,4,2,2,60,0,0
49780,-133.333333333333,4,2,2,100,0,0
51331,-133.333333333333,4,2,2,5,0,0
51435,-83.3333333333333,4,2,4,80,0,0
51952,-83.3333333333333,4,2,4,5,0,0
52056,-83.3333333333333,4,2,4,80,0,0
52159,-83.3333333333333,4,2,4,5,0,0
52262,-83.3333333333333,4,2,4,80,0,0
52366,-83.3333333333333,4,2,4,5,0,0
52469,-83.3333333333333,4,2,4,80,0,0
52573,-83.3333333333333,4,2,4,5,0,0
52676,-83.3333333333333,4,2,4,80,0,0
52883,-83.3333333333333,4,2,4,5,0,0
53090,-83.3333333333333,4,2,4,80,0,0
53400,-83.3333333333333,4,2,4,5,0,0
53504,-83.3333333333333,4,2,4,80,0,0
53607,-83.3333333333333,4,2,4,5,0,0
53711,-83.3333333333333,4,2,4,80,0,0
53814,-83.3333333333333,4,2,4,5,0,0
53918,-83.3333333333333,4,2,4,80,0,0
54021,-83.3333333333333,4,2,4,5,0,0
54125,-83.3333333333333,4,2,4,80,0,0
54228,-83.3333333333333,4,2,4,5,0,0
54331,-55.5555555555556,4,2,4,80,0,0
54642,-83.3333333333333,4,2,4,5,0,0
54745,-83.3333333333333,4,2,4,80,0,0
55262,-83.3333333333333,4,2,4,5,0,0
55366,-83.3333333333333,4,2,4,80,0,0
55469,-83.3333333333333,4,2,4,5,0,0
55573,-83.3333333333333,4,2,4,80,0,0
55676,-83.3333333333333,4,2,4,5,0,0
55780,-83.3333333333333,4,2,4,80,0,0
55883,-83.3333333333333,4,2,4,5,0,0
55987,-83.3333333333333,4,2,4,80,0,0
56400,-62.5,4,2,5,100,0,0
56504,-62.5,4,2,5,5,0,0
56607,-62.5,4,2,5,100,0,0
56918,-62.5,4,2,5,5,0,0
57021,-62.5,4,2,5,100,0,0
57331,-62.5,4,2,5,5,0,0
57435,-83.3333333333333,4,2,5,100,0,0
57487,-83.3333333333333,4,2,5,60,0,0
57642,-83.3333333333333,4,2,5,100,0,0
57745,-83.3333333333333,4,2,5,5,0,0
57849,-83.3333333333333,4,2,5,100,0,0
57952,-83.3333333333333,4,2,5,5,0,0
58056,-250.000000000001,4,2,4,80,0,0
58469,-83.3333333333333,4,2,4,80,0,0
58883,-200,4,2,4,80,0,0
59297,-83.3333333333334,4,2,4,80,0,0
59711,-166.666666666667,4,2,4,80,0,0
60125,-83.3333333333333,4,2,4,80,0,0
60538,-142.857142857143,4,2,4,80,0,0
60952,-83.3333333333333,4,2,4,80,0,0
61366,-83.3333333333333,4,2,6,80,0,0
61469,-100,4,2,6,5,0,0
61573,-100,4,2,6,80,0,0
61780,-90.9090909090909,4,2,6,70,0,0
61883,-100,4,2,6,5,0,0
61987,-100,4,2,6,70,0,0
62193,-100,4,2,6,60,0,0
62297,-100,4,2,6,5,0,0
62400,-100,4,2,6,60,0,0
62607,-111.111111111111,4,2,6,50,0,0
62711,-100,4,2,6,5,0,0
62814,-100,4,2,6,50,0,0
63021,-100,4,2,6,80,0,0
64573,-100,4,2,6,5,0,0
64676,-55.5555555555556,4,2,8,100,0,0
64987,-55.5555555555556,4,2,6,5,0,0
65090,-142.857142857143,4,2,7,80,0,0
65504,-166.666666666667,4,2,7,60,0,0
65918,-200,4,2,7,40,0,0
66331,-125,4,2,8,40,0,0
67159,-83.3333333333333,4,2,2,80,0,0
67262,-125,4,2,6,5,0,0
67366,-55.5555555555556,4,2,8,100,0,0
67469,-55.5555555555556,4,2,6,5,0,0
67573,-500,4,2,8,100,0,0
67883,-500,4,2,6,5,0,0
67987,-55.5555555555556,4,2,8,100,0,0
68297,-55.5555555555556,4,2,8,5,0,0
68400,-133.333333333333,4,2,8,100,0,0
68814,-133.333333333333,4,2,8,100,0,0
69435,-55.5555555555556,4,2,11,100,0,0
69538,-55.5555555555556,4,2,8,5,0,0
69642,-133.333333333333,4,2,8,100,0,0
70056,-55.5555555555556,4,2,11,100,0,0
70211,-55.5555555555556,4,2,8,5,0,0
70262,-133.333333333333,4,2,8,100,0,0
70469,-83.3333333333333,4,2,8,100,0,0
70676,-83.3333333333333,4,2,8,70,0,0
70831,-83.3333333333333,4,2,8,5,0,0
70883,-83.3333333333333,4,2,8,70,0,0
71193,-83.3333333333333,4,2,8,5,0,0
71297,-55.5555555555556,4,2,8,100,0,0
71607,-55.5555555555556,4,2,8,5,0,0
71711,-133.333333333333,4,2,8,100,0,0
72538,-83.3333333333333,4,2,8,100,0,0
72952,-133.333333333333,4,2,8,100,0,0
73366,-83.3333333333333,4,2,8,100,0,0
73780,-133.333333333333,4,2,8,100,0,0
74193,-83.3333333333333,4,2,8,60,0,0
74400,-83.3333333333333,4,2,8,5,0,0
74607,-100,4,2,8,80,0,0
75435,-83.3333333333333,4,2,8,80,0,0
75538,-83.3333333333333,4,2,8,5,0,0
75642,-83.3333333333333,4,2,8,80,0,0
75745,-83.3333333333333,4,2,8,5,0,0
75849,-83.3333333333333,4,2,8,80,0,0
75952,-83.3333333333333,4,2,8,5,0,0
76056,-83.3333333333333,4,2,8,80,0,0
76159,-83.3333333333333,4,2,8,5,0,0
76262,-100,4,2,8,80,0,0
76469,-100,4,2,8,5,0,0
76573,-100,4,2,8,80,0,0
76780,-100,4,2,8,5,0,0
76883,-100,4,2,8,80,0,0
77400,-100,4,2,8,5,0,0
77504,-100,4,2,8,80,0,0
77814,-100,4,2,8,5,0,0
77918,-55.5555555555556,4,2,8,100,0,0
78228,-55.5555555555556,4,2,8,5,0,0
78331,-200,4,2,8,20,0,0
78435,-200,4,2,8,25,0,0
78538,-166.666666666667,4,2,8,30,0,0
78642,-166.666666666667,4,2,8,35,0,0
78745,-142.857142857143,4,2,8,40,0,0
78849,-142.857142857143,4,2,8,45,0,0
78952,-125,4,2,8,50,0,0
79056,-125,4,2,8,55,0,0
79159,-83.3333333333333,4,2,8,80,0,0
79366,-55.5555555555556,4,2,14,80,0,0
79521,-55.5555555555556,4,2,8,5,0,0
79573,-133.333333333333,4,2,8,100,0,0
79780,-71.4285714285714,4,2,8,100,0,0
79987,-55.5555555555556,4,2,14,100,0,0
80090,-71.4285714285714,4,2,8,5,0,0
80193,-133.333333333333,4,2,8,100,0,0
80400,-83.3333333333333,4,2,8,100,0,0
80607,-83.3333333333333,4,2,8,70,0,0
80762,-83.3333333333333,4,2,8,5,0,0
80814,-250.000000000001,4,2,8,70,0,0
81125,-250.000000000001,4,2,8,5,0,0
81228,-55.5555555555556,4,2,8,100,0,0
81538,-55.5555555555556,4,2,8,5,0,0
81642,-133.333333333333,4,2,8,100,0,0
82676,-55.5555555555556,4,2,11,100,0,0
82780,-55.5555555555556,4,2,8,5,0,0
82883,-133.333333333333,4,2,8,100,0,0
83297,-55.5555555555556,4,2,11,100,0,0
83400,-55.5555555555556,4,2,8,5,0,0
83504,-133.333333333333,4,2,8,100,0,0
83711,-83.3333333333333,4,2,8,70,0,0
84073,-83.3333333333333,4,2,8,5,0,0
84125,-83.3333333333333,4,2,8,70,0,0
84435,-83.3333333333333,4,2,8,5,0,0
84538,-55.5555555555556,4,2,8,100,0,0
84849,-55.5555555555556,4,2,8,5,0,0
84952,-133.333333333333,4,2,8,100,0,0
85780,-83.3333333333333,4,2,8,100,0,0
86193,-133.333333333333,4,2,8,100,0,0
86607,-83.3333333333333,4,2,8,100,0,0
87021,-55.5555555555556,4,2,8,100,0,0
87125,-55.5555555555556,4,2,8,5,0,0
87228,-55.5555555555556,4,2,8,100,0,0
87331,-55.5555555555556,4,2,8,5,0,0
87435,-55.5555555555556,4,2,8,100,0,0
87538,-55.5555555555556,4,2,8,5,0,0
87642,-55.5555555555556,4,2,8,60,0,0
87849,-83.3333333333333,4,2,4,80,0,0
89504,-125,4,2,4,80,0,0
89607,-125,4,2,4,5,0,0
89711,-111.111111111111,4,2,4,80,0,0
89814,-111.111111111111,4,2,4,5,0,0
89918,-100,4,2,4,80,0,0
90021,-100,4,2,4,5,0,0
90125,-90.9090909090909,4,2,4,80,0,0
90228,-90.9090909090909,4,2,4,5,0,0
90331,-83.3333333333333,4,2,4,80,0,0
90435,-83.3333333333333,4,2,4,5,0,0
90538,-83.3333333333333,4,2,4,80,0,0
90642,-83.3333333333333,4,2,4,5,0,0
90745,-125,4,2,4,60,0,0
91159,-83.3333333333333,4,2,4,80,0,0
91573,-125,4,2,4,80,0,0
91987,-83.3333333333333,4,2,4,80,0,0
92400,-125,4,2,4,80,0,0
92814,-62.5,4,2,5,100,0,0
92918,-62.5,4,2,5,5,0,0
93021,-62.5,4,2,5,100,0,0
93331,-62.5,4,2,5,5,0,0
93435,-62.5,4,2,5,100,0,0
93745,-62.5,4,2,5,5,0,0
93849,-83.3333333333333,4,2,5,60,0,0
93952,-83.3333333333333,4,2,5,5,0,0
94056,-166.666666666667,4,2,5,60,0,0
94366,-166.666666666667,4,2,5,5,0,0
94469,-250,4,2,8,100,0,0
94780,-250,4,2,8,5,0,0
94883,-100,4,2,8,100,0,0
95193,-125,4,2,8,5,0,0
95297,-50,4,2,8,100,0,0
95400,-50,4,2,8,5,0,0
96125,-62.5,4,2,8,100,0,0
96435,-62.5,4,2,8,5,0,0
96538,-62.5,4,2,8,100,0,0
96849,-62.5,4,2,8,5,0,0
96952,-62.5,4,2,8,100,0,0
97262,-62.5,4,2,8,5,0,0
97366,-125,4,2,8,100,0,0
97780,-250,4,2,8,100,0,0
98090,-250,4,2,8,5,0,0
98193,-55.5555555555556,4,2,8,100,0,0
98504,-62.5,4,2,8,5,0,0
98607,-62.5,4,2,8,100,0,0
98711,-62.5,4,2,8,5,0,0
98814,-62.5,4,2,8,100,0,0
98918,-62.5,4,2,8,5,0,0
99021,-62.5,4,2,8,100,0,0
99125,-62.5,4,2,8,5,0,0
99228,-62.5,4,2,8,100,0,0
99331,-62.5,4,2,8,5,0,0
99435,-62.5,4,2,8,100,0,0
99538,-62.5,4,2,8,5,0,0
99642,-62.5,4,2,8,100,0,0
99745,-62.5,4,2,8,5,0,0
99849,-62.5,4,2,8,100,0,0
100159,-62.5,4,2,8,5,0,0
100262,-83.3333333333333,4,2,8,100,0,0
100469,-83.3333333333333,4,2,8,5,0,0
100676,-62.5,4,2,8,100,0,0
100987,-62.5,4,2,8,5,0,0
101090,-250,4,2,8,100,0,0
101400,-250,4,2,8,5,0,0
101504,-33.3333333333333,4,2,8,100,0,0
101556,-33.3333333333333,4,2,8,5,0,0
101918,-50,4,2,8,100,0,0
102021,-50,4,2,8,5,0,0
103159,-62.5,4,2,8,100,0,0
103469,-62.5,4,2,8,5,0,0
103573,-62.5,4,2,8,100,0,0
103883,-62.5,4,2,8,5,0,0
103987,-125,4,2,8,100,0,0
104400,-62.5,4,2,8,100,0,0
104504,-62.5,4,2,8,5,0,0
104607,-62.5,4,2,8,100,0,0
104711,-62.5,4,2,8,5,0,0
104814,-62.5,4,2,8,100,0,0
104918,-62.5,4,2,8,5,0,0
105021,-62.5,4,2,8,100,0,0
105125,-62.5,4,2,8,5,0,0
105228,-142.857142857143,4,2,8,100,0,0
105331,-125,4,2,8,5,0,0
106056,-83.3333333333333,4,2,8,100,0,0
106159,-83.3333333333333,4,2,8,5,0,0
106262,-83.3333333333333,4,2,8,100,0,0
106366,-83.3333333333333,4,2,8,5,0,0
106469,-83.3333333333333,4,2,8,100,0,0
106573,-83.3333333333333,4,2,8,5,0,0
106676,-83.3333333333333,4,2,8,100,0,0
106780,-83.3333333333333,4,2,8,5,0,0
106883,-83.3333333333333,4,2,8,100,0,0
107607,-83.3333333333333,4,2,8,5,0,0
107711,-250,4,2,8,100,0,0
110193,-83.3333333333333,4,2,8,100,0,0
110297,-83.3333333333333,4,2,8,5,0,0
110400,-83.3333333333333,4,2,8,100,0,0
110504,-83.3333333333333,4,2,8,5,0,0
110607,-500,4,2,8,100,0,0
110918,-250,4,2,8,5,0,0
111021,-55.5555555555556,4,2,8,100,0,0
111331,-55.5555555555556,4,2,8,5,0,0
111435,-62.5,4,2,8,100,0,0
111745,-62.5,4,2,8,5,0,0
111849,-50,4,2,8,100,0,0
111952,-50,4,2,8,5,0,0
112056,-50,4,2,8,100,0,0
112159,-50,4,2,8,5,0,0
112262,-50,4,2,8,100,0,0
112366,-50,4,2,8,5,0,0
112469,-50,4,2,8,100,0,0
112573,-50,4,2,8,5,0,0
112676,-50,4,2,8,100,0,0
112780,-50,4,2,8,5,0,0
112883,-50,4,2,8,100,0,0
112987,-50,4,2,8,5,0,0
113090,-62.5,4,2,8,100,0,0
113400,-62.5,4,2,8,5,0,0
113504,-83.3333333333333,4,2,8,100,0,0
113814,-83.3333333333333,4,2,8,5,0,0
113918,-125,4,2,8,100,0,0
114228,-125,4,2,8,5,0,0
114331,-125,4,2,4,80,0,0
115262,-125,4,2,4,5,0,0
115366,-125,4,2,4,80,0,0
115469,-125,4,2,4,5,0,0
115573,-125,4,2,4,80,0,0
115883,-125,4,2,4,5,0,0
115987,-125,4,2,4,80,0,0
116090,-125,4,2,4,5,0,0
116193,-125,4,2,4,80,0,0
116504,-125,4,2,4,5,0,0
116607,-125,4,2,4,80,0,0
116918,-125,4,2,4,5,0,0
117021,-125,4,2,4,80,0,0
117228,-83.3333333333333,4,2,8,80,0,0
117538,-83.3333333333333,4,2,8,5,0,0
117642,-83.3333333333333,4,2,4,80,0,0
120125,-125,4,2,4,80,0,0
120745,-125,4,2,4,60,0,0
121366,-125,4,2,4,50,0,0
121780,-125,4,2,4,40,0,0
122193,-125,4,2,4,30,0,0
122607,-125,4,2,4,40,0,0
123021,-125,4,2,4,50,0,0
123435,-125,4,2,4,60,0,0
123849,-125,4,2,4,80,0,0
124159,-125,4,2,4,5,0,0
124262,-250,4,2,1,20,0,0
125918,-250,4,2,1,30,0,0
127573,-250,4,2,1,40,0,0
130883,-166.666666666667,4,2,1,40,0,0
133469,-166.666666666667,4,2,1,5,0,0
133573,-166.666666666667,4,2,1,40,0,0
133883,-166.666666666667,4,2,1,5,0,0
133987,-166.666666666667,4,2,1,40,0,0
135849,-166.666666666667,4,2,1,20,0,0
137504,-166.666666666667,4,2,1,40,0,0
139780,-142.857142857143,4,2,1,40,0,0
140090,-166.666666666667,4,2,1,5,0,0
140193,-142.857142857143,4,2,1,40,0,0
140504,-166.666666666667,4,2,1,5,0,0
140607,-166.666666666667,4,2,1,40,0,0
140814,-142.857142857143,4,2,1,40,0,0
141021,-166.666666666667,4,2,1,5,0,0
141125,-142.857142857143,4,2,1,40,0,0
141331,-166.666666666667,4,2,1,5,0,0
141435,-142.857142857143,4,2,1,40,0,0
142469,-166.666666666667,4,2,1,40,0,0
143193,-166.666666666667,4,2,1,5,0,0
143297,-166.666666666667,4,2,1,40,0,0
144125,-142.857142857143,4,2,1,40,0,0
144952,-166.666666666667,4,2,1,40,0,0
145780,-142.857142857143,4,2,1,40,0,0
146711,-142.857142857143,4,2,1,5,0,0
146814,-142.857142857143,4,2,1,40,0,0
147125,-142.857142857143,4,2,1,5,0,0
147228,-142.857142857143,4,2,1,40,0,0
150745,-125,4,2,1,50,0,0
157366,-100,4,1,8,80,0,0
157573,-100,4,1,2,5,0,0
157676,-100,4,1,2,80,0,0
157883,-100,4,1,2,5,0,0
157987,-100,4,1,2,80,0,0
158090,-100,4,1,2,5,0,0
158193,-100,4,1,2,80,0,0
159228,-100,4,1,2,5,0,0
159331,-100,4,1,2,80,0,0
159538,-100,4,1,2,5,0,0
159642,-125,4,1,2,80,0,0
159952,-125,4,1,2,5,0,0
160056,-125,4,1,2,80,0,0
160366,-125,4,1,2,5,0,0
160469,-125,4,1,2,80,0,0
160573,-125,4,1,2,5,0,0
160676,-166.666666666667,4,1,2,80,0,0
160883,-166.666666666667,4,1,2,5,0,0
160987,-166.666666666667,4,1,2,80,0,0
161193,-166.666666666667,4,1,2,5,0,0
161297,-166.666666666667,4,1,2,80,0,0
161400,-166.666666666667,4,1,2,5,0,0
161504,-166.666666666667,4,1,2,80,0,0
161607,-166.666666666667,4,1,2,5,0,0
161711,-166.666666666667,4,1,2,80,0,0
161814,-166.666666666667,4,1,2,5,0,0
161918,-166.666666666667,4,1,2,80,0,0
162021,-166.666666666667,4,1,2,5,0,0
162125,-166.666666666667,4,1,2,80,0,0
162228,-166.666666666667,4,1,2,5,0,0
162331,-166.666666666667,4,1,2,80,0,0
162435,-166.666666666667,4,1,2,5,0,0
162538,-166.666666666667,4,1,2,80,0,0
162642,-166.666666666667,4,1,2,5,0,0
162745,-166.666666666667,4,1,2,80,0,0
162849,-166.666666666667,4,1,2,5,0,0
162952,-166.666666666667,4,1,2,80,0,0
163056,-166.666666666667,4,1,2,5,0,0
163159,-166.666666666667,4,1,2,80,0,0
163262,-166.666666666667,4,1,2,5,0,0
163366,-166.666666666667,4,1,2,80,0,0
163469,-166.666666666667,4,1,2,5,0,0
163573,-166.666666666667,4,1,2,80,0,0
163676,-166.666666666667,4,1,2,5,0,0
163780,-166.666666666667,4,1,2,80,0,0
163883,-166.666666666667,4,1,2,5,0,0
163987,-100,4,1,8,80,0,0
164193,-100,4,1,8,5,0,0
164297,-100,4,1,2,80,0,0
164504,-100,4,1,2,5,0,0
164607,-100,4,1,2,80,0,0
164711,-100,4,1,2,5,0,0
164814,-100,4,1,2,80,0,0
165021,-100,4,1,2,5,0,0
165228,-100,4,1,2,80,0,0
165435,-100,4,1,2,5,0,0
165642,-100,4,1,2,80,0,0
165849,-100,4,1,2,5,0,0
165952,-100,4,1,8,80,0,0
166159,-100,4,1,8,5,0,0
166262,-125,4,1,8,80,0,0
166573,-125,4,1,8,5,0,0
166676,-125,4,1,8,80,0,0
166987,-125,4,1,8,5,0,0
167090,-125,4,1,8,80,0,0
167193,-125,4,1,8,5,0,0
167297,-83.3333333333333,4,1,2,80,0,0
168228,-83.3333333333333,4,1,2,5,0,0
168331,-83.3333333333333,4,1,2,80,0,0
168435,-83.3333333333333,4,1,2,5,0,0
168538,-83.3333333333333,4,1,2,80,0,0
168642,-83.3333333333333,4,1,2,5,0,0
168745,-83.3333333333333,4,1,2,80,0,0
168849,-83.3333333333333,4,1,2,5,0,0
168952,-83.3333333333333,4,1,2,80,0,0
169056,-83.3333333333333,4,1,2,5,0,0
169159,-83.3333333333333,4,1,2,80,0,0
169262,-83.3333333333333,4,1,2,5,0,0
169366,-83.3333333333333,4,1,2,80,0,0
169469,-83.3333333333333,4,1,2,5,0,0
169573,-83.3333333333333,4,1,2,80,0,0
169676,-83.3333333333333,4,1,2,5,0,0
169780,-83.3333333333333,4,1,2,80,0,0
169883,-83.3333333333333,4,1,2,5,0,0
169987,-83.3333333333333,4,1,2,80,0,0
170090,-83.3333333333333,4,1,2,5,0,0
170193,-83.3333333333333,4,1,2,80,0,0
170297,-83.3333333333333,4,1,2,5,0,0
170400,-83.3333333333333,4,1,2,80,0,0
170504,-83.3333333333333,4,1,2,5,0,0
170607,-100,4,1,8,80,0,0
170814,-100,4,1,8,5,0,0
170918,-100,4,1,8,80,0,0
171125,-100,4,1,8,5,0,0
171228,-100,4,1,8,80,0,0
171331,-100,4,1,8,5,0,0
171435,-100,4,1,2,80,0,0
172469,-100,4,1,2,5,0,0
172573,-100,4,1,2,80,0,0
172780,-100,4,1,2,5,0,0
172883,-125,4,1,2,80,0,0
173193,-125,4,1,2,5,0,0
173297,-125,4,1,2,80,0,0
173607,-125,4,1,2,5,0,0
173711,-125,4,1,2,80,0,0
173814,-125,4,1,2,5,0,0
173918,-166.666666666667,4,1,2,80,0,0
174849,-166.666666666667,4,1,2,5,0,0
174952,-166.666666666667,4,1,2,80,0,0
175056,-166.666666666667,4,1,2,5,0,0
175159,-166.666666666667,4,1,2,80,0,0
175262,-166.666666666667,4,1,2,5,0,0
175366,-166.666666666667,4,1,2,80,0,0
175469,-166.666666666667,4,1,2,5,0,0
175573,-166.666666666667,4,1,2,80,0,0
175676,-166.666666666667,4,1,2,5,0,0
175780,-166.666666666667,4,1,2,80,0,0
175883,-166.666666666667,4,1,2,5,0,0
175987,-166.666666666667,4,1,2,80,0,0
176090,-166.666666666667,4,1,2,5,0,0
176193,-166.666666666667,4,1,2,80,0,0
176297,-166.666666666667,4,1,2,5,0,0
176400,-166.666666666667,4,1,2,80,0,0
176504,-166.666666666667,4,1,2,5,0,0
176607,-166.666666666667,4,1,2,80,0,0
176711,-166.666666666667,4,1,2,5,0,0
176814,-166.666666666667,4,1,2,80,0,0
176918,-166.666666666667,4,1,2,5,0,0
177021,-166.666666666667,4,1,2,80,0,0
177125,-166.666666666667,4,1,2,5,0,0
177228,-100,4,1,8,80,0,0
177435,-100,4,1,8,5,0,0
177538,-100,4,1,2,80,0,0
177745,-100,4,1,2,5,0,0
177849,-100,4,1,2,80,0,0
177952,-100,4,1,2,5,0,0
178056,-100,4,1,2,80,0,0
178262,-100,4,1,2,5,0,0
178469,-100,4,1,2,80,0,0
178676,-100,4,1,2,5,0,0
178883,-100,4,1,2,80,0,0
179090,-100,4,1,2,5,0,0
179193,-100,4,1,2,80,0,0
179400,-100,4,1,2,5,0,0
179504,-125,4,1,2,80,0,0
179814,-125,4,1,2,5,0,0
179918,-125,4,1,2,80,0,0
180228,-125,4,1,2,5,0,0
180331,-125,4,1,2,80,0,0
180435,-125,4,1,2,5,0,0
180538,-125,4,1,2,80,0,0
180745,-125,4,1,2,5,0,0
180849,-125,4,1,2,80,0,0
181262,-125,4,1,2,5,0,0
181366,-142.857142857143,4,1,2,80,0,0
181573,-142.857142857143,4,1,2,5,0,0
181676,-142.857142857143,4,1,2,80,0,0
182090,-142.857142857143,4,1,2,5,0,0
182193,-166.666666666667,4,1,2,80,0,0
182400,-166.666666666667,4,1,2,5,0,0
182504,-166.666666666667,4,1,2,80,0,0
182918,-166.666666666667,4,1,2,5,0,0
183021,-200,4,1,2,80,0,0
183125,-200,4,1,2,5,0,0
183849,-55.5555555555556,4,2,3,100,0,0
184159,-55.5555555555556,4,2,3,5,0,0
184262,-83.3333333333333,4,2,3,60,0,0
184366,-83.3333333333333,4,2,3,5,0,0
184469,-76.9230769230769,4,2,3,60,0,0
184573,-76.9230769230769,4,2,3,5,0,0
184676,-71.4285714285714,4,2,3,60,0,0
184780,-71.4285714285714,4,2,3,5,0,0
184883,-66.6666666666667,4,2,3,60,0,0
184987,-66.6666666666667,4,2,3,5,0,0
185090,-33.3333333333333,4,2,2,60,0,0
185142,-33.3333333333333,4,2,2,5,0,0
185504,-55.5555555555556,4,2,3,100,0,0
185607,-55.5555555555556,4,2,3,5,0,0
185711,-83.3333333333333,4,2,3,60,0,0
185814,-83.3333333333333,4,2,3,5,0,0
185918,-83.3333333333333,4,2,3,60,0,0
186021,-83.3333333333333,4,2,3,5,0,0
186125,-76.9230769230769,4,2,3,60,0,0
186228,-76.9230769230769,4,2,3,5,0,0
186331,-71.4285714285714,4,2,3,60,0,0
186435,-71.4285714285714,4,2,3,5,0,0
186538,-66.6666666666667,4,2,3,60,0,0
186642,-66.6666666666667,4,2,3,5,0,0
186745,-66.6666666666667,4,2,3,100,0,0
186849,-66.6666666666667,4,2,3,5,0,0
187159,-55.5555555555556,4,2,3,100,0,0
187469,-55.5555555555556,4,2,3,5,0,0
187573,-83.3333333333333,4,2,3,60,0,0
187676,-83.3333333333333,4,2,3,5,0,0
187780,-76.9230769230769,4,2,3,60,0,0
187883,-76.9230769230769,4,2,3,5,0,0
187987,-71.4285714285714,4,2,3,60,0,0
188090,-71.4285714285714,4,2,3,5,0,0
188193,-66.6666666666667,4,2,3,60,0,0
188297,-66.6666666666667,4,2,3,5,0,0
188400,-133.333333333333,4,2,2,60,0,0
188607,-133.333333333333,4,2,2,5,0,0
188814,-55.5555555555556,4,2,3,100,0,0
188918,-55.5555555555556,4,2,3,5,0,0
189021,-400,4,2,3,60,0,0
189125,-1000,4,2,3,5,0,0
189228,-400,4,2,3,60,0,0
189331,-1000,4,2,3,5,0,0
189435,-400,4,2,3,60,0,0
189538,-1000,4,2,3,5,0,0
189642,-400,4,2,3,60,0,0
189745,-1000,4,2,3,5,0,0
189849,-400,4,2,3,60,0,0
189952,-1000,4,2,3,5,0,0
190056,-50,4,2,3,40,0,0
190469,-55.5555555555556,4,2,3,100,0,0
190780,-55.5555555555556,4,2,3,5,0,0
190883,-83.3333333333333,4,2,3,60,0,0
190987,-83.3333333333333,4,2,3,5,0,0
191090,-76.9230769230769,4,2,3,60,0,0
191193,-76.9230769230769,4,2,3,5,0,0
191297,-71.4285714285714,4,2,3,60,0,0
191400,-71.4285714285714,4,2,3,5,0,0
191504,-66.6666666666667,4,2,3,60,0,0
191607,-66.6666666666667,4,2,3,5,0,0
191711,-33.3333333333333,4,2,2,60,0,0
191762,-33.3333333333333,4,2,2,5,0,0
192125,-55.5555555555556,4,2,3,100,0,0
192228,-55.5555555555556,4,2,3,5,0,0
192331,-83.3333333333333,4,2,3,60,0,0
192435,-83.3333333333333,4,2,3,5,0,0
192538,-83.3333333333333,4,2,3,60,0,0
192642,-83.3333333333333,4,2,3,5,0,0
192745,-76.9230769230769,4,2,3,60,0,0
192849,-76.9230769230769,4,2,3,5,0,0
192952,-71.4285714285714,4,2,3,60,0,0
193056,-71.4285714285714,4,2,3,5,0,0
193159,-66.6666666666667,4,2,3,60,0,0
193262,-66.6666666666667,4,2,3,5,0,0
193366,-66.6666666666667,4,2,3,100,0,0
193676,-66.6666666666667,4,2,3,5,0,0
193780,-55.5555555555556,4,2,3,60,0,0
194090,-55.5555555555556,4,2,3,5,0,0
194193,-83.3333333333333,4,2,3,60,0,0
194297,-83.3333333333333,4,2,3,5,0,0
194400,-76.9230769230769,4,2,3,60,0,0
194504,-76.9230769230769,4,2,3,5,0,0
194607,-71.4285714285714,4,2,3,60,0,0
194711,-71.4285714285714,4,2,3,5,0,0
194814,-66.6666666666667,4,2,3,60,0,0
194918,-66.6666666666667,4,2,3,5,0,0
195021,-133.333333333333,4,2,2,60,0,0
195228,-133.333333333333,4,2,3,5,0,0
195435,-133.333333333333,4,2,3,100,0,0
196987,-133.333333333333,4,2,3,5,0,0
197090,-83.3333333333333,4,2,4,80,0,0
197607,-83.3333333333333,4,2,4,5,0,0
197711,-83.3333333333333,4,2,4,80,0,0
197814,-83.3333333333333,4,2,4,5,0,0
197918,-83.3333333333333,4,2,4,80,0,0
198021,-83.3333333333333,4,2,4,5,0,0
198125,-83.3333333333333,4,2,4,80,0,0
198228,-83.3333333333333,4,2,4,5,0,0
198331,-83.3333333333333,4,2,4,80,0,0
198538,-83.3333333333333,4,2,4,5,0,0
198745,-83.3333333333333,4,2,4,80,0,0
199056,-83.3333333333333,4,2,4,5,0,0
199159,-83.3333333333333,4,2,4,80,0,0
199262,-83.3333333333333,4,2,4,5,0,0
199366,-83.3333333333333,4,2,4,80,0,0
199469,-83.3333333333333,4,2,4,5,0,0
199573,-83.3333333333333,4,2,4,80,0,0
199676,-83.3333333333333,4,2,4,5,0,0
199780,-83.3333333333333,4,2,4,80,0,0
199883,-83.3333333333333,4,2,4,5,0,0
199987,-55.5555555555556,4,2,4,80,0,0
200297,-55.5555555555556,4,2,4,5,0,0
200400,-83.3333333333333,4,2,4,80,0,0
200918,-83.3333333333333,4,2,4,5,0,0
201021,-83.3333333333333,4,2,4,80,0,0
201125,-83.3333333333333,4,2,4,5,0,0
201228,-83.3333333333333,4,2,4,80,0,0
201331,-83.3333333333333,4,2,4,5,0,0
201435,-83.3333333333333,4,2,4,80,0,0
201538,-83.3333333333333,4,2,4,5,0,0
201642,-83.3333333333333,4,2,4,80,0,0
202056,-62.5,4,2,5,100,0,0
202159,-62.5,4,2,5,5,0,0
202262,-62.5,4,2,5,100,0,0
202573,-62.5,4,2,5,5,0,0
202676,-62.5,4,2,5,100,0,0
202987,-62.5,4,2,5,5,0,0
203090,-83.3333333333333,4,2,5,100,0,0
203142,-83.3333333333333,4,2,5,60,0,0
203297,-83.3333333333333,4,2,5,100,0,0
203400,-83.3333333333333,4,2,5,5,0,0
203504,-83.3333333333333,4,2,5,100,0,0
203607,-83.3333333333333,4,2,5,5,0,0
203711,-250.000000000001,4,2,4,80,0,0
204125,-83.3333333333334,4,2,4,80,0,0
204538,-200,4,2,4,80,0,0
204952,-83.3333333333334,4,2,4,80,0,0
205366,-166.666666666667,4,2,4,80,0,0
205780,-83.3333333333333,4,2,4,80,0,0
206193,-142.857142857143,4,2,4,80,0,0
206607,-83.3333333333333,4,2,4,80,0,0
207021,-83.3333333333333,4,2,6,80,0,0
207125,-83.3333333333333,4,2,6,5,0,0
207228,-83.3333333333333,4,2,6,80,0,0
207435,-90.9090909090909,4,2,6,70,0,0
207538,-90.9090909090909,4,2,6,5,0,0
207642,-90.9090909090909,4,2,6,70,0,0
207849,-100,4,2,6,60,0,0
207952,-100,4,2,6,5,0,0
208056,-100,4,2,6,60,0,0
208262,-111.111111111111,4,2,6,50,0,0
208366,-111.111111111111,4,2,6,5,0,0
208469,-111.111111111111,4,2,6,50,0,0
208676,-111.111111111111,4,2,6,80,0,0
209090,-111.111111111111,4,2,6,80,0,0
210021,-111.111111111111,4,2,6,5,0,0
210125,-99.9999999999999,4,2,6,80,0,0
210745,-83.3333333333333,4,2,6,80,0,0
210849,-83.3333333333333,4,2,6,5,0,0
210952,-83.3333333333333,4,2,6,80,0,0
211056,-83.3333333333333,4,2,6,5,0,0
211159,-71.4285714285714,4,2,6,80,0,0
211366,-83.3333333333333,4,2,6,5,0,0
211469,-83.3333333333333,4,2,6,80,0,0
211573,-71.4285714285714,4,2,6,80,0,0
211883,-83.3333333333333,4,2,6,5,0,0
211987,-55.5555555555556,4,2,6,100,0,1
212297,-55.5555555555556,4,2,6,5,0,1
212400,-1000,4,3,8,100,0,1
212452,-1000,4,3,7,5,0,1
212504,-1000,4,3,7,100,0,1
212556,-1000,4,3,7,5,0,1
212607,-1000,4,3,7,100,0,1
212659,-1000,4,3,7,5,0,1
212711,-1000,4,3,7,100,0,1
212762,-1000,4,3,7,5,0,1
212814,-1000,4,3,8,100,0,1
212866,-1000,4,3,7,5,0,1
212918,-1000,4,3,7,100,0,1
212969,-1000,4,3,7,5,0,1
213021,-1000,4,3,7,100,0,1
213073,-1000,4,3,7,5,0,1
213125,-1000,4,3,7,100,0,1
213176,-1000,4,3,7,5,0,1
213228,-1000,4,3,8,100,0,1
213280,-1000,4,3,7,5,0,1
213331,-1000,4,3,7,100,0,1
213383,-1000,4,3,7,5,0,1
213435,-1000,4,3,15,100,0,1
213487,-55.5555555555556,4,3,7,5,0,1
213538,-1000,4,3,7,100,0,1
213590,-1000,4,3,7,5,0,1
213642,-1000,4,3,8,100,0,1
213693,-1000,4,3,7,5,0,1
213745,-1000,4,3,7,100,0,1
213797,-1000,4,3,7,5,0,1
213849,-1000,4,3,7,100,0,1
213900,-1000,4,3,7,5,0,1
213952,-1000,4,3,7,100,0,1
214004,-1000,4,3,7,5,0,1
214056,-1000,4,3,16,100,0,1
214107,-55.5555555555556,4,3,7,5,0,1
214159,-1000,4,3,7,100,0,1
214211,-1000,4,3,7,5,0,1
214262,-1000,4,3,7,100,0,1
214314,-1000,4,3,7,5,0,1
214366,-1000,4,3,7,100,0,1
214418,-1000,4,3,7,5,0,1
214469,-1000,4,3,8,100,0,1
214521,-1000,4,3,7,5,0,1
214573,-1000,4,3,7,100,0,1
214625,-1000,4,3,7,5,0,1
214676,-76.9230769230769,4,3,7,100,0,1
214780,-76.9230769230769,4,3,7,5,0,1
214883,-250,4,3,8,100,0,1
215193,-153.846153846154,4,3,7,5,0,1
215297,-55.5555555555556,4,2,8,100,0,1
215607,-55.5555555555556,4,2,8,5,0,1
215711,-1000,4,3,8,100,0,1
215762,-1000,4,3,7,5,0,1
215814,-1000,4,3,7,100,0,1
215866,-1000,4,3,7,5,0,1
215918,-1000,4,3,7,100,0,1
215969,-1000,4,3,7,5,0,1
216021,-1000,4,3,7,100,0,1
216073,-1000,4,3,7,5,0,1
216125,-1000,4,3,8,100,0,1
216176,-1000,4,3,7,5,0,1
216228,-1000,4,3,7,100,0,1
216280,-1000,4,3,7,5,0,1
216331,-1000,4,3,7,100,0,1
216383,-1000,4,3,7,5,0,1
216435,-1000,4,3,7,100,0,1
216487,-1000,4,3,7,5,0,1
216538,-1000,4,3,8,100,0,1
216590,-1000,4,3,7,5,0,1
216642,-1000,4,3,7,100,0,1
216693,-1000,4,3,7,5,0,1
216745,-1000,4,3,12,100,0,1
216797,-55.5555555555556,4,3,7,5,0,1
216849,-1000,4,3,7,100,0,1
216900,-1000,4,3,7,5,0,1
216952,-1000,4,3,8,100,0,1
217004,-1000,4,3,7,5,0,1
217056,-1000,4,3,7,100,0,1
217107,-1000,4,3,7,5,0,1
217159,-1000,4,3,7,100,0,1
217211,-1000,4,3,7,5,0,1
217262,-1000,4,3,7,100,0,1
217314,-1000,4,3,7,5,0,1
217366,-1000,4,3,11,100,0,1
217418,-55.5555555555556,4,3,7,5,0,1
217469,-1000,4,3,7,100,0,1
217521,-1000,4,3,7,5,0,1
217573,-1000,4,3,7,100,0,1
217625,-1000,4,3,7,5,0,1
217676,-1000,4,3,7,100,0,1
217728,-1000,4,3,7,5,0,1
217780,-1000,4,3,8,100,0,1
217831,-1000,4,3,7,5,0,1
217883,-1000,4,3,7,100,0,1
217935,-1000,4,3,7,5,0,1
217987,-76.9230769230769,4,3,7,100,0,1
218090,-76.9230769230769,4,3,7,5,0,1
218193,-33.3333333333333,4,3,7,100,0,1
218297,-33.3333333333333,4,3,7,5,0,1
218607,-55.5555555555556,4,2,8,100,0,1
218918,-55.5555555555556,4,2,8,5,0,1
219021,-55.5555555555556,4,3,7,100,0,1
219435,-1000,4,3,8,100,0,1
219487,-1000,4,3,7,5,0,1
219538,-1000,4,3,7,100,0,1
219590,-1000,4,3,7,5,0,1
219642,-1000,4,3,7,100,0,1
219693,-1000,4,3,7,5,0,1
219745,-1000,4,3,7,100,0,1
219797,-1000,4,3,7,5,0,1
219849,-1000,4,3,7,100,0,1
219900,-1000,4,3,7,5,0,1
219952,-1000,4,3,7,100,0,1
220004,-1000,4,3,7,5,0,1
220056,-1000,4,3,15,100,0,1
220107,-55.5555555555556,4,3,7,5,0,1
220159,-1000,4,3,7,100,0,1
220211,-1000,4,3,7,5,0,1
220262,-1000,4,3,8,100,0,1
220314,-1000,4,3,7,5,0,1
220366,-1000,4,3,7,100,0,1
220418,-1000,4,3,7,5,0,1
220469,-1000,4,3,7,100,0,1
220521,-1000,4,3,7,5,0,1
220573,-1000,4,3,7,100,0,1
220625,-1000,4,3,7,5,0,1
220676,-1000,4,3,16,100,0,1
220728,-55.5555555555556,4,3,7,5,0,1
220780,-1000,4,3,7,100,0,1
220831,-1000,4,3,7,5,0,1
220883,-1000,4,3,7,100,0,1
220935,-1000,4,3,7,5,0,1
220987,-1000,4,3,7,100,0,1
221038,-1000,4,3,7,5,0,1
221090,-1000,4,3,8,100,0,1
221142,-1000,4,3,7,5,0,1
221193,-1000,4,3,7,100,0,1
221245,-1000,4,3,7,5,0,1
221297,-76.9230769230769,4,3,7,100,0,1
221400,-76.9230769230769,4,3,7,5,0,1
221504,-76.9230769230769,4,3,7,100,0,1
221918,-100,4,2,1,40,0,0
222745,-100,4,2,1,60,0,0
223573,-100,4,2,1,80,0,0
224400,-50,4,2,8,80,0,0
224607,-83.3333333333333,4,2,2,80,0,0
224711,-83.3333333333333,4,2,2,5,0,0
224814,-62.5,4,2,2,80,0,0
224918,-62.5,4,2,2,5,0,0
225021,-50,4,2,2,80,0,0
225125,-50,4,2,2,5,0,0
225228,-1000,4,2,8,100,0,0
225642,-1000,4,3,10,100,0,1
225745,-1000,4,3,10,5,0,1
225849,-1000,4,3,10,100,0,1
225952,-1000,4,3,10,5,0,1
226056,-1000,4,3,8,100,0,1
226159,-1000,4,3,10,5,0,1
226262,-1000,4,3,10,100,0,1
226366,-1000,4,3,10,5,0,1
226469,-1000,4,3,10,100,0,1
226573,-1000,4,3,10,5,0,1
226676,-1000,4,3,15,100,0,1
226780,-1000,4,3,10,5,0,1
226883,-1000,4,3,8,100,0,1
226987,-1000,4,3,10,5,0,1
227090,-1000,4,3,10,100,0,1
227193,-1000,4,3,10,5,0,1
227297,-1000,4,3,18,100,0,1
227400,-1000,4,3,10,5,0,1
227504,-1000,4,3,10,100,0,1
227607,-1000,4,3,10,5,0,1
227711,-1000,4,3,8,100,0,1
227814,-1000,4,3,10,5,0,1
227918,-66.6666666666667,4,3,7,100,0,1
228021,-66.6666666666667,4,3,10,5,0,1
228125,-250,4,3,10,100,0,1
228435,-250,4,3,10,5,0,1
228538,-55.5555555555556,4,2,8,100,0,1
228745,-55.5555555555556,4,2,8,5,0,1
228952,-1000,4,3,10,100,0,1
229056,-1000,4,3,10,5,0,1
229159,-1000,4,3,10,100,0,1
229262,-1000,4,3,10,5,0,1
229366,-1000,4,3,8,100,0,1
229469,-1000,4,3,10,5,0,1
229573,-1000,4,3,10,100,0,1
229676,-1000,4,3,10,5,0,1
229780,-1000,4,3,10,100,0,1
229883,-1000,4,3,10,5,0,1
229987,-1000,4,3,12,100,0,1
230090,-1000,4,3,10,5,0,1
230193,-1000,4,3,8,100,0,1
230297,-1000,4,3,10,5,0,1
230400,-1000,4,3,10,100,0,1
230504,-1000,4,3,10,5,0,1
230607,-1000,4,3,11,100,0,1
230711,-1000,4,3,10,5,0,1
230814,-1000,4,3,10,100,0,1
230918,-1000,4,3,10,5,0,1
231021,-1000,4,3,8,100,0,1
231125,-1000,4,3,10,5,0,1
231228,-33.3333333333333,4,2,8,100,0,1
231280,-33.3333333333333,4,2,8,5,0,1
231849,-55.5555555555556,4,2,8,100,0,1
232159,-55.5555555555556,4,2,8,5,0,1
232262,-1000,4,3,10,100,0,1
232366,-1000,4,3,10,5,0,1
232469,-1000,4,3,10,100,0,1
232573,-1000,4,3,10,5,0,1
232676,-1000,4,3,8,100,0,1
232780,-1000,4,3,10,5,0,1
232883,-1000,4,3,10,100,0,1
232987,-1000,4,3,10,5,0,1
233090,-1000,4,3,10,100,0,1
233193,-1000,4,3,10,5,0,1
233297,-1000,4,3,15,100,0,1
233400,-1000,4,3,10,5,0,1
233504,-1000,4,3,8,100,0,1
233607,-1000,4,3,10,5,0,1
233711,-1000,4,3,10,100,0,1
233814,-1000,4,3,10,5,0,1
233918,-1000,4,3,18,100,0,1
234021,-1000,4,3,10,5,0,1
234125,-1000,4,3,10,100,0,1
234228,-1000,4,3,10,5,0,1
234331,-1000,4,3,8,100,0,1
234435,-1000,4,3,10,5,0,1
234538,-66.6666666666667,4,3,7,100,0,1
234642,-66.6666666666667,4,3,10,5,0,1
234745,-250,4,3,10,100,0,1
235056,-250,4,3,10,5,0,1
235159,-125,4,2,8,60,0,0
235262,-125,4,2,8,5,0,0
235366,-125,4,2,8,60,0,0
235469,-125,4,2,8,5,0,0
235573,-125,4,2,8,60,0,0
235676,-125,4,2,8,5,0,0
235780,-125,4,2,8,60,0,0
235883,-125,4,2,8,5,0,0
235987,-125,4,2,8,60,0,0
236400,-125,4,2,8,60,0,0
236504,-125,4,2,8,5,0,0
236607,-125,4,2,8,60,0,0
236711,-125,4,2,8,5,0,0
236814,-125,4,2,8,60,0,0
236918,-125,4,2,8,5,0,0
237021,-111.111111111111,4,2,8,60,0,0
237125,-111.111111111111,4,2,8,5,0,0
237228,-100,4,2,8,60,0,0
237331,-100,4,2,8,5,0,0
237435,-90.9090909090909,4,2,8,60,0,0
237538,-90.9090909090909,4,2,8,5,0,0
237642,-83.3333333333333,4,2,8,60,0,0
237745,-83.3333333333333,4,2,8,5,0,0
237849,-83.3333333333333,4,2,8,60,0,0
237952,-83.3333333333333,4,2,8,5,0,0
238056,-125,4,2,8,60,0,0
240021,-125,4,2,8,5,0,0
240125,-125,4,2,1,40,0,0
240228,-125,4,2,1,5,0,0
240331,-125,4,2,1,40,0,0
240435,-125,4,2,1,5,0,0
240538,-125,4,2,1,40,0,0
240642,-125,4,2,1,5,0,0
240745,-125,4,2,1,40,0,0
240952,-100,4,2,1,60,0,0
241056,-100,4,2,1,40,0,0
241159,-100,4,2,1,60,0,0
241262,-100,4,2,1,40,0,0
241366,-100,4,2,1,60,0,0
241469,-100,4,2,1,40,0,0
241573,-100,4,2,1,60,0,0
241780,-83.3333333333333,4,2,1,60,0,0
243021,-100,4,2,1,60,0,0
243435,-62.5,4,2,5,100,0,0
243642,-250,4,2,5,100,0,0
243849,-62.5,4,2,5,100,0,0
244056,-250,4,2,5,100,0,0
244262,-62.5,4,2,5,100,0,0
244469,-83.3333333333333,4,2,5,100,0,0
244676,-50,4,2,5,100,0,0
244780,-45.4545454545455,4,2,5,100,0,0
244883,-41.6666666666667,4,2,5,100,0,0
244987,-38.4615384615385,4,2,5,100,0,0
245090,-55.5555555555556,4,2,8,100,0,1
245400,-55.5555555555556,4,2,8,5,0,1
245504,-90.9090909090909,4,2,4,100,0,1
246538,-55.5555555555556,4,2,14,100,0,1
246642,-55.5555555555556,4,2,4,5,0,1
246745,-90.9090909090909,4,2,4,100,0,1
247159,-55.5555555555556,4,2,14,100,0,1
247262,-55.5555555555556,4,2,4,5,0,1
247366,-90.9090909090909,4,2,4,100,0,1
247780,-83.3333333333333,4,2,4,100,0,1
247883,-83.3333333333333,4,2,4,5,0,1
247987,-250,4,2,8,100,0,1
248297,-250,4,2,8,5,0,1
248400,-55.5555555555556,4,2,8,100,0,1
248711,-55.5555555555556,4,2,8,5,0,1
248814,-90.9090909090909,4,2,4,100,0,1
249849,-55.5555555555556,4,2,13,100,0,1
249952,-55.5555555555556,4,2,4,5,0,1
250056,-90.9090909090909,4,2,4,100,0,1
250469,-55.5555555555556,4,2,13,100,0,1
250573,-55.5555555555556,4,2,4,5,0,1
250676,-90.9090909090909,4,2,4,100,0,1
250883,-90.9090909090909,4,2,8,100,0,1
251193,-90.9090909090909,4,2,8,5,0,1
251297,-90.9090909090909,4,2,8,100,0,1
251711,-55.5555555555556,4,2,4,100,0,1
252021,-55.5555555555556,4,2,4,5,0,1
252125,-90.9090909090909,4,2,4,100,0,1
254607,-83.3333333333333,4,2,8,100,0,1
254814,-83.3333333333333,4,2,8,5,0,1
255021,-100,4,2,8,80,0,0
255849,-83.3333333333333,4,2,8,80,0,0
255952,-83.3333333333333,4,2,8,5,0,0
256056,-83.3333333333333,4,2,8,80,0,0
256159,-83.3333333333333,4,2,8,5,0,0
256262,-83.3333333333333,4,2,8,80,0,0
256366,-83.3333333333333,4,2,8,5,0,0
256469,-83.3333333333333,4,2,8,80,0,0
256573,-83.3333333333333,4,2,8,5,0,0
256676,-100,4,2,8,80,0,0
256883,-100,4,2,8,5,0,0
256987,-100,4,2,8,80,0,0
257193,-100,4,2,8,5,0,0
257297,-100,4,2,8,80,0,0
257711,-100,4,2,8,80,0,0
257814,-100,4,2,8,5,0,0
257918,-100,4,2,8,80,0,0
258228,-100,4,2,8,5,0,0
258331,-55.5555555555556,4,2,8,100,0,0
258642,-55.5555555555556,4,2,8,5,0,0
258745,-200,4,2,8,20,0,0
258849,-200,4,2,8,25,0,0
258952,-166.666666666667,4,2,8,30,0,0
259056,-166.666666666667,4,2,8,35,0,0
259159,-142.857142857143,4,2,8,40,0,0
259262,-142.857142857143,4,2,8,45,0,0
259366,-125,4,2,8,50,0,0
259469,-125,4,2,8,55,0,0
259573,-83.3333333333333,4,2,8,80,0,0
259780,-55.5555555555556,4,2,14,80,0,0
259883,-55.5555555555556,4,2,14,5,0,0
259987,-133.333333333333,4,2,8,100,0,0
260193,-71.4285714285714,4,2,8,100,0,0
260400,-55.5555555555556,4,2,14,100,0,0
260504,-133.333333333333,4,2,8,5,0,0
260607,-133.333333333333,4,2,8,100,0,0
260814,-83.3333333333333,4,2,8,100,0,0
261021,-83.3333333333333,4,2,8,100,0,0
261125,-83.3333333333333,4,2,8,5,0,0
261228,-250,4,2,8,100,0,0
261538,-250,4,2,8,5,0,0
261642,-55.5555555555556,4,2,8,100,0,0
261952,-55.5555555555556,4,2,8,5,0,0
262056,-133.333333333333,4,2,8,100,0,0
263090,-55.5555555555556,4,2,11,100,0,0
263193,-55.5555555555556,4,2,8,5,0,0
263297,-133.333333333333,4,2,8,100,0,0
263711,-55.5555555555556,4,2,11,100,0,0
263814,-55.5555555555556,4,2,8,5,0,0
263918,-133.333333333333,4,2,8,100,0,0
264125,-83.3333333333333,4,2,8,100,0,0
264435,-83.3333333333333,4,2,8,5,0,0
264538,-125,4,2,4,80,0,0
265883,-125,4,2,4,5,0,0
265987,-125,4,2,4,80,0,0
266090,-125,4,2,4,5,0,0
266193,-125,4,2,4,80,0,0
266504,-125,4,2,4,5,0,0
266607,-125,4,2,4,80,0,0
266711,-125,4,2,4,5,0,0
266814,-125,4,2,4,80,0,0
267125,-125,4,2,4,5,0,0
267228,-125,4,2,4,80,0,0
267538,-125,4,2,4,5,0,0
267642,-125,4,2,4,80,0,0
267849,-83.3333333333333,4,2,8,80,0,0
268159,-83.3333333333333,4,2,8,5,0,0
268262,-83.3333333333333,4,2,8,60,0,0
269090,-83.3333333333333,4,2,8,50,0,0
269918,-83.3333333333333,4,2,8,40,0,0
270745,-83.3333333333333,4,2,8,30,0,0
271366,-83.3333333333333,4,2,8,5,0,0
271573,-200,4,2,2,40,0,0
271987,-200,4,2,2,5,0,0
272400,-200,4,2,2,40,0,0
273228,-200,4,2,2,60,0,0
273435,-200,4,2,2,5,0,0
273642,-142.857142857143,4,2,2,60,0,0
273745,-142.857142857143,4,2,2,5,0,0
273849,-142.857142857143,4,2,2,60,0,0
273952,-142.857142857143,4,2,2,5,0,0
274056,-125,4,2,2,60,0,0
274262,-125,4,2,2,5,0,0
274469,-83.3333333333333,4,2,2,60,0,0
274780,-83.3333333333333,4,2,2,5,0,0
274883,-100,4,2,2,80,0,0
275193,-100,4,2,2,5,0,0
275297,-125,4,2,2,80,0,0
275504,-125,4,2,2,5,0,0
275711,-125,4,2,2,80,0,0
276021,-125,4,2,2,5,0,0
276125,-125,4,2,2,80,0,0
276745,-125,4,2,2,5,0,0
276952,-125,4,2,2,80,0,0
277573,-125,4,2,2,5,0,0
277780,-125,4,2,2,80,0,0
278504,-250,4,2,2,80,0,0
279021,-125,4,2,2,80,0,0
279331,-125,4,2,2,5,0,0
279435,-125,4,2,2,80,0,0
280056,-125,4,2,2,5,0,0
280262,-125,4,2,2,80,0,0
281814,-250,4,2,2,80,0,0
282331,-125,4,2,2,80,0,0
282642,-125,4,2,2,5,0,0
282745,-125,4,2,2,80,0,0
284814,-100,4,2,2,80,0,0
285125,-100,4,2,2,5,0,0
285228,-125,4,2,2,80,0,0
285435,-125,4,2,2,5,0,0
285642,-125,4,2,2,80,0,0
285952,-125,4,2,2,5,0,0
286056,-125,4,2,2,80,0,0
286676,-125,4,2,2,5,0,0
286883,-125,4,2,2,80,0,0
287607,-125,4,2,2,5,0,0
287711,-125,4,2,2,80,0,0
287918,-125,4,2,2,5,0,0
288125,-125,4,2,2,80,0,0
288331,-125,4,2,2,5,0,0
288538,-125,4,2,2,80,0,0
288745,-125,4,2,2,5,0,0
288952,-125,4,2,2,80,0,0
289262,-125,4,2,2,5,0,0
289366,-125,4,2,2,80,0,0
289987,-125,4,2,2,5,0,0
290193,-125,4,2,2,80,0,0
290918,-125,4,2,2,5,0,0
291021,-125,4,2,2,80,0,0
291228,-125,4,2,2,5,0,0
291435,-125,4,2,2,80,0,0
291642,-125,4,2,2,5,0,0
291849,-166.666666666667,4,2,2,60,0,0
292056,-166.666666666667,4,2,2,5,0,0
292262,-166.666666666667,4,2,2,60,0,0
292573,-166.666666666667,4,2,2,5,0,0
292676,-166.666666666667,4,2,2,60,0,0
293297,-166.666666666667,4,2,2,5,0,0
293504,-250.000000000001,4,2,2,60,0,0
298056,-250.000000000001,4,2,2,20,0,0
298883,-250.000000000001,4,2,2,20,0,0
300538,-250.000000000001,4,2,2,30,0,0
301366,-250.000000000001,4,2,2,40,0,0
302193,-250.000000000001,4,2,2,60,0,0
303849,-250.000000000001,4,2,2,70,0,0
304676,-250.000000000001,4,2,2,80,0,0
305504,-250.000000000001,4,2,2,90,0,0
306228,-166.666666666667,4,2,2,5,0,0
306331,-1000,4,2,20,20,0,0
306435,-1000,4,2,20,5,0,0
308297,-1000,4,2,20,5,0,0
308400,-1000,4,2,19,20,0,0
308814,-1000,4,2,19,40,0,0
309228,-1000,4,2,19,60,0,0
309642,-125,4,2,2,5,0,0

[Colours]
Combo1 : 145,16,24
Combo2 : 1,189,221
Combo3 : 218,30,40
Combo4 : 0,185,141

[HitObjects]
424,184,5090,6,0,L|400:350,1,145,0|0,3:0|0:0,0:0:0:0:
352,112,5918,1,8,0:0:0:0:
352,112,6538,2,0,P|396:56|472:64,1,145,0|0,3:0|0:0,0:0:0:0:
504,164,7159,1,0,3:0:0:0:
432,132,7366,1,0,3:0:0:0:
316,220,7573,5,8,0:0:0:0:
316,220,8400,6,0,B|271:204|236:240|236:240|201:284|138:267,1,173.999994689942,0|0,3:0|0:0,0:0:0:0:
40,36,9228,1,8,0:0:0:0:
156,168,9642,1,0,0:0:0:0:
80,124,9849,1,0,3:0:0:0:
72,256,10056,6,0,L|28:352,1,101.499996902466
240,256,10469,2,0,L|286:236,1,50.749998451233,0|0,3:0|0:0,0:0:0:0:
372,180,10676,2,0,L|325:160,1,50.749998451233,0|0,3:0|0:0,0:0:0:0:
240,64,10883,2,0,P|273:18|336:22,1,101.499996902466,8|0,0:0|0:0,0:0:0:0:
470,211,11297,2,0,B|508:291|450:360|400:362|365:342|352:268|427:260,1,260.999992034912
168,191,11711,6,0,B|209:216|263:180|263:180|317:144|372:180,1,217.5,4|0,3:2|0:0,0:0:0:0:
430,255,12125,2,0,P|380:280|328:260,1,116
436,56,12538,2,0,B|475:22|475:22|452:148,1,174,8|0,0:0|0:0,0:0:0:0:
380,200,12952,1,0,0:0:0:0:
268,68,13159,1,0,3:0:0:0:
152,148,13366,6,0,L|36:132,1,116
132,280,13780,1,0,3:0:0:0:
248,160,13987,1,0,3:0:0:0:
320,356,14193,2,0,B|377:357|377:357|434:325|434:325|506:330,1,174,8|0,0:0|0:0,0:0:0:0:
364,264,14607,2,0,L|238:255,1,116
348,72,15021,6,0,P|384:20|448:24,1,116,0|0,3:0|0:0,0:0:0:0:
268,148,15435,2,0,P|233:103|247:48,1,116
444,212,15849,2,0,P|440:280|400:220,1,174,8|0,0:0|0:0,0:0:0:0:
352,152,16262,1,0,0:0:0:0:
280,312,16469,1,0,3:0:0:0:
196,200,16676,6,0,L|72:224,1,116
136,60,17090,1,0,3:0:0:0:
12,188,17297,1,0,3:0:0:0:
212,112,17504,2,0,B|252:88|296:112|296:112|340:139|396:112,1,174,8|0,0:0|0:0,0:0:0:0:
464,112,17918,2,0,P|444:56|390:37,1,116
252,220,18331,6,0,L|272:348,1,116,4|0,3:2|0:0,0:0:0:0:
348,360,18642,1,0,0:0:0:0:
348,360,18745,2,2,L|376:363,2,29
176,340,19159,6,0,L|148:343,1,29,10|0,0:0|0:0,0:0:0:0:
112,248,19366,2,0,L|140:251,1,29,2|0,0:0|0:0,0:0:0:0:
208,328,19573,2,0,L|180:331,1,29,2|0,0:0|0:0,0:0:0:0:
144,236,19780,2,0,L|172:239,1,29,2|0,3:0|0:0,0:0:0:0:
64,348,19987,6,0,L|36:345,1,29,2|0,0:0|0:0,0:0:0:0:
0,256,20194,2,0,L|28:253,1,29,2|0,0:0|0:0,0:0:0:0:
92,332,20400,2,0,L|64:329,1,29,2|0,3:0|0:0,0:0:0:0:
28,240,20607,2,0,L|56:237,1,29,2|0,3:0|0:0,0:0:0:0:
192,180,20814,6,0,L|195:152,1,29,10|0,0:0|0:0,0:0:0:0:
124,76,21021,2,0,L|127:104,1,29,2|0,0:0|0:0,0:0:0:0:
180,192,21228,2,0,L|183:164,1,29,2|0,0:0|0:0,0:0:0:0:
112,88,21435,2,0,L|115:116,1,29,2|0,0:0|0:0,0:0:0:0:
280,40,21642,6,0,L|408:20,1,116,4|0,3:2|0:0,0:0:0:0:
456,80,21952,1,0,0:0:0:0:
456,80,22056,2,2,L|484:83,2,29
284,200,22469,2,0,P|304:276|404:284,1,174,8|0,0:0|0:0,0:0:0:0:
448,228,22883,1,0,0:0:0:0:
184,348,23090,5,4,3:2:0:0:
184,348,23711,6,8,L|168:268,1,77.3333333333333,8|8,0:3|0:3,0:3:0:0:
100,180,23987,2,8,L|84:260,1,77.3333333333333,8|8,0:3|0:3,0:3:0:0:
8,339,24262,1,8,0:3:0:0:
120,271,24400,1,8,0:3:0:0:
16,167,24538,6,8,L|12:148,1,19.3333333333333,8|8,0:3|0:3,0:3:0:0:
492,208,24952,6,0,B|464:268|464:268|424:120,1,217.5,4|0,3:2|0:0,0:0:0:0:
356,68,25366,2,0,B|296:56|296:56|244:76,1,116
67,222,25780,2,0,B|86:183|59:139|59:139|35:95|59:56,1,174,8|0,0:0|0:0,0:0:0:0:
136,20,26193,1,0,0:0:0:0:
4,136,26400,1,0,3:0:0:0:
153,156,26607,6,0,L|277:184,1,116
416,96,27021,1,0,3:0:0:0:
460,264,27228,1,0,3:0:0:0:
304,92,27435,1,8,0:0:0:0:
304,92,27642,1,0,0:0:0:0:
456,176,27849,1,0,0:0:0:0:
456,176,28056,1,0,0:0:0:0:
244,272,28262,6,0,L|130:297,1,116,0|0,3:0|0:0,0:0:0:0:
64,248,28573,1,0,0:0:0:0:
64,248,28676,2,2,L|35:242,2,29
216,96,29090,2,0,B|258:75|300:107|300:107|342:134|384:108,1,174,8|0,0:0|0:0,0:0:0:0:
432,40,29504,1,0,0:0:0:0:
484,204,29711,1,0,3:0:0:0:
352,164,29918,6,0,P|300:188|280:240,1,116
416,348,30331,1,0,3:0:0:0:
256,280,30538,1,0,3:0:0:0:
436,128,30745,2,0,L|500:156,3,58,8|0|0|0,0:0|0:0|0:0|0:0,0:0:0:0:
412,240,31159,1,0,0:0:0:0:
412,240,31263,1,0,0:0:0:0:
412,240,31366,1,0,0:0:0:0:
276,112,31573,6,0,B|220:92|220:92|160:104,1,116,4|0,3:2|0:0,0:0:0:0:
112,168,31883,1,0,0:0:0:0:
112,168,31987,2,2,L|106:196,2,29
288,28,32400,6,0,L|282:0,1,29,10|0,0:0|0:0,0:0:0:0:
216,88,32607,2,0,L|210:116,1,29,2|0,0:0|0:0,0:0:0:0:
300,40,32814,2,0,L|294:12,1,29,2|0,0:0|0:0,0:0:0:0:
228,100,33021,2,0,L|222:128,1,29,2|0,3:0|0:0,0:0:0:0:
348,168,33228,6,0,L|369:171,1,21.7499993362427,2|0,0:0|0:0,0:0:0:0:
292,236,33435,2,0,L|270:239,1,21.7499993362427,2|0,0:0|0:0,0:0:0:0:
326,164,33642,2,0,L|347:167,1,21.7499993362427,2|0,3:0|0:0,0:0:0:0:
270,232,33849,2,0,L|248:235,1,21.7499993362427,2|0,3:0|0:0,0:0:0:0:
320,340,34056,6,0,L|316:358,1,14.5,10|0,0:0|0:0,0:0:0:0:
392,328,34262,2,0,L|388:310,1,14.5,2|0,0:0|0:0,0:0:0:0:
308,328,34469,2,0,L|304:346,1,14.5,2|0,0:0|0:0,0:0:0:0:
380,316,34676,2,0,L|376:298,1,14.5,2|0,0:0|0:0,0:0:0:0:
316,236,34883,5,4,3:2:0:0:
256,192,34987,12,0,36849,0:0:0:0:
54,157,36952,6,0,B|34:197|34:197|42:245,1,86.9999973449708,8|0,0:3|0:0,0:0:0:0:
134,289,37159,2,0,B|154:249|154:249|146:201,1,86.9999973449708,8|0,0:3|0:0,0:0:0:0:
276,88,37366,1,8,0:3:0:0:
309,61,37469,1,8,0:3:0:0:
352,63,37573,2,0,P|394:60|428:87,1,86.9999973449708,8|0,0:3|0:0,0:0:0:0:
292,208,37780,2,0,P|320:284|338:205,1,217.5,8|0,0:3|0:0,0:0:0:0:
104,44,38193,6,0,B|56:108|108:180|108:180|152:252|100:312|100:312|28:284|44:220,1,391.499988052369,4|0,3:2|0:0,0:0:0:0:
192,328,38607,6,0,L|284:352,1,86.9999973449708,2|0,0:0|0:0,0:0:0:0:
288,332,38814,2,0,L|197:308,1,94.2499956855776,2|0,0:0|0:0,0:0:0:0:
202,289,39021,2,0,L|314:319,1,101.499996902466,2|0,0:0|0:0,0:0:0:0:
312,298,39228,2,0,L|207:270,1,108.750004148483,2|0,0:0|0:0,0:0:0:0:
176,96,39435,6,0,P|168:60|180:96,1,108.750004148483,2|0,0:0|0:0,0:0:0:0:
336,288,39849,6,0,B|380:324|380:324|428:304|448:240|408:184,1,195.749994026184,4|0,3:2|0:0,0:0:0:0:
437,123,40056,2,0,P|393:123|356:149,1,86.9999973449708,2|0,0:0|0:0,0:0:0:0:
208,224,40262,6,0,L|186:139,1,86.9999973449708,2|0,0:0|0:0,0:0:0:0:
203,127,40469,2,0,L|227:218,1,94.2499956855776,2|0,0:0|0:0,0:0:0:0:
246,213,40676,2,0,L|219:114,1,101.499996902466,2|0,0:0|0:0,0:0:0:0:
237,103,40883,2,0,L|265:208,1,108.750004148483,2|0,0:0|0:0,0:0:0:0:
80,332,41090,6,0,P|-8:256|124:280,1,326.25001244545
388,312,41504,6,0,B|448:321|489:275|456:221|386:203|328:263|328:263|264:336|180:280,1,391.499988052369,4|0,3:2|0:0,0:0:0:0:
132,124,41918,6,0,P|178:119|222:156,1,86.9999973449708,2|0,0:0|0:0,0:0:0:0:
240,216,42125,2,0,P|193:219|155:193,1,94.2499956855776,2|0,0:0|0:0,0:0:0:0:
167,57,42331,2,0,P|205:89|211:139,1,101.499996902466,2|0,0:0|0:0,0:0:0:0:
189,285,42538,2,0,P|153:246|155:193,1,108.750004148483,2|0,0:0|0:0,0:0:0:0:
324,128,42745,6,0,P|355:108|321:125,1,108.750004148483,2|0,0:0|0:0,0:0:0:0:
492,320,43159,6,0,B|460:373|460:373|421:243,1,195.749994026184,4|0,3:2|0:0,0:0:0:0:
357,206,43366,6,0,L|340:212,1,18.125,2|0,0:0|0:0,0:0:0:0:
256,264,43573,2,0,L|274:270,1,18.125,2|0,0:0|0:0,0:0:0:0:
216,176,43780,2,0,L|199:182,1,18.125,2|0,0:0|0:0,0:0:0:0:
136,268,43987,2,0,L|154:274,1,18.125,2|0,0:0|0:0,0:0:0:0:
88,184,44193,2,0,L|105:178,1,18.125,2|0,0:0|0:0,0:0:0:0:
196,348,44400,6,0,L|186:382,12,36.25
124,96,44814,6,0,B|168:36|272:60|292:136|292:136|352:152|384:112|384:112|436:108|468:148,1,391.499988052369,4|0,3:2|0:0,0:0:0:0:
348,272,45228,6,0,L|326:356,1,86.9999973449708,2|0,0:0|0:0,0:0:0:0:
306,351,45435,2,0,L|330:260,1,94.2499956855776,2|0,0:0|0:0,0:0:0:0:
313,248,45642,2,0,L|286:346,1,101.499996902466,2|0,0:0|0:0,0:0:0:0:
268,341,45849,2,0,L|296:236,1,108.750004148483,2|0,0:0|0:0,0:0:0:0:
68,148,46056,6,0,P|37:168|71:151,1,108.750004148483,2|0,0:0|0:0,0:0:0:0:
444,236,46469,6,0,B|464:184|464:184|418:51,1,195.749994026184,4|0,3:2|0:0,0:0:0:0:
360,0,46676,2,0,P|336:40|344:84,1,86.9999973449708,2|0,0:0|0:0,0:0:0:0:
236,220,46883,6,0,L|214:135,1,86.9999973449708,2|0,0:0|0:0,0:0:0:0:
194,140,47090,2,0,L|218:230,1,94.2499956855776,2|0,0:0|0:0,0:0:0:0:
201,243,47297,2,0,L|174:144,1,101.499996902466,2|0,0:0|0:0,0:0:0:0:
156,149,47504,2,0,L|184:253,1,108.750004148483,2|0,0:0|0:0,0:0:0:0:
401,161,47711,6,0,P|391:35|318:137,1,326.25001244545
141,328,48125,6,0,B|88:290|25:320|25:320|65:250|23:190|23:190|-17:118|53:56,1,391.499988052369,4|0,3:2|0:0,0:0:0:0:
212,64,48538,6,0,P|248:92|253:150,1,86.9999973449708,2|0,0:0|0:0,0:0:0:0:
223,205,48745,2,0,P|187:173|179:128,1,94.2499956855776,2|0,0:0|0:0,0:0:0:0:
287,44,48952,2,0,P|290:93|257:130,1,101.499996902466,2|0,0:0|0:0,0:0:0:0:
139,218,49159,2,0,P|139:165|178:129,1,108.750004148483,2|0,0:0|0:0,0:0:0:0:
332,224,49366,6,0,P|367:238|329:236,1,108.750004148483,2|0,0:0|0:0,0:0:0:0:
56,28,49780,5,4,3:2:0:0:
256,192,49883,12,0,51331,0:0:0:0:
184,308,51435,5,4,3:2:0:0:
396,40,51642,1,8,0:0:0:0:
491,263,51849,2,0,P|487:311|451:343,1,86.9999973449708,2|0,0:0|0:0,0:0:0:0:
344,308,52056,2,0,P|375:278|418:274,1,86.9999973449708,2|0,3:2|0:0,0:0:0:0:
416,152,52262,2,0,P|383:124|340:122,1,86.9999973449708,10|0,0:0|0:0,0:0:0:0:
283,229,52469,2,0,P|324:225|356:196,1,86.9999973449708,2|0,0:0|0:0,0:0:0:0:
188,92,52676,6,0,L|12:136,1,173.999994689942,0|0,3:2|0:0,0:0:0:0:
308,340,53090,5,4,3:2:0:0:
116,192,53297,2,0,L|201:211,1,86.9999973449708,10|0,0:0|0:0,0:0:0:0:
340,131,53504,2,0,P|336:88|307:57,1,86.9999973449708,2|0,0:0|0:0,0:0:0:0:
188,92,53711,2,0,P|220:119|263:121,1,86.9999973449708,2|0,3:2|0:0,0:0:0:0:
336,220,53918,2,0,P|332:263|303:294,1,86.9999973449708,10|0,0:0|0:0,0:0:0:0:
184,256,54125,2,0,P|216:229|259:227,1,86.9999973449708,2|0,0:0|0:0,0:0:0:0:
492,92,54331,6,4,P|376:12|432:156,1,391.499988052369,4|0,3:2|0:2,3:2:0:0:
415,79,54745,5,4,3:2:0:0:
180,348,54952,1,8,0:0:0:0:
112,112,55159,2,0,L|84:204,1,86.9999973449708,2|0,0:0|0:0,0:0:0:0:
200,244,55366,2,0,L|172:152,1,86.9999973449708,2|0,3:2|0:0,0:0:0:0:
236,56,55573,2,0,L|319:81,1,86.9999973449708,10|0,0:0|0:0,0:0:0:0:
432,124,55780,2,0,L|348:149,1,86.9999973449708,2|0,0:0|0:0,0:0:0:0:
352,320,55987,5,0,3:2:0:0:
160,80,56400,6,0,B|148:108|164:136|164:136|148:160|156:192,1,116,8|0,0:0|0:0,0:0:0:0:
224,344,56607,1,0,3:2:0:0:
368,52,56814,6,0,B|380:80|364:108|364:108|380:132|372:164,1,116,8|0,0:0|0:0,0:0:0:0:
308,308,57021,1,0,3:2:0:0:
76,60,57228,6,0,B|64:88|80:116|80:116|64:140|72:172,1,116,8|0,0:0|0:0,0:0:0:0:
152,264,57435,2,0,L|196:228,3,43.4999986724854,0|8|8|8,3:0|0:3|0:3|0:3,0:0:0:0:
128,346,57642,2,0,P|84:322|72:266,1,86.9999973449708,8|0,0:0|0:0,0:0:0:0:
185,155,57849,2,0,P|199:203|168:251,1,86.9999973449708
400,308,58056,5,4,3:2:0:0:
427,316,58159,1,0,0:0:0:0:
455,325,58262,1,0,0:0:0:0:
482,334,58366,1,0,0:0:0:0:
510,343,58469,2,0,L|427:371,1,86.9999973449708,2|0,3:0|0:0,0:0:0:0:
318,280,58676,2,0,L|400:308,1,86.9999973449708,2|0,0:0|0:0,0:0:0:0:
340,100,58883,5,0,3:0:0:0:
305,111,58986,1,0,0:0:0:0:
271,123,59089,1,0,0:0:0:0:
237,135,59193,1,0,0:0:0:0:
202,147,59297,2,0,L|285:175,1,86.9999973449708,2|0,3:0|0:0,0:0:0:0:
422,72,59504,2,0,L|339:100,1,86.9999973449708,2|0,0:0|0:0,0:0:0:0:
92,188,59711,5,0,3:0:0:0:
106,229,59814,1,0,0:0:0:0:
120,270,59917,1,0,0:0:0:0:
134,311,60021,1,0,0:0:0:0:
149,352,60125,2,0,L|177:269,1,86.9999973449708,2|0,3:0|0:0,0:0:0:0:
64,105,60331,2,0,L|92:188,1,86.9999973449708,2|0,0:0|0:0,0:0:0:0:
392,240,60538,5,0,3:0:0:0:
408,191,60641,1,0,0:0:0:0:
424,143,60744,1,0,0:0:0:0:
441,95,60848,1,0,0:0:0:0:
457,47,60952,2,0,L|485:130,1,86.9999973449708,2|0,3:0|0:0,0:0:0:0:
364,322,61159,2,0,L|392:239,1,86.9999973449708,2|0,0:0|0:0,0:0:0:0:
132,24,61366,6,0,B|117:63|117:63|124:108,1,86.9999973449708,10|0,0:0|0:0,0:0:0:0:
272,320,61573,1,2,3:2:0:0:
40,124,61780,6,0,B|56:164|56:164|92:188,1,79.7500024337769,10|0,0:0|0:0,0:0:0:0:
308,212,61987,1,2,3:2:0:0:
36,252,62193,6,0,B|72:268|72:268|112:264,1,72.5,10|0,0:0|0:0,0:0:0:0:
248,120,62400,1,2,3:2:0:0:
120,344,62607,6,0,B|155:332|155:332|180:300,1,65.2499980087281,10|0,0:0|0:0,0:0:0:0:
136,136,62814,1,2,3:2:0:0:
424,332,63021,5,0,3:2:0:0:
256,192,63125,12,0,64573,0:0:0:0:
432,60,64676,6,0,B|360:62|312:150|376:234|376:234|436:314|376:386,1,391.499988052369,4|0,3:2|0:0,0:0:0:0:
308,312,65090,5,2,0:0:0:0:
270,278,65193,1,2,0:0:0:0:
222,262,65296,1,2,0:0:0:0:
172,267,65400,1,2,0:0:0:0:
128,291,65504,5,2,0:0:0:0:
97,260,65607,1,2,0:0:0:0:
81,220,65710,1,2,0:0:0:0:
80,176,65814,1,2,0:0:0:0:
95,136,65918,5,2,0:0:0:0:
104,101,66021,1,2,0:0:0:0:
100,65,66124,1,2,0:0:0:0:
83,33,66228,1,2,0:0:0:0:
56,9,66331,6,2,L|128:16,1,58,2|0,0:0|0:0,0:0:0:0:
237,58,66538,2,2,L|180:64,1,58,2|0,0:0|0:0,0:0:0:0:
76,140,66745,2,2,L|148:147,1,58,2|0,0:0|0:0,0:0:0:0:
238,222,66952,2,2,L|181:228,1,58,2|0,0:0|0:0,0:0:0:0:
324,100,67159,2,0,P|337:52|321:10,1,86.9999973449708,2|0,0:0|0:0,0:0:0:0:
244,280,67366,6,0,B|238:222|238:222|376:296,1,195.749994026184,2|0,3:2|0:0,0:0:0:0:
336,364,67573,2,0,L|297:344,1,43.5,14|0,0:2|0:0,0:0:0:0:
207,148,67987,6,0,B|142:179|160:265|160:265|229:307|229:307|280:319|303:257|303:257|234:220,1,391.499988052369,4|0,3:2|0:0,0:0:0:0:
292,36,68400,5,2,0:0:0:0:
339,10,68503,1,2,0:0:0:0:
392,13,68606,1,2,0:0:0:0:
437,43,68710,1,2,0:0:0:0:
459,92,68814,5,10,0:0:0:0:
410,114,68917,1,2,0:0:0:0:
379,158,69020,1,2,0:0:0:0:
377,211,69124,1,2,0:0:0:0:
402,259,69227,1,2,0:0:0:0:
452,284,69331,1,2,0:0:0:0:
504,276,69435,6,0,B|450:277|450:277|393:342|393:342|313:351,1,195.749994026184,2|0,3:2|0:0,0:0:0:0:
232,208,69642,5,2,0:0:0:0:
214,156,69745,1,2,0:0:0:0:
219,103,69848,1,2,0:0:0:0:
244,55,69952,1,2,0:0:0:0:
288,20,70056,6,0,B|236:8|236:8|164:56|164:56|84:44,1,195.749994026184,2|0,3:2|0:0,0:0:0:0:
296,136,70262,5,2,0:0:0:0:
344,157,70365,1,2,0:0:0:0:
370,203,70469,2,0,P|374:248|345:287,1,86.9999973449708,10|2,0:0|0:0,0:0:0:0:
100,160,70676,6,0,P|44:129|44:49,1,130.499996017456
108,47,70883,6,0,B|139:101|99:161|99:161|55:237|99:293,1,260.999992034912
358,316,71297,6,0,B|408:348|456:300|456:300|432:244|366:243|324:283|324:283|275:336|188:308,1,391.499988052369,4|0,3:2|0:0,0:0:0:0:
100,160,71711,5,2,0:0:0:0:
104,106,71814,1,2,0:0:0:0:
136,63,71917,1,2,0:0:0:0:
186,44,72021,1,2,0:0:0:0:
239,54,72125,5,10,0:0:0:0:
243,108,72228,1,2,0:0:0:0:
275,151,72331,1,2,0:0:0:0:
326,170,72435,1,2,0:0:0:0:
376,160,72538,2,0,L|468:148,1,86.9999973449708,2|0,0:0|0:0,0:0:0:0:
260,256,72745,2,0,L|168:244,1,86.9999973449708,2|0,0:0|0:0,0:0:0:0:
164,52,72952,5,2,0:0:0:0:
111,41,73055,1,2,0:0:0:0:
61,60,73158,1,2,0:0:0:0:
28,102,73262,1,2,0:0:0:0:
23,156,73366,2,0,L|11:242,1,86.9999973449708,2|0,3:0|0:0,0:0:0:0:
220,336,73573,2,0,L|208:249,1,86.9999973449708,2|0,0:0|0:0,0:0:0:0:
288,72,73780,5,10,0:0:0:0:
340,61,73883,1,2,0:0:0:0:
390,80,73986,1,2,0:0:0:0:
423,122,74090,1,2,0:0:0:0:
429,175,74193,2,0,B|473:205|473:253|473:253|473:205|525:173,1,173.999994689942
200,88,74607,6,0,B|175:28|175:28|134:184,2,217.5,0|0|0,3:2|0:0|0:0,0:0:0:0:
352,288,75435,2,0,P|393:277|417:242,1,86.9999973449708,10|0,0:0|0:0,0:0:0:0:
328,120,75642,2,0,P|317:161|335:199,1,86.9999973449708,2|0,0:0|0:0,0:0:0:0:
488,180,75849,2,0,P|457:149|415:146,1,86.9999973449708,2|0,0:0|0:0,0:0:0:0:
256,256,76056,2,0,L|163:271,1,86.9999973449708,2|0,0:0|0:0,0:0:0:0:
40,96,76262,6,0,L|219:123,1,181.25,0|0,3:2|0:0,0:0:0:0:
296,152,76573,2,0,L|116:179,1,181.25
48,224,76883,2,0,B|28:296|28:296|56:372,1,145
192,356,77297,2,0,L|166:288,1,72.5
208,212,77504,1,0,0:0:0:0:
428,292,77711,2,0,L|453:224,1,72.5
276,28,77918,6,0,B|216:-4|162:47|162:47|101:95|32:60|32:60|-20:124|32:192,1,391.499988052369,4|0,3:2|0:0,0:0:0:0:
72,264,78331,5,2,0:0:0:0:
92,276,78435,1,2,0:0:0:0:
116,280,78538,1,2,0:0:0:0:
144,276,78642,1,2,0:0:0:0:
172,264,78745,1,2,0:0:0:0:
200,256,78849,1,2,0:0:0:0:
236,260,78952,1,2,0:0:0:0:
264,280,79056,1,2,0:0:0:0:
304,312,79159,6,2,P|346:319|384:300,1,86.9999973449708,10|2,0:0|0:0,0:0:0:0:
408,160,79366,6,0,P|392:96|380:168,1,195.749994026184,2|0,0:0|0:0,0:0:0:0:
264,280,79573,5,2,3:0:0:0:
221,312,79676,1,2,0:0:0:0:
168,321,79779,1,2,0:0:0:0:
117,303,79883,1,2,0:0:0:0:
80,265,79987,2,0,P|16:281|88:293,1,195.749994026184,2|0,3:2|0:0,0:0:0:0:
233,183,80193,5,2,0:0:0:0:
286,182,80296,1,2,0:0:0:0:
328,212,80400,2,2,P|369:243|376:296,1,86.9999973449708,10|2,0:0|0:0,0:0:0:0:
124,76,80607,6,0,P|72:120|76:196,1,130.499996017456
103,256,80814,6,0,P|139:232|147:176,1,87
394,49,81228,6,0,B|446:57|482:25|482:25|498:65|454:105|454:105|470:169|434:217|366:237|306:201,1,391.499988052369,4|0,3:2|0:0,0:0:0:0:
176,32,81642,5,2,0:0:0:0:
125,13,81745,1,2,0:0:0:0:
73,23,81848,1,2,0:0:0:0:
33,60,81952,1,2,0:0:0:0:
19,111,82056,5,10,0:0:0:0:
69,92,82159,1,2,0:0:0:0:
121,102,82262,1,2,0:0:0:0:
161,139,82366,1,2,0:0:0:0:
175,190,82469,1,2,0:0:0:0:
156,240,82573,1,2,0:0:0:0:
120,272,82676,6,0,B|76:296|76:296|224:304,1,195.749994026184,2|0,3:2|0:0,0:0:0:0:
337,189,82883,5,2,0:0:0:0:
367,145,82986,1,2,0:0:0:0:
366,91,83089,1,2,0:0:0:0:
333,49,83193,1,2,0:0:0:0:
283,32,83297,6,0,B|239:8|239:8|387:0,1,195.749994026184,2|0,3:2|0:0,0:0:0:0:
472,181,83504,5,2,0:0:0:0:
471,233,83607,1,2,0:0:0:0:
433,270,83711,2,2,P|401:299|359:304,1,86.9999973449708,10|2,0:0|0:0,0:0:0:0:
156,152,83918,6,0,B|144:84|144:84|172:12,1,130.499996017456
84,0,84125,6,0,B|56:72|56:72|68:140|68:140|56:172|28:152|28:152|12:88,1,260.999992034912
264,24,84538,6,0,B|328:48|328:48|404:32|404:32|464:60|464:60|480:116|436:184|356:168,1,391.499988052369,4|0,3:2|0:0,0:0:0:0:
172,212,84952,5,2,0:0:0:0:
131,247,85055,1,2,0:0:0:0:
119,299,85158,1,2,0:0:0:0:
139,348,85262,1,2,0:0:0:0:
185,377,85366,5,10,0:0:0:0:
213,331,85469,1,2,0:0:0:0:
262,311,85572,1,2,0:0:0:0:
315,323,85676,1,2,0:0:0:0:
350,363,85780,2,0,P|396:376|436:356,1,86.9999973449708,2|0,0:0|0:0,0:0:0:0:
316,168,85987,2,0,P|270:155|230:175,1,86.9999973449708,2|0,0:0|0:0,0:0:0:0:
84,296,86193,5,2,0:0:0:0:
37,268,86296,1,2,0:0:0:0:
12,221,86399,1,2,0:0:0:0:
16,167,86503,1,2,0:0:0:0:
48,124,86607,2,0,P|38:82|6:54,1,86.9999973449708,2|0,3:0|0:0,0:0:0:0:
156,236,86814,2,0,P|198:239|234:216,1,86.9999973449708,2|0,0:0|0:0,0:0:0:0:
320,55,87021,6,0,P|412:23|476:107,1,195.749994026184,10|0,0:0|0:0,0:0:0:0:
405,184,87228,6,0,P|320:147|320:55,1,195.749994026184,2|0,3:0|0:0,0:0:0:0:
473,86,87435,6,0,P|440:169|344:172,1,195.749994026184,10|0,0:0|0:0,0:0:0:0:
382,110,87642,2,8,P|401:101|383:111,3,65.2499980087281,8|8|8|8,0:3|0:3|0:3|0:3,0:3:0:0:
232,68,87849,6,0,P|188:56|148:76,1,86.9999973449708,2|0,3:2|0:0,0:0:0:0:
136,192,88056,2,0,P|175:175|195:138,1,86.9999973449708,2|0,0:0|0:0,0:0:0:0:
76,116,88262,1,8,0:3:0:0:
76,116,88366,1,2,0:0:0:0:
76,116,88469,2,0,P|36:132|16:169,1,86.9999973449708,2|8,0:0|0:1,0:0:0:0:
84,272,88676,2,0,P|100:232|88:191,1,86.9999973449708,2|8,0:0|0:1,0:0:0:0:
196,252,88883,1,0,3:2:0:0:
196,252,88987,1,2,0:0:0:0:
196,252,89090,2,0,P|236:236|277:248,1,86.9999973449708,10|0,0:3|0:0,0:0:0:0:
296,376,89297,2,0,P|258:355|241:315,1,86.9999973449708,2|0,0:0|0:0,0:0:0:0:
335,201,89504,6,0,L|344:144,1,58,2|0,3:2|0:0,0:0:0:0:
280,96,89711,6,0,L|269:161,1,65.2499980087281,2|0,0:0|0:0,0:0:0:0:
202,111,89918,6,0,L|216:40,1,72.5,2|0,0:0|0:0,0:0:0:0:
148,0,90125,6,0,L|134:79,1,79.7500024337769,2|0,0:0|0:0,0:0:0:0:
88,212,90331,2,0,P|48:236|-8:220,1,86.9999973449708,2|0,0:0|0:0,0:0:0:0:
32,128,90538,2,0,P|72:104|128:120,1,86.9999973449708,2|0,3:0|0:0,0:0:0:0:
168,268,90745,2,2,L|175:296,6,29
348,164,91159,6,0,P|372:120|348:68,1,86.9999973449708,2|0,3:2|0:0,0:0:0:0:
244,44,91366,2,0,P|253:85|287:110,1,86.9999973449708,2|0,0:0|0:0,0:0:0:0:
444,72,91573,2,0,L|484:24,3,58,8|0|0|0,0:3|0:0|3:0|0:0,0:0:0:0:
348,164,91987,6,0,P|372:208|348:260,1,86.9999973449708,2|0,0:2|0:0,0:0:0:0:
244,284,92193,2,0,P|253:243|287:218,1,86.9999973449708,2|0,3:0|0:0,0:0:0:0:
444,256,92400,2,0,L|484:304,3,58
149,239,92814,6,0,B|188:248|188:248|272:224,1,116,10|0,0:0|0:0,0:0:0:0:
444,72,93021,1,2,3:2:0:0:
96,96,93228,6,0,B|135:87|135:87|219:111,1,116,10|0,0:0|0:0,0:0:0:0:
383,263,93435,1,2,3:2:0:0:
36,292,93642,6,0,B|75:301|75:301|159:277,1,116,10|0,0:0|0:0,0:0:0:0:
324,92,93849,2,0,P|348:150|321:208,1,130.499996017456,2|0,0:0|0:0,0:0:0:0:
244,204,94056,2,0,P|220:146|247:88,1,130.499996017456,2|0,0:0|0:0,0:0:0:0:
64,16,94469,6,0,B|40:54|40:54|0:69,1,87,4|0,3:2|0:0,0:0:0:0:
1,69,94883,2,0,P|64:152|-8:240,1,217.5
412,292,95297,6,0,B|448:316|448:359|448:359|448:136|448:136|408:112|409:52|409:52|412:112|372:136|372:136|373:202|373:202|368:248|312:280|252:248|249:202|249:202|248:108|248:108|252:76|276:56|308:52|335:70|335:70|264:8|200:40,1,1087.5,8|0,0:0|0:0,0:0:0:0:
157,100,96125,6,0,B|150:157|82:154|82:154|49:200|9:163|9:163|-10:161|-10:161|36:169|89:118|76:72,1,348
334,70,96538,6,0,B|392:93|384:156|384:156|396:156|396:156|355:212|292:196|292:196|340:244|320:312,1,348,0|0,3:0|0:0,0:0:0:0:
205,278,96952,6,0,B|145:275|113:219|114:156|157:122|157:122|157:99|157:99|230:122|208:196,1,348,8|0,0:0|0:0,0:0:0:0:
112,336,97366,6,0,P|62:363|8:347,1,116
344,324,97780,6,0,L|436:292,1,87,4|0,3:2|0:0,0:0:0:0:
448,88,98193,6,0,B|400:73|400:73|348:89|348:89|372:189|372:189|338:230|300:200|300:200|272:84,1,391.499988052369
48,48,98607,2,0,B|103:45|103:45|108:40|108:40|158:62,1,116,8|0,0:0|0:0,0:0:0:0:
144,248,98814,2,0,B|113:201|113:201|107:200|107:200|101:145,1,116
276,101,99021,6,0,B|322:70|322:70|323:64|323:64|378:58,1,116
456,229,99228,2,0,B|406:204|406:204|400:205|400:205|367:161,1,116,0|0,3:0|0:0,0:0:0:0:
476,9,99435,2,0,B|479:64|479:64|484:69|484:69|462:119,1,116
332,252,99642,6,0,B|277:255|277:255|272:260|272:260|222:238,1,116
128,224,99849,6,0,B|87:242|87:242|75:278|75:278|27:298|27:298|15:338|15:338|71:314|71:314|131:346|131:346|171:330,1,348,0|0,3:2|0:0,0:0:0:0:
200,148,100262,6,0,B|220:104|220:104|92:148,1,173.999994689942,8|0,0:0|0:0,0:0:0:0:
101,144,100676,6,0,B|45:154|25:79|75:43|131:55|175:111|175:111|224:164|286:137,1,348
444,304,101090,6,0,P|476:272|476:228,1,87,4|0,3:2|0:0,0:0:0:0:
408,148,101504,2,0,P|377:128|411:145,1,108.750004148483,2|0,0:0|0:0,0:0:0:0:
104,180,101918,6,0,B|32:180|32:180|4:204|17:252|17:252|104:252|104:252|173:249|196:188|184:124|116:108|116:108|60:108|60:108|40:64|68:16|124:7|124:7|200:-3|261:31|310:85|338:179|310:273|244:324|196:352|196:352|252:384|320:344|320:344|356:409|445:406|495:362|522:260|429:192|349:209|311:283,1,1667.5,8|0,0:0|0:0,0:0:0:0:
388,308,103159,6,0,B|420:248|420:248|376:144|376:144|389:92|444:112|444:112|480:200,1,348,0|0,3:0|0:0,0:0:0:0:
281,92,103573,2,0,B|221:60|221:60|117:104|117:104|65:91|85:36|85:36|173:0,1,348,8|0,0:0|0:0,0:0:0:0:
144,188,103987,6,0,B|164:248|164:248|140:300,1,116
408,112,104400,6,0,B|409:88|409:88|424:63|424:63|425:30|425:30|440:5,1,116,0|0,3:0|0:0,0:0:0:0:
472,236,104607,2,0,B|471:260|471:260|456:285|456:285|455:318|455:318|440:343,1,116
328,140,104814,2,0,B|327:116|327:116|312:91|312:91|311:58|311:58|296:33,1,116
264,264,105021,2,0,B|265:288|265:288|280:313|280:313|281:346|281:346|296:371,1,116
424,32,105228,6,0,B|468:32|480:72|480:72|472:92|472:92|488:104|496:96|488:88|480:96|480:96|472:120|472:120|488:132|496:124|488:116|480:124|480:124|472:148|472:148|488:164|496:156|488:148|480:156|480:156|472:180|472:180|488:200|496:192|488:184|480:192|480:192|472:212|472:212|488:240|496:232|488:224|480:232|480:232|480:252,1,355.249989158631,8|0,0:0|0:0,0:0:0:0:
380,284,106056,6,0,L|295:306,1,86.9999973449708,0|0,3:0|0:0,0:0:0:0:
152,372,106262,2,0,L|195:296,1,86.9999973449708
184,172,106469,2,0,L|268:194,1,86.9999973449708
472,92,106676,6,0,L|388:114,1,86.9999973449708,0|0,3:2|0:0,0:0:0:0:
120,244,106883,1,8,0:0:0:0:
120,244,107297,6,0,B|44:82|44:82|114:128,1,260.999992034912
328,52,107711,6,0,B|336:108|336:108|340:112|340:112|336:116|336:116|320:168,1,116,4|0,3:2|0:0,0:0:0:0:
256,192,108538,12,0,109987,0:0:0:0:
144,272,110038,5,0,0:0:0:0:
131,280,110089,5,0,0:0:0:0:
119,288,110141,5,0,0:0:0:0:
108,296,110193,6,0,B|76:316|76:316|72:324|72:324|64:320|64:320|24:324,1,86.9999973449708,8|0,0:0|0:0,0:0:0:0:
76,136,110400,6,0,B|72:80|72:80|64:72|64:72|72:64|72:64|96:16,1,130.499996017456
184,8,110607,6,0,L|202:47,1,43.5
356,258,111021,6,0,B|435:264|460:192|460:192|468:188|468:188|461:183|461:183|468:96|384:80|384:80|380:68|380:68|344:124|396:164,1,391.499988052369,4|0,3:2|0:0,0:0:0:0:
204,88,111435,2,0,B|148:96|144:160|144:160|132:148|132:148|135:216|76:228|76:228|68:236|68:236|60:228|60:228|3:212|4:148,1,348
395,245,111849,6,0,B|413:249|413:249|419:242|419:242|421:251|421:251|451:259|451:259|450:267|450:267|484:276|484:276|486:285|486:285|492:278|492:278|523:287,1,145,8|0,0:0|0:0,0:0:0:0:
144,160,112056,2,0,B|125:166|125:166|123:174|123:174|117:168|117:168|87:176|87:176|84:168|84:168|49:177|49:177|43:171|43:171|42:180|42:180|11:188,1,145
376,145,112262,2,0,B|394:149|394:149|400:142|400:142|402:151|402:151|432:159|432:159|431:167|431:167|466:176|466:176|468:185|468:185|474:178|474:178|504:186,1,145
148,252,112469,2,0,B|129:258|129:258|127:266|127:266|121:260|121:260|91:268|91:268|88:260|88:260|53:270|53:270|47:263|47:263|46:272|46:272|16:280,1,145,0|0,3:2|0:0,0:0:0:0:
354,40,112676,2,0,B|373:43|373:43|379:37|379:37|381:46|381:46|411:54|411:54|409:62|409:62|444:71|444:71|446:80|446:80|452:73|452:73|483:81,1,145
156,345,112883,2,0,B|137:351|137:351|135:359|135:359|129:353|129:353|99:361|99:361|96:353|96:353|62:363|62:363|56:356|56:356|54:365|54:365|24:373,1,145
272,48,113090,6,0,B|228:56|217:100|217:100|212:103|212:103|216:108|216:108|215:153|252:175|252:175|243:182|243:182|285:209|279:257|279:257|282:262|282:262|277:265|277:265|269:302|219:320,1,348,0|0,3:2|0:0,0:0:0:0:
408,366,113504,6,0,B|473:373|497:293|497:293|421:245|367:306,1,260.999992034912,8|0,0:0|0:0,0:0:0:0:
279,234,113918,2,0,B|305:205|305:205|348:180|348:180|396:167|396:167|451:170,1,174
496,232,114331,5,0,3:2:0:0:
273,50,114538,1,8,0:0:0:0:
496,232,114952,1,0,3:2:0:0:
216,312,115159,6,0,L|158:305,1,58,10|0,0:0|0:0,0:0:0:0:
100,172,115366,2,0,L|136:217,1,58,2|0,0:0|0:0,0:0:0:0:
52,296,115573,1,2,3:2:0:0:
260,140,115780,6,0,L|317:133,1,58,2|0,0:0|0:0,0:0:0:0:
400,216,115987,2,0,L|343:209,1,58,2|0,3:0|0:0,0:0:0:0:
416,120,116193,1,10,0:0:0:0:
188,44,116400,6,0,L|131:37,1,58,2|0,0:0|0:0,0:0:0:0:
24,80,116607,1,2,3:2:0:0:
184,248,116814,6,0,L|241:241,1,58,10|0,0:0|0:0,0:0:0:0:
343,188,117021,1,2,0:2:0:0:
52,192,117228,2,0,P|32:304|172:372,1,260.999992034912,10|0,0:0|0:0,0:0:0:0:
252,314,117642,6,0,P|220:278|168:278,1,86.9999973449708,2|0,3:0|0:0,0:0:0:0:
104,372,117849,2,0,P|152:374|188:338,1,86.9999973449708,2|0,0:0|0:0,0:0:0:0:
92,268,118056,1,8,0:3:0:0:
92,268,118159,1,2,0:0:0:0:
92,268,118262,2,0,P|90:220|126:184,1,86.9999973449708,2|8,0:0|0:1,0:0:0:0:
237,208,118469,2,0,P|204:243|153:243,1,86.9999973449708,2|8,0:0|0:1,0:0:0:0:
164,124,118676,1,0,3:2:0:0:
164,124,118780,1,2,0:0:0:0:
164,124,118883,2,0,P|136:91|94:84,1,86.9999973449708,10|0,0:3|0:0,0:0:0:0:
16,142,119090,2,0,P|50:166|93:162,1,86.9999973449708,2|0,0:0|0:0,0:0:0:0:
272,112,119297,6,0,P|306:87|349:91,1,86.9999973449708,2|0,3:2|0:0,0:0:0:0:
388,240,119504,2,0,P|349:223|331:183,1,86.9999973449708,2|0,0:2|0:0,0:0:0:0:
444,80,119711,2,0,P|448:121|423:157,1,86.9999973449708,10|0,0:3|0:0,0:0:0:0:
244,216,119918,2,0,L|158:230,1,86.9999973449708,2|8,0:0|0:3,0:0:0:0:
16,312,120125,6,2,B|84:260|180:328|180:328|268:384|347:328,1,348
256,192,120952,12,0,124159,0:0:0:0:
64,64,124262,5,0,3:2:0:0:
64,64,124469,1,0,3:2:0:0:
64,64,124676,1,0,3:2:0:0:
64,64,124883,1,0,3:2:0:0:
64,64,125090,5,0,3:2:0:0:
64,64,125297,1,0,3:2:0:0:
64,64,125504,1,0,3:2:0:0:
64,64,125711,1,0,3:2:0:0:
64,64,125918,5,0,3:2:0:0:
64,64,126125,1,0,3:2:0:0:
64,64,126332,1,0,3:2:0:0:
64,64,126539,1,0,3:2:0:0:
64,64,126746,5,0,3:2:0:0:
64,64,126953,1,0,3:2:0:0:
64,64,127160,1,0,3:2:0:0:
64,64,127367,1,0,3:2:0:0:
64,64,127573,5,0,3:2:0:0:
64,160,127780,1,0,3:2:0:0:
160,64,127987,1,0,3:2:0:0:
160,160,128193,1,0,3:2:0:0:
48,48,128400,5,0,3:2:0:0:
48,176,128607,1,0,3:2:0:0:
176,48,128814,1,0,3:2:0:0:
176,176,129021,1,0,3:2:0:0:
32,32,129228,5,0,3:2:0:0:
32,192,129435,1,0,3:2:0:0:
192,32,129642,1,0,3:2:0:0:
192,192,129849,1,0,3:2:0:0:
16,16,130056,5,0,3:2:0:0:
16,208,130263,1,0,3:2:0:0:
208,16,130470,1,0,3:2:0:0:
208,208,130883,6,0,B|188:232|188:232|300:232,2,130.499996017456
180,124,131711,2,0,P|140:100|92:108,1,86.9999973449708,0|0,3:2|3:2,3:2:0:0:
40,164,132125,2,0,P|37:206|60:242,1,86.9999973449708,0|0,3:2|3:2,3:2:0:0:
286,309,132538,6,0,L|156:316,1,130.499996017456
223,70,133159,2,0,L|216:200,1,130.499996017456
216,244,133573,2,0,P|284:260|344:208,1,130.499996017456
364,196,133987,1,0,0:0:0:0:
464,288,134193,6,0,B|492:304|492:304|468:200,2,130.499996017456
380,332,135021,2,0,L|295:351,1,86.9999973449708,0|0,3:2|3:2,3:2:0:0:
244,292,135435,2,0,L|159:272,1,86.9999973449708,0|0,3:2|3:2,3:2:0:0:
88,324,135849,2,4,L|48:336,23,28.9999991149903,4|4|4|4|4|4|4|4|4|4|4|4|4|4|4|4|4|4|4|4|4|4|4|4,3:3|0:3|0:3|0:3|0:3|0:3|0:3|0:3|0:3|0:3|0:3|0:3|0:3|0:3|0:3|0:3|0:3|0:3|0:3|0:3|0:3|0:3|0:3|0:3,0:3:0:0:
36,300,137504,6,0,B|24:248|24:248|68:168,2,130.499996017456
120,316,138331,2,0,L|204:335,1,86.9999973449708,0|0,3:0|3:0,3:0:0:0:
288,308,138745,2,0,L|372:288,1,86.9999973449708,0|0,3:0|3:0,3:0:0:0:
388,67,139159,6,0,P|430:114|416:176,1,130.499996017456
219,269,139780,2,0,P|175:211|200:140,1,152.249995353699
232,116,140193,2,0,L|68:80,1,152.249995353699
48,88,140607,1,0,0:0:0:0:
176,24,140814,6,0,P|228:4|274:1,1,101.499996902466
316,68,141125,2,0,P|368:72|416:92,1,101.499996902466
432,168,141435,2,0,P|468:208|485:254,1,101.499996902466,0|0,0:0|3:0,0:0:0:0:
392,340,141849,1,0,3:0:0:0:
392,340,142056,1,0,3:0:0:0:
392,340,142262,1,0,3:0:0:0:
300,192,142469,6,0,B|232:140|156:192|156:192|76:248|4:192,1,304.499990707398,0|0,3:0|0:0,0:0:0:0:
80,140,143297,2,0,P|116:260|4:280,1,260.999992034912,0|2,3:0|3:0,3:0:0:0:
11,284,143987,1,2,0:0:0:0:
11,284,144056,1,2,0:0:0:0:
11,284,144125,6,0,B|60:328|60:328|156:316,2,152.249995353699
48,212,144952,2,2,B|63:80|63:80|48:111|20:117,1,173.999994689942,2|2,3:2|3:2,3:2:0:0:
220,28,145780,6,0,P|296:40|320:120,1,152.249995353699
216,288,146400,2,0,P|170:225|210:152,1,152.249995353699
240,140,146814,2,0,L|400:176,1,152.249995353699
436,156,147228,1,0,0:0:0:0:
344,48,147435,6,0,B|376:0|376:0|488:4,2,152.249995353699
244,40,148262,2,0,L|137:36,2,101.499996902466,0|0|0,3:0|3:0|3:0,3:0:0:0:
304,120,148883,1,2,3:2:0:0:
164,240,149090,6,2,P|160:292|204:332,2,101.499996902466,2|2|2,3:2|3:2|3:2,3:2:0:0:
124,144,149711,2,2,P|74:139|36:170,1,101.499996902466,2|0,3:2|3:2,3:2:0:0:
32,272,150125,2,2,P|82:277|120:246,1,101.499996902466,2|0,3:2|3:2,3:2:0:0:
260,292,150538,1,2,3:0:0:0:
260,292,150607,1,2,0:0:0:0:
260,292,150676,1,2,0:0:0:0:
260,292,150745,6,0,B|376:308|376:308|408:288|404:252,2,174
212,184,151573,2,0,L|197:68,1,116,0|0,3:0|3:0,3:0:0:0:
104,136,151987,2,0,L|89:251,1,116,0|0,3:0|3:0,3:0:0:0:
236,320,152400,6,0,L|351:305,1,116,0|0,3:0|3:0,3:0:0:0:
452,176,152814,2,0,L|336:161,1,116,0|0,3:0|3:0,3:0:0:0:
180,200,153228,1,0,3:0:0:0:
328,264,153435,1,0,3:0:0:0:
280,84,153642,1,0,3:0:0:0:
232,288,153849,1,0,3:0:0:0:
156,68,154056,6,0,P|84:32|0:84,2,174
364,172,154883,2,0,P|432:160|460:112,1,116,0|0,3:0|3:0,3:0:0:0:
240,32,155297,2,0,P|200:88|214:142,1,116,0|0,3:0|3:0,3:0:0:0:
336,264,155711,5,0,3:0:0:0:
168,152,155918,1,0,3:0:0:0:
364,56,156125,1,0,3:0:0:0:
216,260,156331,1,0,3:0:0:0:
128,32,156538,5,0,3:0:0:0:
356,380,157366,6,0,B|444:340|444:340|484:252,1,181.25,4|0,3:2|0:0,0:0:0:0:
500,164,157676,2,0,B|412:204|412:204|372:292,1,181.25
292,312,157987,2,0,L|261:245,1,72.5
124,212,158193,2,10,P|56:244|172:296,1,290
224,128,159021,6,0,P|168:72|68:88,1,181.25,8|0,0:0|0:0,0:0:0:0:
40,116,159331,2,0,P|119:116|178:33,1,181.25
220,20,159642,2,0,L|432:56,1,203
425,95,160056,2,0,L|224:128,1,203
200,156,160469,2,0,L|188:212,1,58
292,328,160676,6,0,B|304:272|304:272|276:196,2,130.499996017456,8|0|0,0:0|0:0|0:0,0:0:0:0:
120,264,161504,6,0,L|78:275,1,43.4999986724854,10|0,0:0|0:0,0:0:0:0:
16,184,161711,2,0,L|58:195,1,43.4999986724854,2|0,0:0|0:0,0:0:0:0:
164,176,161918,2,0,L|175:134,1,43.4999986724854,10|0,0:0|0:0,0:0:0:0:
80,76,162125,2,0,L|91:118,1,43.4999986724854,2|0,0:0|0:0,0:0:0:0:
204,248,162331,6,0,L|246:259,1,43.4999986724854,10|0,0:0|0:0,0:0:0:0:
296,160,162538,2,0,L|254:171,1,43.4999986724854,2|0,0:0|0:0,0:0:0:0:
188,84,162745,2,0,L|199:42,1,43.4999986724854,10|0,0:0|0:0,0:0:0:0:
304,16,162952,2,0,L|315:58,1,43.4999986724854,2|0,0:0|0:0,0:0:0:0:
420,196,163159,6,0,L|409:154,1,43.4999986724854,10|0,0:0|0:0,0:0:0:0:
453,18,163366,2,0,L|464:60,1,43.4999986724854,2|0,0:0|0:0,0:0:0:0:
512,228,163573,2,0,L|501:186,1,43.4999986724854,10|0,0:0|0:0,0:0:0:0:
348,32,163780,2,0,L|359:74,1,43.4999986724854,2|0,0:0|0:0,0:0:0:0:
320,296,163987,6,0,B|188:328|188:328|236:268,1,181.25,4|0,3:2|0:0,0:0:0:0:
272,224,164297,2,0,B|404:192|404:192|375:227,1,181.25
408,308,164607,2,0,L|452:365,1,72.5
490,196,164814,2,0,P|461:127|388:108,1,145,8|0,0:0|0:0,0:0:0:0:
252,252,165228,2,0,P|321:280|386:242,1,145,8|0,0:0|0:0,0:0:0:0:
224,72,165642,6,0,B|176:36|176:36|104:140,1,181.25,8|0,0:0|0:0,0:0:0:0:
100,180,165952,2,0,B|148:216|148:216|220:112,1,181.25
252,104,166262,2,0,P|352:88|424:168,1,203
424,192,166676,2,0,P|352:258|256:241,1,203
220,240,167090,2,0,P|188:264|184:296,1,58
392,348,167297,6,0,P|452:344|368:272,2,260.999992034912,8|0|0,0:0|0:0|0:0,0:0:0:0:
228,284,168125,6,0,L|128:304,1,86.9999973449708,10|0,0:0|0:0,0:0:0:0:
56,204,168331,2,0,L|73:118,1,86.9999973449708,2|0,0:0|0:0,0:0:0:0:
184,48,168538,2,0,L|269:65,1,86.9999973449708,10|0,0:0|0:0,0:0:0:0:
360,160,168745,2,0,L|377:245,1,86.9999973449708,2|0,0:0|0:0,0:0:0:0:
251,305,168952,6,0,L|149:298,1,86.9999973449708,10|0,0:0|0:0,0:0:0:0:
105,183,169158,2,0,L|143:104,1,86.9999973449708,2|0,0:0|0:0,0:0:0:0:
269,65,169365,2,0,L|346:103,1,86.9999973449708,10|0,0:0|0:0,0:0:0:0:
410,219,169572,2,0,L|404:305,1,86.9999973449708,2|0,0:0|0:0,0:0:0:0:
268,331,169780,6,0,L|171:297,1,86.9999973449708,10|0,0:0|0:0,0:0:0:0:
158,175,169986,2,0,L|215:108,1,86.9999973449708,2|0,0:0|0:0,0:0:0:0:
347,103,170193,2,0,L|411:159,1,86.9999973449708,10|0,0:0|0:0,0:0:0:0:
443,289,170400,2,0,L|414:370,1,86.9999973449708,2|0,0:0|0:0,0:0:0:0:
216,228,170607,6,0,P|124:206|80:291,1,181.25,4|0,3:2|0:0,0:0:0:0:
152,320,170918,2,0,P|177:239|111:184,1,181.25
48,120,171228,2,0,P|68:80|116:68,1,72.5
224,124,171435,2,10,B|292:176|364:124|364:124|436:76|516:140,1,290
428,252,172262,6,0,B|392:284|404:332|404:332|356:312|304:344,1,181.25,8|0,0:0|0:0,0:0:0:0:
288,300,172573,2,0,B|324:268|312:220|312:220|360:240|401:213,1,181.25
432,188,172883,2,0,P|448:136|336:64,1,203
312,86,173297,2,0,P|296:138|408:210,1,203
432,232,173711,2,0,L|400:296,1,58
256,336,173918,6,0,B|164:308|164:308|208:290,2,130.499996017456,8|0|0,0:0|0:0|0:0,0:0:0:0:
368,204,174745,6,0,L|409:192,1,43.4999986724854,10|0,0:0|0:0,0:0:0:0:
504,136,174952,2,0,L|462:124,1,43.4999986724854,2|0,0:0|0:0,0:0:0:0:
356,96,175159,2,0,L|344:54,1,43.4999986724854,10|0,0:0|0:0,0:0:0:0:
440,4,175366,2,0,L|428:46,1,43.4999986724854,2|0,0:0|0:0,0:0:0:0:
288,152,175573,6,0,L|246:140,1,43.4999986724854,10|0,0:0|0:0,0:0:0:0:
180,228,175780,2,0,L|222:216,1,43.4999986724854,2|0,0:0|0:0,0:0:0:0:
324,252,175987,2,0,L|312:294,1,43.4999986724854,10|0,0:0|0:0,0:0:0:0:
224,356,176193,2,0,L|212:314,1,43.4999986724854,2|0,0:0|0:0,0:0:0:0:
232,132,176400,6,0,L|244:174,1,43.4999986724854,10|0,0:0|0:0,0:0:0:0:
324,252,176607,2,0,L|312:210,1,43.4999986724854,2|0,0:0|0:0,0:0:0:0:
316,80,176814,2,0,L|328:122,1,43.4999986724854,10|0,0:0|0:0,0:0:0:0:
236,296,177021,2,0,L|224:254,1,43.4999986724854,2|0,0:0|0:0,0:0:0:0:
140,80,177228,6,0,L|84:260,1,181.25,4|0,3:2|0:0,0:0:0:0:
116,335,177538,2,0,L|289:281,1,181.25
372,316,177849,2,0,L|441:336,1,72.5
484,160,178056,2,0,B|416:147|416:147|344:171,1,145,8|0,0:0|0:0,0:0:0:0:
200,76,178469,2,0,B|267:63|267:63|339:87,1,145,8|0,0:0|0:0,0:0:0:0:
184,280,178883,6,0,B|108:340|108:340|96:252,1,181.25,8|0,0:0|0:0,0:0:0:0:
108,216,179193,2,0,B|184:156|184:156|195:239,1,181.25
228,264,179504,2,0,P|324:264|368:172,1,203
332,172,179918,2,0,P|376:257|472:258,1,203
504,280,180331,2,0,L|468:336,1,58
422,183,180538,6,0,L|503:61,1,145,8|0,0:0|0:0,0:0:0:0:
488,24,180849,1,0,0:0:0:0:
264,32,181159,2,0,L|300:88,1,58
292,212,181366,6,0,L|222:105,1,126.874996128082,8|0,0:0|0:0,0:0:0:0:
180,104,181676,1,0,0:0:0:0:
216,300,181987,2,0,L|187:341,1,50.749998451233
76,360,182193,6,0,L|140:264,1,108.749996681213,8|0,0:0|0:0,0:0:0:0:
124,228,182504,1,0,0:0:0:0:
280,208,182814,2,0,L|304:243,1,43.4999986724854
396,264,183021,6,0,P|424:268|368:184,1,253.75,8|0,0:0|0:0,0:0:0:0:
336,324,183849,6,0,B|300:364|244:364|209:323|209:323|164:260|96:228|16:248|-8:324,1,391.499988052369,4|0,3:2|0:0,0:0:0:0:
132,180,184262,6,0,L|178:97,1,86.9999973449708,2|0,0:0|0:0,0:0:0:0:
160,88,184469,2,0,L|113:169,1,94.2499956855776,2|0,0:0|0:0,0:0:0:0:
96,160,184676,2,0,L|153:59,1,101.499996902466,2|0,0:0|0:0,0:0:0:0:
134,56,184883,2,0,L|79:150,1,108.750004148483,2|0,0:0|0:0,0:0:0:0:
140,316,185090,6,0,P|167:340|141:312,1,108.750004148483,2|0,0:0|0:0,0:0:0:0:
372,68,185504,6,0,B|428:104|428:104|352:220,1,195.749994026184,4|0,3:2|0:0,0:0:0:0:
324,292,185711,2,0,P|376:304|416:280,1,86.9999973449708,2|0,0:0|0:0,0:0:0:0:
268,180,185918,6,0,L|241:88,1,86.9999973449708,2|0,0:0|0:0,0:0:0:0:
222,95,186125,2,0,L|246:185,1,94.2499956855776,2|0,0:0|0:0,0:0:0:0:
228,191,186332,2,0,L|196:79,1,101.499996902466,2|0,0:0|0:0,0:0:0:0:
181,90,186539,2,0,L|208:195,1,108.750004148483,2|0,0:0|0:0,0:0:0:0:
88,372,186745,6,0,P|-4:296|124:312,1,326.25001244545
388,356,187159,6,0,B|428:328|472:352|472:352|476:308|420:280|420:280|376:244|392:184|392:184|420:116|376:72,1,391.499988052369,4|0,3:2|0:0,0:0:0:0:
216,76,187573,6,0,P|180:103|175:162,1,86.9999973449708,2|0,0:0|0:0,0:0:0:0:
204,220,187780,2,0,P|240:188|248:143,1,94.2499956855776,2|0,0:0|0:0,0:0:0:0:
143,53,187987,2,0,P|139:102|170:142,1,101.499996902466,2|0,0:0|0:0,0:0:0:0:
288,233,188193,2,0,P|286:179|248:143,1,108.750004148483,2|0,0:0|0:0,0:0:0:0:
88,212,188400,6,0,P|57:232|91:215,1,108.750004148483,2|0,0:0|0:0,0:0:0:0:
308,72,188814,6,0,B|432:28|432:28|400:92,1,195.749994026184,4|0,3:2|0:0,0:0:0:0:
344,148,189021,6,0,L|334:163,1,18.125,2|0,0:0|0:0,0:0:0:0:
432,224,189228,2,0,L|422:208,1,18.125,2|0,0:0|0:0,0:0:0:0:
328,248,189435,2,0,L|318:263,1,18.125,2|0,0:0|0:0,0:0:0:0:
420,328,189642,2,0,L|410:312,1,18.125,2|0,0:0|0:0,0:0:0:0:
324,352,189849,2,0,L|314:367,1,18.125,2|0,0:0|0:0,0:0:0:0:
256,180,190056,6,0,L|208:160,12,36.25
44,332,190469,6,0,B|0:268|44:208|44:208|84:148|44:72|44:72|116:104|160:40,1,391.499988052369,4|0,3:2|0:0,0:0:0:0:
312,116,190883,6,0,L|396:161,1,86.9999973449708,2|0,0:0|0:0,0:0:0:0:
404,143,191090,2,0,L|323:96,1,94.2499956855776,2|0,0:0|0:0,0:0:0:0:
333,79,191297,2,0,L|434:135,1,101.499996902466,2|0,0:0|0:0,0:0:0:0:
437,118,191504,2,0,L|343:62,1,108.750004148483,2|0,0:0|0:0,0:0:0:0:
128,104,191711,6,0,P|107:139|144:121,1,108.750004148483,2|0,0:0|0:0,0:0:0:0:
384,280,192125,6,0,B|441:323|441:323|392:380|329:348,1,195.749994026184,4|0,3:2|0:0,0:0:0:0:
248,368,192331,2,0,P|247:325|273:291,1,86.9999973449708,2|0,0:0|0:0,0:0:0:0:
140,176,192538,6,0,L|48:203,1,86.9999973449708,2|0,0:0|0:0,0:0:0:0:
56,222,192745,2,0,L|146:197,1,94.2499956855776,2|0,0:0|0:0,0:0:0:0:
152,218,192952,2,0,L|40:249,1,101.499996902466,2|0,0:0|0:0,0:0:0:0:
51,263,193159,2,0,L|157:236,1,108.750004148483,2|0,0:0|0:0,0:0:0:0:
284,60,193366,6,0,P|405:51|308:136,1,326.25001244545
136,320,193780,6,0,B|168:372|244:372|280:320|280:320|312:272|370:272|428:312|397:383|330:368,1,391.499988052369,4|0,3:2|0:0,0:0:0:0:
260,224,194193,6,0,P|252:178|291:133,1,86.9999973449708,2|0,0:0|0:0,0:0:0:0:
352,110,194400,2,0,P|354:157|327:196,1,94.2499956855776,2|0,0:0|0:0,0:0:0:0:
189,187,194607,2,0,P|221:149|271:144,1,101.499996902466,2|0,0:0|0:0,0:0:0:0:
420,159,194814,2,0,P|381:194|328:194,1,108.750004148483,2|0,0:0|0:0,0:0:0:0:
255,48,195021,6,0,P|225:24|262:36,1,108.750004148483,2|0,0:0|0:0,0:0:0:0:
28,268,195435,5,4,3:2:0:0:
256,192,195538,12,0,196987,0:0:0:0:
484,116,197090,5,4,3:2:0:0:
212,332,197297,1,8,0:0:0:0:
304,108,197504,2,0,P|284:64|232:52,1,86.9999973449708,2|0,0:0|0:0,0:0:0:0:
152,120,197711,2,0,P|197:136|242:108,1,86.9999973449708,2|0,3:0|0:0,0:0:0:0:
332,192,197918,2,0,P|376:212|388:264,1,86.9999973449708,10|0,0:0|0:0,0:0:0:0:
320,344,198125,2,0,P|303:298|331:253,1,86.9999973449708,2|0,0:0|0:0,0:0:0:0:
156,240,198331,6,0,L|-28:280,1,173.999994689942,0|0,3:0|0:0,0:0:0:0:
232,32,198745,5,4,3:2:0:0:
316,265,198952,2,0,L|298:180,1,86.9999973449708,10|0,0:0|0:0,0:0:0:0:
348,68,199159,2,0,P|388:54|429:71,1,86.9999973449708,2|0,0:0|0:0,0:0:0:0:
440,192,199366,2,0,P|401:173|386:133,1,86.9999973449708,2|0,3:0|0:0,0:0:0:0:
272,105,199573,2,0,P|233:123|218:163,1,86.9999973449708,10|0,0:0|0:0,0:0:0:0:
294,258,199780,2,0,P|311:219|297:178,1,86.9999973449708,2|0,0:0|0:0,0:0:0:0:
32,132,199987,6,0,P|82:-8|129:133,1,391.499988052369,4|0,3:2|0:0,0:0:0:0:
82,69,200400,5,4,3:2:0:0:
412,176,200607,1,8,0:0:0:0:
176,232,200814,2,0,L|84:264,1,86.9999973449708,2|0,0:0|0:0,0:0:0:0:
200,320,201021,2,0,L|282:348,1,86.9999973449708,2|0,3:0|0:0,0:0:0:0:
308,228,201228,2,0,L|279:145,1,86.9999973449708,10|0,0:0|0:0,0:0:0:0:
208,44,201435,2,0,L|179:126,1,86.9999973449708,2|0,0:0|0:0,0:0:0:0:
351,304,201642,5,0,3:0:0:0:
172,76,202056,6,0,B|154:104|172:132|172:132|164:136|164:136|176:164|164:182,1,116,8|0,0:0|0:0,0:0:0:0:
244,320,202262,1,0,3:0:0:0:
392,32,202469,6,0,B|410:60|392:88|392:88|400:92|400:92|388:120|400:138,1,116,8|0,0:0|0:0,0:0:0:0:
320,276,202675,1,0,3:0:0:0:
84,52,202883,6,0,B|66:80|84:108|84:108|76:112|76:112|88:140|76:158,1,116,8|0,0:0|0:0,0:0:0:0:
148,256,203090,2,0,L|180:224,3,43.4999986724854,0|8|8|8,3:0|0:3|0:3|0:3,0:0:0:0:
112,336,203297,2,0,P|76:312|61:273,1,86.9999973449708,8|0,0:0|0:0,0:0:0:0:
167,145,203504,2,0,P|187:185|176:229,1,86.9999973449708
352,308,203711,5,4,3:2:0:0:
377,319,203814,1,0,0:0:0:0:
404,332,203917,1,0,0:0:0:0:
429,345,204021,1,0,0:0:0:0:
456,357,204125,2,0,L|369:373,1,86.9999973449708,2|0,3:0|0:0,0:0:0:0:
274,268,204331,2,0,L|351:307,1,86.9999973449708,2|0,0:0|0:0,0:0:0:0:
321,93,204538,5,0,3:0:0:0:
285,99,204641,1,0,0:0:0:0:
250,106,204744,1,0,0:0:0:0:
214,113,204848,1,0,0:0:0:0:
178,121,204952,2,0,L|256:160,1,86.9999973449708,2|0,3:0|0:0,0:0:0:0:
406,77,205159,2,0,L|319:93,1,86.9999973449708,2|0,0:0|0:0,0:0:0:0:
63,146,205366,5,0,3:0:0:0:
71,188,205469,1,0,0:0:0:0:
80,231,205572,1,0,0:0:0:0:
88,273,205676,1,0,0:0:0:0:
97,316,205780,2,0,L|136:237,1,86.9999973449708,2|0,3:0|0:0,0:0:0:0:
47,60,205986,2,0,L|63:146,1,86.9999973449708,2|0,0:0|0:0,0:0:0:0:
353,239,206193,5,0,3:0:0:0:
376,193,206296,1,0,0:0:0:0:
398,147,206399,1,0,0:0:0:0:
422,102,206503,1,0,0:0:0:0:
444,57,206607,2,0,L|460:143,1,86.9999973449708,2|0,3:0|0:0,0:0:0:0:
314,316,206814,2,0,L|353:237,1,86.9999973449708,2|0,0:0|0:0,0:0:0:0:
192,40,207021,6,0,B|188:88|188:88|208:124,1,86.9999973449708,10|0,0:0|0:0,0:0:0:0:
388,356,207228,1,2,3:2:0:0:
136,164,207435,6,0,B|161:196|161:196|204:206,1,79.7500024337769,10|0,0:0|0:0,0:0:0:0:
457,236,207642,1,2,3:2:0:0:
179,284,207849,6,0,B|219:291|219:291|255:271,1,72.5,10|0,0:0|0:0,0:0:0:0:
408,112,208056,1,2,3:2:0:0:
284,344,208262,6,0,B|316:321|316:321|327:282,1,65.2499980087281,10|0,0:0|0:0,0:0:0:0:
272,100,208469,1,2,3:2:0:0:
484,332,208676,5,0,3:2:0:0:
256,192,208780,12,0,210021,0:0:0:0:
116,312,210125,6,8,L|102:278,3,36.25,8|8|8|8,0:1|0:1|0:1|0:1,0:1:0:0:
142,166,210331,5,8,0:3:0:0:
142,166,210642,1,8,0:1:0:0:
262,186,210745,2,0,L|354:202,1,86.9999973449708,8|0,0:3|0:0,0:0:0:0:
234,326,210952,2,0,L|148:340,1,86.9999973449708,8|0,0:1|0:0,0:0:0:0:
48,212,211159,6,0,P|44:116|148:72,1,202.999993804932,8|0,0:3|0:0,0:0:0:0:
190,242,211469,1,8,0:1:0:0:
270,98,211573,2,0,P|402:126|394:274,1,304.499990707398,8|0,0:3|0:0,0:0:0:0:
82,362,211987,6,0,B|30:370|6:322|26:270|101:259|154:322|154:322|197:365|269:363|310:318,1,391.499988052369,4|0,3:2|0:0,0:0:0:0:
402,218,212400,6,0,L|400:220,1,3.625
426,170,212504,2,0,L|424:172,1,3.625
420,116,212607,2,0,L|418:118,1,3.625
386,75,212711,2,0,L|384:77,1,3.625
335,58,212814,2,0,L|333:60,1,3.625
283,74,212918,2,0,L|281:76,1,3.625
250,115,213021,2,0,L|248:117,1,3.625
244,169,213125,2,0,L|242:171,1,3.625
268,217,213228,2,0,L|266:219,1,3.625
292,264,213331,2,0,L|290:266,1,3.625
232,340,213435,6,0,L|230:342,1,3.625,2|0,3:2|0:0,0:0:0:0:
176,371,213538,2,0,L|174:373,1,3.625
116,352,213642,2,0,L|114:354,1,3.625
84,296,213745,2,0,L|82:298,1,3.625
103,236,213849,2,0,L|101:238,1,3.625
163,216,213952,2,0,L|161:218,1,3.625
256,252,214056,6,0,L|254:254,1,3.625,2|0,3:2|0:0,0:0:0:0:
337,252,214159,2,0,L|335:254,1,3.625
395,196,214262,2,0,L|393:198,1,3.625
397,115,214366,2,0,L|395:117,1,3.625
342,55,214469,2,0,L|340:57,1,3.625
261,52,214573,2,0,L|259:54,1,3.625
184,112,214676,6,0,P|119:141|51:101,1,141.374993528366,0|0,0:2|0:0,0:0:0:0:
148,35,214883,6,0,P|191:24|232:39,1,87,0|0,3:2|0:0,0:0:0:0:
256,252,215297,6,0,B|292:296|356:264|356:264|408:228|460:260|460:260|492:200|412:132|332:188,1,391.499988052369,4|0,3:2|0:0,0:0:0:0:
288,76,215711,6,0,L|292:80,1,3.625
236,59,215814,2,0,L|240:63,1,3.625
185,75,215918,2,0,L|189:79,1,3.625
152,117,216021,2,0,L|156:121,1,3.625
149,171,216125,2,0,L|153:175,1,3.625
165,222,216228,2,0,L|169:226,1,3.625
149,273,216331,2,0,L|153:277,1,3.625
107,306,216435,2,0,L|111:310,1,3.625
52,312,216538,2,0,L|56:316,1,3.625
8,280,216642,2,0,L|12:284,1,3.625
80,212,216745,6,0,L|84:216,1,3.625,2|0,3:2|0:0,0:0:0:0:
142,200,216849,2,0,L|146:204,1,3.625
199,230,216952,2,0,L|203:234,1,3.625
223,289,217056,2,0,L|227:293,1,3.625
272,332,217159,2,0,L|276:336,1,3.625
336,328,217262,2,0,L|340:332,1,3.625
408,260,217366,6,0,L|412:264,1,3.625,2|0,3:2|0:0,0:0:0:0:
426,180,217469,2,0,L|430:184,1,3.625
391,106,217573,2,0,L|395:110,1,3.625
316,72,217676,2,0,L|320:76,1,3.625
237,93,217780,2,0,L|241:97,1,3.625
158,76,217883,2,0,L|162:80,1,3.625
135,1,217987,6,0,P|212:15|238:76,1,141.374993528366,0|0,0:2|0:0,0:0:0:0:
164,176,218193,6,0,B|108:216|108:216|164:56,1,217.500008296967,2|0,0:0|0:0,0:0:0:0:
357,311,218607,6,0,B|396:327|466:304|507:244|481:119|383:141|383:141|347:178|374:222,1,391.499988052369,4|0,3:2|0:0,0:0:0:0:
371,217,219021,5,8,0:2:0:0:
371,217,219435,6,0,L|375:221,1,3.625
327,186,219538,2,0,L|331:190,1,3.625
312,135,219642,2,0,L|316:139,1,3.625
332,86,219745,2,0,L|336:90,1,3.625
379,61,219849,2,0,L|383:65,1,3.625,8|0,0:2|0:0,0:0:0:0:
432,76,219952,2,0,L|436:80,1,3.625
460,170,220056,6,0,L|464:174,1,3.625,2|0,0:2|0:0,0:0:0:0:
398,183,220159,2,0,L|402:187,1,3.625
345,149,220262,2,0,L|349:153,1,3.625
332,86,220366,2,0,L|336:90,1,3.625
269,72,220469,2,0,L|273:76,1,3.625
216,106,220573,2,0,L|220:110,1,3.625
184,204,220676,6,0,L|188:208,1,3.625,10|0,0:2|0:0,0:0:0:0:
131,265,220780,2,0,L|135:269,1,3.625
50,270,220883,2,0,L|54:274,1,3.625
0,214,220987,2,0,L|4:218,1,3.625
0,133,221090,2,0,L|4:137,1,3.625
49,77,221193,2,0,L|53:81,1,3.625
139,82,221297,6,0,L|289:129,1,141.374993528366,0|0,0:2|0:0,0:0:0:0:
345,149,221504,5,8,0:2:0:0:
345,149,221918,5,0,3:0:0:0:
260,268,222125,1,8,0:0:0:0:
216,72,222331,1,0,3:0:0:0:
216,72,222538,1,0,3:0:0:0:
464,160,222745,5,10,0:0:0:0:
256,316,222952,1,0,3:0:0:0:
324,36,223159,1,2,3:0:0:0:
472,312,223366,1,0,3:0:0:0:
148,188,223573,6,0,L|64:168,1,72.5,0|0,3:0|3:0,3:0:0:0:
135,344,223780,1,8,0:0:0:0:
178,362,223848,1,0,3:0:0:0:
225,352,223917,1,0,3:0:0:0:
256,316,223987,2,0,L|300:296,3,36.25,0|0|0|0,3:0|3:0|3:0|3:0,3:0:0:0:
396,352,224193,2,0,L|360:336,5,24.1666666666667,0|0|0|0|0|0,3:0|3:0|3:0|3:0|3:0|3:0,3:0:0:0:
364,236,224400,5,8,0:0:0:0:
364,236,224607,6,0,P|392:224|364:232,1,86.9999973449708,2|0,0:0|0:0,0:0:0:0:
340,120,224814,6,0,P|364:88|337:117,1,116,2|0,0:0|0:0,0:0:0:0:
220,72,225021,6,0,P|216:24|216:72,1,145,2|0,0:0|0:0,0:0:0:0:
96,280,225228,5,2,3:0:0:0:
96,280,225642,6,0,L|88:284,1,7.25,8|0,0:2|0:0,0:0:0:0:
340,120,225849,2,0,L|346:116,1,7.25
89,283,226056,2,0,L|81:287,1,7.25
346,116,226263,2,0,L|352:112,1,7.25
82,286,226469,2,0,L|74:290,1,7.25,8|0,0:2|0:0,0:0:0:0:
440,324,226676,6,0,L|448:328,1,7.25,2|0,0:2|0:0,0:0:0:0:
148,132,226883,2,0,L|141:128,1,7.25
446,327,227090,2,0,L|454:331,1,7.25
40,360,227297,6,0,L|32:364,1,7.25,10|0,3:2|0:0,0:0:0:0:
376,140,227504,2,0,L|382:136,1,7.25
33,363,227711,2,0,L|25:367,1,7.25
108,20,227918,6,0,P|184:8|244:80,1,163.125006222725,0|0,0:2|0:0,0:0:0:0:
192,160,228125,6,0,P|160:128|160:88,1,87,8|0,0:2|0:0,0:0:0:0:
344,24,228538,6,0,P|416:20|308:104,1,391.499988052369,4|0,3:2|0:0,0:0:0:0:
144,260,228952,6,0,L|137:263,1,7.25,8|0,0:2|0:0,0:0:0:0:
384,90,229159,2,0,L|390:86,1,7.25
137,263,229366,2,0,L|130:266,1,7.25
390,86,229573,2,0,L|396:82,1,7.25
130,266,229780,2,0,L|123:269,1,7.25,8|0,0:2|0:0,0:0:0:0:
488,316,229987,6,0,L|496:320,1,7.25,2|0,3:2|0:0,0:0:0:0:
204,118,230193,2,0,L|197:114,1,7.25
494,319,230400,2,0,L|502:323,1,7.25
88,360,230607,6,0,L|81:363,1,7.25,10|0,3:2|0:0,0:0:0:0:
416,132,230814,2,0,L|422:128,1,7.25
81,363,231021,2,0,L|73:367,1,7.25
40,56,231228,6,0,P|19:21|56:39,1,108.750004148483,2|0,0:0|0:0,0:0:0:0:
341,355,231849,6,0,B|264:264|340:180|340:180|312:168|312:168|380:84|312:20,1,391.499988052369,4|0,3:2|0:0,0:0:0:0:
464,168,232262,6,0,L|472:164,1,7.25,8|0,0:2|0:0,0:0:0:0:
224,340,232469,2,0,L|217:343,1,7.25
470,164,232676,2,0,L|478:160,1,7.25
217,343,232883,2,0,L|210:346,1,7.25
476,160,233090,2,0,L|484:156,1,7.25,8|0,0:2|0:0,0:0:0:0:
120,108,233297,6,0,L|112:104,1,7.25,2|0,0:2|0:0,0:0:0:0:
404,312,233504,2,0,L|410:315,1,7.25
113,104,233711,2,0,L|105:100,1,7.25
492,36,233918,6,0,L|500:32,1,7.25,10|0,0:2|0:0,0:0:0:0:
168,268,234125,2,0,L|161:271,1,7.25
498,32,234331,2,0,L|504:28,1,7.25
364,348,234538,6,0,P|445:351|485:267,1,163.125006222725,0|0,0:2|0:0,0:0:0:0:
416,200,234745,6,0,P|396:240|412:288,1,87,8|0,0:2|0:0,0:0:0:0:
248,344,235159,6,0,L|188:360,1,58,4|0,3:2|0:0,0:0:0:0:
56,326,235366,2,0,L|112:312,1,58
204,208,235573,2,0,L|148:222,1,58
0,212,235780,2,0,L|56:198,1,58
148,92,235987,5,0,0:0:0:0:
148,92,236090,1,0,0:0:0:0:
148,92,236193,1,0,0:0:0:0:
204,208,236400,2,0,L|218:264,1,58
276,112,236607,2,0,L|262:56,1,58
456,208,236814,6,0,B|444:240|444:240|416:252,1,58,6|0,3:2|0:0,0:0:0:0:
368,160,237021,6,0,B|382:128|382:128|409:115,1,65.2499980087281,2|0,0:0|0:0,0:0:0:0:
476,216,237228,6,0,B|463:249|463:249|430:266,1,72.5,2|0,0:0|0:0,0:0:0:0:
348,152,237435,6,0,B|364:116|364:116|412:96,1,79.7500024337769,2|0,0:0|0:0,0:0:0:0:
316,264,237642,2,0,L|232:284,1,86.9999973449708,2|0,0:0|0:0,0:0:0:0:
76,336,237849,2,0,L|160:356,1,86.9999973449708,2|0,0:0|0:0,0:0:0:0:
140,196,238056,2,2,L|132:167,6,29
252,368,238469,5,4,3:2:0:0:
256,192,238573,12,0,240021,0:0:0:0:
392,336,240125,6,0,L|410:280,1,58,0|0,3:0|0:0,0:0:0:0:
332,292,240331,2,0,L|350:236,1,58,0|0,3:0|0:0,0:0:0:0:
268,248,240538,2,0,L|286:192,1,58,0|0,3:0|0:0,0:0:0:0:
204,188,240745,1,0,3:0:0:0:
204,188,240849,1,0,3:0:0:0:
204,188,240952,6,2,L|135:210,1,72.5,2|2,3:0|0:0,0:0:0:0:
24,252,241159,2,2,L|92:274,1,72.5,2|2,3:0|0:0,0:0:0:0:
200,320,241366,2,2,L|131:342,1,72.5,2|2,3:0|0:0,0:0:0:0:
16,372,241573,1,2,3:0:0:0:
16,372,241676,1,2,3:0:0:0:
16,372,241780,6,0,L|32:328,2,43.4999986724854,2|0|2,3:0|3:0|3:0,3:0:0:0:
136,244,241987,1,2,3:0:0:0:
168,256,242090,2,0,L|182:296,2,43.4999986724854,2|0|2,3:0|3:0|3:0,3:0:0:0:
96,84,242297,1,2,3:0:0:0:
64,92,242400,2,0,L|49:132,2,43.4999986724854,2|0|2,3:0|3:0|3:0,3:0:0:0:
248,160,242607,1,2,3:0:0:0:
256,124,242711,2,0,L|296:109,2,43.4999986724854,2|0|2,3:0|3:0|3:0,3:0:0:0:
344,340,242918,1,2,3:0:0:0:
350,311,243021,5,2,0:0:0:0:
357,269,243124,1,2,0:0:0:0:
368,211,243228,1,2,0:0:0:0:
380,139,243331,1,2,0:0:0:0:
400,64,243435,6,2,B|448:80|448:80|480:152,1,116,10|2,0:0|0:0,0:0:0:0:
412,364,243642,2,2,L|399:337,1,29,2|2,3:0|0:0,0:0:0:0:
224,48,243849,6,2,B|272:64|272:64|304:136,1,116,10|2,0:0|0:0,0:0:0:0:
248,380,244056,2,2,L|235:353,1,29,2|2,3:0|0:0,0:0:0:0:
64,32,244262,6,2,B|112:48|112:48|144:120,1,116,10|2,0:0|0:0,0:0:0:0:
76,376,244469,2,0,L|112:296,1,86.9999973449708,2|2,3:0|0:0,0:0:0:0:
260,206,244676,6,2,P|300:194|340:214,1,72.5,2|2,3:0|0:0,0:0:0:0:
285,142,244780,6,2,P|317:166|325:220,1,79.7500024337769
351,125,244883,6,2,P|351:170|306:212,1,86.9999973449708
410,174,244987,6,2,P|375:202|309:193,1,94.2499956855776
304,300,245090,6,0,B|269:333|210:328|183:281|183:281|140:276|140:276|104:300|104:300|43:257|67:169|139:157,1,391.499988052369,4|0,3:2|0:0,0:0:0:0:
176,16,245504,2,2,L|253:36,1,79.7500024337769,10|2,0:0|0:0,0:0:0:0:
390,132,245711,5,2,3:0:0:0:
464,122,245814,1,2,0:0:0:0:
485,50,245917,1,2,0:0:0:0:
426,3,246021,1,2,0:0:0:0:
364,52,246125,1,2,0:0:0:0:
288,36,246228,1,2,0:0:0:0:
212,16,246331,2,2,L|135:36,1,79.7500024337769,2|2,3:0|0:0,0:0:0:0:
332,228,246538,6,0,B|304:280|304:280|248:132,1,195.749994026184,10|0,0:0|0:0,0:0:0:0:
100,116,246745,5,2,3:0:0:0:
39,165,246848,1,2,0:0:0:0:
20,241,246951,1,2,0:0:0:0:
52,312,247055,1,2,0:0:0:0:
121,350,247159,6,0,B|178:366|178:366|113:223,1,195.749994026184,10|0,0:0|0:0,0:0:0:0:
180,92,247366,5,2,3:0:0:0:
257,84,247469,1,2,0:0:0:0:
323,127,247572,1,2,0:0:0:0:
348,201,247676,1,2,0:0:0:0:
322,276,247780,6,2,P|392:269|424:221,1,130.499996017456,2|0,0:0|0:0,0:0:0:0:
487,183,247987,6,0,P|459:152|417:145,1,87,8|0,0:0|0:0,0:0:0:0:
172,320,248400,6,0,P|104:328|208:240,1,391.499988052369,4|0,3:2|0:0,0:0:0:0:
372,144,248814,2,2,L|432:80,1,79.7500024337769,10|2,0:0|0:0,0:0:0:0:
260,28,249021,5,2,3:0:0:0:
182,20,249124,1,2,0:0:0:0:
126,73,249227,1,2,0:0:0:0:
127,150,249331,1,2,0:0:0:0:
186,200,249434,1,2,0:0:0:0:
192,280,249538,1,2,0:0:0:0:
140,340,249642,2,2,P|100:356|52:336,1,79.7500024337769,2|2,3:0|0:0,0:0:0:0:
296,288,249849,6,0,B|340:260|388:304|388:304|388:292|388:292|436:328|492:288,1,195.749994026184,10|0,0:0|0:0,0:0:0:0:
456,180,250056,5,2,3:2:0:0:
407,119,250159,1,2,0:0:0:0:
407,41,250262,1,2,0:0:0:0:
334,13,250365,1,2,0:0:0:0:
264,47,250469,6,0,B|234:73|186:37|186:37|186:49|186:49|138:5|94:33,1,195.749994026184,10|0,0:0|0:0,0:0:0:0:
28,128,250676,5,2,0:0:0:0:
60,200,250779,1,2,0:0:0:0:
140,208,250883,2,2,P|181:225|223:205,1,79.7500024337769,10|2,0:0|0:0,0:0:0:0:
259,95,251090,2,2,P|222:84|187:101,1,79.7500024337769,2|0,0:0|0:0,0:0:0:0:
288,320,251297,5,0,0:0:0:0:
28,128,251711,6,0,B|-15:133|-40:91|-22:39|43:26|101:88|101:88|148:136|220:136|267:89,1,391.499988052369,4|0,3:2|0:0,0:0:0:0:
440,80,252125,2,2,P|424:36|376:20,1,79.7500024337769,10|2,0:0|0:0,0:0:0:0:
336,200,252331,5,2,3:0:0:0:
291,263,252434,1,2,0:0:0:0:
215,275,252538,1,2,0:0:0:0:
153,228,252642,1,2,0:0:0:0:
76,208,252745,1,2,0:0:0:0:
8,248,252849,1,2,0:0:0:0:
0,328,252952,2,0,P|40:352|88:336,1,79.7500024337769,2|0,3:0|0:0,0:0:0:0:
196,116,253159,2,0,P|156:92|108:108,1,79.7500024337769,10|0,0:0|0:0,0:0:0:0:
260,292,253366,5,2,3:0:0:0:
338,301,253469,1,2,0:0:0:0:
409,267,253572,1,2,0:0:0:0:
451,200,253676,1,2,0:0:0:0:
451,122,253780,2,0,P|472:80|516:68,1,79.7500024337769,10|0,0:0|0:0,0:0:0:0:
280,204,253987,5,2,3:0:0:0:
204,187,254090,1,2,0:0:0:0:
165,120,254193,1,2,0:0:0:0:
189,47,254297,1,2,0:0:0:0:
260,15,254400,1,2,0:0:0:0:
330,47,254504,1,2,0:0:0:0:
352,120,254607,2,0,B|382:208|382:208|342:288,1,173.999994689942,8|0,0:0|0:0,0:0:0:0:
68,196,255021,6,0,P|48:116|128:160,2,217.5,0|0|0,3:2|0:0|0:0,0:0:0:0:
233,347,255849,2,0,L|313:311,1,86.9999973449708,10|0,0:0|0:0,0:0:0:0:
389,240,256056,2,0,L|309:204,1,86.9999973449708,2|0,0:0|0:0,0:0:0:0:
216,172,256262,2,0,L|224:259,1,86.9999973449708,2|0,0:0|0:0,0:0:0:0:
395,329,256469,2,0,P|441:320|468:289,1,86.9999973449708,2|0,0:0|0:0,0:0:0:0:
360,104,256676,6,0,B|332:56|332:56|260:28|260:28|192:56,1,181.25,0|0,3:2|0:0,0:0:0:0:
244,124,256987,2,0,B|216:172|216:172|144:200|144:200|76:172,1,181.25
23,155,257297,2,0,P|-5:227|35:287,1,145
176,336,257711,2,0,P|164:292|116:272,1,72.5
26,281,257918,1,0,0:0:0:0:
236,204,258125,2,0,P|280:216|300:264,1,72.5
476,76,258331,6,0,B|416:44|356:76|356:76|288:40|224:76|224:76|160:44|88:76,1,391.499988052369,4|0,3:2|0:0,0:0:0:0:
39,169,258745,5,2,0:0:0:0:
59,181,258849,1,2,0:0:0:0:
83,185,258952,1,2,0:0:0:0:
111,181,259056,1,2,0:0:0:0:
139,169,259159,1,2,0:0:0:0:
171,169,259262,1,2,0:0:0:0:
203,185,259366,1,2,0:0:0:0:
227,209,259469,1,2,0:0:0:0:
216,260,259573,6,2,P|176:280|130:268,1,86.9999973449708,10|2,0:0|0:0,0:0:0:0:
325,171,259780,6,0,B|460:184|460:184|418:225,1,195.749994026184,2|0,0:0|0:0,0:0:0:0:
137,272,259987,5,2,3:0:0:0:
103,230,260090,1,2,0:0:0:0:
95,178,260193,1,2,0:0:0:0:
119,128,260297,1,2,0:0:0:0:
164,99,260400,6,0,B|299:86|299:86|257:45,1,195.749994026184,2|0,3:2|0:0,0:0:0:0:
73,16,260607,5,2,0:0:0:0:
42,59,260710,1,2,0:0:0:0:
49,112,260814,2,2,P|65:160|109:180,1,86.9999973449708,10|2,0:0|0:0,0:0:0:0:
374,234,261021,6,0,P|402:174|370:106,1,130.499996017456
363,37,261228,6,0,P|319:53|299:89,1,87
468,224,261642,6,0,B|460:300|460:300|400:348|340:308|340:308|308:328|308:328|232:280|152:336,1,391.499988052369,4|0,3:2|0:0,0:0:0:0:
44,200,262056,5,2,0:0:0:0:
42,146,262159,1,2,0:0:0:0:
71,101,262262,1,2,0:0:0:0:
120,80,262366,1,2,0:0:0:0:
173,90,262469,5,10,0:0:0:0:
171,143,262572,1,2,0:0:0:0:
200,188,262675,1,2,0:0:0:0:
249,209,262779,1,2,0:0:0:0:
302,199,262882,1,2,0:0:0:0:
336,156,262987,1,2,0:0:0:0:
344,104,263090,6,0,B|398:105|398:105|455:170|455:170|509:176,1,195.749994026184,2|0,3:2|0:0,0:0:0:0:
383,323,263297,5,2,0:0:0:0:
329,329,263400,1,2,0:0:0:0:
280,306,263503,1,2,0:0:0:0:
250,262,263607,1,2,0:0:0:0:
248,208,263711,6,0,B|194:209|194:209|137:274|137:274|82:280,1,195.749994026184,2|0,3:2|0:0,0:0:0:0:
36,104,263918,5,2,0:0:0:0:
67,62,264021,1,2,0:0:0:0:
120,60,264125,2,2,L|206:56,1,86.9999973449708,10|2,0:0|0:0,0:0:0:0:
328,128,264331,2,0,B|354:180|354:180|350:252,1,130.499996017456,2|0,0:0|0:0,0:0:0:0:
306,329,264538,5,0,0:0:0:0:
206,55,264952,5,0,3:2:0:0:
492,96,265159,1,8,0:0:0:0:
206,55,265573,1,0,3:0:0:0:
104,280,265780,6,0,L|111:222,1,58,10|0,0:0|0:0,0:0:0:0:
244,164,265987,2,0,L|199:200,1,58,2|0,0:0|0:0,0:0:0:0:
120,116,266193,1,2,3:2:0:0:
284,280,266400,6,0,L|342:273,1,58,2|0,0:0|0:0,0:0:0:0:
428,196,266607,2,0,L|370:189,1,58,2|0,3:0|0:0,0:0:0:0:
440,296,266814,1,10,0:2:0:0:
244,164,267021,6,0,L|237:107,1,58,2|0,0:0|0:0,0:0:0:0:
280,0,267228,1,2,3:2:0:0:
484,100,267435,6,0,L|477:157,1,58,10|0,0:0|0:0,0:0:0:0:
448,264,267642,1,2,0:2:0:0:
316,84,267849,2,0,P|220:136|248:272,1,260.999992034912,10|0,0:0|0:0,0:0:0:0:
276,296,268262,5,0,3:0:0:0:
256,192,268366,12,0,271366,0:0:0:0:
464,268,271573,6,0,P|400:300|328:264,1,145,0|0,3:0|0:0,0:0:0:0:
264,52,272400,1,8,0:0:0:0:
264,52,273021,2,0,L|116:72,1,145,0|0,3:0|0:0,0:0:0:0:
56,200,273642,2,0,L|62:250,1,50.749998451233,0|0,3:0|0:0,0:0:0:0:
168,192,273849,2,0,L|174:141,1,50.749998451233,0|0,3:0|0:0,0:0:0:0:
308,180,274056,2,0,B|316:248|316:248|284:308,1,116,8|0,0:0|0:0,0:0:0:0:
80,124,274469,2,0,B|42:44|100:-25|150:-27|185:-7|198:67|123:75,1,260.999992034912
388,132,274883,6,0,B|440:104|440:104|280:84,1,217.5,4|0,3:2|0:0,0:0:0:0:
189,105,275297,2,0,P|216:160|280:178,1,116
464,300,275711,2,0,P|472:360|400:328,1,174,8|0,0:0|0:0,0:0:0:0:
388,236,276125,1,0,0:0:0:0:
252,360,276331,1,0,3:0:0:0:
184,236,276538,6,0,L|56:244,1,116
140,72,276952,1,0,3:0:0:0:
28,220,277159,1,0,3:0:0:0:
248,132,277366,2,0,P|276:72|244:12,1,116,8|0,0:0|0:0,0:0:0:0:
64,140,277780,1,0,0:0:0:0:
64,140,277987,1,0,0:0:0:0:
280,220,278193,6,0,L|395:227,1,116,0|0,3:0|0:0,0:0:0:0:
460,172,278504,1,0,0:0:0:0:
460,172,278607,2,2,L|488:169,2,29
276,76,279021,2,0,B|216:72|216:72|168:104|168:104|108:100,1,174,8|0,0:0|0:0,0:0:0:0:
40,40,279435,1,0,0:0:0:0:
104,212,279642,1,0,3:0:0:0:
248,164,279849,6,0,L|363:156,1,116
476,304,280262,1,0,3:0:0:0:
300,244,280469,1,0,3:0:0:0:
468,84,280676,1,8,0:0:0:0:
468,84,280780,1,0,0:0:0:0:
468,84,280883,2,0,L|423:46,1,58
392,172,281090,1,0,0:0:0:0:
392,172,281193,1,0,0:0:0:0:
392,172,281297,2,0,L|436:209,1,58
308,328,281504,6,0,L|192:338,1,116,4|0,3:2|0:0,0:0:0:0:
128,288,281814,1,0,0:0:0:0:
128,288,281918,2,2,L|92:284,2,29
196,72,282331,2,0,B|220:24|220:24|256:148,1,174,8|0,0:0|0:0,0:0:0:0:
208,220,282745,1,0,0:0:0:0:
468,84,282952,5,4,3:2:0:0:
44,300,284814,6,0,B|85:325|139:289|139:289|193:253|248:289,1,217.5,4|0,3:2|0:0,0:0:0:0:
330,318,285228,2,0,P|330:258|292:214,1,116
128,68,285642,2,0,B|172:52|208:88|208:88|240:56|292:68,1,174,8|0,0:0|0:0,0:0:0:0:
352,136,286056,1,0,0:0:0:0:
200,240,286262,1,0,3:0:0:0:
88,156,286469,6,0,P|48:200|56:264,1,116
212,344,286883,1,0,3:0:0:0:
260,164,287090,1,0,3:0:0:0:
448,300,287297,2,0,B|480:212|480:212|456:112,1,174,8|0,0:0|0:0,0:0:0:0:
376,100,287711,2,0,B|420:56|420:56|488:48,1,116
352,248,288125,6,0,B|289:248|289:248|247:214,1,116,0|0,3:0|0:0,0:0:0:0:
168,100,288538,2,0,B|124:144|124:144|117:197,1,116
304,336,288952,2,0,L|108:336,1,174,8|0,0:0|0:0,0:0:0:0:
64,272,289366,1,0,0:0:0:0:
224,176,289573,1,0,3:0:0:0:
116,88,289780,6,0,P|152:40|208:40,1,116
336,172,290193,1,0,3:0:0:0:
184,280,290400,1,0,3:0:0:0:
288,72,290607,2,0,B|328:48|372:72|372:72|416:99|472:72,1,174,8|0,0:0|0:0,0:0:0:0:
496,164,291021,2,0,L|460:280,1,116
252,168,291435,6,0,L|136:204,1,116,0|0,3:0|0:0,0:0:0:0:
32,304,291849,2,0,L|115:328,1,86.9999973449708
288,356,292262,2,0,P|324:302|308:242,1,130.499996017456,8|0,0:0|0:0,0:0:0:0:
228,228,292676,1,0,0:0:0:0:
348,156,292883,1,0,3:0:0:0:
251,120,293090,6,0,P|274:78|327:61,1,86.9999973449708
392,76,293504,1,0,3:0:0:0:
392,76,293711,1,0,3:0:0:0:
476,156,293918,2,0,P|449:263|335:295,1,232,8|0,0:0|3:0,0:0:0:0:
144,144,295573,5,8,0:0:0:0:
256,192,295780,12,0,298056,0:0:0:0:
256,192,298883,12,0,306228,0:0:0:0:
32,32,306331,6,0,L|140:120,1,137.75
256,192,308400,12,0,309642,0:0:0:0:
