osu file format v14

[General]
AudioFilename: audio.mp3
AudioLeadIn: 0
PreviewTime: 131451
Countdown: 0
SampleSet: Soft
StackLeniency: 0.5
Mode: 0
LetterboxInBreaks: 0
WidescreenStoryboard: 0

[Editor]
Bookmarks: 600,30951,49236,67522,76665,94951,113236,131522,149808,168093,184378,202663,220949,239235,255235,262092,275806,298553
DistanceSpacing: 0.5
BeatDivisor: 8
GridSize: 32
TimelineZoom: 3.299998

[Metadata]
Title:disinteGration
TitleUnicode:disinteGration
Artist:RINYA.G
ArtistUnicode:RINYA.G
Creator:hehe
Version:A Dying World
Source:OneShot
Tags:RINYA.P Mitsuki ミツキ collapse panic solstice niko こむにこ! -Communikote with Cloverly Machine- comuniko! komuniko! re:spec respec otokaz electronic video game instrumental cover remix hardcore speedcore nightmargin casey gu
BeatmapID:3972386
BeatmapSetID:1924164

[Difficulty]
HPDrainRate:4
CircleSize:4
OverallDifficulty:9.6
ApproachRate:9.8
SliderMultiplier:1.4
SliderTickRate:1

[Events]
//Background and Video events
0,0,"cropped-1920-1080-951712.jpg",0,0
//Break Periods
//Storyboard Layer 0 (Background)
//Storyboard Layer 1 (Fail)
//Storyboard Layer 2 (Pass)
//Storyboard Layer 3 (Foreground)
//Storyboard Layer 4 (Overlay)
//Storyboard Sound Samples

[TimingPoints]
600,797.34219269103,4,2,1,20,1,0
600,-166.666666666667,4,2,1,20,0,0
15749,631.578947368421,4,2,1,20,1,0
16380,468.75,4,2,2,40,1,0
16836,1200,4,2,1,20,1,0
18036,342.857142857143,4,2,1,20,1,0
18378,-100,4,2,2,20,0,0
18514,797.34219269103,4,2,2,20,1,0
18550,-100,4,2,1,20,0,0
19311,857.142857142857,4,2,1,20,1,0
19739,500,4,2,2,40,1,0
20251,797.34219269103,4,2,1,20,1,0
21522,394.736842105263,4,2,2,40,1,0
21654,902.255639097745,4,2,2,40,1,0
21879,342.857142857143,4,2,2,40,1,0
22221,428.571428571429,4,2,2,40,1,0
22306,789.473684210526,4,2,1,20,1,0
23095,413.793103448276,4,2,2,40,1,0
23301,444.444444444444,4,2,2,40,1,0
23523,400,4,2,2,40,1,0
23884,428.571428571429,4,2,2,40,1,0
24312,387.096774193548,4,2,2,40,1,0
24505,413.793103448276,4,2,2,40,1,0
24711,363.636363636364,4,2,2,40,1,0
25074,400,4,2,2,40,1,0
25274,461.538461538462,4,2,2,40,1,0
25504,363.636363636364,4,2,2,40,1,0
25685,288.461538461539,4,2,2,40,1,0
25685,-155.764695863279,4,2,2,40,0,0
27992,283.018867924529,4,2,2,30,1,0
29124,285.714285714286,4,2,2,30,1,0
29981,272.727272727273,4,2,2,30,1,0
30253,300,4,2,2,30,1,0
30403,384.615384615385,4,2,2,30,1,0
30595,363.636363636364,4,2,2,30,1,0
30776,350.877192982457,4,2,2,30,1,0
30951,285.714285714286,4,2,1,50,1,0
40093,-83.3333333333333,4,2,1,55,0,0
49236,-71.4285714285714,4,2,2,60,0,0
49379,-71.4285714285714,4,2,3,60,0,0
56808,-71.4285714285714,4,2,1,60,0,0
56855,-71.4285714285714,4,2,3,60,0,0
58236,-71.4285714285714,4,2,2,60,0,0
58379,-71.4285714285714,4,2,2,65,0,0
58522,-71.4285714285714,4,2,4,65,0,0
59665,-71.4285714285714,4,2,3,65,0,0
60093,-71.4285714285714,4,2,4,65,0,0
60379,-71.4285714285714,4,2,3,65,0,0
61236,-71.4285714285714,4,2,4,65,0,0
61665,-71.4285714285714,4,2,3,65,0,0
61951,-71.4285714285714,4,2,4,65,0,0
62093,-71.4285714285714,4,2,3,65,0,0
62379,-71.4285714285714,4,2,5,65,0,0
62522,-71.4285714285714,4,2,4,65,0,0
62951,-62.5,4,2,5,65,0,0
64022,-62.5,4,2,6,65,0,0
64093,-62.5,4,2,5,65,0,0
64236,-62.5,4,2,4,65,0,0
64379,-62.5,4,2,5,65,0,0
64522,-62.5,4,2,4,65,0,0
64665,-62.5,4,2,5,65,0,0
64808,-62.5,4,2,4,65,0,0
64951,-62.5,4,2,5,65,0,0
65093,-62.5,4,2,4,65,0,0
65236,-50,4,2,7,70,0,0
65308,-50,4,2,6,70,0,0
65379,-50,4,2,5,70,0,0
65451,-50,4,2,6,70,0,0
65522,-50,4,2,5,70,0,0
65593,-50,4,2,6,70,0,0
65665,-50,4,2,5,70,0,0
65736,-50,4,2,6,70,0,0
65808,-50,4,2,5,70,0,0
65879,-50,4,2,6,70,0,0
65951,-50,4,2,5,70,0,0
66022,-50,4,2,6,70,0,0
66093,-50,4,2,5,70,0,0
66165,-50,4,2,6,70,0,0
66236,-50,4,2,5,70,0,0
66308,-50,4,2,6,70,0,0
66379,-50,4,2,5,70,0,0
66665,-50,4,2,2,70,0,0
66701,-50,4,2,1,70,0,0
66736,-50,4,2,2,70,0,0
66772,-50,4,2,1,70,0,0
66808,-50,4,2,2,70,0,0
66843,-50,4,2,1,70,0,0
66879,-50,4,2,2,70,0,0
66915,-50,4,2,1,70,0,0
66951,-50,4,2,2,70,0,0
66968,-50,4,2,1,70,0,0
67022,-50,4,2,2,70,0,0
67040,-50,4,2,1,70,0,0
67093,-50,4,2,2,70,0,0
67111,-50,4,2,1,70,0,0
67165,-50,4,2,2,70,0,0
67183,-50,4,2,4,70,0,0
67236,-100,4,2,4,70,0,0
67522,-50,4,2,1,90,0,1
69522,-50,4,2,11,90,0,1
76379,-76.9230769230769,4,2,6,90,0,1
76665,-100,4,2,1,50,0,0
81236,-71.4285714285714,4,2,1,60,0,0
81522,-71.4285714285714,4,2,8,60,0,0
85808,-71.4285714285714,4,2,8,65,0,0
94951,-71.4285714285714,4,2,8,70,0,0
95236,-55.5555555555556,4,2,8,70,0,0
104093,-45.4545454545455,4,2,8,70,0,0
104379,-45.4545454545455,4,2,6,70,0,0
104665,-45.4545454545455,4,2,1,70,0,0
104951,-45.4545454545455,4,2,6,70,0,0
105236,-45.4545454545455,4,2,1,70,0,0
105522,-45.4545454545455,4,2,6,70,0,0
105808,-45.4545454545455,4,2,1,70,0,0
106093,-45.4545454545455,4,2,6,70,0,0
106379,-45.4545454545455,4,2,1,70,0,0
106665,-45.4545454545455,4,2,6,70,0,0
106951,-45.4545454545455,4,2,1,70,0,0
107236,-45.4545454545455,4,2,6,70,0,0
107522,-45.4545454545455,4,2,1,70,0,0
107808,-45.4545454545455,4,2,6,70,0,0
108093,-45.4545454545455,4,2,1,70,0,0
108379,-45.4545454545455,4,2,6,70,0,0
108665,-45.4545454545455,4,2,4,70,0,0
109736,-45.4545454545455,4,2,6,70,0,0
109808,-45.4545454545455,4,2,4,70,0,0
110951,-45.4545454545455,4,2,6,70,0,0
112665,-45.4545454545455,4,2,11,70,0,0
113236,-50,4,2,1,80,0,0
113522,-50,4,2,6,80,0,0
113808,-50,4,2,1,80,0,0
114093,-50,4,2,6,80,0,0
114379,-50,4,2,1,80,0,0
114665,-50,4,2,6,80,0,0
114951,-50,4,2,1,80,0,0
115236,-50,4,2,6,80,0,0
115522,-50,4,2,4,80,0,0
115808,-50,4,2,6,80,0,0
116093,-50,4,2,1,80,0,0
116379,-50,4,2,6,80,0,0
116665,-50,4,2,1,80,0,0
116951,-50,4,2,6,80,0,0
117236,-50,4,2,1,80,0,0
117522,-50,4,2,6,80,0,0
117808,-50,4,2,4,80,0,0
118093,-50,4,2,6,80,0,0
118379,-50,4,2,1,80,0,0
118665,-50,4,2,6,80,0,0
118951,-50,4,2,1,80,0,0
119236,-50,4,2,6,80,0,0
119522,-50,4,2,1,80,0,0
119808,-50,4,2,6,80,0,0
120093,-50,4,2,4,80,0,0
120379,-50,4,2,6,80,0,0
120665,-50,4,2,1,80,0,0
120951,-50,4,2,6,80,0,0
121236,-50,4,2,1,80,0,0
121522,-50,4,2,6,80,0,0
121808,-50,4,2,1,80,0,0
122093,-50,4,2,6,80,0,0
122236,-50,4,2,1,80,0,0
122665,-50,4,2,6,80,0,0
122951,-50,4,2,1,80,0,0
123236,-50,4,2,9,80,0,0
123522,-50,4,2,1,80,0,0
123808,-50,4,2,6,80,0,0
124093,-50,4,2,1,80,0,0
124379,-50,4,2,9,80,0,0
124665,-50,4,2,4,80,0,0
124951,-50,4,2,6,80,0,0
125236,-50,4,2,1,80,0,0
125522,-50,4,2,9,80,0,0
125808,-50,4,2,1,80,0,0
126093,-50,4,2,6,80,0,0
126379,-50,4,2,1,80,0,0
126665,-50,4,2,9,80,0,0
126951,-50,4,2,4,80,0,0
127236,-50,4,2,6,80,0,0
127522,-50,4,2,1,80,0,0
127808,-50,4,2,9,80,0,0
128093,-50,4,2,1,80,0,0
128379,-50,4,2,6,80,0,0
128665,-50,4,2,1,80,0,0
128951,-50,4,2,9,80,0,0
129236,-50,4,2,4,80,0,0
129522,-50,4,2,6,80,0,0
129808,-50,4,2,1,80,0,0
130093,-50,4,2,9,80,0,0
130379,-50,4,2,1,80,0,0
130522,-50,4,2,9,80,0,0
130951,-50,4,2,1,80,0,0
131093,-50,4,2,6,80,0,0
131522,-41.6666666666667,4,2,1,80,0,1
131808,-41.6666666666667,4,2,6,80,0,1
132093,-41.6666666666667,4,2,8,80,0,1
132379,-41.6666666666667,4,2,6,80,0,1
132665,-41.6666666666667,4,2,8,80,0,1
132951,-41.6666666666667,4,2,6,80,0,1
133236,-41.6666666666667,4,2,8,80,0,1
133522,-41.6666666666667,4,2,6,80,0,1
133808,-41.6666666666667,4,2,4,80,0,1
134093,-41.6666666666667,4,2,6,80,0,1
134379,-41.6666666666667,4,2,8,80,0,1
134665,-41.6666666666667,4,2,6,80,0,1
134951,-41.6666666666667,4,2,8,80,0,1
135236,-41.6666666666667,4,2,6,80,0,1
135522,-41.6666666666667,4,2,8,80,0,1
135808,-41.6666666666667,4,2,6,80,0,1
136093,-41.6666666666667,4,2,4,80,0,1
136379,-41.6666666666667,4,2,6,80,0,1
136665,-41.6666666666667,4,2,8,80,0,1
136951,-41.6666666666667,4,2,6,80,0,1
137236,-41.6666666666667,4,2,8,80,0,1
137522,-41.6666666666667,4,2,6,80,0,1
137808,-41.6666666666667,4,2,8,80,0,1
138093,-41.6666666666667,4,2,6,80,0,1
138379,-41.6666666666667,4,2,4,80,0,1
138665,-41.6666666666667,4,2,6,80,0,1
138951,-41.6666666666667,4,2,8,80,0,1
139236,-41.6666666666667,4,2,6,80,0,1
139522,-41.6666666666667,4,2,8,80,0,1
139808,-41.6666666666667,4,2,6,80,0,1
140093,-41.6666666666667,4,2,8,80,0,1
140379,-41.6666666666667,4,2,6,80,0,1
140522,-41.6666666666667,4,2,1,80,0,1
140951,-41.6666666666667,4,2,6,80,0,1
141236,-41.6666666666667,4,2,8,80,0,1
141522,-41.6666666666667,4,2,6,80,0,1
141808,-41.6666666666667,4,2,8,80,0,1
142093,-41.6666666666667,4,2,6,80,0,1
142379,-41.6666666666667,4,2,8,80,0,1
142665,-41.6666666666667,4,2,6,80,0,1
142951,-41.6666666666667,4,2,4,80,0,1
143236,-41.6666666666667,4,2,6,80,0,1
143522,-41.6666666666667,4,2,8,80,0,1
143808,-41.6666666666667,4,2,6,80,0,1
144093,-41.6666666666667,4,2,8,80,0,1
144379,-41.6666666666667,4,2,6,80,0,1
144665,-41.6666666666667,4,2,8,80,0,1
144951,-41.6666666666667,4,2,6,80,0,1
145236,-41.6666666666667,4,2,10,80,0,1
145522,-41.6666666666667,4,2,6,80,0,1
146379,-41.6666666666667,4,2,10,80,0,1
146665,-41.6666666666667,4,2,9,80,0,1
149379,-41.6666666666667,4,2,11,80,0,1
149808,-83.3333333333333,4,2,1,80,0,0
152093,-83.3333333333333,4,2,1,50,0,0
158951,-83.3333333333333,4,2,1,55,0,0
161236,-71.4285714285714,4,2,1,60,0,0
163522,-55.5555555555556,4,2,1,65,0,0
163808,-55.5555555555556,4,2,12,65,0,0
164093,-55.5555555555556,4,2,1,65,0,0
164379,-55.5555555555556,4,2,12,65,0,0
164665,-55.5555555555556,4,2,1,65,0,0
164951,-55.5555555555556,4,2,2,65,0,0
165093,-55.5555555555556,4,2,1,65,0,0
165236,-55.5555555555556,4,2,2,65,0,0
165522,-55.5555555555556,4,2,12,65,0,0
165593,-55.5555555555556,4,2,2,65,0,0
165808,-45.4545454545455,4,2,2,70,0,0
166093,-45.4545454545455,4,2,12,70,0,0
166379,-45.4545454545455,4,2,1,70,0,0
166665,-45.4545454545455,4,2,12,70,0,0
166951,-100,4,2,1,70,0,0
168093,285.714285714286,7,2,12,70,1,0
168093,-62.5,7,2,12,70,0,0
168378,-62.5,7,2,1,70,0,0
168521,-62.5,7,2,12,70,0,0
168807,-62.5,7,2,1,70,0,0
168950,-62.5,7,2,12,70,0,0
169235,-62.5,7,2,11,70,0,0
171807,-62.5,7,2,1,70,0,0
172093,-62.5,7,2,12,70,0,0
172378,-62.5,7,2,1,70,0,0
172521,-62.5,7,2,12,70,0,0
173235,-62.5,7,2,11,70,0,0
176093,-62.5,7,2,12,70,0,0
176378,-62.5,7,2,1,70,0,0
176521,-62.5,7,2,12,70,0,0
176807,-62.5,7,2,1,70,0,0
176950,-62.5,7,2,12,70,0,0
177235,-62.5,7,2,11,70,0,0
178093,-62.5,7,2,12,70,0,0
179950,-62.5,7,2,1,70,0,0
180093,-62.5,7,2,1,75,0,0
180378,-62.5,7,2,12,75,0,0
180950,-62.5,7,2,12,80,0,0
182093,-62.5,7,2,12,85,0,0
183093,-62.5,7,2,1,85,0,0
183235,-62.5,7,2,1,90,0,0
184378,285.714285714286,4,2,1,70,1,0
184378,-500.000000000003,4,2,1,70,0,0
184949,-500.000000000003,4,2,1,50,0,0
190092,-100,4,2,1,50,0,0
194378,-500,4,2,1,50,0,0
198092,-100,4,2,1,50,0,0
202663,-71.4285714285714,4,2,1,60,0,0
203806,-71.4285714285714,4,2,6,60,0,0
204949,-71.4285714285714,4,2,1,60,0,0
206092,-71.4285714285714,4,2,6,60,0,0
207020,-71.4285714285714,4,2,1,60,0,0
208378,-71.4285714285714,4,2,6,60,0,0
209520,-71.4285714285714,4,2,1,60,0,0
210663,-71.4285714285714,4,2,6,60,0,0
211520,-71.4285714285714,4,2,1,60,0,0
211806,-62.5,4,2,1,60,0,0
212949,-62.5,4,2,6,60,0,0
213806,-62.5,4,2,1,60,0,0
215235,-62.5,4,2,6,60,0,0
215520,-62.5,4,2,1,60,0,0
217520,-62.5,4,2,6,60,0,0
218378,-62.5,4,2,1,60,0,0
219806,-62.5,4,2,6,60,0,0
220092,-62.5,4,2,1,60,0,0
220378,-62.5,4,2,6,60,0,0
220663,-62.5,4,2,1,60,0,0
220949,-50,4,2,1,70,0,0
221235,-50,4,2,6,70,0,0
221520,-50,4,2,1,70,0,0
221806,-50,4,2,6,70,0,0
222092,-50,4,2,1,70,0,0
222378,-50,4,2,6,70,0,0
222520,-50,4,2,1,70,0,0
222949,-50,4,2,6,70,0,0
223235,-50,4,2,1,70,0,0
223520,-50,4,2,6,70,0,0
223806,-50,4,2,1,70,0,0
224092,-50,4,2,6,70,0,0
224378,-50,4,2,1,70,0,0
224663,-50,4,2,6,70,0,0
224806,-50,4,2,1,70,0,0
225235,-50,4,2,6,70,0,0
225378,-50,4,2,1,70,0,0
225806,-50,4,2,6,70,0,0
226092,-50,4,2,1,70,0,0
226378,-50,4,2,6,70,0,0
226663,-50,4,2,1,70,0,0
226949,-50,4,2,6,70,0,0
227092,-50,4,2,1,70,0,0
227520,-50,4,2,6,70,0,0
227806,-50,4,2,1,70,0,0
228092,-50,4,2,6,70,0,0
228378,-50,4,2,1,70,0,0
228663,-50,4,2,6,70,0,0
228949,-50,4,2,1,70,0,0
229235,-50,4,2,6,70,0,0
229378,-50,4,2,1,70,0,0
229806,-50,4,2,6,70,0,0
229949,-50,4,2,1,70,0,0
230378,-50,4,2,6,70,0,0
230663,-50,4,2,1,70,0,0
230949,-50,4,2,6,70,0,0
231235,-50,4,2,1,70,0,0
231520,-50,4,2,6,70,0,0
231663,-50,4,2,1,70,0,0
232092,-50,4,2,6,70,0,0
232378,-50,4,2,1,70,0,0
232663,-50,4,2,6,70,0,0
232949,-50,4,2,1,70,0,0
233235,-50,4,2,6,70,0,0
233520,-50,4,2,1,70,0,0
233806,-50,4,2,6,70,0,0
233949,-50,4,2,1,70,0,0
234378,-50,4,2,6,70,0,0
234520,-50,4,2,1,70,0,0
234949,-50,4,2,6,70,0,0
235235,-50,4,2,1,70,0,0
235520,-50,4,2,6,70,0,0
235806,-50,4,2,1,70,0,0
236092,-50,4,2,6,70,0,0
236235,-50,4,2,1,70,0,0
236663,-50,4,2,6,70,0,0
236949,-50,4,2,1,70,0,0
237235,-50,4,2,6,70,0,0
237520,-50,4,2,1,70,0,0
237806,-50,4,2,6,70,0,0
238092,-50,4,2,1,70,0,0
238378,-50,4,2,6,70,0,0
238520,-50,4,2,1,70,0,0
238949,-50,4,2,6,70,0,0
239092,-50,4,2,1,70,0,0
239235,-100,4,2,1,70,0,0
239520,-100,4,2,1,50,0,0
256378,-100,4,2,2,40,0,0
257520,-100,4,2,1,30,0,0
258663,-100,4,2,2,20,0,0
259806,-100,4,2,1,20,0,0
260949,-100,4,2,2,30,0,0
262092,-166.666666666667,4,2,1,40,0,0
263235,-125,4,2,1,45,0,0
264378,-90.9090909090909,4,2,1,50,0,0
265520,-66.6666666666667,4,2,1,55,0,0
266663,-66.6666666666667,4,2,1,60,0,0
267806,-55.5555555555556,4,2,1,65,0,0
268949,-47.6190476190476,4,2,1,70,0,0
270092,-41.6666666666667,4,2,1,75,0,0
271235,-41.6666666666667,4,2,1,80,0,0
273520,-41.6666666666667,4,2,1,70,0,0
274092,-41.6666666666667,4,2,1,60,0,0
275806,-100,4,2,9,90,0,1
277806,-100,4,2,6,90,0,1
278092,278.422273781903,4,2,9,90,1,1
279762,-100,4,2,6,90,0,1
280319,271.493212669684,4,2,9,90,1,1
282219,-100,4,2,6,90,0,1
282490,-100,4,2,9,90,0,1
283576,267.857142857143,4,2,11,90,1,1
283576,-33.3333333333333,4,2,11,90,0,1
284647,265.486725663717,4,2,9,90,1,1
286239,-100,4,2,6,90,0,1
286770,257.510729613734,4,2,9,90,1,1
288186,-100,4,2,6,90,0,1
288830,253.164556962026,3,2,6,90,1,1
288830,-50,3,2,6,90,0,1
289589,252.100840336135,3,2,6,90,1,1
289589,-50,3,2,6,90,0,1
290345,251.046025104603,3,2,6,90,1,1
290345,-50,3,2,6,90,0,1
291098,250,3,2,6,90,1,1
291098,-50,3,2,6,90,0,1
291848,240,3,2,6,90,1,1
291848,-50,3,2,6,90,0,1
292568,235.294117647059,3,2,6,90,1,1
292568,-50,3,2,6,90,0,1
293273,222.222222222222,3,2,6,80,1,1
293939,203.389830508475,3,2,6,70,1,1
294549,187.5,3,2,6,60,1,1
295111,166.666666666667,3,2,6,50,1,1
295611,150,3,2,6,40,1,1
296061,136.363636363636,3,2,6,30,1,1
296879,150,3,2,6,20,1,1
297179,164.383561643836,3,2,6,20,1,1
297507,187.5,3,2,6,20,1,1
297882,200,3,2,6,20,1,1
298282,135.135135135135,3,2,6,20,1,1
298553,90.09009009009,3,2,6,30,1,0
298553,-200,3,2,6,30,0,0
302877,270.27027027027,4,2,6,50,1,0
302877,-1000,4,2,6,50,0,0
307201,230.769230769231,4,2,2,40,1,0
307201,-250,4,2,2,40,0,0

[Colours]
Combo1 : 202,96,255
Combo2 : 66,230,178
Combo3 : 39,200,200
Combo4 : 10,164,226
Combo5 : 0,132,248
Combo6 : 18,112,255
Combo7 : 75,102,255
Combo8 : 146,98,255

[HitObjects]
134,111,600,22,0,P|148:150|159:191,1,83.9999974365235,2|0,2:2|0:0,0:0:0:0:
159,191,1796,1,0,2:2:0:0:
235,169,2194,2,0,P|223:128|209:88,1,83.9999974365235,2|2,2:2|2:2,0:0:0:0:
397,47,3789,6,0,P|382:86|371:127,1,83.9999974365235,2|0,2:2|0:0,0:0:0:0:
372,127,4985,1,0,2:2:0:0:
296,105,5383,2,0,P|307:64|321:24,1,83.9999974365235,2|2,2:2|2:2,0:0:0:0:
490,216,6978,5,2,2:2:0:0:
490,216,7776,1,2,2:2:0:0:
422,250,8174,1,2,2:2:0:0:
381,187,8573,1,2,2:2:0:0:
232,316,9370,1,2,2:2:0:0:
77,196,10168,5,2,2:2:0:0:
77,196,10965,1,2,2:2:0:0:
151,177,11364,1,2,2:2:0:0:
174,248,11762,1,2,2:2:0:0:
296,149,12560,1,2,2:2:0:0:
201,23,13357,6,0,P|161:37|120:48,1,83.9999974365235,2|0,2:2|0:0,0:0:0:0:
121,48,14553,1,0,2:2:0:0:
143,124,14951,2,0,P|183:112|223:98,1,83.9999974365235,2|2,2:2|2:2,0:0:0:0:
423,90,16380,6,0,L|417:68,4,17.5,2|0|0|0|0,2:2|0:0|0:0|0:0|0:0,0:0:0:0:
491,125,16836,2,0,P|482:165|472:240,1,105,2|0,2:2|0:0,0:0:0:0:
472,228,18036,1,2,2:2:0:0:
184,289,18378,6,0,L|188:313,2,17.5,2|0|0,2:2|0:0|0:0,0:0:0:0:
257,363,18514,2,0,P|260:318|271:248,1,105,0|0,2:2|0:0,0:0:0:0:
268,258,19311,1,2,2:2:0:0:
89,160,19739,102,0,L|58:169,2,17.5,2|0|0,2:2|0:0|0:0,0:0:0:0:
204,21,20251,2,0,P|247:40|351:53,1,140,2|0,2:2|0:0,0:0:0:0:
410,159,21522,102,0,L|436:152,2,17.5,2|0|0,2:2|0:0|0:0,0:0:0:0:
278,273,21879,102,0,L|282:248,2,17.5,2|0|0,2:2|0:0|0:0,0:0:0:0:
334,188,22050,2,0,L|338:213,2,17.5,2|0|0,2:2|0:0|0:0,0:0:0:0:
261,87,22221,2,0,L|235:79,1,17.5,2|0,2:2|0:0,0:0:0:0:
244,81,22306,102,0,P|203:92|127:98,1,105,2|0,2:2|0:0,0:0:0:0:
32,14,23095,102,0,L|24:37,2,17.5,2|0|0,2:2|0:0|0:0,0:0:0:0:
64,98,23356,2,0,L|67:127,1,17.5,0|0,2:2|0:0,0:0:0:0:
9,185,23523,102,0,L|36:178,2,17.5,2|0|0,2:2|0:0|0:0,0:0:0:0:
145,105,23723,2,0,L|172:112,2,17.5,2|0|0,2:2|0:0|0:0,0:0:0:0:
236,126,23884,101,2,2:2:0:0:
221,325,24098,2,0,L|226:281,1,35,2|0,2:2|0:0,0:0:0:0:
170,237,24312,6,0,L|152:243,2,17.5,2|0|0,2:2|0:0|0:0,0:0:0:0:
325,310,24505,6,0,L|345:317,2,17.5,2|0|0,2:2|0:0|0:0,0:0:0:0:
439,155,24711,6,0,L|417:162,2,17.5,2|0|0,2:2|0:0|0:0,0:0:0:0:
486,375,24892,6,0,L|479:355,2,17.5,2|0|0,2:2|0:0|0:0,0:0:0:0:
254,226,25074,6,0,L|245:253,2,17.5,2|0|0,2:2|0:0|0:0,0:0:0:0:
290,157,25274,6,0,L|283:121,1,35,2|0,0:0|0:0,0:0:0:0:
216,82,25504,5,2,2:2:0:0:
266,24,25685,102,0,B|265:32|265:32|261:32|261:32|265:32|265:32|265:36|265:36|263:39|263:39|259:37|259:37|263:39|263:39|259:45|259:45|259:45|259:45|263:46|263:46|259:45|259:45|257:53|257:53|253:52|253:52|257:53|257:53|257:53|257:53|255:55|253:60|253:60|256:62|256:62|253:60|253:60|252:61|251:63|251:63|251:67|251:67|247:67|247:67|251:67|251:67|251:75|251:75|255:75|255:75|251:75|251:75|251:76|251:76|249:82|249:82|253:83|253:83|249:82|249:82|249:82|249:82|249:90|249:90|246:90|246:90|249:90|249:90|249:94|249:94|248:96|248:98|248:98|245:96|245:96|248:98|248:98|247:101|245:105|245:105|241:103|241:103|245:105|245:105|245:105|245:105|243:112|243:112|243:112|243:112|239:111|239:111|243:112|243:112|241:116|240:119|240:119|236:118|236:118|240:119|240:119|239:120|238:122|238:122|238:126|238:126|242:126|242:126|238:126|238:126|238:134|238:134|238:134|238:134|234:134|234:134|238:134|238:134|237:142|237:142|237:142|237:142|233:142|233:142|237:142|237:142|237:150|237:150|241:150|241:150|237:150|237:150|237:154|237:154|236:155|235:157|235:157|239:158|239:158|235:157|235:157|234:160|232:164|232:164|236:166|236:166|232:164|232:164|232:164|232:164|231:172|231:172|227:171|227:171|231:172|231:172|231:172|231:172|229:176|228:179|228:179|224:177|224:177|228:179|228:179|226:182|226:183|226:183|226:185|227:187|227:187|222:187|222:187|227:187|227:187|227:191|227:194|227:194|231:194|231:194|227:194|227:194|227:194|227:194|226:201|226:201|226:202|226:202|222:202|222:202|226:202|226:202|227:206|227:209|227:209|231:209|231:209|227:209|227:209|227:211|227:213|227:213|227:215|226:217|226:217|230:219|230:219|226:217|226:217|225:220|223:224|223:224|223:225|223:225|219:224|219:224|223:225|223:225|222:231|222:231|222:232|222:232|218:230|218:230|222:232|222:232|219:239|219:239|223:240|223:240|219:239|219:239|218:243|218:243|218:245|218:247|218:247|222:247|222:247|218:247|218:247|218:250|219:254|219:254|219:255|219:255|215:255|215:255|219:255|219:255|219:262|219:262|219:263|219:263|215:263|215:263|219:263|219:263|219:267|220:270|220:270|224:269|224:269|220:270|220:270|220:273|220:273|219:275|219:277|219:277|223:279|223:279|219:277|219:277|218:281|217:284|217:284|217:285|217:285|221:286|221:286|217:285|217:285|216:292|216:292|216:293|216:293|220:294|220:294|216:293|216:293|213:301|213:301|210:299|210:299|213:301|213:301|212:304|212:304|213:307|213:307|217:307|217:307|213:307|213:307|214:315|214:315|214:315|214:315|218:315|218:315|214:315|214:315|214:322|214:322|214:323|214:323|218:322|218:322|214:323|214:323|215:327|216:331|216:331|212:332|212:332|216:331|216:331|217:334|217:334|215:339|215:339|219:340|219:340|215:339|215:339|214:342|214:342|214:343,1,674.09370608614,2|0,2:2|0:0,0:0:0:0:
256,192,27992,12,0,30595,0:0:0:0:
151,155,30951,101,12,3:2:0:0:
151,155,31093,1,0,2:2:0:0:
220,121,31236,1,2,2:2:0:0:
220,121,31379,1,0,2:2:0:0:
254,190,31522,1,2,2:2:0:0:
254,190,31665,1,0,2:2:0:0:
185,224,31808,1,2,2:2:0:0:
185,224,31951,1,0,2:2:0:0:
129,147,32093,102,0,P|129:112|126:77,1,70,2|0,2:2|0:0,0:0:0:0:
190,27,32379,1,0,2:2:0:0:
366,132,32522,2,0,P|366:166|369:201,1,70,2|0,2:2|0:0,0:0:0:0:
305,252,32808,1,0,2:2:0:0:
305,252,32951,1,2,2:2:0:0:
44,249,33236,101,2,2:2:0:0:
44,249,33379,1,0,2:2:0:0:
57,329,33522,1,2,2:2:0:0:
57,329,33665,1,0,2:2:0:0:
133,357,33808,1,2,2:2:0:0:
133,357,33951,1,0,2:2:0:0:
196,305,34093,1,2,2:2:0:0:
196,305,34236,1,0,2:2:0:0:
167,178,34379,102,0,P|129:183|93:182,1,70,2|0,2:2|0:0,0:0:0:0:
61,253,34665,1,0,2:2:0:0:
257,360,34808,2,0,P|295:355|331:356,1,70,2|0,2:2|0:0,0:0:0:0:
363,285,35094,1,0,2:2:0:0:
311,225,35236,1,2,2:2:0:0:
419,126,35379,1,0,2:2:0:0:
276,97,35522,101,2,2:2:0:0:
276,97,35664,1,0,2:2:0:0:
345,131,35807,1,2,2:2:0:0:
345,131,35950,1,0,2:2:0:0:
379,62,36093,1,2,2:2:0:0:
379,62,36236,1,0,2:2:0:0:
310,28,36379,1,2,2:2:0:0:
310,28,36522,1,0,2:2:0:0:
252,114,36665,102,0,P|257:152|256:188,1,70,2|0,2:2|0:0,0:0:0:0:
327,220,36951,1,0,2:2:0:0:
221,372,37093,2,0,P|216:334|217:298,1,70,2|0,2:2|0:0,0:0:0:0:
146,266,37379,1,0,2:2:0:0:
146,266,37522,1,2,2:2:0:0:
402,319,37808,5,2,2:2:0:0:
402,319,37951,1,0,2:2:0:0:
377,244,38093,1,2,2:2:0:0:
377,244,38236,1,0,2:2:0:0:
428,183,38379,1,2,2:2:0:0:
428,183,38522,1,0,2:2:0:0:
507,193,38665,1,2,2:2:0:0:
507,193,38808,1,0,2:2:0:0:
402,319,38951,6,0,P|364:314|328:315,1,70,2|0,2:2|0:0,0:0:0:0:
296,244,39237,1,0,2:2:0:0:
401,118,39379,2,0,P|439:123|475:122,1,70,2|0,2:2|0:0,0:0:0:0:
507,193,39665,1,0,2:2:0:0:
457,252,39808,1,2,2:2:0:0:
321,167,39951,1,0,2:2:0:0:
230,299,40093,6,0,P|160:285|111:284,1,83.9999974365235,12|0,3:2|0:0,0:0:0:0:
63,190,40379,1,2,2:2:0:0:
63,190,40451,1,0,2:2:0:0:
63,190,40522,1,0,2:2:0:0:
63,190,40593,1,0,2:2:0:0:
63,190,40665,1,2,2:2:0:0:
6,249,40808,1,0,2:2:0:0:
40,324,40951,2,0,P|110:338|159:339,1,83.9999974365235,2|0,2:2|0:0,0:0:0:0:
177,245,41236,5,2,2:2:0:0:
227,365,41379,1,0,2:2:0:0:
287,309,41522,2,0,P|278:262|278:215,1,83.9999974365235,0|2,2:2|2:2,0:0:0:0:
373,351,41808,1,0,2:2:0:0:
373,351,41879,1,0,2:2:0:0:
373,351,41951,1,0,2:2:0:0:
373,351,42022,1,0,2:2:0:0:
373,351,42093,1,2,2:2:0:0:
439,313,42236,1,0,2:2:0:0:
507,353,42379,6,0,P|513:311|509:269,1,83.9999974365235,2|0,2:2|0:0,0:0:0:0:
442,148,42665,1,2,2:2:0:0:
442,148,42736,1,0,2:2:0:0:
442,148,42808,1,0,2:2:0:0:
442,148,42879,1,0,2:2:0:0:
442,148,42951,2,0,P|436:189|440:231,1,83.9999974365235,2|0,2:2|0:0,0:0:0:0:
305,313,43236,2,0,P|310:271|306:229,1,83.9999974365235,2|0,2:2|0:0,0:0:0:0:
245,163,43522,5,2,2:2:0:0:
245,163,43593,1,0,2:2:0:0:
245,163,43665,1,0,2:2:0:0:
245,163,43736,1,0,2:2:0:0:
245,163,43808,1,0,2:2:0:0:
341,94,43951,1,2,2:2:0:0:
293,31,44093,2,0,P|241:37|194:32,1,83.9999974365235,0|0,2:2|0:0,0:0:0:0:
98,106,44379,1,2,2:2:0:0:
172,201,44522,1,0,2:2:0:0:
111,255,44665,6,0,P|116:296|117:338,1,83.9999974365235,2|0,2:2|0:0,0:0:0:0:
236,373,44951,1,2,2:2:0:0:
236,373,45022,1,0,2:2:0:0:
236,373,45093,1,0,2:2:0:0:
236,373,45165,1,0,2:2:0:0:
236,373,45236,1,2,2:2:0:0:
300,322,45379,1,0,2:2:0:0:
383,361,45522,2,0,P|378:320|377:278,1,83.9999974365235,2|0,2:2|0:0,0:0:0:0:
310,202,45808,101,2,2:2:0:0:
452,121,45951,1,0,2:2:0:0:
370,17,46093,2,0,P|375:58|376:100,1,83.9999974365235,0|2,2:2|2:2,0:0:0:0:
233,169,46379,1,0,2:2:0:0:
233,169,46451,1,0,2:2:0:0:
233,169,46522,1,0,2:2:0:0:
233,169,46593,1,0,2:2:0:0:
233,169,46665,2,0,P|228:128|227:86,1,83.9999974365235,2|0,2:2|0:0,0:0:0:0:
164,16,46951,101,2,2:2:0:0:
106,117,47093,1,0,2:2:0:0:
7,75,47236,1,2,2:2:0:0:
7,75,47308,1,0,2:2:0:0:
7,75,47379,1,0,2:2:0:0:
7,75,47451,1,0,2:2:0:0:
7,75,47522,1,2,2:2:0:0:
79,43,47665,1,0,2:2:0:0:
106,117,47808,2,0,P|161:117|207:122,1,83.9999974365235,2|0,2:2|0:0,0:0:0:0:
259,69,48093,101,2,2:2:0:0:
314,192,48236,1,0,2:2:0:0:
373,134,48379,1,0,2:2:0:0:
373,134,48522,1,2,2:2:0:0:
338,59,48665,101,0,2:2:0:0:
236,146,48808,1,0,2:2:0:0:
114,110,48951,1,2,2:2:0:0:
114,110,49093,1,0,2:2:0:0:
195,27,49236,102,0,P|195:89|199:149,1,97.9999970092774,12|0,3:2|2:2,0:0:0:0:
274,220,49522,1,2,2:2:0:0:
274,220,49593,1,0,2:2:0:0:
274,220,49665,1,0,2:2:0:0:
206,278,49808,1,2,2:2:0:0:
95,191,49951,1,0,2:2:0:0:
95,191,50022,1,0,2:2:0:0:
95,191,50093,1,2,2:2:0:0:
239,90,50236,1,0,2:2:0:0:
283,187,50379,101,2,2:2:0:0:
283,187,50451,1,0,2:2:0:0:
283,187,50522,1,0,2:2:0:0:
283,187,50593,1,0,2:2:0:0:
283,187,50665,2,0,P|335:180|386:181,1,97.9999970092774,8|2,2:2|2:2,0:0:0:0:
380,180,50879,1,0,2:2:0:0:
380,180,50951,2,0,L|388:227,2,24.4999992523194,0|0|0,2:2|2:2|2:2,0:0:0:0:
468,218,51093,1,0,2:2:0:0:
468,218,51165,1,0,2:2:0:0:
468,218,51236,1,2,2:2:0:0:
432,295,51379,1,0,2:2:0:0:
512,384,51522,102,0,P|511:331|513:276,1,97.9999970092774,10|0,2:2|2:2,0:0:0:0:
363,334,51808,1,2,2:2:0:0:
363,334,51879,1,0,2:2:0:0:
363,334,51951,1,0,2:2:0:0:
320,256,52093,1,2,2:2:0:0:
250,295,52236,1,0,2:2:0:0:
250,295,52308,1,0,2:2:0:0:
250,295,52379,1,2,2:2:0:0:
121,199,52522,1,0,2:2:0:0:
53,324,52665,5,2,2:2:0:0:
53,324,52736,1,0,2:2:0:0:
53,324,52808,1,8,2:2:0:0:
53,324,52879,1,0,2:2:0:0:
53,324,52951,2,0,P|112:317|177:322,1,97.9999970092774,0|2,2:2|2:2,0:0:0:0:
150,318,53165,1,0,2:2:0:0:
150,318,53236,2,0,P|148:288|146:271,2,24.4999992523194,0|0|0,2:2|2:2|2:2,0:0:0:0:
204,235,53379,1,0,2:2:0:0:
204,235,53451,1,0,2:2:0:0:
204,235,53522,6,0,P|205:177|200:127,1,97.9999970092775,10|0,2:2|2:2,0:0:0:0:
120,98,53736,1,0,2:2:0:0:
120,98,53808,2,0,P|119:156|124:206,1,97.9999970092774,10|0,2:2|2:2,0:0:0:0:
0,264,54093,1,2,2:2:0:0:
0,264,54165,1,0,2:2:0:0:
0,264,54236,1,0,2:2:0:0:
53,326,54379,1,2,2:2:0:0:
187,288,54522,1,0,2:2:0:0:
187,288,54593,1,0,2:2:0:0:
187,288,54665,1,2,2:2:0:0:
111,172,54808,1,0,2:2:0:0:
237,86,54951,5,2,2:2:0:0:
237,86,55022,1,0,2:2:0:0:
237,86,55093,1,0,2:2:0:0:
237,86,55165,1,0,2:2:0:0:
237,86,55236,2,0,P|233:138|235:190,1,97.9999970092774,8|2,2:2|2:2,0:0:0:0:
234,183,55451,1,0,2:2:0:0:
234,183,55522,2,0,L|196:192,2,24.4999992523194,0|0|0,2:2|2:2|2:2,0:0:0:0:
297,250,55665,1,0,2:2:0:0:
297,250,55736,1,0,2:2:0:0:
297,250,55808,1,2,2:2:0:0:
416,215,55951,6,0,P|415:245|418:271,1,48.9999985046387,8|0,2:2|0:0,0:0:0:0:
352,377,56093,2,0,P|356:325|351:284,2,65.3333313395183,10|0|0,2:2|2:2|2:2,0:0:0:0:
213,248,56379,2,0,P|209:300|214:341,2,65.3333313395183,2|0|0,2:2|2:2|2:2,0:0:0:0:
281,202,56665,1,2,2:2:0:0:
100,136,56808,2,0,P|104:84|102:32,1,97.9999970092774,8|2,2:2|2:2,0:0:0:0:
167,0,57046,1,0,2:2:0:0:
222,50,57141,1,0,2:2:0:0:
179,112,57236,5,2,2:2:0:0:
329,2,57379,2,0,P|325:54|327:106,1,97.9999970092774,8|0,2:2|2:2,0:0:0:0:
381,181,57665,5,2,2:2:0:0:
154,210,57808,2,0,P|158:158|156:106,1,97.9999970092774,8|0,2:2|2:2,0:0:0:0:
322,234,58093,6,0,P|321:264|324:290,1,48.9999985046387,10|0,2:2|0:0,0:0:0:0:
253,364,58236,1,8,2:2:0:0:
254,339,58307,1,8,2:2:0:0:
252,315,58378,101,12,3:2:0:0:
153,357,58522,1,0,2:2:0:0:
100,271,58665,1,2,2:2:0:0:
100,271,58808,1,0,2:2:0:0:
252,186,58951,102,0,P|245:137|244:88,1,97.9999970092774,10|0,2:2|2:2,0:0:0:0:
326,219,59236,1,2,2:2:0:0:
377,157,59379,1,0,2:2:0:0:
485,222,59522,1,2,2:2:0:0:
366,287,59665,101,8,2:2:0:0:
455,142,59808,1,0,2:2:0:0:
296,88,59951,1,2,2:2:0:0:
211,229,60093,102,0,P|142:226|87:232,1,97.9999970092774,8|0,2:2|2:2,0:0:0:0:
70,162,60379,1,10,2:2:0:0:
4,207,60522,1,0,2:2:0:0:
61,284,60665,101,12,2:2:0:0:
143,204,60808,1,0,2:2:0:0:
62,121,60951,1,2,2:2:0:0:
62,121,61093,1,0,2:2:0:0:
207,12,61236,102,0,P|203:69|208:129,1,97.9999970092774,10|0,2:2|2:2,0:0:0:0:
270,158,61522,1,2,2:2:0:0:
226,283,61665,101,8,2:2:0:0:
306,310,61808,1,2,2:2:0:0:
341,233,61951,2,0,P|369:230|400:234,1,48.9999985046387,8|0,2:2|2:2,0:0:0:0:
445,292,62093,5,8,2:2:0:0:
496,145,62236,1,2,2:2:0:0:
347,93,62379,2,0,P|348:117|345:141,1,48.9999985046387,8|0,2:2|2:2,0:0:0:0:
419,215,62522,2,0,P|417:190|420:166,1,48.9999985046387,8|0,2:2|0:0,0:0:0:0:
277,183,62665,1,10,2:2:0:0:
241,175,62736,1,8,2:2:0:0:
204,171,62807,1,8,2:2:0:0:
167,173,62879,1,8,2:2:0:0:
131,180,62951,6,0,P|123:118|125:56,1,112,10|0,2:2|2:2,0:0:0:0:
0,154,63236,2,0,P|8:216|6:278,1,112,10|0,2:2|2:2,0:0:0:0:
191,243,63522,1,10,2:2:0:0:
191,243,63665,1,0,2:2:0:0:
116,363,63808,2,0,P|108:301|110:239,1,112,10|0,2:2|2:2,0:0:0:0:
93,174,64022,1,8,2:2:0:0:
114,158,64093,5,10,2:2:0:0:
263,204,64236,2,0,P|262:178|257:144,1,56,8|0,2:2|2:2,0:0:0:0:
362,115,64379,5,8,2:2:0:0:
181,63,64522,2,0,P|182:89|187:123,1,56,10|0,2:2|2:2,0:0:0:0:
203,327,64665,5,8,2:2:0:0:
345,246,64808,2,0,P|344:220|339:186,1,56,8|0,2:2|2:2,0:0:0:0:
256,77,64951,5,10,2:2:0:0:
114,158,65094,2,0,P|115:184|120:218,1,56,8|0,2:2|0:0,0:0:0:0:
264,156,65236,6,0,P|237:160|177:163,1,70,10|8,2:2|2:2,0:0:0:0:
112,299,65379,2,0,P|139:295|199:292,1,70,8|8,2:2|2:2,0:0:0:0:
398,98,65522,102,0,P|371:102|311:105,1,70,10|8,2:2|2:2,0:0:0:0:
246,241,65665,2,0,P|273:237|333:234,1,70,8|8,2:2|2:2,0:0:0:0:
163,145,65808,102,0,P|167:172|170:232,1,70,10|8,2:2|2:2,0:0:0:0:
400,266,65951,2,0,P|396:239|393:179,1,70,8|8,2:2|2:2,0:0:0:0:
86,38,66093,102,0,P|90:65|93:125,1,70,10|8,2:2|2:2,0:0:0:0:
323,159,66236,2,0,P|319:132|316:72,1,70,8|8,2:2|2:2,0:0:0:0:
285,19,66379,101,8,2:2:0:0:
336,0,66450,1,8,2:2:0:0:
390,11,66521,1,8,2:2:0:0:
429,50,66593,1,8,2:2:0:0:
441,104,66665,102,0,P|458:109|478:112,1,35,0|0,3:3|3:3,0:0:0:0:
440,139,66736,2,0,P|457:139|477:137,1,35,0|0,3:3|3:3,0:0:0:0:
447,173,66808,2,0,P|464:168|482:161,1,35,0|0,3:3|3:3,0:0:0:0:
462,204,66879,2,0,P|477:195|493:182,1,35,0|0,3:3|3:3,0:0:0:0:
459,241,66951,102,0,P|449:240|441:238,2,17.5,0|0|0,3:3|3:3|3:3,0:0:0:0:
453,261,67022,2,0,P|443:257|435:253,2,17.5,0|0|0,3:3|3:3|3:3,0:0:0:0:
443,278,67093,2,0,P|433:272|428:266,2,17.5,0|0|0,3:3|3:3|3:3,0:0:0:0:
428,291,67165,2,0,P|420:284|416:276,2,17.5,0|0|0,3:3|3:3|3:3,0:0:0:0:
449,331,67236,102,0,B|383:334|413:359|343:365,1,105,2|0,2:2|0:0,0:0:0:0:
234,373,67522,5,4,3:2:0:0:
274,368,67593,1,0,3:3:0:0:
227,343,67665,5,0,3:3:0:0:
266,348,67736,1,0,3:3:0:0:
237,323,67808,5,0,3:3:0:0:
276,318,67879,1,0,3:3:0:0:
230,293,67951,5,0,3:3:0:0:
269,298,68022,1,0,3:3:0:0:
238,269,68093,5,0,3:3:0:0:
278,264,68164,1,0,3:3:0:0:
231,239,68236,5,0,3:3:0:0:
270,244,68307,1,0,3:3:0:0:
241,219,68379,5,0,3:3:0:0:
280,214,68450,1,0,3:3:0:0:
234,189,68522,101,0,3:3:0:0:
273,194,68593,1,0,3:3:0:0:
234,162,68665,101,0,3:3:0:0:
274,157,68736,1,0,3:3:0:0:
227,132,68808,101,0,3:3:0:0:
266,137,68879,1,0,3:3:0:0:
237,112,68951,101,0,3:3:0:0:
276,107,69022,1,0,3:3:0:0:
230,82,69094,101,0,3:3:0:0:
269,87,69165,1,0,3:3:0:0:
238,58,69236,101,0,3:3:0:0:
278,53,69307,1,0,3:3:0:0:
231,28,69379,101,0,3:3:0:0:
270,33,69450,1,0,3:3:0:0:
256,0,69522,5,8,2:2:0:0:
62,59,69665,2,0,P|69:97|71:138,1,70,8|0,2:2|0:0,0:0:0:0:
138,221,69808,5,0,3:3:0:0:
144,171,69879,1,0,3:3:0:0:
175,230,69951,5,0,3:3:0:0:
169,181,70022,1,0,3:3:0:0:
200,218,70093,5,0,3:3:0:0:
206,169,70165,1,0,3:3:0:0:
237,226,70237,5,0,3:3:0:0:
231,178,70308,1,0,3:3:0:0:
267,216,70379,5,0,3:3:0:0:
274,166,70450,1,0,3:3:0:0:
305,225,70522,5,0,3:3:0:0:
299,176,70593,1,0,3:3:0:0:
330,213,70665,101,0,3:3:0:0:
336,164,70736,1,0,3:3:0:0:
367,221,70808,101,0,3:3:0:0:
361,173,70879,1,0,3:3:0:0:
386,194,70951,101,0,3:3:0:0:
470,281,71093,2,0,P|464:195|467:127,1,140,8|0,2:2|3:3,0:0:0:0:
381,54,71308,2,0,P|387:140|384:208,1,140,8|0,2:2|3:3,0:0:0:0:
312,234,71522,101,0,3:3:0:0:
312,234,71593,2,0,P|306:191|309:147,1,70,8|8,2:2|2:2,0:0:0:0:
243,43,71736,1,0,3:3:0:0:
243,43,71807,2,0,P|249:86|246:130,1,70,8|8,2:2|2:2,0:0:0:0:
136,310,71951,2,0,P|130:267|133:223,1,70,0|8,3:3|2:2,0:0:0:0:
196,214,72093,101,0,3:3:0:0:
190,164,72164,1,0,3:3:0:0:
159,223,72236,101,0,3:3:0:0:
165,174,72307,1,0,3:3:0:0:
134,211,72379,101,0,3:3:0:0:
128,162,72450,1,0,3:3:0:0:
97,219,72522,5,0,3:3:0:0:
103,171,72593,1,0,3:3:0:0:
67,209,72665,5,0,3:3:0:0:
60,159,72735,1,0,3:3:0:0:
29,218,72808,5,0,3:3:0:0:
35,169,72878,1,0,3:3:0:0:
7,191,72950,5,8,2:2:0:0:
82,68,73093,2,0,P|127:69|177:62,1,70,8|0,2:2|0:0,0:0:0:0:
281,0,73236,5,0,3:3:0:0:
231,6,73307,1,0,3:3:0:0:
290,37,73379,5,0,3:3:0:0:
241,31,73450,1,0,3:3:0:0:
278,62,73522,5,0,3:3:0:0:
229,68,73593,1,0,3:3:0:0:
286,99,73665,101,0,3:3:0:0:
238,93,73736,1,0,3:3:0:0:
276,129,73807,101,0,3:3:0:0:
226,136,73878,1,0,3:3:0:0:
285,167,73950,101,0,3:3:0:0:
236,161,74021,1,0,3:3:0:0:
258,189,74093,101,8,2:2:0:0:
258,189,74165,2,0,P|261:227|256:278,1,70,8|0,2:2|3:3,0:0:0:0:
186,296,74308,1,8,2:2:0:0:
186,296,74380,102,0,P|224:293|338:298,1,140,0|8,3:3|2:2,0:0:0:0:
487,220,74593,2,0,P|449:223|335:218,1,140,0|8,3:3|2:2,0:0:0:0:
339,138,74808,2,0,P|301:141|187:136,1,140,0|8,3:3|2:2,0:0:0:0:
38,214,75021,2,0,P|76:211|190:216,1,140,0|8,3:3|2:2,0:0:0:0:
249,372,75236,2,0,P|179:376|109:372,1,140,0|8,3:3|2:2,0:0:0:0:
65,304,75451,1,0,2:2:0:0:
65,304,75522,101,8,3:2:0:0:
105,299,75593,1,8,3:2:0:0:
58,274,75665,101,8,3:2:0:0:
97,279,75736,1,8,3:2:0:0:
68,254,75808,5,8,3:2:0:0:
107,249,75879,1,8,3:2:0:0:
61,224,75951,5,8,3:2:0:0:
100,229,76022,1,8,3:2:0:0:
69,200,76093,5,8,3:2:0:0:
109,195,76164,1,8,3:2:0:0:
62,170,76236,5,8,3:2:0:0:
101,175,76307,1,8,3:2:0:0:
81,149,76379,6,0,P|74:82|81:14,1,136.499993751526,4|0,2:2|0:0,0:0:0:0:
179,51,76665,5,4,3:2:0:0:
174,34,76736,1,0,2:2:0:0:
157,39,76808,1,0,2:2:0:0:
162,55,76879,1,0,2:2:0:0:
179,48,76951,5,0,3:3:0:0:
172,33,77022,1,0,2:2:0:0:
156,40,77094,1,0,2:2:0:0:
163,55,77165,1,0,2:2:0:0:
180,46,77236,101,0,3:3:0:0:
169,32,77307,1,0,2:2:0:0:
155,43,77379,1,0,2:2:0:0:
165,56,77450,1,0,2:2:0:0:
180,44,77522,101,0,3:3:0:0:
167,32,77593,1,0,2:2:0:0:
155,45,77665,1,0,2:2:0:0:
167,56,77736,1,0,2:2:0:0:
180,42,77808,101,0,3:3:0:0:
165,32,77879,1,0,2:2:0:0:
155,47,77951,1,0,2:2:0:0:
169,56,78022,1,0,2:2:0:0:
179,40,78094,101,0,3:3:0:0:
163,33,78165,1,0,2:2:0:0:
156,49,78237,1,0,2:2:0:0:
171,55,78308,1,0,2:2:0:0:
178,38,78379,101,0,3:3:0:0:
161,34,78450,1,0,2:2:0:0:
157,51,78522,1,0,2:2:0:0:
173,55,78593,1,0,2:2:0:0:
177,36,78665,101,0,3:3:0:0:
159,35,78736,1,0,2:2:0:0:
158,53,78808,1,0,2:2:0:0:
175,53,78879,1,0,2:2:0:0:
175,34,78951,101,0,3:3:0:0:
158,35,79022,1,0,2:2:0:0:
160,53,79094,1,0,2:2:0:0:
176,51,79165,1,0,2:2:0:0:
173,33,79237,5,0,3:3:0:0:
157,37,79308,1,0,2:2:0:0:
161,54,79380,1,0,2:2:0:0:
177,50,79451,1,0,2:2:0:0:
171,32,79522,5,0,3:3:0:0:
155,40,79593,1,0,2:2:0:0:
163,56,79665,1,0,2:2:0:0:
178,48,79736,1,0,2:2:0:0:
169,31,79808,5,0,3:3:0:0:
155,42,79879,1,0,2:2:0:0:
165,56,79951,1,0,2:2:0:0:
178,46,80022,1,0,2:2:0:0:
167,31,80094,5,0,3:3:0:0:
154,44,80165,1,0,2:2:0:0:
167,56,80237,1,0,2:2:0:0:
179,44,80308,1,0,2:2:0:0:
165,32,80380,5,0,3:3:0:0:
155,46,80451,1,0,2:2:0:0:
170,56,80523,1,0,2:2:0:0:
178,42,80594,1,0,2:2:0:0:
163,32,80665,5,0,3:3:0:0:
156,48,80736,1,0,2:2:0:0:
172,55,80808,1,0,2:2:0:0:
178,40,80879,1,0,2:2:0:0:
160,33,80951,5,0,3:3:0:0:
156,50,81022,1,0,2:2:0:0:
174,55,81094,1,0,2:2:0:0:
177,38,81165,1,0,2:2:0:0:
166,43,81236,101,0,3:3:0:0:
198,53,81307,1,0,2:2:0:0:
222,79,81378,1,0,2:2:0:0:
230,112,81450,1,0,2:2:0:0:
220,145,81522,2,0,L|152:160,3,48.9999985046387,8|0|0|0,2:2|0:0|0:0|0:0,0:0:0:0:
93,140,81808,101,0,3:3:0:0:
60,129,81879,1,0,2:2:0:0:
36,103,81950,1,0,2:2:0:0:
28,70,82022,1,0,2:2:0:0:
39,38,82094,2,0,L|107:23,3,48.9999985046387,8|0|0|0,2:2|0:0|0:0|0:0,0:0:0:0:
159,70,82379,101,0,3:3:0:0:
195,74,82450,1,0,2:2:0:0:
232,78,82521,1,0,2:2:0:0:
268,82,82593,1,0,2:2:0:0:
305,86,82665,2,0,L|289:20,3,48.9999985046387,8|0|0|0,2:2|0:0|0:0|0:0,0:0:0:0:
307,170,82951,101,0,3:3:0:0:
270,165,83022,1,0,2:2:0:0:
233,161,83093,1,0,2:2:0:0:
197,157,83165,1,0,2:2:0:0:
161,154,83237,2,0,L|177:220,3,48.9999985046387,8|0|0|0,2:2|0:0|0:0|0:0,0:0:0:0:
120,265,83522,101,0,3:3:0:0:
112,300,83593,1,0,2:2:0:0:
123,335,83664,1,0,2:2:0:0:
148,361,83736,1,0,2:2:0:0:
182,373,83808,2,0,L|245:357,3,48.9999985046387,8|0|0|0,2:2|0:0|0:0|0:0,0:0:0:0:
282,297,84093,101,0,3:3:0:0:
290,262,84164,1,0,2:2:0:0:
279,227,84235,1,0,2:2:0:0:
254,201,84307,1,0,2:2:0:0:
220,189,84379,2,0,L|157:205,3,48.9999985046387,8|0|0|0,2:2|0:0|0:0|0:0,0:0:0:0:
106,152,84665,101,0,3:3:0:0:
94,117,84736,1,0,2:2:0:0:
102,82,84807,1,0,2:2:0:0:
127,55,84879,1,0,2:2:0:0:
162,45,84951,5,8,2:2:0:0:
210,54,85022,1,0,2:2:0:0:
246,85,85093,1,0,2:2:0:0:
262,131,85165,1,0,2:2:0:0:
253,179,85236,5,0,3:3:0:0:
245,238,85308,1,0,2:2:0:0:
280,286,85379,1,0,2:2:0:0:
339,296,85451,1,0,2:2:0:0:
388,262,85522,6,0,P|387:236|388:213,1,48.9999985046387,8|0,3:2|0:0,0:0:0:0:
512,81,85665,2,0,P|513:107|512:129,1,48.9999985046387,0|0,3:3|0:0,0:0:0:0:
441,146,85808,5,0,3:3:0:0:
399,121,85879,1,0,2:2:0:0:
350,115,85950,1,2,2:2:0:0:
304,129,86022,1,0,2:2:0:0:
267,161,86093,2,0,P|242:159|218:161,1,48.9999985046387,8|0,2:2|0:0,0:0:0:0:
85,22,86236,2,0,P|109:23|133:21,1,48.9999985046387,2|0,2:2|0:0,0:0:0:0:
195,72,86379,5,0,3:3:0:0:
198,120,86450,1,0,2:2:0:0:
175,162,86521,1,2,2:2:0:0:
133,185,86593,1,0,2:2:0:0:
84,181,86665,2,0,P|85:156|84:132,1,48.9999985046387,8|0,2:2|0:0,0:0:0:0:
308,235,86808,2,0,P|306:259|307:283,1,48.9999985046387,2|0,2:2|0:0,0:0:0:0:
262,352,86951,5,0,3:3:0:0:
305,373,87022,1,0,2:2:0:0:
353,367,87093,1,2,2:2:0:0:
390,336,87165,1,0,2:2:0:0:
404,290,87236,2,0,P|428:288|452:289,1,48.9999985046387,8|0,2:2|0:0,0:0:0:0:
512,130,87379,2,0,P|487:131|463:130,1,48.9999985046387,2|0,2:2|0:0,0:0:0:0:
413,193,87522,5,0,3:3:0:0:
364,196,87593,1,0,2:2:0:0:
324,171,87664,1,2,2:2:0:0:
306,126,87736,1,0,2:2:0:0:
318,80,87808,2,0,P|316:55|317:31,1,48.9999985046387,8|0,2:2|0:0,0:0:0:0:
489,208,87951,2,0,P|490:232|489:256,1,48.9999985046387,2|0,2:2|0:0,0:0:0:0:
293,248,88093,101,0,3:3:0:0:
249,227,88164,1,0,2:2:0:0:
201,234,88235,1,2,2:2:0:0:
165,266,88307,1,0,2:2:0:0:
154,313,88379,2,0,P|178:311|202:312,1,48.9999985046387,8|0,2:2|0:0,0:0:0:0:
312,371,88522,2,0,P|287:372|263:371,1,48.9999985046387,2|0,2:2|0:0,0:0:0:0:
91,369,88665,101,0,3:3:0:0:
43,364,88736,1,0,2:2:0:0:
8,330,88807,1,2,2:2:0:0:
3,282,88879,1,0,2:2:0:0:
28,241,88951,2,0,P|26:216|27:192,1,48.9999985046387,8|0,2:2|0:0,0:0:0:0:
246,104,89093,2,0,P|247:128|246:152,1,48.9999985046387,2|0,2:2|0:0,0:0:0:0:
97,151,89236,101,0,3:3:0:0:
143,138,89307,1,0,2:2:0:0:
170,98,89378,1,2,2:2:0:0:
164,50,89450,1,0,2:2:0:0:
128,18,89522,2,0,P|103:16|79:17,1,48.9999985046387,8|0,2:2|0:0,0:0:0:0:
154,218,89665,2,0,P|178:219|202:218,1,48.9999985046387,2|0,2:2|0:0,0:0:0:0:
311,52,89808,101,0,3:3:0:0:
358,43,89879,1,0,2:2:0:0:
403,61,89950,1,2,2:2:0:0:
433,99,90022,1,0,2:2:0:0:
438,147,90093,2,0,P|436:171|437:195,1,48.9999985046387,8|0,2:2|0:0,0:0:0:0:
246,152,90236,2,0,P|247:127|246:103,1,48.9999985046387,2|0,2:2|0:0,0:0:0:0:
375,241,90379,101,0,3:3:0:0:
328,227,90450,1,0,2:2:0:0:
283,243,90521,1,2,2:2:0:0:
255,283,90593,1,0,2:2:0:0:
257,331,90665,2,0,P|281:329|305:330,1,48.9999985046387,8|0,2:2|0:0,0:0:0:0:
499,384,90808,2,0,P|474:385|450:384,1,48.9999985046387,2|0,2:2|0:0,0:0:0:0:
420,311,90951,101,0,3:3:0:0:
395,268,91022,1,0,2:2:0:0:
392,220,91093,1,2,2:2:0:0:
410,175,91165,1,0,2:2:0:0:
446,143,91236,2,0,P|444:118|445:94,1,48.9999985046387,8|0,2:2|0:0,0:0:0:0:
262,180,91379,2,0,P|263:204|262:228,1,48.9999985046387,2|0,2:2|0:0,0:0:0:0:
172,53,91522,101,0,3:3:0:0:
216,34,91593,1,0,2:2:0:0:
264,42,91664,1,2,2:2:0:0:
301,73,91736,1,0,2:2:0:0:
316,119,91808,2,0,P|340:117|364:118,1,48.9999985046387,8|0,2:2|0:0,0:0:0:0:
198,281,91951,2,0,P|173:282|149:281,1,48.9999985046387,2|0,2:2|0:0,0:0:0:0:
115,209,92093,5,0,3:3:0:0:
66,204,92164,1,0,2:2:0:0:
24,226,92235,1,2,2:2:0:0:
0,269,92307,1,0,2:2:0:0:
4,317,92379,2,0,P|5:341|3:365,1,48.9999985046387,8|0,2:2|0:0,0:0:0:0:
192,206,92522,2,0,P|190:181|192:157,1,48.9999985046387,2|0,2:2|0:0,0:0:0:0:
57,19,92665,5,0,3:3:0:0:
30,19,92736,1,0,2:2:0:0:
10,36,92807,1,2,2:2:0:0:
5,62,92879,1,0,2:2:0:0:
16,86,92951,5,8,2:2:0:0:
43,107,93022,1,0,2:2:0:0:
78,110,93093,1,2,2:2:0:0:
109,93,93165,1,0,2:2:0:0:
126,62,93236,5,0,3:3:0:0:
152,32,93307,1,0,2:2:0:0:
190,20,93378,1,2,2:2:0:0:
229,32,93450,1,0,2:2:0:0:
256,62,93521,5,8,2:2:0:0:
263,110,93593,1,0,2:2:0:0:
290,150,93664,1,2,2:2:0:0:
335,167,93735,1,0,2:2:0:0:
382,155,93807,5,0,3:3:0:0:
411,106,93879,1,0,2:2:0:0:
404,48,93950,1,2,2:2:0:0:
364,7,94022,1,0,2:2:0:0:
307,0,94093,1,8,2:2:0:0:
257,29,94165,1,0,2:2:0:0:
235,82,94236,1,2,2:2:0:0:
250,138,94307,1,0,2:2:0:0:
297,172,94379,6,0,P|291:232|301:301,1,97.9999970092774,0|0,3:3|3:3,0:0:0:0:
239,325,94593,1,2,2:2:0:0:
301,373,94665,102,0,P|325:371|349:373,1,48.9999985046387,0|2,3:3|2:2,0:0:0:0:
178,278,94808,2,0,P|153:279|129:277,1,48.9999985046387,0|2,3:3|2:2,0:0:0:0:
3,360,94951,102,0,P|2:372|2:384,1,24.4999992523194,2|0,2:2|0:0,0:0:0:0:
11,357,95022,2,0,P|10:369|10:381,1,24.4999992523194,2|0,2:2|0:0,0:0:0:0:
19,354,95093,2,0,P|18:366|18:378,1,24.4999992523194,2|0,2:2|0:0,0:0:0:0:
27,351,95165,2,0,P|26:363|26:375,1,24.4999992523194,2|0,2:2|0:0,0:0:0:0:
103,348,95236,102,0,P|105:316|103:285,1,62.9999980773926,12|0,2:2|0:0,0:0:0:0:
25,187,95379,2,0,P|22:218|24:249,1,62.9999980773926,0|0,2:2|0:0,0:0:0:0:
178,278,95522,2,0,P|180:246|178:215,1,62.9999980773926,2|0,3:2|0:0,0:0:0:0:
88,140,95665,101,0,2:2:0:0:
88,140,95736,1,0,2:2:0:0:
88,140,95808,2,0,P|119:138|150:140,1,62.9999980773926,10|0,2:2|0:0,0:0:0:0:
265,78,95951,2,0,P|233:79|202:77,1,62.9999980773926,0|0,2:2|0:0,0:0:0:0:
259,241,96093,2,0,P|290:239|321:241,1,62.9999980773926,2|0,3:2|0:0,0:0:0:0:
368,113,96236,101,0,2:2:0:0:
368,113,96308,1,0,2:2:0:0:
368,113,96379,2,0,P|369:144|367:175,1,62.9999980773926,8|0,2:2|0:0,0:0:0:0:
441,273,96522,2,0,P|439:241|441:210,1,62.9999980773926,2|0,2:2|0:0,0:0:0:0:
508,104,96665,102,0,P|506:135|508:166,1,62.9999980773926,0|0,3:3|0:0,0:0:0:0:
434,62,96808,2,0,P|435:30|433:0,1,62.9999980773926,0|0,2:2|0:0,0:0:0:0:
284,57,96951,2,0,P|282:88|284:119,1,62.9999980773926,10|0,2:2|0:0,0:0:0:0:
362,292,97093,101,0,2:2:0:0:
362,292,97165,1,0,2:2:0:0:
362,292,97236,2,0,P|330:290|299:292,1,62.9999980773926,2|0,3:2|0:0,0:0:0:0:
174,350,97379,2,0,P|205:351|236:349,1,62.9999980773926,0|0,2:2|0:0,0:0:0:0:
231,181,97522,6,0,P|229:212|231:243,1,62.9999980773926,10|0,2:2|0:0,0:0:0:0:
311,202,97665,2,0,P|312:170|310:139,1,62.9999980773926,0|0,2:2|0:0,0:0:0:0:
258,18,97808,2,0,P|256:49|258:80,1,62.9999980773926,2|0,3:2|0:0,0:0:0:0:
440,99,97951,5,0,2:2:0:0:
440,99,98022,1,0,2:2:0:0:
440,99,98093,2,0,P|408:97|377:99,1,62.9999980773926,10|0,2:2|0:0,0:0:0:0:
450,15,98236,2,0,P|481:16|512:14,1,62.9999980773926,0|0,2:2|0:0,0:0:0:0:
502,146,98379,6,0,P|500:177|502:208,1,62.9999980773926,2|0,3:2|0:0,0:0:0:0:
395,278,98522,2,0,P|396:246|394:215,1,62.9999980773926,0|0,2:2|0:0,0:0:0:0:
317,152,98665,2,0,P|315:183|317:214,1,62.9999980773926,8|0,2:2|0:0,0:0:0:0:
196,296,98808,6,0,P|197:327|195:358,1,62.9999980773926,2|0,2:2|0:0,0:0:0:0:
138,237,98951,2,0,P|139:205|137:174,1,62.9999980773926,0|0,3:3|0:0,0:0:0:0:
14,235,99093,2,0,P|12:266|14:297,1,62.9999980773926,0|0,2:2|0:0,0:0:0:0:
119,363,99236,6,0,P|87:360|56:362,1,62.9999980773926,10|0,2:2|0:0,0:0:0:0:
255,240,99379,2,0,P|286:242|317:240,1,62.9999980773926,2|0,2:2|0:0,0:0:0:0:
365,370,99522,6,0,P|363:338|365:307,1,62.9999980773926,2|0,3:2|0:0,0:0:0:0:
436,201,99665,2,0,P|437:232|435:263,1,62.9999980773926,0|0,2:2|0:0,0:0:0:0:
306,162,99808,6,0,P|337:163|368:161,1,62.9999980773926,10|0,2:2|0:0,0:0:0:0:
443,85,99951,2,0,P|411:83|380:85,1,62.9999980773926,0|0,2:2|0:0,0:0:0:0:
226,9,100093,2,0,P|257:10|288:8,1,62.9999980773926,2|0,3:2|0:0,0:0:0:0:
228,150,100236,101,0,2:2:0:0:
228,150,100308,1,0,2:2:0:0:
228,150,100379,2,0,P|229:118|227:87,1,62.9999980773926,10|0,2:2|0:0,0:0:0:0:
148,16,100522,2,0,P|146:47|148:78,1,62.9999980773926,0|0,2:2|0:0,0:0:0:0:
68,139,100665,2,0,P|69:107|67:76,1,62.9999980773926,2|0,3:2|0:0,0:0:0:0:
0,0,100808,101,0,2:2:0:0:
0,0,100879,1,0,2:2:0:0:
0,0,100951,2,0,P|31:-1|62:0,1,62.9999980773926,8|0,2:2|0:0,0:0:0:0:
210,78,101093,2,0,P|178:79|147:77,1,62.9999980773926,2|0,2:2|0:0,0:0:0:0:
33,219,101236,102,0,P|64:217|95:219,1,62.9999980773926,0|0,3:3|0:0,0:0:0:0:
211,157,101379,2,0,P|179:158|148:156,1,62.9999980773926,0|0,2:2|0:0,0:0:0:0:
147,279,101522,2,0,P|178:277|209:279,1,62.9999980773926,10|0,2:2|0:0,0:0:0:0:
288,191,101665,101,0,2:2:0:0:
288,191,101736,1,0,2:2:0:0:
288,191,101808,2,0,P|290:159|288:128,1,62.9999980773926,2|0,3:2|0:0,0:0:0:0:
352,240,101951,2,0,P|349:271|351:302,1,62.9999980773926,0|0,2:2|0:0,0:0:0:0:
497,180,102093,102,0,P|499:148|497:117,1,62.9999980773926,10|0,2:2|0:0,0:0:0:0:
440,0,102236,2,0,P|437:31|439:62,1,62.9999980773926,0|0,2:2|0:0,0:0:0:0:
372,164,102379,2,0,P|374:132|372:101,1,62.9999980773926,2|0,3:2|0:0,0:0:0:0:
296,26,102522,101,0,2:2:0:0:
296,26,102593,1,0,2:2:0:0:
296,26,102665,2,0,P|327:28|358:26,1,62.9999980773926,10|0,2:2|0:0,0:0:0:0:
211,157,102808,2,0,P|179:154|148:156,1,62.9999980773926,0|0,2:2|0:0,0:0:0:0:
286,102,102951,102,0,P|287:133|285:164,1,62.9999980773926,2|0,3:2|0:0,0:0:0:0:
172,78,103093,2,0,P|170:46|172:15,1,62.9999980773926,0|0,2:2|0:0,0:0:0:0:
86,205,103236,2,0,P|87:236|85:267,1,62.9999980773926,8|0,2:2|0:0,0:0:0:0:
18,157,103379,6,0,P|16:125|18:94,1,62.9999980773926,2|0,2:2|0:0,0:0:0:0:
240,230,103522,2,0,P|241:261|239:292,1,62.9999980773926,0|0,3:3|0:0,0:0:0:0:
372,116,103665,2,0,P|370:84|372:53,1,62.9999980773926,0|0,2:2|0:0,0:0:0:0:
148,156,103808,6,0,P|179:154|210:156,1,62.9999980773926,10|0,3:2|0:0,0:0:0:0:
434,178,103951,1,2,3:2:0:0:
434,178,104022,1,0,3:3:0:0:
434,178,104093,6,0,P|431:216|433:254,1,77.0000023498536,4|0,3:2|0:0,0:0:0:0:
281,375,104236,2,0,P|284:337|282:299,1,77.0000023498536,0|0,2:2|0:0,0:0:0:0:
238,89,104379,2,0,P|235:127|237:165,1,77.0000023498536,10|0,2:2|0:0,0:0:0:0:
351,255,104522,2,0,P|354:217|352:179,1,77.0000023498536,0|0,2:2|0:0,0:0:0:0:
163,185,104665,6,0,P|160:223|162:261,1,77.0000023498536,2|0,3:2|0:0,0:0:0:0:
313,110,104808,2,0,P|316:72|314:34,1,77.0000023498536,0|0,2:2|0:0,0:0:0:0:
163,0,104951,2,0,P|160:38|162:76,1,77.0000023498536,10|0,2:2|0:0,0:0:0:0:
83,165,105093,2,0,P|86:127|84:89,1,77.0000023498536,0|0,2:2|0:0,0:0:0:0:
244,247,105236,6,0,P|241:285|243:323,1,77.0000023498536,2|0,3:2|0:0,0:0:0:0:
96,384,105379,2,0,P|99:346|97:308,1,77.0000023498536,0|0,2:2|0:0,0:0:0:0:
6,125,105522,2,0,P|4:163|7:202,1,77.0000023498536,8|0,2:2|0:0,0:0:0:0:
162,246,105665,6,0,P|165:208|163:170,1,77.0000023498536,2|0,2:2|0:0,0:0:0:0:
335,3,105808,2,0,P|332:41|334:79,1,77.0000023498536,0|0,3:3|0:0,0:0:0:0:
475,205,105951,2,0,P|478:167|476:129,1,77.0000023498536,0|0,2:2|0:0,0:0:0:0:
267,122,106093,6,0,P|264:160|266:199,1,77.0000023498536,10|0,2:2|0:0,0:0:0:0:
396,202,106236,2,0,P|399:164|397:125,1,77.0000023498536,0|0,2:2|0:0,0:0:0:0:
173,49,106379,102,0,P|211:46|250:48,1,77.0000023498536,2|0,3:2|0:0,0:0:0:0:
327,277,106522,2,0,P|289:280|250:278,1,77.0000023498536,0|0,2:2|0:0,0:0:0:0:
122,348,106665,2,0,P|160:345|199:347,1,77.0000023498536,10|0,2:2|0:0,0:0:0:0:
266,198,106808,2,0,P|228:201|189:199,1,77.0000023498536,0|0,2:2|0:0,0:0:0:0:
68,129,106951,102,0,P|106:126|145:128,1,77.0000023498536,2|0,3:2|0:0,0:0:0:0:
76,279,107093,2,0,P|38:282|-1:280,1,77.0000023498536,0|0,2:2|0:0,0:0:0:0:
195,68,107236,2,0,P|233:65|272:67,1,77.0000023498536,10|0,2:2|0:0,0:0:0:0:
411,248,107379,2,0,P|373:251|334:249,1,77.0000023498536,0|0,2:2|0:0,0:0:0:0:
319,133,107522,102,0,P|357:130|396:132,1,77.0000023498536,2|0,3:2|0:0,0:0:0:0:
512,323,107665,2,0,P|474:326|435:324,1,77.0000023498536,0|0,2:2|0:0,0:0:0:0:
286,384,107808,2,0,P|324:381|363:383,1,77.0000023498536,8|0,2:2|0:0,0:0:0:0:
435,62,107951,102,0,P|473:59|512:61,1,77.0000023498536,2|0,2:2|0:0,0:0:0:0:
265,305,108093,2,0,P|227:308|188:306,1,77.0000023498536,0|0,3:3|0:0,0:0:0:0:
31,98,108236,2,0,P|69:95|108:97,1,77.0000023498536,0|0,2:2|0:0,0:0:0:0:
242,158,108379,102,0,P|204:161|165:159,1,77.0000023498536,10|0,2:2|0:0,0:0:0:0:
121,229,108522,1,10,2:2:0:0:
121,229,108593,1,8,2:2:0:0:
121,229,108665,101,12,3:2:0:0:
142,306,108951,101,8,3:2:0:0:
222,292,109236,5,8,3:2:0:0:
243,369,109522,5,8,3:2:0:0:
461,379,109665,1,0,3:3:0:0:
461,379,109736,1,8,2:2:0:0:
461,379,109808,5,12,3:2:0:0:
470,299,109951,5,8,3:2:0:0:
388,284,110093,5,8,3:2:0:0:
397,204,110236,5,8,3:2:0:0:
317,183,110379,5,12,3:2:0:0:
326,103,110522,101,8,3:2:0:0:
244,88,110664,101,8,3:2:0:0:
253,8,110807,101,8,3:2:0:0:
497,58,110951,101,12,2:2:0:0:
483,140,111021,101,8,2:2:0:0:
498,215,111094,101,8,2:2:0:0:
439,268,111164,101,8,2:2:0:0:
417,327,111237,5,12,2:2:0:0:
345,341,111307,5,8,2:2:0:0:
304,374,111380,5,8,2:2:0:0:
241,355,111450,5,8,2:2:0:0:
197,363,111522,5,12,2:2:0:0:
154,327,111593,5,8,2:2:0:0:
116,316,111665,5,8,2:2:0:0:
93,273,111736,101,8,2:2:0:0:
64,251,111808,101,12,2:2:0:0:
59,211,111879,101,8,2:2:0:0:
40,183,111951,101,8,2:2:0:0:
47,150,112022,101,8,2:2:0:0:
36,119,112094,101,2,2:2:0:0:
241,16,112236,1,0,2:2:0:0:
241,16,112308,1,0,2:2:0:0:
241,16,112379,1,0,2:2:0:0:
265,91,112522,1,0,2:2:0:0:
341,67,112665,1,2,2:2:0:0:
422,135,112808,102,0,L|372:128,1,38.5000011749268,8|0,2:2|0:0,0:0:0:0:
426,157,112879,2,0,L|376:150,1,38.5000011749268,8|0,2:2|0:0,0:0:0:0:
430,179,112951,2,0,L|380:172,1,38.5000011749268,8|0,2:2|0:0,0:0:0:0:
434,201,113022,2,0,L|384:194,1,38.5000011749268,8|0,2:2|0:0,0:0:0:0:
438,223,113093,2,0,L|388:216,1,38.5000011749268,8|0,2:2|0:0,0:0:0:0:
442,245,113165,2,0,L|392:238,1,38.5000011749268,8|0,2:2|0:0,0:0:0:0:
512,275,113236,6,0,P|407:269|303:281,1,210,4|0,3:2|0:0,0:0:0:0:
249,339,113522,1,8,2:2:0:0:
96,195,113665,1,2,2:2:0:0:
281,90,113808,5,2,3:2:0:0:
224,240,113951,1,2,2:2:0:0:
174,179,114093,1,10,2:2:0:0:
339,145,114236,2,0,P|336:216|340:285,1,140,2|0,2:2|3:3,0:0:0:0:
476,280,114522,5,2,2:2:0:0:
409,329,114665,1,8,2:2:0:0:
305,223,114808,1,2,2:2:0:0:
170,313,114951,1,2,3:2:0:0:
12,214,115093,1,2,2:2:0:0:
191,129,115236,2,0,P|260:133|330:130,1,140,10|0,2:2|0:0,0:0:0:0:
381,66,115451,1,0,2:2:0:0:
381,66,115522,6,0,P|376:174|383:280,1,210,6|0,3:2|0:0,0:0:0:0:
444,324,115808,1,8,2:2:0:0:
502,190,115951,1,2,2:2:0:0:
401,203,116093,5,2,3:2:0:0:
298,63,116236,1,2,2:2:0:0:
456,97,116379,1,10,2:2:0:0:
341,143,116522,2,0,P|270:139|201:144,1,140,2|0,2:2|3:3,0:0:0:0:
151,23,116808,5,2,2:2:0:0:
131,105,116951,1,8,2:2:0:0:
265,115,117093,1,2,2:2:0:0:
318,274,117236,1,2,3:2:0:0:
119,359,117379,1,2,2:2:0:0:
201,168,117522,2,0,P|202:203|200:237,1,70,10|0,2:2|0:0,0:0:0:0:
119,273,117665,2,0,P|117:237|119:203,1,70,2|0,2:2|0:0,0:0:0:0:
246,306,117808,6,0,P|350:299|455:303,1,210,6|0,3:2|0:0,0:0:0:0:
507,365,118093,1,8,2:2:0:0:
385,322,118236,1,2,2:2:0:0:
490,212,118379,101,2,3:2:0:0:
330,137,118522,1,2,2:2:0:0:
447,19,118665,1,10,2:2:0:0:
379,208,118808,2,0,P|375:137|380:68,1,140,2|0,2:2|3:3,0:0:0:0:
507,71,119093,101,2,2:2:0:0:
455,137,119236,1,8,2:2:0:0:
311,33,119379,1,2,2:2:0:0:
130,216,119522,1,2,3:2:0:0:
379,296,119665,1,2,2:2:0:0:
154,131,119808,1,10,2:2:0:0:
15,356,119951,1,2,2:2:0:0:
339,379,120093,102,0,P|343:271|336:164,1,210,6|0,3:2|0:0,0:0:0:0:
268,122,120379,1,8,2:2:0:0:
354,51,120522,1,2,2:2:0:0:
428,194,120665,101,2,3:2:0:0:
254,263,120808,1,2,2:2:0:0:
196,42,120951,1,10,2:2:0:0:
43,207,121093,2,0,P|113:203|182:208,1,140,2|0,2:2|3:3,0:0:0:0:
335,251,121379,101,2,2:2:0:0:
428,310,121522,1,8,2:2:0:0:
500,192,121665,1,2,2:2:0:0:
326,122,121808,101,2,3:2:0:0:
291,120,121879,1,2,2:2:0:0:
260,135,121950,1,2,2:2:0:0:
240,163,122022,1,2,2:2:0:0:
236,198,122093,2,0,P|237:233|235:267,1,70,10|0,2:2|0:0,0:0:0:0:
315,329,122236,2,0,P|313:293|315:259,1,70,2|0,3:2|0:0,0:0:0:0:
396,238,122379,102,0,P|400:131|393:25,1,210,4|0,3:2|0:0,0:0:0:0:
319,1,122665,1,8,2:2:0:0:
238,88,122808,1,2,2:2:0:0:
118,46,122951,5,2,3:2:0:0:
319,82,123093,1,2,2:2:0:0:
237,317,123236,1,10,2:2:0:0:
203,15,123379,2,0,P|199:85|204:154,1,140,2|0,2:2|3:3,0:0:0:0:
270,243,123665,5,2,2:2:0:0:
164,334,123808,1,8,2:2:0:0:
299,376,123951,1,2,2:2:0:0:
335,197,124093,5,2,3:2:0:0:
110,274,124236,1,2,2:2:0:0:
174,83,124379,1,10,2:2:0:0:
239,317,124522,1,2,2:2:0:0:
225,19,124665,6,0,P|332:25|440:21,1,210,6|0,3:2|0:0,0:0:0:0:
512,7,124951,1,8,2:2:0:0:
438,99,125093,1,2,2:2:0:0:
485,211,125236,5,2,3:2:0:0:
334,373,125379,1,2,2:2:0:0:
279,85,125522,1,10,2:2:0:0:
408,313,125665,2,0,P|404:242|409:173,1,140,2|0,2:2|3:3,0:0:0:0:
334,19,125951,5,2,2:2:0:0:
313,159,126093,1,8,2:2:0:0:
441,105,126236,1,2,2:2:0:0:
279,85,126379,5,2,3:2:0:0:
327,283,126522,1,2,2:2:0:0:
101,376,126665,1,10,2:2:0:0:
223,145,126808,1,2,2:2:0:0:
1,7,126951,102,0,P|5:115|-1:222,1,210,6|0,3:2|0:0,0:0:0:0:
52,277,127236,1,8,2:2:0:0:
162,222,127379,1,2,2:2:0:0:
106,115,127522,101,2,3:2:0:0:
284,216,127665,1,2,2:2:0:0:
124,384,127808,1,10,2:2:0:0:
353,314,127951,2,0,P|282:310|213:315,1,140,2|0,2:2|3:3,0:0:0:0:
184,144,128236,101,2,2:2:0:0:
242,65,128379,1,8,2:2:0:0:
284,216,128522,1,2,2:2:0:0:
157,67,128665,101,2,3:2:0:0:
395,161,128808,1,2,2:2:0:0:
176,289,128951,1,10,2:2:0:0:
414,384,129094,1,2,2:2:0:0:
512,118,129236,102,0,P|403:122|296:115,1,210,6|0,3:2|0:0,0:0:0:0:
242,65,129522,1,8,2:2:0:0:
142,166,129665,1,2,2:2:0:0:
50,68,129808,101,2,3:2:0:0:
215,205,129951,1,2,2:2:0:0:
17,365,130093,1,10,2:2:0:0:
140,26,130236,2,0,P|136:96|141:165,1,140,2|0,2:2|3:3,0:0:0:0:
288,251,130522,101,2,2:2:0:0:
227,337,130665,1,10,2:2:0:0:
106,234,130808,1,2,2:2:0:0:
324,176,130951,5,2,3:2:0:0:
386,166,131022,1,2,2:2:0:0:
441,196,131093,1,10,2:2:0:0:
467,253,131165,1,2,2:2:0:0:
452,314,131236,6,0,P|416:312|382:314,1,70,10|0,2:2|0:0,0:0:0:0:
140,384,131379,1,8,2:2:0:0:
140,384,131451,1,8,2:2:0:0:
140,384,131522,6,0,P|136:299|141:217,1,167.999994873047,4|0,3:2|0:0,0:0:0:0:
330,117,131808,1,8,2:2:0:0:
256,13,131951,2,0,P|257:55|255:96,1,83.9999974365235,2|0,2:2|0:0,0:0:0:0:
307,196,132093,5,6,3:2:0:0:
169,114,132236,1,2,2:2:0:0:
392,50,132379,1,10,2:2:0:0:
372,337,132522,2,0,P|371:295|373:254,1,83.9999974365235,2|0,2:2|0:0,0:0:0:0:
130,23,132665,6,0,P|134:108|129:190,1,167.999994873047,4|2,3:2|2:2,0:0:0:0:
251,229,132951,1,8,2:2:0:0:
200,336,133093,1,2,2:2:0:0:
306,384,133236,5,6,3:2:0:0:
180,258,133379,1,2,2:2:0:0:
364,125,133522,1,10,2:2:0:0:
205,0,133665,1,0,2:2:0:0:
2,135,133808,6,0,P|87:131|169:136,1,167.999994873047,6|0,3:2|0:0,0:0:0:0:
351,47,134093,1,8,2:2:0:0:
401,204,134236,2,0,P|358:206|317:203,1,83.9999974365235,2|0,2:2|0:0,0:0:0:0:
268,136,134379,101,6,3:2:0:0:
425,86,134522,1,2,2:2:0:0:
305,292,134665,1,10,2:2:0:0:
175,79,134808,2,0,P|179:164|174:246,1,167.999994873047,2|4,2:2|3:2,0:0:0:0:
509,384,135093,102,0,P|505:299|510:217,1,167.999994873047,2|8,2:2|2:2,0:0:0:0:
349,142,135379,1,2,2:2:0:0:
228,305,135522,101,6,3:2:0:0:
403,205,135665,1,2,2:2:0:0:
252,71,135808,1,10,2:2:0:0:
77,171,135951,1,2,2:2:0:0:
313,343,136093,102,0,P|228:339|146:344,1,167.999994873047,6|0,3:2|0:0,0:0:0:0:
0,384,136379,1,8,2:2:0:0:
156,185,136522,2,0,P|158:227|155:268,1,83.9999974365235,2|0,2:2|0:0,0:0:0:0:
79,296,136665,101,6,3:2:0:0:
35,98,136808,1,2,2:2:0:0:
240,211,136951,1,10,2:2:0:0:
369,26,137093,2,0,P|284:30|202:25,1,167.999994873047,2|4,2:2|3:2,0:0:0:0:
310,270,137379,102,0,P|395:266|477:271,1,167.999994873047,2|8,2:2|2:2,0:0:0:0:
512,381,137665,1,2,2:2:0:0:
385,237,137808,101,6,3:2:0:0:
251,323,137951,1,2,2:2:0:0:
440,345,138093,1,10,2:2:0:0:
376,100,138236,1,2,2:2:0:0:
109,157,138379,6,0,P|105:242|110:324,1,167.999994873047,6|0,3:2|0:0,0:0:0:0:
324,384,138665,1,8,2:2:0:0:
385,237,138808,2,0,P|343:234|301:236,1,83.9999974365235,2|0,2:2|0:0,0:0:0:0:
251,323,138951,5,6,3:2:0:0:
460,265,139093,1,2,2:2:0:0:
302,100,139236,1,10,2:2:0:0:
511,42,139379,2,0,P|507:127|512:209,1,167.999994873047,2|4,2:2|3:2,0:0:0:0:
401,321,139665,5,2,2:2:0:0:
278,240,139808,1,8,2:2:0:0:
416,118,139951,1,2,2:2:0:0:
254,22,140093,5,6,3:2:0:0:
192,17,140164,1,2,2:2:0:0:
139,48,140235,1,2,2:2:0:0:
114,104,140307,1,2,2:2:0:0:
128,165,140379,6,0,P|169:162|211:164,1,83.9999974365235,10|0,2:2|0:0,0:0:0:0:
435,198,140522,1,2,3:2:0:0:
435,198,140593,1,0,2:2:0:0:
435,198,140665,6,0,P|439:113|434:31,1,167.999994873047,4|0,3:2|0:0,0:0:0:0:
283,201,140951,1,8,2:2:0:0:
211,80,141093,2,0,P|209:122|211:163,1,83.9999974365235,2|0,2:2|0:0,0:0:0:0:
235,277,141236,5,6,3:2:0:0:
348,134,141379,1,2,2:2:0:0:
121,106,141522,1,10,2:2:0:0:
365,297,141665,2,0,P|367:254|364:213,1,83.9999974365235,2|0,2:2|0:0,0:0:0:0:
25,217,141808,102,0,P|21:302|26:384,1,167.999994873047,4|2,3:2|2:2,0:0:0:0:
128,321,142093,1,8,2:2:0:0:
231,368,142236,1,2,2:2:0:0:
277,272,142379,101,6,3:2:0:0:
109,201,142522,1,2,2:2:0:0:
302,345,142665,1,10,2:2:0:0:
427,132,142808,1,2,2:2:0:0:
167,21,142951,102,0,P|82:25|0:20,1,167.999994873047,6|0,3:2|0:0,0:0:0:0:
189,180,143236,1,8,2:2:0:0:
49,122,143379,2,0,P|99:119|147:122,1,83.9999974365235,2|0,2:2|0:0,0:0:0:0:
241,55,143522,101,6,3:2:0:0:
381,196,143665,1,2,2:2:0:0:
431,14,143808,1,10,2:2:0:0:
512,53,143951,1,2,2:2:0:0:
512,53,144022,1,0,2:2:0:0:
512,53,144093,102,0,P|516:138|511:220,1,167.999994873047,4|2,3:2|2:2,0:0:0:0:
314,251,144379,1,8,2:2:0:0:
362,106,144522,1,2,2:2:0:0:
446,298,144665,101,6,3:2:0:0:
150,382,144808,1,2,2:2:0:0:
66,86,144951,1,10,2:2:0:0:
362,2,145094,1,2,2:2:0:0:
362,2,145165,1,2,2:2:0:0:
362,2,145236,102,0,P|366:87|361:169,1,167.999994873047,14|0,3:2|0:0,0:0:0:0:
150,382,145522,2,0,P|146:297|151:215,1,167.999994873047,8|0,2:2|0:0,0:0:0:0:
446,298,145808,2,0,P|361:302|279:297,1,167.999994873047,8|0,2:2|0:0,0:0:0:0:
66,86,146093,2,0,P|151:82|233:87,1,167.999994873047,8|2,2:2|2:2,0:0:0:0:
0,384,146379,6,0,P|-4:299|1:217,1,167.999994873047,14|0,3:2|0:0,0:0:0:0:
512,0,146665,2,0,P|516:85|511:167,1,167.999994873047,8|0,2:2|0:0,0:0:0:0:
0,0,146951,2,0,P|85:-4|167:1,1,167.999994873047,8|0,2:2|0:0,0:0:0:0:
512,384,147236,2,0,P|427:388|345:383,1,167.999994873047,8|0,2:2|0:0,0:0:0:0:
276,350,147451,1,8,2:2:0:0:
327,294,147522,6,0,P|329:252|326:210,1,83.9999974365235,12|0,2:2|0:0,0:0:0:0:
154,263,147665,2,0,P|196:265|238:262,1,83.9999974365235,8|0,2:2|0:0,0:0:0:0:
185,90,147808,2,0,P|183:132|186:174,1,83.9999974365235,8|0,2:2|0:0,0:0:0:0:
358,121,147951,2,0,P|316:119|274:122,1,83.9999974365235,8|0,2:2|0:0,0:0:0:0:
104,58,148093,6,0,P|102:100|104:142,1,83.9999974365235,8|0,2:2|0:0,0:0:0:0:
122,344,148236,2,0,P|164:346|206:344,1,83.9999974365235,8|0,2:2|0:0,0:0:0:0:
408,326,148379,2,0,P|410:284|408:242,1,83.9999974365235,8|0,2:2|0:0,0:0:0:0:
390,40,148522,2,0,P|348:38|306:40,1,83.9999974365235,8|0,2:2|0:0,0:0:0:0:
14,248,148665,5,8,2:2:0:0:
33,208,148736,1,8,2:2:0:0:
69,183,148807,1,8,2:2:0:0:
114,180,148879,1,8,2:2:0:0:
153,199,148950,5,8,2:2:0:0:
213,217,149022,1,8,2:2:0:0:
271,196,149093,1,8,2:2:0:0:
306,145,149165,1,8,2:2:0:0:
303,83,149236,6,0,P|301:40|304:0,1,83.9999974365235,8|0,2:2|0:0,0:0:0:0:
497,144,149379,2,0,P|498:165|497:186,2,41.9999987182618,10|0|0,2:2|0:0|0:0,0:0:0:0:
446,247,149522,6,0,P|448:290|446:330,1,83.9999974365235,8|0,2:2|0:0,0:0:0:0:
252,186,149665,2,0,P|251:165|252:144,2,41.9999987182618,10|0|0,2:2|0:0|0:0,0:0:0:0:
370,260,149808,102,0,P|328:257|286:259,14,83.9999974365235,4|0|0|0|0|0|0|0|0|0|0|0|0|0|0,2:2|0:0|0:0|0:0|0:0|0:0|0:0|0:0|0:0|0:0|0:0|0:0|0:0|0:0|0:0,0:0:0:0:
220,384,152093,102,0,P|262:387|304:385,14,83.9999974365235,2|0|0|0|0|0|0|0|0|0|0|0|0|0|0,2:2|0:0|0:0|0:0|0:0|0:0|0:0|0:0|0:0|0:0|0:0|0:0|0:0|0:0|0:0,0:0:0:0:
166,237,154379,102,0,P|168:279|165:321,14,83.9999974365235,12|0|0|0|0|0|0|0|0|0|0|0|0|0|0,2:2|0:0|0:0|0:0|0:0|0:0|0:0|0:0|0:0|0:0|0:0|0:0|0:0|0:0|0:0,0:0:0:0:
431,384,156665,102,0,P|429:342|432:300,12,83.9999974365235,2|0|0|0|0|0|0|0|0|0|0|0|0,2:2|0:0|0:0|0:0|0:0|0:0|0:0|0:0|0:0|0:0|0:0|0:0|0:0,0:0:0:0:
365,238,158665,2,0,P|366:255|365:272,6,20.9999993591309,0|0|0|0|0|0|0,3:3|3:3|3:3|3:3|3:3|3:3|3:3,0:0:0:0:
429,186,158951,101,12,2:2:0:0:
385,127,159093,1,0,2:2:0:0:
385,127,159165,1,0,2:2:0:0:
385,127,159236,1,2,2:2:0:0:
433,58,159379,1,0,2:2:0:0:
362,11,159522,1,2,2:2:0:0:
342,18,159593,1,0,2:2:0:0:
321,21,159664,1,0,2:2:0:0:
300,21,159736,1,0,2:2:0:0:
280,17,159807,1,2,2:2:0:0:
235,88,159951,1,0,2:2:0:0:
167,38,160093,101,2,2:2:0:0:
89,70,160236,1,0,2:2:0:0:
89,70,160308,1,0,2:2:0:0:
89,70,160379,1,0,2:2:0:0:
87,154,160522,1,2,2:2:0:0:
169,198,160665,1,0,2:2:0:0:
169,198,160736,1,0,2:2:0:0:
169,198,160808,1,0,2:2:0:0:
124,269,160951,1,2,2:2:0:0:
128,290,161022,1,0,2:2:0:0:
131,310,161093,1,0,2:2:0:0:
131,331,161165,1,0,2:2:0:0:
129,352,161236,101,2,2:2:0:0:
238,309,161379,1,0,2:2:0:0:
238,309,161451,1,0,2:2:0:0:
238,309,161522,1,2,2:2:0:0:
287,375,161665,1,0,2:2:0:0:
378,328,161808,1,2,2:2:0:0:
373,304,161879,1,0,2:2:0:0:
370,280,161950,1,0,2:2:0:0:
370,255,162022,1,0,2:2:0:0:
372,231,162093,1,2,2:2:0:0:
451,243,162236,1,0,2:2:0:0:
486,140,162379,5,2,2:2:0:0:
402,161,162522,1,0,2:2:0:0:
402,161,162593,1,0,2:2:0:0:
402,161,162665,1,0,2:2:0:0:
375,67,162808,1,2,2:2:0:0:
315,127,162951,1,0,2:2:0:0:
315,127,163022,1,0,2:2:0:0:
315,127,163093,1,0,2:2:0:0:
232,119,163236,1,2,2:2:0:0:
225,95,163307,1,0,2:2:0:0:
222,71,163378,1,0,2:2:0:0:
222,46,163450,1,0,2:2:0:0:
225,21,163521,5,12,2:2:0:0:
131,88,163665,1,0,2:2:0:0:
131,88,163736,1,0,2:2:0:0:
131,88,163808,1,2,2:2:0:0:
31,38,163951,1,0,2:2:0:0:
0,171,164093,1,2,2:2:0:0:
30,164,164164,1,0,2:2:0:0:
62,161,164235,1,0,2:2:0:0:
93,163,164307,1,0,2:2:0:0:
124,169,164378,1,2,2:2:0:0:
216,97,164522,1,0,2:2:0:0:
304,222,164665,5,2,2:2:0:0:
372,154,164808,1,0,2:2:0:0:
372,154,164879,1,0,2:2:0:0:
372,154,164951,1,2,2:2:0:0:
486,216,165093,1,2,2:2:0:0:
395,75,165236,1,2,2:2:0:0:
395,75,165308,1,0,2:2:0:0:
395,75,165379,1,0,2:2:0:0:
251,168,165522,1,2,2:2:0:0:
257,199,165593,1,2,2:2:0:0:
262,230,165664,1,2,2:2:0:0:
266,261,165736,1,2,2:2:0:0:
268,293,165807,5,12,2:2:0:0:
470,376,165951,1,0,2:2:0:0:
470,376,166022,1,0,2:2:0:0:
470,376,166093,1,2,2:2:0:0:
343,185,166236,1,0,2:2:0:0:
198,342,166379,1,2,2:2:0:0:
160,334,166450,1,0,2:2:0:0:
121,331,166521,1,0,2:2:0:0:
83,331,166593,1,0,2:2:0:0:
45,335,166664,1,2,2:2:0:0:
170,228,166808,1,0,2:2:0:0:
98,102,166951,6,0,P|103:137|107:171,1,70,2|0,2:2|0:0,0:0:0:0:
107,171,167165,1,0,2:2:0:0:
107,171,167236,1,0,2:2:0:0:
182,135,167379,5,0,2:2:0:0:
243,188,167522,5,0,3:3:0:0:
266,195,167593,101,0,3:3:0:0:
293,199,167665,101,0,3:3:0:0:
326,199,167736,101,0,3:3:0:0:
363,193,167808,101,0,3:3:0:0:
404,176,167879,101,0,3:3:0:0:
445,145,167951,101,0,3:3:0:0:
481,96,168022,101,0,3:3:0:0:
501,28,168093,6,0,P|417:33|333:29,1,168,12|0,2:2|0:0,0:0:0:0:
333,29,168378,1,0,3:3:0:0:
500,111,168521,6,0,P|416:116|332:112,1,168,12|0,2:2|0:0,0:0:0:0:
332,112,168806,1,0,3:3:0:0:
499,193,168950,6,0,P|415:198|331:194,1,168,12|0,2:2|0:0,0:0:0:0:
331,194,169235,1,0,3:3:0:0:
271,250,169378,1,0,3:3:0:0:
220,126,169521,2,0,P|222:154|220:182,1,56,2|0,2:2|0:0,0:0:0:0:
152,275,169664,2,0,P|150:247|152:219,1,56,0|0,3:3|0:0,0:0:0:0:
87,180,169807,5,2,2:2:0:0:
59,176,169878,1,2,2:2:0:0:
33,184,169949,1,0,2:2:0:0:
12,203,170021,1,0,2:2:0:0:
2,229,170092,5,0,3:3:0:0:
5,271,170164,1,0,2:2:0:0:
30,304,170235,1,0,3:3:0:0:
69,318,170307,1,0,2:2:0:0:
109,309,170378,5,2,2:2:0:0:
152,275,170449,1,0,2:2:0:0:
165,221,170520,1,2,2:2:0:0:
145,170,170592,1,0,2:2:0:0:
98,142,170663,5,0,3:3:0:0:
71,111,170735,1,0,2:2:0:0:
68,70,170806,1,2,2:2:0:0:
90,35,170878,1,0,2:2:0:0:
129,21,170949,101,2,2:2:0:0:
156,23,171021,1,0,2:2:0:0:
180,38,171092,1,0,3:3:0:0:
194,61,171164,1,0,2:2:0:0:
197,89,171235,101,0,2:2:0:0:
214,127,171306,1,0,2:2:0:0:
248,150,171377,1,0,3:3:0:0:
290,150,171449,1,0,2:2:0:0:
324,127,171520,101,0,2:2:0:0:
347,77,171592,1,0,2:2:0:0:
397,54,171663,1,0,3:3:0:0:
450,68,171735,1,0,2:2:0:0:
480,113,171807,102,0,P|478:141|480:169,1,56,2|2,2:2|2:2,0:0:0:0:
354,358,171950,1,2,2:2:0:0:
354,358,172021,1,2,2:2:0:0:
354,358,172093,102,0,P|359:274|355:190,1,168,12|0,2:2|0:0,0:0:0:0:
355,190,172378,1,0,3:3:0:0:
4,49,172521,102,0,P|-4:175|2:301,2,224,12|12|12,2:2|2:2|2:2,0:0:0:0:
79,10,173235,1,0,3:3:0:0:
128,79,173378,1,0,3:3:0:0:
245,28,173521,2,0,P|217:26|189:28,1,56,2|0,2:2|0:0,0:0:0:0:
104,157,173664,2,0,P|132:159|160:157,1,56,0|0,3:3|0:0,0:0:0:0:
219,210,173807,101,2,2:2:0:0:
258,223,173878,1,2,2:2:0:0:
298,210,173949,1,0,2:2:0:0:
325,177,174021,1,2,2:2:0:0:
322,135,174092,5,0,3:3:0:0:
295,88,174164,1,0,2:2:0:0:
244,69,174235,1,2,2:2:0:0:
192,88,174307,1,2,2:2:0:0:
165,136,174378,5,0,2:2:0:0:
164,183,174449,1,2,2:2:0:0:
178,225,174521,1,2,2:2:0:0:
204,257,174592,1,0,2:2:0:0:
236,277,174664,5,2,2:2:0:0:
270,287,174735,1,2,2:2:0:0:
303,287,174807,1,0,3:3:0:0:
332,280,174878,1,0,2:2:0:0:
357,267,174949,5,0,3:3:0:0:
377,250,175021,1,0,3:3:0:0:
392,231,175092,1,0,3:3:0:0:
403,212,175164,1,0,2:2:0:0:
409,190,175235,5,2,2:2:0:0:
412,157,175306,5,2,2:2:0:0:
403,120,175378,5,2,2:2:0:0:
381,84,175449,101,2,2:2:0:0:
343,56,175521,101,2,2:2:0:0:
291,46,175592,101,2,2:2:0:0:
233,62,175664,101,2,2:2:0:0:
188,111,175735,101,2,2:2:0:0:
177,184,175807,102,0,P|177:198|177:212,1,28,2|0,3:2|0:0,0:0:0:0:
161,197,175878,102,0,P|161:211|161:225,1,28,2|0,3:2|0:0,0:0:0:0:
148,184,175950,6,0,P|148:198|148:212,1,28,2|0,3:2|0:0,0:0:0:0:
132,197,176021,6,0,P|132:211|132:225,1,28,2|0,3:2|0:0,0:0:0:0:
63,260,176093,6,0,P|147:255|231:259,1,168,12|0,2:2|0:0,0:0:0:0:
230,258,176378,1,0,3:3:0:0:
395,383,176521,6,0,P|311:388|227:384,1,168,12|0,2:2|0:0,0:0:0:0:
227,384,176806,1,0,3:3:0:0:
344,170,176950,6,0,P|428:165|512:169,1,168,12|0,2:2|0:0,0:0:0:0:
512,169,177235,1,0,3:3:0:0:
419,209,177378,1,0,3:3:0:0:
328,88,177521,5,2,2:2:0:0:
293,93,177592,1,2,2:2:0:0:
258,98,177663,1,2,2:2:0:0:
223,100,177735,1,2,2:2:0:0:
188,102,177806,1,2,2:2:0:0:
153,101,177878,1,2,2:2:0:0:
118,100,177949,1,2,2:2:0:0:
84,96,178021,1,2,2:2:0:0:
49,92,178093,6,0,P|45:155|48:218,1,112,12|0,2:2|0:0,0:0:0:0:
121,291,178307,2,0,P|125:228|122:165,1,112,12|0,2:2|0:0,0:0:0:0:
205,65,178521,2,0,P|201:128|204:191,1,112,12|0,2:2|0:0,0:0:0:0:
437,313,178807,102,0,P|439:281|437:250,1,56,8|0,2:2|0:0,0:0:0:0:
360,177,178950,2,0,P|358:208|359:240,1,56,8|0,2:2|0:0,0:0:0:0:
285,368,179093,102,0,P|289:305|286:242,1,112,12|0,2:2|0:0,0:0:0:0:
501,88,179378,2,0,P|497:151|500:214,1,112,12|0,2:2|0:0,0:0:0:0:
498,199,179593,1,8,2:2:0:0:
325,104,179735,1,8,2:2:0:0:
202,267,179878,1,8,2:2:0:0:
202,267,179950,2,0,P|186:266|170:266,2,28,0|0|0,3:3|3:3|3:3,0:0:0:0:
259,322,180093,101,8,2:2:0:0:
64,374,180235,1,8,2:2:0:0:
64,374,180307,1,8,2:2:0:0:
64,374,180378,1,12,2:2:0:0:
5,175,180521,1,8,2:2:0:0:
101,298,180664,101,8,2:2:0:0:
101,298,180735,1,8,2:2:0:0:
310,187,180878,1,8,2:2:0:0:
310,187,180950,1,8,2:2:0:0:
288,84,181093,1,12,2:2:0:0:
491,151,181235,101,8,2:2:0:0:
491,151,181307,1,8,2:2:0:0:
491,151,181378,2,0,P|428:147|365:150,1,112,12|0,2:2|0:0,0:0:0:0:
221,209,181593,2,0,P|284:213|347:210,1,112,12|0,2:2|0:0,0:0:0:0:
403,296,181807,2,0,P|340:292|277:295,1,112,12|0,2:2|0:0,0:0:0:0:
159,369,182093,101,8,2:2:0:0:
159,369,182164,1,8,2:2:0:0:
159,369,182235,1,8,2:2:0:0:
25,256,182378,1,8,2:2:0:0:
25,256,182450,1,8,2:2:0:0:
25,256,182521,2,0,P|29:193|26:130,1,112,12|0,2:2|0:0,0:0:0:0:
110,96,182735,2,0,P|106:159|109:222,1,112,12|0,2:2|0:0,0:0:0:0:
183,335,182950,2,0,P|187:272|184:209,1,112,12|2,2:2|2:2,0:0:0:0:
26,131,183235,101,8,2:2:0:0:
39,113,183306,5,8,2:2:0:0:
54,94,183378,5,8,2:2:0:0:
73,75,183449,5,8,2:2:0:0:
96,57,183521,5,8,2:2:0:0:
123,40,183592,5,8,2:2:0:0:
155,25,183664,5,8,2:2:0:0:
192,13,183735,5,8,2:2:0:0:
234,7,183806,101,8,2:2:0:0:
281,8,183878,101,8,2:2:0:0:
331,19,183949,101,8,2:2:0:0:
383,42,184021,101,8,2:2:0:0:
433,79,184092,101,8,2:2:0:0:
476,131,184164,101,8,2:2:0:0:
506,200,184235,101,8,2:2:0:0:
512,281,184306,5,8,2:2:0:0:
497,369,184378,5,12,2:2:0:0:
497,369,184949,1,2,2:2:0:0:
497,369,185520,1,2,2:2:0:0:
494,272,186378,5,2,2:2:0:0:
494,272,186663,2,0,P|509:221|498:109,1,168,2|2,2:2|2:2,0:0:0:0:
494,272,188949,5,2,2:2:0:0:
494,272,189092,1,0,2:2:0:0:
480,193,189235,1,2,2:2:0:0:
480,193,189378,1,0,2:2:0:0:
403,209,189520,1,2,2:2:0:0:
403,209,189663,1,0,2:2:0:0:
417,288,189806,1,2,2:2:0:0:
417,288,189949,1,0,2:2:0:0:
329,261,190092,6,0,P|324:299|325:335,1,70,2|0,2:2|0:0,0:0:0:0:
254,367,190378,1,0,2:2:0:0:
146,296,190520,2,0,P|151:258|150:222,1,70,2|0,2:2|0:0,0:0:0:0:
221,190,190806,1,0,2:2:0:0:
221,190,190949,1,2,2:2:0:0:
53,18,191235,5,2,2:2:0:0:
53,18,191378,1,0,2:2:0:0:
12,85,191520,1,2,2:2:0:0:
12,85,191663,1,0,2:2:0:0:
43,158,191806,1,2,2:2:0:0:
43,158,191949,1,0,2:2:0:0:
120,175,192092,1,2,2:2:0:0:
120,175,192235,1,0,2:2:0:0:
241,115,192378,6,0,P|203:110|167:111,1,70,2|0,2:2|0:0,0:0:0:0:
136,41,192664,1,0,2:2:0:0:
61,252,192806,2,0,P|99:257|135:256,1,70,2|0,2:2|0:0,0:0:0:0:
166,326,193092,1,0,2:2:0:0:
235,256,193235,1,2,2:2:0:0:
347,364,193378,1,0,2:2:0:0:
469,174,193520,101,2,2:2:0:0:
469,174,194092,1,2,2:2:0:0:
469,174,194663,1,2,2:2:0:0:
356,122,195520,101,2,2:2:0:0:
356,122,195806,2,0,P|295:141|193:131,1,168,2|2,2:2|2:2,0:0:0:0:
0,86,198092,101,2,2:2:0:0:
0,86,198235,1,0,2:2:0:0:
14,165,198378,1,2,2:2:0:0:
14,165,198521,1,0,2:2:0:0:
91,149,198663,1,2,2:2:0:0:
91,149,198806,1,0,2:2:0:0:
77,70,198949,1,2,2:2:0:0:
77,70,199092,1,0,2:2:0:0:
61,231,199235,102,0,P|99:236|135:235,1,70,2|0,2:2|0:0,0:0:0:0:
166,305,199521,1,0,2:2:0:0:
182,144,199663,2,0,P|144:139|108:140,1,70,2|0,2:2|0:0,0:0:0:0:
77,70,199949,1,0,2:2:0:0:
77,70,200092,1,2,2:2:0:0:
256,224,200378,101,2,2:2:0:0:
256,224,200520,1,0,2:2:0:0:
297,155,200663,1,2,2:2:0:0:
297,155,200805,1,0,2:2:0:0:
373,131,200949,1,2,2:2:0:0:
373,131,201091,1,0,2:2:0:0:
447,162,201235,1,2,2:2:0:0:
447,162,201377,1,0,2:2:0:0:
452,340,201520,102,0,P|457:302|456:266,1,70,2|0,2:2|0:0,0:0:0:0:
393,221,201806,1,0,2:2:0:0:
228,265,201949,2,0,P|223:303|224:339,1,70,2|0,2:2|0:0,0:0:0:0:
287,384,202235,1,0,2:2:0:0:
310,258,202378,1,2,2:2:0:0:
163,198,202520,1,0,2:2:0:0:
60,370,202663,102,0,P|108:372|157:370,1,97.9999970092774,12|0,2:2|0:0,0:0:0:0:
97,138,202949,2,0,P|48:135|0:137,1,97.9999970092774,2|0,2:2|0:0,0:0:0:0:
146,73,203235,1,2,2:2:0:0:
242,166,203378,1,0,2:2:0:0:
242,166,203449,1,0,2:2:0:0:
242,166,203520,1,2,2:2:0:0:
308,59,203663,1,0,2:2:0:0:
369,214,203806,6,0,P|371:165|369:116,1,97.9999970092774,10|0,2:2|0:0,0:0:0:0:
176,217,204092,2,0,P|173:265|175:314,1,97.9999970092774,2|0,2:2|0:0,0:0:0:0:
425,384,204378,2,0,P|427:335|425:286,1,97.9999970092774,2|0,2:2|0:0,0:0:0:0:
425,286,204592,1,0,2:2:0:0:
425,286,204663,2,0,P|376:288|327:286,1,97.9999970092774,2|0,2:2|0:0,0:0:0:0:
376,0,204949,6,0,P|425:-2|474:0,1,97.9999970092774,10|0,2:2|0:0,0:0:0:0:
276,145,205235,2,0,P|227:147|178:145,1,97.9999970092774,2|0,2:2|0:0,0:0:0:0:
354,184,205520,1,2,2:2:0:0:
318,71,205663,1,0,2:2:0:0:
318,71,205735,1,0,2:2:0:0:
318,71,205806,1,2,2:2:0:0:
182,224,205949,1,0,2:2:0:0:
6,127,206092,6,0,P|4:78|6:29,1,97.9999970092774,10|0,2:2|0:0,0:0:0:0:
235,0,206378,2,0,P|237:49|235:98,1,97.9999970092774,2|0,2:2|0:0,0:0:0:0:
70,282,206663,2,0,P|68:233|70:184,1,97.9999970092774,2|0,2:2|0:0,0:0:0:0:
145,135,206878,1,0,2:2:0:0:
145,135,206949,2,0,P|147:184|145:233,1,97.9999970092774,2|0,2:2|0:0,0:0:0:0:
387,360,207235,5,10,2:2:0:0:
400,282,207378,1,0,2:2:0:0:
323,269,207520,1,2,2:2:0:0:
309,346,207663,1,0,2:2:0:0:
387,360,207806,5,2,2:2:0:0:
400,282,207949,1,0,2:2:0:0:
323,269,208091,1,2,2:2:0:0:
309,346,208234,1,0,2:2:0:0:
484,384,208378,6,0,P|482:335|484:286,1,97.9999970092774,10|0,2:2|0:0,0:0:0:0:
311,154,208663,2,0,P|313:203|311:252,1,97.9999970092774,2|0,2:2|0:0,0:0:0:0:
247,300,208949,1,2,2:2:0:0:
175,264,209092,1,0,2:2:0:0:
175,264,209163,1,0,2:2:0:0:
175,264,209235,1,2,2:2:0:0:
170,11,209520,5,10,2:2:0:0:
194,86,209662,1,0,2:2:0:0:
156,156,209805,1,2,2:2:0:0:
80,176,209948,1,0,2:2:0:0:
170,11,210093,101,2,2:2:0:0:
194,86,210235,1,0,2:2:0:0:
156,156,210378,1,2,2:2:0:0:
80,176,210521,1,0,2:2:0:0:
15,24,210663,102,0,P|17:73|15:122,1,97.9999970092774,10|0,2:2|0:0,0:0:0:0:
179,268,210949,2,0,P|177:219|179:170,1,97.9999970092774,2|0,2:2|0:0,0:0:0:0:
250,131,211235,1,2,2:2:0:0:
308,201,211378,1,0,2:2:0:0:
308,201,211449,1,0,2:2:0:0:
308,201,211520,101,10,2:2:0:0:
355,189,211591,1,8,2:2:0:0:
404,185,211662,1,8,2:2:0:0:
453,188,211734,1,8,2:2:0:0:
501,198,211806,102,0,P|496:141|501:76,1,112,10|0,2:2|0:0,0:0:0:0:
309,11,212092,2,0,P|314:68|309:133,1,112,2|0,2:2|0:0,0:0:0:0:
181,183,212378,1,2,2:2:0:0:
111,79,212520,1,0,2:2:0:0:
111,79,212592,1,0,2:2:0:0:
111,79,212663,2,0,P|54:74|-11:79,1,112,10|0,2:2|0:0,0:0:0:0:
181,27,212949,101,10,2:2:0:0:
266,322,213235,2,0,P|323:317|388:322,1,112,2|0,2:2|0:0,0:0:0:0:
512,163,213520,2,0,P|455:168|390:163,1,112,2|0,2:2|0:0,0:0:0:0:
325,115,213735,1,0,2:2:0:0:
325,115,213806,2,0,P|321:170|326:226,1,112,10|0,2:2|0:0,0:0:0:0:
99,378,214092,102,0,P|102:322|97:266,1,112,10|0,2:2|0:0,0:0:0:0:
58,162,214378,1,2,2:2:0:0:
215,51,214520,2,0,P|211:106|216:162,1,112,8|2,2:2|2:2,0:0:0:0:
256,267,214806,1,0,2:2:0:0:
447,330,214949,2,0,P|450:274|445:218,1,112,10|0,2:2|0:0,0:0:0:0:
491,149,215235,101,10,2:2:0:0:
19,241,215520,2,0,P|74:245|130:242,1,112,10|0,2:2|0:0,0:0:0:0:
203,136,215806,1,2,2:2:0:0:
318,196,215949,1,0,2:2:0:0:
318,196,216020,1,0,2:2:0:0:
318,196,216092,5,10,2:2:0:0:
309,154,216163,1,8,2:2:0:0:
304,113,216234,1,8,2:2:0:0:
303,71,216306,1,8,2:2:0:0:
306,29,216377,5,10,2:2:0:0:
169,55,216520,1,0,2:2:0:0:
195,192,216663,1,2,2:2:0:0:
332,166,216806,1,0,2:2:0:0:
306,29,216949,5,2,2:2:0:0:
169,55,217092,1,0,2:2:0:0:
195,192,217235,2,0,P|250:187|306:190,1,112,10|0,2:2|0:0,0:0:0:0:
476,253,217520,5,10,2:2:0:0:
144,375,217806,2,0,P|148:319|145:263,1,112,2|0,2:2|0:0,0:0:0:0:
47,172,218092,1,2,2:2:0:0:
98,51,218235,1,0,2:2:0:0:
98,51,218306,1,0,2:2:0:0:
98,51,218378,1,10,2:2:0:0:
89,373,218663,5,10,2:2:0:0:
137,296,218805,1,0,2:2:0:0:
226,280,218948,1,2,2:2:0:0:
89,373,219092,5,8,2:2:0:0:
137,296,219234,1,2,2:2:0:0:
226,280,219377,1,0,2:2:0:0:
89,373,219520,5,10,2:2:0:0:
137,296,219662,1,0,2:2:0:0:
297,336,219806,101,10,2:2:0:0:
194,131,220092,2,0,P|249:135|305:132,1,112,10|0,2:2|0:0,0:0:0:0:
512,38,220378,2,0,P|428:30|344:35,1,168,10|0,2:2|0:0,0:0:0:0:
266,25,220663,101,10,2:2:0:0:
274,66,220734,1,8,2:2:0:0:
279,107,220805,1,8,2:2:0:0:
281,149,220877,1,8,2:2:0:0:
277,190,220949,102,0,P|205:185|131:191,1,140,14|0,2:2|0:0,0:0:0:0:
85,265,221235,101,10,2:2:0:0:
85,265,221520,102,0,P|87:301|84:338,1,70,10|0,2:2|0:0,0:0:0:0:
147,379,221663,101,0,3:3:0:0:
316,283,221806,101,10,2:2:0:0:
316,283,222092,6,0,P|320:210|315:136,1,140,10|0,2:2|0:0,0:0:0:0:
382,85,222378,5,10,2:2:0:0:
293,19,222520,5,0,3:3:0:0:
183,93,222663,6,0,P|219:90|256:93,1,70,10|0,2:2|0:0,0:0:0:0:
434,197,222806,5,0,3:3:0:0:
375,10,222949,5,10,2:2:0:0:
375,10,223235,6,0,P|370:82|375:156,1,140,10|0,2:2|0:0,0:0:0:0:
512,297,223520,101,10,2:2:0:0:
512,297,223806,102,0,P|477:294|442:296,1,70,10|0,2:2|0:0,0:0:0:0:
415,371,223949,101,0,3:3:0:0:
283,312,224092,101,10,2:2:0:0:
283,312,224378,102,0,P|210:307|136:312,1,140,10|0,2:2|0:0,0:0:0:0:
60,368,224663,101,10,2:2:0:0:
6,258,224806,101,0,3:3:0:0:
174,179,224949,6,0,P|138:181|100:178,1,70,10|0,2:2|0:0,0:0:0:0:
20,50,225092,5,0,3:3:0:0:
86,254,225235,5,10,2:2:0:0:
261,120,225378,5,0,3:3:0:0:
372,246,225520,6,0,P|444:241|518:246,1,140,10|0,2:2|0:0,0:0:0:0:
343,320,225806,5,10,2:2:0:0:
343,320,226092,6,0,P|340:284|343:246,1,70,10|0,2:2|0:0,0:0:0:0:
292,191,226235,101,0,3:3:0:0:
470,94,226378,101,10,2:2:0:0:
470,94,226663,102,0,P|465:166|470:240,1,140,10|0,2:2|0:0,0:0:0:0:
389,52,226949,101,8,2:2:0:0:
314,116,227092,101,2,3:2:0:0:
382,232,227235,102,0,P|379:196|382:158,1,70,8|0,2:2|0:0,0:0:0:0:
512,28,227378,101,0,3:3:0:0:
259,1,227520,5,10,2:2:0:0:
259,1,227806,6,0,P|331:-3|405:1,1,140,10|0,2:2|0:0,0:0:0:0:
454,172,228092,5,10,2:2:0:0:
454,172,228378,6,0,P|418:169|380:172,1,70,10|0,2:2|0:0,0:0:0:0:
290,247,228520,5,0,3:3:0:0:
121,77,228663,5,10,2:2:0:0:
121,77,228949,6,0,P|116:149|121:223,1,140,10|0,2:2|0:0,0:0:0:0:
64,295,229235,101,8,2:2:0:0:
185,354,229378,101,2,3:2:0:0:
226,173,229520,102,0,P|228:209|225:246,1,70,8|0,2:2|0:0,0:0:0:0:
13,226,229663,101,0,3:3:0:0:
297,289,229806,101,10,2:2:0:0:
237,22,229949,101,0,3:3:0:0:
268,363,230092,102,0,P|340:367|414:362,1,140,14|0,2:2|0:0,0:0:0:0:
510,282,230378,5,10,2:2:0:0:
510,282,230663,6,0,P|507:247|509:212,1,70,10|0,2:2|0:0,0:0:0:0:
448,160,230806,5,0,3:3:0:0:
195,287,230949,5,10,2:2:0:0:
195,287,231235,6,0,P|199:214|194:140,1,140,10|0,2:2|0:0,0:0:0:0:
254,62,231520,5,10,2:2:0:0:
354,127,231663,5,0,3:3:0:0:
275,269,231806,102,0,P|277:234|275:199,1,70,10|0,2:2|0:0,0:0:0:0:
118,155,231949,101,0,3:3:0:0:
336,42,232092,101,10,2:2:0:0:
336,42,232378,102,0,P|263:46|189:41,1,140,10|0,2:2|0:0,0:0:0:0:
31,0,232663,101,10,2:2:0:0:
31,0,232949,102,0,P|28:36|31:73,1,70,10|0,2:2|0:0,0:0:0:0:
101,115,233092,101,0,3:3:0:0:
31,304,233235,5,10,2:2:0:0:
31,304,233520,6,0,P|26:234|31:164,1,140,10|0,2:2|0:0,0:0:0:0:
176,164,233806,5,10,2:2:0:0:
249,55,233949,5,0,3:3:0:0:
129,28,234092,6,0,P|126:64|129:101,1,70,10|0,2:2|0:0,0:0:0:0:
143,270,234235,5,0,3:3:0:0:
319,118,234378,5,10,2:2:0:0:
31,80,234520,101,0,3:3:0:0:
103,356,234663,102,0,P|175:351|249:356,1,140,10|0,2:2|0:0,0:0:0:0:
442,384,234949,101,10,2:2:0:0:
442,384,235235,102,0,P|439:349|441:314,1,70,10|0,2:2|0:0,0:0:0:0:
485,247,235378,101,0,3:3:0:0:
230,157,235520,101,10,2:2:0:0:
230,157,235806,102,0,P|234:229|229:303,1,140,10|0,2:2|0:0,0:0:0:0:
142,367,236092,5,8,2:2:0:0:
57,304,236235,5,2,3:2:0:0:
86,181,236378,6,0,P|122:178|159:181,1,70,8|0,2:2|0:0,0:0:0:0:
310,278,236520,5,0,3:3:0:0:
457,142,236663,5,10,2:2:0:0:
457,142,236949,6,0,P|452:69|457:-4,1,140,10|0,2:2|0:0,0:0:0:0:
392,212,237235,5,10,2:2:0:0:
392,212,237520,102,0,P|394:248|391:285,1,70,10|0,2:2|0:0,0:0:0:0:
323,167,237663,101,0,3:3:0:0:
221,350,237806,101,10,2:2:0:0:
221,350,238092,102,0,P|293:354|367:349,1,140,10|0,2:2|0:0,0:0:0:0:
143,380,238378,101,8,2:2:0:0:
203,257,238520,101,2,3:2:0:0:
377,268,238663,101,8,2:2:0:0:
241,165,238806,5,0,3:3:0:0:
62,269,238949,5,10,2:2:0:0:
269,68,239092,5,0,3:3:0:0:
462,298,239235,5,4,3:2:0:0:
419,242,239520,1,0,2:2:0:0:
361,281,239806,1,0,2:2:0:0:
304,239,240092,1,0,2:2:0:0:
266,298,240378,1,0,2:2:0:0:
226,240,240663,1,0,2:2:0:0:
172,285,240949,1,0,2:2:0:0:
109,253,241235,1,0,2:2:0:0:
34,93,241520,5,0,2:2:0:0:
44,162,241806,1,0,2:2:0:0:
112,145,242092,1,0,2:2:0:0:
169,184,242378,1,0,2:2:0:0:
190,117,242663,1,0,2:2:0:0:
257,136,242949,1,0,2:2:0:0:
291,74,243235,1,0,2:2:0:0:
348,114,243520,1,0,2:2:0:0:
493,6,243806,6,0,P|489:40|492:75,14,70,2|0|0|0|0|0|0|0|0|0|0|0|0|0|0,2:2|0:0|0:0|0:0|0:0|0:0|0:0|0:0|0:0|0:0|0:0|0:0|0:0|0:0|0:0,0:0:0:0:
199,185,246092,6,0,P|202:150|199:115,14,70,2|0|0|0|0|0|0|0|0|0|0|0|0|0|0,2:2|0:0|0:0|0:0|0:0|0:0|0:0|0:0|0:0|0:0|0:0|0:0|0:0|0:0|0:0,0:0:0:0:
319,20,248378,101,2,2:2:0:0:
275,74,248663,1,0,2:2:0:0:
328,119,248949,1,0,2:2:0:0:
301,183,249235,1,0,2:2:0:0:
340,240,249520,1,0,2:2:0:0:
275,268,249806,1,0,2:2:0:0:
326,315,250092,1,0,2:2:0:0:
302,380,250378,1,0,2:2:0:0:
30,318,250663,101,0,2:2:0:0:
90,282,250949,1,0,2:2:0:0:
39,233,251235,1,0,2:2:0:0:
104,208,251520,1,0,2:2:0:0:
35,195,251806,1,0,2:2:0:0:
80,141,252092,1,0,2:2:0:0:
43,81,252378,1,0,2:2:0:0:
73,18,252663,1,0,2:2:0:0:
256,192,252949,101,2,2:2:0:0:
105,310,254949,101,0,2:2:0:0:
105,310,255235,1,2,2:2:0:0:
256,192,255306,12,0,258663,0:0:0:0:
256,192,259806,12,0,261806,0:0:0:0:
172,50,262092,102,0,P|173:70|173:91,1,41.9999987182618,0|0,3:3|0:0,0:0:0:0:
251,125,262378,2,0,P|249:104|249:83,1,41.9999987182618,0|0,3:3|0:0,0:0:0:0:
322,42,262663,102,0,P|323:62|323:83,1,41.9999987182618,0|0,3:3|0:0,0:0:0:0:
400,116,262949,2,0,P|398:95|398:74,1,41.9999987182618,0|0,3:3|0:0,0:0:0:0:
472,154,263235,102,0,P|471:181|469:209,1,56,0|0,3:3|0:0,0:0:0:0:
395,292,263520,2,0,P|395:264|397:236,1,56,0|0,3:3|0:0,0:0:0:0:
338,137,263806,6,0,P|337:164|335:192,1,56,0|0,3:3|0:0,0:0:0:0:
261,275,264091,2,0,P|261:247|263:219,1,56,0|0,3:3|0:0,0:0:0:0:
202,83,264378,6,0,P|206:122|206:161,1,77.0000023498536,8|0,2:2|0:0,0:0:0:0:
146,283,264663,2,0,P|141:243|141:204,1,77.0000023498536,8|0,2:2|0:0,0:0:0:0:
73,85,264949,6,0,P|77:124|77:163,1,77.0000023498536,8|0,2:2|0:0,0:0:0:0:
18,286,265234,2,0,P|13:246|13:207,1,77.0000023498536,8|0,2:2|0:0,0:0:0:0:
157,16,265520,6,0,P|157:69|154:122,1,105.000004005432,8|0,2:2|0:0,0:0:0:0:
214,280,265806,2,0,P|213:226|216:173,1,105.000004005432,8|0,2:2|0:0,0:0:0:0:
288,22,266092,6,0,P|288:75|285:128,1,105.000004005432,8|0,2:2|0:0,0:0:0:0:
345,286,266378,2,0,P|344:232|347:179,1,105.000004005432,8|0,2:2|0:0,0:0:0:0:
484,115,266663,6,0,P|484:141|482:168,1,52.5000020027161,8|0,2:2|0:0,0:0:0:0:
423,273,266806,2,0,P|422:246|424:219,1,52.5000020027161,8|0,2:2|0:0,0:0:0:0:
373,109,266949,6,0,P|373:135|371:162,1,52.5000020027161,8|0,2:2|0:0,0:0:0:0:
312,267,267092,2,0,P|311:240|313:213,1,52.5000020027161,8|0,2:2|0:0,0:0:0:0:
261,106,267235,102,0,P|261:132|259:159,1,52.5000020027161,8|0,2:2|0:0,0:0:0:0:
200,264,267378,2,0,P|199:237|201:210,1,52.5000020027161,8|0,2:2|0:0,0:0:0:0:
150,100,267521,102,0,P|150:126|148:153,1,52.5000020027161,8|0,2:2|0:0,0:0:0:0:
89,258,267664,2,0,P|88:231|90:204,1,52.5000020027161,8|0,2:2|0:0,0:0:0:0:
15,77,267806,102,0,P|17:109|16:141,1,62.9999980773926,8|0,2:2|0:0,0:0:0:0:
69,267,267949,2,0,P|66:234|67:202,1,62.9999980773926,8|0,2:2|0:0,0:0:0:0:
121,80,268092,102,0,P|123:112|122:144,1,62.9999980773926,8|0,2:2|0:0,0:0:0:0:
175,270,268235,2,0,P|172:237|173:205,1,62.9999980773926,8|0,2:2|0:0,0:0:0:0:
228,82,268378,102,0,P|230:114|229:146,1,62.9999980773926,8|0,2:2|0:0,0:0:0:0:
282,272,268521,2,0,P|279:239|280:207,1,62.9999980773926,8|0,2:2|0:0,0:0:0:0:
334,85,268664,102,0,P|336:117|335:149,1,62.9999980773926,8|0,2:2|0:0,0:0:0:0:
388,275,268807,2,0,P|385:242|386:210,1,62.9999980773926,8|0,2:2|0:0,0:0:0:0:
493,82,268949,102,0,P|490:120|491:159,1,73.4999977569581,8|0,2:2|0:0,0:0:0:0:
427,282,269092,2,0,P|429:243|428:204,1,73.4999977569581,8|0,2:2|0:0,0:0:0:0:
378,74,269235,6,0,P|375:112|376:151,1,73.4999977569581,8|0,2:2|0:0,0:0:0:0:
312,274,269378,2,0,P|314:235|313:196,1,73.4999977569581,8|0,2:2|0:0,0:0:0:0:
257,71,269520,6,0,P|254:109|255:148,1,73.4999977569581,8|0,2:2|0:0,0:0:0:0:
191,271,269663,2,0,P|193:232|192:193,1,73.4999977569581,8|0,2:2|0:0,0:0:0:0:
142,63,269806,6,0,P|139:101|140:140,1,73.4999977569581,8|0,2:2|0:0,0:0:0:0:
76,263,269949,2,0,P|78:224|77:185,1,73.4999977569581,8|0,2:2|0:0,0:0:0:0:
0,47,270092,6,0,P|2:90|2:133,1,83.9999974365235,8|0,2:2|0:0,0:0:0:0:
59,275,270235,2,0,P|56:231|56:188,1,83.9999974365235,8|0,2:2|0:0,0:0:0:0:
115,51,270378,6,0,P|117:94|117:137,1,83.9999974365235,8|0,2:2|0:0,0:0:0:0:
174,279,270521,2,0,P|171:235|171:192,1,83.9999974365235,8|0,2:2|0:0,0:0:0:0:
231,57,270663,6,0,P|233:100|233:143,1,83.9999974365235,8|0,2:2|0:0,0:0:0:0:
290,285,270806,2,0,P|287:241|287:198,1,83.9999974365235,8|0,2:2|0:0,0:0:0:0:
346,61,270949,6,0,P|348:104|348:147,1,83.9999974365235,8|0,2:2|0:0,0:0:0:0:
405,289,271092,2,0,P|402:245|402:202,1,83.9999974365235,8|0,2:2|0:0,0:0:0:0:
512,221,271235,101,8,2:2:0:0:
506,171,271306,1,8,2:2:0:0:
475,230,271378,101,8,2:2:0:0:
481,181,271449,1,8,2:2:0:0:
450,218,271520,101,8,2:2:0:0:
444,169,271592,1,8,2:2:0:0:
413,226,271664,101,8,2:2:0:0:
419,178,271735,1,8,2:2:0:0:
383,216,271806,101,8,2:2:0:0:
376,166,271877,1,8,2:2:0:0:
345,225,271949,101,8,2:2:0:0:
351,176,272020,1,8,2:2:0:0:
320,213,272092,101,8,2:2:0:0:
314,164,272163,1,8,2:2:0:0:
283,221,272235,5,8,2:2:0:0:
289,173,272306,1,8,2:2:0:0:
259,219,272378,5,8,2:2:0:0:
253,169,272449,1,8,2:2:0:0:
222,228,272521,5,8,2:2:0:0:
228,179,272592,1,8,2:2:0:0:
197,216,272663,5,8,2:2:0:0:
191,167,272735,1,8,2:2:0:0:
160,224,272807,5,8,2:2:0:0:
166,176,272878,1,8,2:2:0:0:
130,214,272949,5,8,2:2:0:0:
123,164,273020,1,8,2:2:0:0:
92,223,273092,5,8,2:2:0:0:
98,174,273163,1,8,2:2:0:0:
67,211,273235,101,8,2:2:0:0:
61,162,273306,1,8,2:2:0:0:
30,219,273378,101,8,2:2:0:0:
36,171,273449,1,8,2:2:0:0:
10,195,273520,102,0,L|21:137,1,41.9999987182618,8|8,2:2|2:2,0:0:0:0:
49,187,273592,102,0,L|60:245,1,41.9999987182618,8|8,2:2|2:2,0:0:0:0:
88,208,273663,102,0,L|99:150,1,41.9999987182618,8|8,2:2|2:2,0:0:0:0:
127,200,273735,102,0,L|138:258,1,41.9999987182618,8|8,2:2|2:2,0:0:0:0:
145,172,273806,102,0,L|156:114,1,41.9999987182618,8|8,2:2|2:2,0:0:0:0:
184,164,273878,6,0,L|195:222,1,41.9999987182618,8|8,2:2|2:2,0:0:0:0:
223,185,273949,6,0,L|234:127,1,41.9999987182618,8|8,2:2|2:2,0:0:0:0:
262,177,274021,6,0,L|273:235,1,41.9999987182618,8|8,2:2|2:2,0:0:0:0:
294,196,274092,6,0,L|300:159,2,20.9999993591309,8|8|8,2:2|2:2|2:2,0:0:0:0:
316,181,274163,6,0,L|322:218,2,20.9999993591309,8|8|8,2:2|2:2|2:2,0:0:0:0:
337,202,274235,6,0,L|343:165,2,20.9999993591309,8|8|8,2:2|2:2|2:2,0:0:0:0:
359,187,274306,6,0,L|365:224,2,20.9999993591309,8|8|8,2:2|2:2|2:2,0:0:0:0:
390,199,274378,102,0,L|396:162,2,20.9999993591309,8|8|8,2:2|2:2|2:2,0:0:0:0:
412,184,274449,102,0,L|418:221,2,20.9999993591309,8|8|8,2:2|2:2|2:2,0:0:0:0:
433,205,274521,102,0,L|439:168,2,20.9999993591309,8|8|8,2:2|2:2|2:2,0:0:0:0:
455,190,274592,102,0,L|461:227,2,20.9999993591309,8|8|8,2:2|2:2|2:2,0:0:0:0:
469,198,274663,101,0,3:3:0:0:
160,128,275806,101,12,2:2:0:0:
320,96,275949,1,8,2:2:0:0:
352,256,276092,1,8,2:2:0:0:
192,288,276235,1,8,2:2:0:0:
165,119,276378,101,8,2:2:0:0:
328,101,276521,1,8,2:2:0:0:
346,264,276664,1,8,2:2:0:0:
183,282,276807,1,8,2:2:0:0:
172,112,276949,5,8,2:2:0:0:
335,108,277092,1,8,2:2:0:0:
339,271,277235,1,8,2:2:0:0:
176,275,277378,1,8,2:2:0:0:
179,105,277520,5,8,2:2:0:0:
342,115,277663,1,8,2:2:0:0:
332,278,277806,1,12,2:2:0:0:
169,268,277949,1,8,2:2:0:0:
160,274,278020,1,8,2:2:0:0:
151,280,278092,5,12,2:2:0:0:
344,297,278231,1,8,2:2:0:0:
361,104,278370,1,8,2:2:0:0:
168,87,278509,1,8,2:2:0:0:
159,288,278648,5,8,2:2:0:0:
352,288,278787,1,8,2:2:0:0:
352,95,278926,1,8,2:2:0:0:
159,95,279065,1,8,2:2:0:0:
167,296,279205,5,12,2:2:0:0:
360,280,279344,1,8,2:2:0:0:
344,87,279483,1,8,2:2:0:0:
151,103,279622,1,8,2:2:0:0:
177,304,279762,5,12,2:2:0:0:
368,270,279901,1,8,2:2:0:0:
334,79,280040,1,8,2:2:0:0:
341,71,280110,1,8,2:2:0:0:
347,62,280180,1,8,2:2:0:0:
353,53,280249,1,8,2:2:0:0:
359,44,280319,5,12,2:2:0:0:
404,295,280454,1,8,2:2:0:0:
153,340,280590,1,8,2:2:0:0:
108,89,280726,1,8,2:2:0:0:
371,53,280861,101,8,2:2:0:0:
394,307,280996,1,8,2:2:0:0:
140,330,281132,1,8,2:2:0:0:
117,76,281268,1,8,2:2:0:0:
383,64,281404,101,12,2:2:0:0:
383,319,281539,1,8,2:2:0:0:
128,319,281675,1,8,2:2:0:0:
128,64,281811,1,8,2:2:0:0:
393,75,281947,101,8,2:2:0:0:
372,329,282082,1,8,2:2:0:0:
118,308,282218,1,12,2:2:0:0:
139,54,282354,1,8,2:2:0:0:
135,44,282423,1,8,2:2:0:0:
130,34,282490,101,12,2:2:0:0:
98,318,282626,1,8,2:2:0:0:
382,350,282762,1,8,2:2:0:0:
414,66,282898,1,8,2:2:0:0:
116,45,283033,101,8,2:2:0:0:
109,331,283169,1,8,2:2:0:0:
395,338,283305,1,8,2:2:0:0:
401,330,283373,1,0,2:2:0:0:
407,321,283441,1,8,2:2:0:0:
413,312,283509,1,0,2:2:0:0:
419,303,283576,102,0,P|419:232|415:162,1,140,10|0,2:2|0:0,0:0:0:0:
339,119,283754,102,0,P|339:189|342:259,1,140,10|0,2:2|0:0,0:0:0:0:
263,306,283933,6,0,P|263:235|259:165,1,140,10|0,2:2|0:0,0:0:0:0:
183,122,284111,6,0,P|183:192|186:262,1,140,10|0,2:2|0:0,0:0:0:0:
107,314,284290,6,0,P|107:243|103:173,1,140,10|0,2:2|0:0,0:0:0:0:
27,130,284468,6,0,P|27:200|30:270,1,140,10|0,2:2|0:0,0:0:0:0:
29,269,284647,5,12,2:2:0:0:
50,107,284779,1,8,2:2:0:0:
104,240,284912,5,8,2:2:0:0:
124,77,285044,1,8,2:2:0:0:
161,297,285177,5,8,2:2:0:0:
181,134,285309,1,8,2:2:0:0:
235,267,285443,101,8,2:2:0:0:
255,104,285576,1,8,2:2:0:0:
287,326,285708,101,12,2:2:0:0:
307,163,285841,1,8,2:2:0:0:
361,296,285974,101,8,2:2:0:0:
381,133,286107,1,8,2:2:0:0:
418,353,286239,101,12,2:2:0:0:
438,190,286372,1,8,2:2:0:0:
492,323,286505,101,12,2:2:0:0:
512,160,286638,1,8,2:2:0:0:
501,148,286704,1,8,2:2:0:0:
491,134,286770,101,12,2:2:0:0:
511,345,286898,1,8,2:2:0:0:
419,101,287027,101,8,2:2:0:0:
439,312,287155,1,8,2:2:0:0:
354,149,287285,5,8,2:2:0:0:
374,360,287413,1,8,2:2:0:0:
282,116,287542,5,8,2:2:0:0:
302,327,287670,1,8,2:2:0:0:
212,154,287800,5,12,2:2:0:0:
232,365,287928,1,8,2:2:0:0:
140,121,288057,5,8,2:2:0:0:
160,332,288185,1,12,2:2:0:0:
75,169,288315,5,8,2:2:0:0:
95,380,288443,1,8,2:2:0:0:
3,136,288572,5,12,2:2:0:0:
6,110,288636,1,8,2:2:0:0:
7,83,288700,1,8,2:2:0:0:
5,57,288765,1,8,2:2:0:0:
0,32,288830,6,0,P|34:28|81:32,1,70,12|0,2:2|0:0,0:0:0:0:
125,256,288956,1,8,2:2:0:0:
125,256,289019,1,8,2:2:0:0:
125,256,289083,1,8,2:2:0:0:
125,256,289146,1,8,2:2:0:0:
125,256,289209,102,0,P|90:259|44:256,1,70,12|0,2:2|0:0,0:0:0:0:
146,107,289336,1,8,2:2:0:0:
146,107,289399,1,8,2:2:0:0:
146,107,289462,1,8,2:2:0:0:
146,107,289526,1,8,2:2:0:0:
146,107,289589,102,0,P|180:103|227:107,1,70,12|0,2:2|0:0,0:0:0:0:
262,325,289715,1,8,2:2:0:0:
262,325,289778,1,8,2:2:0:0:
262,325,289841,1,8,2:2:0:0:
262,325,289904,1,8,2:2:0:0:
262,325,289967,102,0,P|227:328|181:325,1,70,12|0,2:2|0:0,0:0:0:0:
259,41,290093,1,8,2:2:0:0:
259,41,290156,1,8,2:2:0:0:
259,41,290219,1,8,2:2:0:0:
259,41,290282,1,8,2:2:0:0:
259,41,290345,102,0,P|293:37|340:41,1,70,12|0,2:2|0:0,0:0:0:0:
375,259,290470,1,8,2:2:0:0:
375,259,290533,1,8,2:2:0:0:
375,259,290596,1,8,2:2:0:0:
375,259,290658,1,8,2:2:0:0:
375,259,290721,102,0,P|340:262|294:259,1,70,12|0,2:2|0:0,0:0:0:0:
396,110,290847,1,8,2:2:0:0:
396,110,290909,1,8,2:2:0:0:
396,110,290972,1,8,2:2:0:0:
396,110,291035,1,8,2:2:0:0:
396,110,291098,102,0,P|430:106|477:110,1,70,12|0,2:2|0:0,0:0:0:0:
512,328,291223,1,8,2:2:0:0:
512,328,291285,1,8,2:2:0:0:
512,328,291348,1,8,2:2:0:0:
512,328,291410,1,8,2:2:0:0:
512,328,291473,102,0,P|477:331|431:328,1,70,12|0,2:2|0:0,0:0:0:0:
360,277,291598,1,8,2:2:0:0:
360,277,291660,1,8,2:2:0:0:
360,277,291723,1,8,2:2:0:0:
360,277,291785,1,8,2:2:0:0:
360,277,291848,6,0,P|363:312|360:358,1,70,12|0,2:2|0:0,0:0:0:0:
146,289,291968,1,8,2:2:0:0:
146,289,292028,1,8,2:2:0:0:
146,289,292088,1,8,2:2:0:0:
146,289,292148,1,8,2:2:0:0:
146,289,292208,6,0,P|143:254|146:208,1,70,12|0,2:2|0:0,0:0:0:0:
413,147,292328,1,8,2:2:0:0:
413,147,292388,1,8,2:2:0:0:
413,147,292448,1,8,2:2:0:0:
413,147,292508,1,8,2:2:0:0:
413,147,292568,6,0,P|416:182|413:228,1,70,12|0,2:2|0:0,0:0:0:0:
100,158,292685,1,8,2:2:0:0:
100,158,292744,1,8,2:2:0:0:
100,158,292803,1,8,2:2:0:0:
100,158,292862,1,8,2:2:0:0:
100,158,292920,6,0,P|97:123|100:77,1,70,12|0,2:2|0:0,0:0:0:0:
256,0,293038,5,8,2:2:0:0:
256,0,293097,1,8,2:2:0:0:
256,0,293156,1,8,2:2:0:0:
256,0,293215,1,8,2:2:0:0:
256,0,293273,6,0,L|250:65,5,35,12|8|8|8|8|8,2:2|2:2|2:2|2:2|2:2|2:2,0:0:0:0:
239,21,293606,6,0,L|245:86,5,35,12|8|8|8|8|8,2:2|2:2|2:2|2:2|2:2|2:2,0:0:0:0:
267,59,293939,102,0,L|261:124,5,35,12|8|8|8|8|8,2:2|2:2|2:2|2:2|2:2|2:2,0:0:0:0:
235,110,294244,102,0,L|241:175,5,35,12|8|8|8|8|8,2:2|2:2|2:2|2:2|2:2|2:2,0:0:0:0:
275,155,294549,102,0,L|269:220,5,35,12|8|8|8|8|8,2:2|2:2|2:2|2:2|2:2|2:2,0:0:0:0:
246,191,294830,102,0,L|252:256,5,35,12|8|8|8|8|8,2:2|2:2|2:2|2:2|2:2|2:2,0:0:0:0:
270,214,295111,102,0,L|264:279,5,35,12|8|8|8|8|8,2:2|2:2|2:2|2:2|2:2|2:2,0:0:0:0:
244,243,295361,102,0,L|250:308,5,35,12|8|8|8|8|8,2:2|2:2|2:2|2:2|2:2|2:2,0:0:0:0:
265,257,295611,102,0,L|259:322,5,35,12|8|8|8|8|8,2:2|2:2|2:2|2:2|2:2|2:2,0:0:0:0:
253,270,295836,6,0,L|259:335,5,35,12|8|8|8|8|8,2:2|2:2|2:2|2:2|2:2|2:2,0:0:0:0:
263,282,296061,6,0,L|257:347,5,35,12|8|8|8|8|8,2:2|2:2|2:2|2:2|2:2|2:2,0:0:0:0:
257,291,296265,6,0,L|263:356,5,35,12|8|8|8|8|8,2:2|2:2|2:2|2:2|2:2|2:2,0:0:0:0:
263,295,296470,6,0,L|257:360,5,35,12|8|8|8|8|8,2:2|2:2|2:2|2:2|2:2|2:2,0:0:0:0:
257,297,296674,6,0,L|263:362,5,35,12|8|8|8|8|8,2:2|2:2|2:2|2:2|2:2|2:2,0:0:0:0:
256,192,296879,12,0,298484,0:0:0:0:
219,200,298553,6,0,L|297:188,47,70,2|2|2|2|2|2|2|2|2|2|2|2|2|2|2|2|2|2|2|2|2|2|2|2|2|2|2|2|2|2|2|2|2|2|2|2|2|2|2|2|2|2|2|2|2|2|2|2,2:2|2:2|2:2|2:2|2:2|2:2|2:2|2:2|2:2|2:2|2:2|2:2|2:2|2:2|2:2|2:2|2:2|2:2|2:2|2:2|2:2|2:2|2:2|2:2|2:2|2:2|2:2|2:2|2:2|2:2|2:2|2:2|2:2|2:2|2:2|2:2|2:2|2:2|2:2|2:2|2:2|2:2|2:2|2:2|2:2|2:2|2:2|2:2,0:0:0:0:
264,89,302877,6,2,L|248:305,1,217,2|0,2:2|0:0,0:1:0:0:
14,384,307201,102,0,B|9:361|9:361|7:367|7:367|-3:334,1,56,2|0,2:2|0:0,0:0:0:0:
