osu file format v14

[General]
AudioFilename: audio.mp3
AudioLeadIn: 0
PreviewTime: 113165
Countdown: 0
SampleSet: Soft
StackLeniency: 0.7
Mode: 2
LetterboxInBreaks: 0
WidescreenStoryboard: 0

[Editor]
Bookmarks: 63522,94951,260949,290721,292803,296879
DistanceSpacing: 0.7
BeatDivisor: 2
GridSize: 32
TimelineZoom: 7.400002

[Metadata]
Title:disinteGration
TitleUnicode:disinteGration
Artist:RINYA.G
ArtistUnicode:RINYA.G
Creator:Bunnrei
Version:Collapse of the World Machine
Source:OneShot
Tags:RINYA.P Mitsuki ミツキ collapse panic solstice niko こむにこ! -Communikote with Cloverly Machine- comuniko! komuniko! re:spec respec otokaz electronic video game instrumental cover remix hardcore speedcore nightmargin casey gu deif
BeatmapID:2457743
BeatmapSetID:1178513

[Difficulty]
HPDrainRate:4
CircleSize:4.2
OverallDifficulty:9.8
ApproachRate:9.8
SliderMultiplier:2
SliderTickRate:2

[Events]
//Background and Video events
0,0,"niko.jpg",0,0
//Break Periods
//Storyboard Layer 0 (Background)
//Storyboard Layer 1 (Fail)
//Storyboard Layer 2 (Pass)
//Storyboard Layer 3 (Foreground)
//Storyboard Layer 4 (Overlay)
//Storyboard Sound Samples

[TimingPoints]
600,797.34219269103,4,2,2,20,1,0
15749,631.578947368421,4,2,0,20,1,0
16380,468.75,4,3,0,40,1,0
16836,1200,4,2,2,20,1,0
18036,342.857142857143,4,2,2,20,1,0
18378,-100,4,3,0,40,0,0
18514,797.34219269103,4,2,2,20,1,0
19311,857.142857142857,4,2,2,20,1,0
19739,500,4,3,0,40,1,0
20251,797.34219269103,4,2,2,20,1,0
21522,394.736842105263,4,3,0,40,1,0
21654,902.255639097745,4,2,2,20,1,0
21879,342.857142857143,4,3,0,40,1,0
22221,428.571428571429,4,3,0,40,1,0
22306,789.473684210526,4,2,2,20,1,0
23095,413.793103448276,4,3,0,40,1,0
23301,444.444444444444,4,3,0,40,1,0
23523,400,4,3,0,40,1,0
23884,428.571428571429,4,3,0,40,1,0
24312,387.096774193548,4,3,0,40,1,0
24505,413.793103448276,4,3,0,40,1,0
24711,363.636363636364,4,3,0,40,1,0
25074,400,4,3,0,40,1,0
25274,461.538461538462,4,3,0,40,1,0
25504,363.636363636364,4,3,0,40,1,0
25685,288.461538461539,4,3,0,40,1,0
25901,-100,4,2,0,20,0,0
27992,283.018867924529,4,2,0,30,1,0
29124,285.714285714286,4,2,0,40,1,0
29552,-100,4,2,0,50,0,0
29981,272.727272727273,4,2,0,55,1,0
30253,300,4,2,0,60,1,0
30403,384.615384615385,4,2,69,65,1,0
30595,363.636363636364,4,3,0,45,1,0
30776,350.877192982457,4,3,0,45,1,0
30951,285.714285714286,4,2,0,70,1,0
30951,-133.333333333333,4,1,1,70,0,0
31093,-133.333333333333,4,2,2,30,0,0
40093,-133.333333333333,4,1,1,60,0,0
40236,-133.333333333333,4,2,2,35,0,0
49236,-133.333333333333,4,2,1,60,0,0
49379,-133.333333333333,4,2,2,40,0,0
58379,-133.333333333333,4,2,1,60,0,0
58522,-133.333333333333,4,2,2,40,0,0
60665,-133.333333333333,4,2,1,60,0,0
60808,-133.333333333333,4,2,2,40,0,0
62951,-100,4,2,2,60,0,0
63022,-100,4,2,2,50,0,0
64093,-100,4,2,2,60,0,0
64165,-100,4,2,2,50,0,0
65236,-100,4,2,2,60,0,0
66379,-100,4,1,2,60,0,0
67236,-100,4,2,2,60,0,0
67522,-90.9090909090909,4,1,2,60,0,1
69522,-90.9090909090909,4,2,2,60,0,1
69808,-90.9090909090909,4,1,2,60,0,1
70951,-90.9090909090909,4,2,2,60,0,1
72093,-90.9090909090909,4,1,2,60,0,1
72951,-90.9090909090909,4,2,2,60,0,1
73236,-90.9090909090909,4,1,2,60,0,1
74093,-90.9090909090909,4,2,2,60,0,1
74379,-90.9090909090909,4,1,2,60,0,1
76379,-62.5,4,1,2,60,0,1
76451,-90.9090909090909,4,2,2,5,0,1
76665,-100,4,2,1,60,0,0
76736,-100,4,2,1,5,0,0
76951,-111.111111111111,4,2,1,50,0,0
85808,-100,4,2,1,55,0,0
104093,-100,4,2,3,55,0,0
112093,-100,4,2,0,55,0,0
112665,-100,4,2,3,60,0,0
113236,-90.9090909090909,4,2,3,65,0,1
131522,-90.9090909090909,4,2,3,70,0,1
149808,-117.647058823529,4,2,1,60,0,0
149951,-117.647058823529,4,2,2,40,0,0
154379,-117.647058823529,4,1,1,60,0,0
154522,-117.647058823529,4,2,2,40,0,0
158951,-117.647058823529,4,2,1,60,0,0
159093,-117.647058823529,4,2,2,40,0,0
161236,-117.647058823529,4,2,6,30,0,0
162379,-117.647058823529,4,2,6,40,0,0
163522,-117.647058823529,4,2,6,50,0,0
165808,-100,4,2,6,60,0,0
167093,-100,4,2,0,60,0,0
167522,-100,4,2,6,30,0,0
167593,-100,4,2,6,40,0,0
167665,-100,4,2,6,50,0,0
167736,-100,4,2,6,60,0,0
168093,285.714285714286,7,2,6,60,1,0
184378,285.714285714286,4,2,0,70,1,0
184378,-200,4,2,1,60,0,0
184520,-200,4,2,2,30,0,0
202663,-133.333333333333,4,2,1,60,0,0
202735,-133.333333333333,4,2,2,50,0,0
220949,-100,4,2,3,55,0,0
239235,-250,4,2,1,60,0,0
239378,-250,4,2,2,25,0,0
248663,-250,4,2,2,20,0,0
255378,-250,4,2,2,15,0,0
259806,-250,4,2,69,10,0,0
260949,-100,4,1,4,10,0,0
262092,-100,4,1,4,15,0,0
263235,-100,4,1,4,20,0,0
264378,-100,4,1,4,25,0,0
265520,-100,4,1,4,30,0,0
266663,-100,4,1,4,35,0,0
267806,-100,4,1,4,40,0,0
268949,-100,4,1,4,45,0,0
270092,-100,4,1,4,50,0,0
271235,-90.9090909090909,4,1,4,55,0,0
272378,-90.9090909090909,4,1,4,60,0,0
274663,-90.9090909090909,4,1,4,65,0,0
275806,-90.9090909090909,4,1,4,65,0,0
278092,278.422273781903,4,1,4,65,1,0
278092,-93.7207122774133,4,1,4,65,0,0
280319,271.493212669684,4,1,4,65,1,0
280319,-95.6937799043062,4,1,4,65,0,0
283576,267.857142857143,4,1,4,65,1,0
283576,-96.7117988394584,4,1,4,65,0,0
284647,265.486725663717,4,2,4,65,1,0
284647,-97.7517106549365,4,2,4,65,0,0
286770,257.510729613734,4,2,4,65,1,0
286770,-101.010101010101,4,2,4,65,0,0
288830,253.164556962026,3,2,4,65,1,0
288830,-102.145045965271,3,2,4,65,0,0
289589,252.100840336135,3,2,4,65,1,0
289589,-103.305785123967,3,2,4,65,0,0
290345,251.046025104603,3,2,4,65,1,0
290345,-103.305785123967,3,2,4,65,0,0
290721,-103.305785123967,3,1,4,65,0,0
291098,250,3,1,4,65,1,0
291098,-103.305785123967,3,1,4,65,0,0
291848,240,3,1,4,65,1,0
291848,-108.225108225108,3,1,4,65,0,0
292568,235.294117647059,3,1,4,65,1,0
292568,-110.864745011086,3,1,4,65,0,0
292803,-110.864745011086,3,1,4,60,0,0
293273,222.222222222222,3,1,4,58,1,0
293273,-116.550116550117,3,1,4,58,0,0
293939,203.389830508475,3,1,4,55,1,0
293939,-128.040973111396,3,1,4,55,0,0
294549,187.5,3,1,4,53,1,0
294549,-137.741046831956,3,1,4,53,0,0
295111,166.666666666667,3,1,4,50,1,0
295111,-156.739811912226,3,1,4,50,0,0
295611,150,3,1,4,48,1,0
295611,-171.526586620926,3,1,4,48,0,0
296061,136.363636363636,3,1,4,45,1,0
296061,-189.393939393939,3,1,4,45,0,0
296879,150,3,1,4,43,1,0
296879,-188.679245283019,3,1,4,43,0,0
297179,164.383561643836,3,1,4,40,1,0
297179,-156.739811912226,3,1,4,40,0,0
297507,187.5,3,1,4,38,1,0
297507,-137.741046831956,3,1,4,38,0,0
297882,200,3,1,4,35,1,0
297882,-129.87012987013,3,1,4,35,0,0
298282,135.135135135135,3,1,4,33,1,0
298282,-193.423597678917,3,1,4,33,0,0
298553,90.09009009009,3,1,4,30,1,0
298553,-284.090909090909,3,1,4,30,0,0
302877,270.27027027027,4,2,0,50,1,0
302944,-100,4,2,0,20,0,0
307201,230.769230769231,4,3,0,40,1,0

[Colours]
Combo1 : 255,255,0
Combo2 : 128,0,255
Combo3 : 128,128,255

[HitObjects]
155,309,600,6,0,P|101:246|168:147,1,200,6|0,0:0|0:0,0:0:0:0:
256,96,1796,1,2,0:0:0:0:
363,152,2194,1,0,0:0:0:0:
99,232,2992,1,2,0:0:0:0:
357,309,3789,6,0,P|411:246|344:147,1,200,6|0,0:0|0:0,0:0:0:0:
256,96,4985,1,2,0:0:0:0:
149,152,5383,1,0,0:0:0:0:
413,232,6181,1,2,0:0:0:0:
154,233,6978,6,0,L|371:206,1,200,6|0,0:0|0:0,0:0:0:0:
256,128,8174,1,2,0:0:0:0:
384,192,8573,2,0,P|434:100|381:24,1,200,0|2,0:0|0:0,0:0:0:0:
124,27,10168,6,0,P|77:111|128:192,1,200,6|0,0:0|0:0,0:0:0:0:
256,128,11364,1,2,0:0:0:0:
159,208,11763,2,0,L|358:233,1,200,0|2,0:0|0:0,0:0:0:0:
68,369,13357,6,0,P|23:322|99:195,1,200,6|0,0:0|0:0,0:0:0:0:
171,166,14553,1,2,0:0:0:0:
61,207,14952,1,0,0:0:0:0:
256,128,15749,1,2,0:0:0:0:
444,369,16380,5,2,0:0:0:0:
369,370,16497,1,2,0:0:0:0:
444,369,16614,1,2,0:2:0:0:
106,196,16836,2,0,L|248:192,1,133.333333333333,6|0,0:0|0:0,0:0:0:0:
160,160,18036,1,2,0:0:0:0:
352,160,18378,1,2,0:0:0:0:
153,239,18514,6,0,P|101:181|153:84,1,200,0|2,0:0|0:0,0:0:0:0:
361,84,19739,1,0,0:0:0:0:
399,83,19802,1,2,0:0:0:0:
361,84,19864,1,0,0:0:0:0:
26,191,20251,6,0,P|85:124|19:55,1,200,6|0,0:0|0:0,0:0:0:0:
256,32,21447,1,2,0:0:0:0:
53,55,21522,1,2,0:0:0:0:
21,55,21571,1,2,0:0:0:0:
53,55,21620,1,0,0:0:0:0:
85,55,21654,1,2,0:0:0:0:
256,32,21879,1,2,0:0:0:0:
85,55,22050,1,2,0:2:0:0:
256,32,22221,1,2,0:0:0:0:
85,55,22306,6,0,P|43:131|124:211,1,200,2|2,0:0|0:2,0:0:0:0:
256,192,23146,1,2,0:2:0:0:
288,192,23198,1,2,0:2:0:0:
164,221,23356,1,2,0:0:0:0:
132,221,23412,1,2,0:0:0:0:
256,192,23523,5,2,0:0:0:0:
384,192,23573,1,2,0:2:0:0:
417,171,23623,1,2,0:0:0:0:
414,131,23673,1,2,0:0:0:0:
378,116,23723,1,2,0:2:0:0:
192,96,23884,1,2,0:0:0:0:
373,41,24098,5,2,0:0:0:0:
409,55,24151,1,0,0:0:0:0:
412,95,24205,1,2,0:0:0:0:
378,116,24259,1,0,0:0:0:0:
256,192,24312,1,2,0:2:0:0:
48,145,24505,5,2,0:2:0:0:
44,185,24556,1,0,0:0:0:0:
69,217,24608,1,2,0:0:0:0:
109,224,24660,1,2,0:0:0:0:
256,192,24711,1,2,0:2:0:0:
432,145,24892,1,2,0:2:0:0:
464,145,24938,1,0,0:0:0:0:
432,145,24983,1,0,0:0:0:0:
134,116,25074,5,2,0:0:0:0:
256,96,25224,1,2,0:0:0:0:
384,96,25274,1,2,0:0:0:0:
412,95,25331,1,2,0:2:0:0:
384,96,25389,1,2,0:2:0:0:
288,96,25504,1,2,0:2:0:0:
134,116,25550,1,2,0:2:0:0:
384,128,25685,5,2,0:0:0:0:
418,129,25733,1,2,0:0:0:0:
452,130,25781,1,2,0:0:0:0:
256,192,25973,12,0,30403,0:0:0:0:
416,192,30595,5,0,0:0:0:0:
448,192,30640,1,0,0:0:0:0:
416,192,30685,1,0,0:0:0:0:
256,192,30776,1,0,0:0:0:0:
96,192,30863,1,0,0:0:0:0:
64,192,30907,1,0,0:0:0:0:
256,281,30951,6,0,L|256:185,1,75.0000028610231,4|0,0:2|0:0,0:0:0:0:
162,185,31236,2,0,L|162:89,1,75.0000028610231,0|0,0:0|0:0,0:0:0:0:
313,205,31522,2,0,L|217:205,2,75.0000028610231,2|0|0,0:0|0:0|0:0,0:0:0:0:
408,206,31951,1,0,0:0:0:0:
256,224,32093,5,2,0:0:0:0:
162,194,32236,2,0,L|162:98,1,75.0000028610231,0|0,0:0|0:0,0:0:0:0:
313,300,32522,1,2,0:0:0:0:
407,270,32665,2,0,L|407:174,1,75.0000028610231,0|0,0:0|0:0,0:0:0:0:
256,224,32951,1,2,0:0:0:0:
481,214,33236,5,4,0:0:0:0:
474,140,33378,1,0,0:0:0:0:
426,83,33521,1,0,0:0:0:0:
356,62,33664,1,0,0:0:0:0:
202,211,33808,2,0,L|298:211,2,75.0000028610231,2|0|0,0:0|0:0|0:0,0:0:0:0:
107,212,34237,1,0,0:0:0:0:
256,224,34379,5,2,0:0:0:0:
350,194,34522,2,0,L|350:98,1,75.0000028610231,0|0,0:0|0:0,0:0:0:0:
199,318,34808,1,2,0:0:0:0:
105,288,34951,2,0,L|105:192,1,75.0000028610231,0|0,0:0|0:0,0:0:0:0:
256,256,35236,1,2,0:0:0:0:
105,213,35379,1,0,0:0:0:0:
368,148,35522,5,4,0:0:0:0:
294,144,35664,1,0,0:0:0:0:
219,141,35807,1,0,0:0:0:0:
144,137,35950,1,0,0:0:0:0:
294,144,36093,2,0,L|390:144,2,75.0000028610231,2|0|0,0:0|0:0|0:0,0:0:0:0:
218,144,36522,1,0,0:0:0:0:
369,144,36665,5,2,0:0:0:0:
463,114,36808,2,0,L|463:18,1,75.0000028610231,0|0,0:0|0:0,0:0:0:0:
312,174,37093,1,2,0:0:0:0:
218,144,37236,2,0,L|218:48,1,75.0000028610231,0|0,0:0|0:0,0:0:0:0:
369,144,37522,1,2,0:0:0:0:
143,144,37808,6,0,L|143:48,1,75.0000028610231,4|0,0:0|0:0,0:0:0:0:
256,224,38093,2,0,L|256:128,1,75.0000028610231,0|0,0:0|0:0,0:0:0:0:
369,144,38379,2,0,L|273:144,2,75.0000028610231,2|0|0,0:0|0:0|0:0,0:0:0:0:
256,224,38808,1,0,0:0:0:0:
105,235,38951,5,2,0:0:0:0:
11,205,39094,2,0,L|11:109,1,75.0000028610231,0|0,0:0|0:0,0:0:0:0:
162,329,39380,1,2,0:0:0:0:
256,299,39523,2,0,L|256:203,1,75.0000028610231,0|0,0:0|0:0,0:0:0:0:
105,267,39808,1,2,0:0:0:0:
256,224,39951,1,0,0:0:0:0:
480,192,40093,6,0,L|384:192,1,75.0000028610231,4|0,1:2|0:0,0:0:0:0:
144,161,40379,1,0,0:0:0:0:
219,161,40521,1,0,0:0:0:0:
294,161,40664,1,2,0:0:0:0:
369,161,40807,1,0,0:0:0:0:
256,160,40951,2,0,L|160:160,1,75.0000028610231,0|0,0:0|0:0,0:0:0:0:
31,301,41236,6,0,L|127:301,2,75.0000028610231,2|0|0,0:0|0:0|0:0,0:0:0:0:
181,160,41665,2,0,L|85:160,2,75.0000028610231,2|0|0,0:0|0:0|0:0,0:0:0:0:
31,301,42093,1,2,0:0:0:0:
256,256,42379,5,4,0:0:0:0:
245,183,42521,1,0,0:0:0:0:
193,129,42664,1,0,0:0:0:0:
121,114,42807,1,0,0:0:0:0:
256,96,42951,2,0,L|352:96,2,75.0000028610231,2|0|0,0:0|0:0|0:0,0:0:0:0:
181,96,43379,1,0,0:0:0:0:
331,160,43522,6,0,L|427:160,2,75.0000028610231,2|0|0,0:0|0:0|0:0,0:0:0:0:
481,19,43951,2,0,L|385:19,2,75.0000028610231,2|0|0,0:0|0:0|0:0,0:0:0:0:
331,160,44379,1,2,0:0:0:0:
481,19,44522,1,0,0:0:0:0:
204,119,44665,6,0,L|204:215,1,75.0000028610231,4|0,0:0|0:0,0:0:0:0:
308,119,44951,2,0,L|308:215,1,75.0000028610231,0|0,0:0|0:0,0:0:0:0:
160,192,45236,2,0,L|256:192,2,75.0000028610231,2|0|0,0:0|0:0|0:0,0:0:0:0:
85,192,45664,1,0,0:0:0:0:
235,192,45808,6,0,L|331:192,2,75.0000028610231,2|0|0,0:0|0:0|0:0,0:0:0:0:
85,192,46236,2,0,L|-11:192,2,75.0000028610231,2|0|0,0:0|0:0|0:0,0:0:0:0:
235,192,46665,1,2,0:0:0:0:
460,192,46951,6,0,L|460:96,1,75.0000028610231,4|0,0:0|0:0,0:0:0:0:
366,101,47236,2,0,L|462:101,1,75.0000028610231,0|0,0:0|0:0,0:0:0:0:
291,101,47522,2,0,L|387:101,2,75.0000028610231,2|0|0,0:0|0:0|0:0,0:0:0:0:
216,101,47950,1,0,0:0:0:0:
366,101,48093,6,0,L|270:101,2,75.0000028610231,2|0|0,0:0|0:0|0:0,0:0:0:0:
216,101,48522,2,0,L|141:101,2,75.0000028610231,2|0|0,0:0|0:0|0:0,0:0:0:0:
366,101,48951,1,2,0:0:0:0:
146,101,49093,1,0,0:0:0:0:
474,220,49236,6,0,L|481:129,1,75.0000028610231,4|0,1:2|0:0,0:0:0:0:
366,101,49522,2,0,L|361:54,4,37.5000014305115,0|0|0|0|2,0:0|0:0|0:0|0:0|0:0,0:0:0:0:
252,71,49951,1,0,0:0:0:0:
235,40,50022,1,0,0:0:0:0:
256,12,50093,2,0,L|345:8,1,75.0000028610231,0|0,0:0|0:0,0:0:0:0:
174,233,50379,5,2,0:0:0:0:
170,196,50450,1,0,0:0:0:0:
191,167,50521,1,0,0:0:0:0:
227,160,50593,1,0,0:0:0:0:
75,139,50665,2,0,L|71:89,1,37.5000014305115,0|0,1:0|0:0,0:0:0:0:
148,90,50808,2,0,L|144:40,1,37.5000014305115,2|0,0:0|0:0,0:0:0:0:
221,77,50951,6,0,L|226:56,2,18.7500007152558,0|0|0,0:0|0:0|0:0,0:0:0:0:
148,90,51093,2,0,L|144:40,2,37.5000014305115,0|0|2,0:0|0:0|0:0,0:0:0:0:
256,128,51379,1,0,0:0:0:0:
27,218,51522,6,0,L|20:127,1,75.0000028610231,6|0,1:2|0:0,0:0:0:0:
137,154,51808,1,0,0:0:0:0:
140,116,51879,1,0,0:0:0:0:
143,79,51950,1,0,0:0:0:0:
256,128,52093,1,2,0:0:0:0:
143,79,52236,1,0,0:0:0:0:
140,116,52307,1,0,0:0:0:0:
137,154,52378,1,0,0:0:0:0:
22,143,52522,1,0,0:0:0:0:
137,154,52665,5,2,0:0:0:0:
140,116,52736,1,0,0:0:0:0:
292,130,52808,1,0,1:0:0:0:
295,167,52879,1,0,0:0:0:0:
220,130,52951,2,0,L|217:154,2,18.7500007152558,0|0|0,0:0|0:0|0:0,0:0:0:0:
292,130,53093,2,0,L|295:154,2,18.7500007152558,2|0|0,0:0|0:0|0:0,0:0:0:0:
220,130,53236,6,0,L|217:154,2,18.7500007152558,0|0|0,0:0|0:0|0:0,0:0:0:0:
292,130,53379,1,0,0:0:0:0:
295,167,53450,1,0,0:0:0:0:
140,116,53522,1,2,1:2:0:0:
106,125,53593,1,0,0:0:0:0:
104,160,53664,1,0,0:0:0:0:
137,173,53736,1,0,0:0:0:0:
331,192,53808,6,0,L|256:192,1,75.0000028610231,6|0,1:2|0:0,0:0:0:0:
372,233,54093,1,0,0:0:0:0:
402,213,54164,1,0,0:0:0:0:
395,178,54236,2,0,L|296:178,1,75.0000028610231,0|2,0:0|0:0,0:0:0:0:
206,179,54522,1,0,0:0:0:0:
176,159,54593,1,0,0:0:0:0:
183,124,54665,2,0,L|282:124,1,75.0000028610231,0|0,0:0|0:0,0:0:0:0:
372,233,54951,6,0,L|370:270,1,37.5000014305115,2|0,0:0|0:0,0:0:0:0:
294,269,55093,2,0,L|292:306,1,37.5000014305115,0|0,0:0|0:0,0:0:0:0:
140,233,55236,2,0,L|143:270,1,37.5000014305115,0|0,1:0|0:0,0:0:0:0:
218,269,55379,2,0,L|221:306,1,37.5000014305115,2|0,0:0|0:0,0:0:0:0:
294,269,55522,2,0,L|297:293,2,18.7500007152558,0|0|0,0:0|0:0|0:0,0:0:0:0:
218,269,55665,2,0,L|216:231,2,37.5000014305115,0|0|2,0:0|0:0|0:0,0:0:0:0:
480,288,55951,1,0,1:0:0:0:
218,269,56093,6,0,L|146:269,2,50.0000019073487,6|0|0,1:2|0:0|0:0,0:0:0:0:
294,269,56379,2,0,L|366:269,2,50.0000019073487,0|0|0,0:0|0:0|0:0,0:0:0:0:
191,229,56665,2,0,L|177:155,1,50.0000019073487,2|0,0:0|0:0,0:0:0:0:
331,179,56808,1,0,1:0:0:0:
380,167,56855,2,0,L|394:93,1,50.0000019073487,0|0,0:0|0:0,0:0:0:0:
313,88,57046,2,0,L|241:88,2,50.0000019073487,0|0|2,0:0|0:0|0:0,0:0:0:0:
46,192,57379,6,0,L|144:192,2,75.0000028610231,0|0|2,1:0|0:0|0:0,0:0:0:0:
294,126,57808,2,0,L|219:126,1,75.0000028610231,0|0,1:0|0:0,0:0:0:0:
466,192,58093,1,2,1:2:0:0:
256,96,58236,1,0,1:0:0:0:
321,96,58308,1,0,1:0:0:0:
160,96,58379,6,0,L|67:95,1,75.0000028610231,4|0,1:2|0:0,0:0:0:0:
207,225,58665,2,0,L|211:176,1,37.5000014305115,0|0,0:0|0:0,0:0:0:0:
149,154,58808,2,0,L|145:105,1,37.5000014305115,0|0,0:0|0:0,0:0:0:0:
241,92,58951,2,0,L|337:92,1,75.0000028610231,10|0,0:0|0:0,0:0:0:0:
279,92,59165,1,0,0:0:0:0:
241,92,59236,2,0,L|145:92,1,75.0000028610231,0|0,0:0|0:0,0:0:0:0:
279,92,59522,6,0,L|332:93,1,37.5000014305115,2|0,0:0|0:0,0:0:0:0:
165,96,59665,2,0,L|112:97,1,37.5000014305115,0|0,1:0|0:0,0:0:0:0:
185,102,59808,2,0,L|238:103,1,37.5000014305115,0|0,0:0|0:0,0:0:0:0:
165,96,59951,2,0,L|112:97,1,37.5000014305115,2|0,0:0|0:0,0:0:0:0:
279,92,60093,6,0,L|307:91,2,18.7500007152558,8|0|0,0:0|0:0|0:0,0:0:0:0:
223,102,60236,2,0,L|185:102,1,37.5000014305115,0|0,0:0|0:0,0:0:0:0:
337,206,60379,2,0,L|429:206,1,75.0000028610231,2|0,1:2|0:0,0:0:0:0:
175,206,60665,6,0,L|83:206,1,75.0000028610231,4|0,1:2|0:0,0:0:0:0:
218,256,60951,1,0,0:0:0:0:
256,256,61022,1,0,0:0:0:0:
293,256,61093,1,0,0:0:0:0:
140,333,61236,2,0,L|133:254,1,75.0000028610231,2|0,0:0|0:0,0:0:0:0:
171,255,61450,1,0,0:0:0:0:
209,252,61521,1,0,0:0:0:0:
431,181,61665,6,0,L|353:181,1,75.0000028610231,0|2,1:0|0:0,0:0:0:0:
352,143,61879,1,0,0:0:0:0:
445,122,61951,2,0,L|452:66,1,37.5000014305115,8|0,0:0|0:0,0:0:0:0:
298,82,62093,2,0,L|271:82,2,18.7500007152558,0|0|0,1:0|0:0|0:0,0:0:0:0:
352,143,62236,2,0,L|379:143,2,18.7500007152558,2|0|0,0:0|0:0|0:0,0:0:0:0:
182,235,62379,6,0,L|155:235,2,18.7500007152558,8|0|0,1:2|0:0|0:0,0:0:0:0:
256,224,62522,2,0,L|283:224,2,18.7500007152558,8|0|0,0:0|0:0|0:0,0:0:0:0:
83,142,62665,5,10,0:0:0:0:
27,128,62736,1,8,0:0:0:0:
195,124,62808,1,8,1:2:0:0:
139,110,62879,1,8,1:2:0:0:
307,106,62951,6,0,L|435:106,1,100,12|0,1:0|0:0,0:0:0:0:
139,110,63236,2,0,L|124:-18,1,100,8|0,1:2|0:0,0:0:0:0:
373,110,63522,2,0,L|388:-18,1,100,8|0,1:2|0:0,0:0:0:0:
129,210,63808,2,0,P|110:148|193:118,1,150,8|8,1:2|0:0,0:0:0:0:
429,208,64093,5,12,1:0:0:0:
294,210,64236,1,8,0:0:0:0:
496,307,64379,1,8,1:2:0:0:
361,308,64522,1,8,0:0:0:0:
83,208,64665,5,8,1:2:0:0:
218,210,64808,1,8,0:0:0:0:
16,307,64951,1,8,1:2:0:0:
151,309,65094,1,8,0:0:0:0:
458,321,65236,6,0,L|444:251,1,50,12|8,1:0|0:0,0:0:0:0:
261,132,65379,2,0,L|252:82,1,50,8|8,1:0|0:0,0:0:0:0:
64,271,65522,2,0,L|54:321,1,50,8|8,1:0|0:0,0:0:0:0:
231,163,65665,2,0,L|281:162,1,50,8|8,1:0|0:0,0:0:0:0:
104,321,65808,6,0,L|55:320,1,50,12|8,1:0|0:0,0:0:0:0:
256,200,65951,2,0,L|207:199,1,50,8|8,1:0|0:0,0:0:0:0:
408,321,66093,2,0,L|458:320,1,50,8|8,1:0|0:0,0:0:0:0:
256,200,66236,2,0,L|306:199,1,50,8|8,1:0|0:0,0:0:0:0:
471,127,66379,5,12,0:0:0:0:
327,160,66451,1,0,0:0:0:0:
184,160,66522,1,0,0:0:0:0:
40,127,66594,1,0,0:0:0:0:
359,330,66665,5,12,0:0:0:0:
395,326,66700,1,0,0:0:0:0:
424,306,66736,1,0,0:0:0:0:
441,275,66772,1,0,0:0:0:0:
441,240,66807,1,0,0:0:0:0:
425,209,66843,1,0,0:0:0:0:
396,189,66879,1,0,0:0:0:0:
361,185,66915,1,0,0:0:0:0:
153,330,66951,5,12,0:0:0:0:
136,330,66968,1,0,0:0:0:0:
118,326,66986,1,0,0:0:0:0:
102,318,67004,1,0,0:0:0:0:
89,306,67022,1,0,0:0:0:0:
79,292,67040,1,0,0:0:0:0:
72,275,67058,1,0,0:0:0:0:
70,258,67076,1,0,0:0:0:0:
72,240,67093,1,0,0:0:0:0:
78,223,67111,1,0,0:0:0:0:
88,209,67129,1,0,0:0:0:0:
101,197,67147,1,0,0:0:0:0:
117,189,67165,1,0,0:0:0:0:
135,185,67183,1,0,0:0:0:0:
152,185,67201,1,0,0:0:0:0:
331,119,67236,6,0,L|182:115,1,150,10|0,0:0|0:0,0:0:0:0:
384,352,67522,6,0,L|448:352,1,55.0000016784668,4|0,0:0|0:0,0:0:0:0:
284,295,67665,1,0,0:0:0:0:
131,274,67736,1,0,0:0:0:0:
344,206,67808,2,0,L|347:129,1,55.0000016784668,0|0,0:0|0:0,0:0:0:0:
166,151,67951,2,0,L|168:206,1,55.0000016784668,0|0,0:0|0:0,0:0:0:0:
339,295,68093,6,0,L|275:295,1,55.0000016784668,0|0,0:0|0:0,0:0:0:0:
95,317,68236,2,0,L|92:240,1,55.0000016784668,0|0,0:0|0:0,0:0:0:0:
284,295,68379,2,0,L|339:295,1,55.0000016784668,0|0,0:0|0:0,0:0:0:0:
166,260,68522,2,0,L|169:183,1,55.0000016784668,0|0,0:0|0:0,0:0:0:0:
384,352,68665,6,0,L|381:275,1,55.0000016784668,0|0,0:0|0:0,0:0:0:0:
226,253,68808,1,0,0:0:0:0:
73,233,68879,1,0,0:0:0:0:
304,80,68951,2,0,L|359:78,1,55.0000016784668,0|0,0:0|0:0,0:0:0:0:
208,80,69093,2,0,L|153:78,1,55.0000016784668,0|0,0:0|0:0,0:0:0:0:
394,274,69236,6,0,L|339:272,1,55.0000016784668,0|0,0:0|0:0,0:0:0:0:
118,274,69379,2,0,L|173:272,1,55.0000016784668,0|0,0:0|0:0,0:0:0:0:
394,274,69522,1,8,0:0:0:0:
416,244,69557,1,0,0:0:0:0:
423,208,69593,1,0,0:0:0:0:
414,173,69629,1,0,0:0:0:0:
392,144,69664,1,8,0:0:0:0:
360,127,69700,1,0,0:0:0:0:
324,125,69736,1,0,0:0:0:0:
133,106,69808,6,0,L|214:93,1,55.0000016784668,4|0,0:0|0:0,0:0:0:0:
338,69,69951,1,0,0:0:0:0:
486,54,70022,1,0,0:0:0:0:
264,221,70093,2,0,L|183:208,1,55.0000016784668,0|0,0:0|0:0,0:0:0:0:
422,360,70236,2,0,L|503:347,1,55.0000016784668,0|0,0:0|0:0,0:0:0:0:
256,320,70379,6,0,L|246:253,1,55.0000016784668,0|0,0:0|0:0,0:0:0:0:
424,136,70522,2,0,L|414:69,1,55.0000016784668,0|0,0:0|0:0,0:0:0:0:
188,114,70665,2,0,L|107:101,1,55.0000016784668,0|0,0:0|0:0,0:0:0:0:
287,57,70808,1,0,0:0:0:0:
438,25,70879,1,0,0:0:0:0:
256,192,70951,6,0,L|175:179,3,55.0000016784668,8|0|0|0,1:0|0:0|0:0|0:0,0:0:0:0:
441,282,71236,2,0,L|496:274,2,55.0000016784668,8|0|0,1:0|0:0|0:0,0:0:0:0:
256,192,71451,2,0,L|224:192,1,27.5000008392334,8|0,1:0|1:0,0:0:0:0:
384,192,71522,6,0,L|438:183,2,55.0000016784668,8|8|8,1:0|0:0|0:0,0:0:0:0:
228,192,71736,2,0,L|173:183,1,55.0000016784668,8|8,1:0|0:0,0:0:0:0:
164,148,71843,1,0,0:0:0:0:
182,118,71879,1,8,0:0:0:0:
217,110,71915,1,0,0:0:0:0:
339,113,71951,2,0,L|370:113,2,27.5000008392334,8|0|8,1:0|0:0|0:0,0:0:0:0:
135,126,72093,6,0,L|131:46,1,55.0000016784668,4|0,0:0|0:0,0:0:0:0:
339,113,72236,2,0,L|271:112,1,55.0000016784668,0|0,0:0|0:0,0:0:0:0:
75,248,72379,2,0,L|79:168,1,55.0000016784668,0|0,0:0|0:0,0:0:0:0:
285,112,72522,2,0,L|339:113,1,55.0000016784668,0|0,0:0|0:0,0:0:0:0:
135,126,72665,6,0,L|131:46,1,55.0000016784668,0|0,0:0|0:0,0:0:0:0:
339,113,72808,2,0,L|271:112,1,55.0000016784668,0|0,0:0|0:0,0:0:0:0:
75,248,72951,1,8,0:0:0:0:
53,218,72986,1,0,0:0:0:0:
46,182,73022,1,0,0:0:0:0:
55,147,73058,1,0,0:0:0:0:
77,118,73093,1,8,0:0:0:0:
109,101,73129,1,0,0:0:0:0:
145,99,73165,1,0,0:0:0:0:
377,126,73236,6,0,L|381:46,1,55.0000016784668,4|0,0:0|0:0,0:0:0:0:
173,113,73379,2,0,L|241:112,1,55.0000016784668,0|0,0:0|0:0,0:0:0:0:
437,248,73522,2,0,L|433:168,1,55.0000016784668,0|0,0:0|0:0,0:0:0:0:
227,112,73665,2,0,L|173:113,1,55.0000016784668,0|0,0:0|0:0,0:0:0:0:
377,126,73808,6,0,L|381:46,1,55.0000016784668,0|0,0:0|0:0,0:0:0:0:
173,113,73951,2,0,L|241:112,1,55.0000016784668,0|0,0:0|0:0,0:0:0:0:
436,248,74093,1,8,0:0:0:0:
446,213,74128,1,0,0:0:0:0:
430,181,74164,1,8,0:0:0:0:
396,168,74200,1,0,0:0:0:0:
256,160,74236,1,0,1:0:0:0:
229,160,74271,1,0,0:0:0:0:
201,160,74307,1,8,0:0:0:0:
397,284,74379,5,0,0:0:0:0:
461,284,74451,2,0,L|467:230,1,55.0000016784668,0|8,0:0|2:0,0:0:0:0:
256,128,74593,1,0,0:0:0:0:
320,128,74665,2,0,L|326:74,1,55.0000016784668,0|8,0:0|2:0,0:0:0:0:
115,284,74808,5,0,0:0:0:0:
51,284,74880,2,0,L|45:230,1,55.0000016784668,0|8,0:0|2:0,0:0:0:0:
256,128,75022,1,0,0:0:0:0:
192,128,75094,2,0,L|186:74,1,55.0000016784668,0|8,0:0|2:0,0:0:0:0:
397,284,75236,5,0,0:0:0:0:
461,284,75308,2,0,L|467:230,1,55.0000016784668,0|8,0:0|2:0,0:0:0:0:
301,169,75451,1,0,0:0:0:0:
137,98,75522,5,8,0:0:0:0:
106,84,75557,1,0,0:0:0:0:
106,50,75593,1,8,0:0:0:0:
138,37,75629,1,0,0:0:0:0:
292,125,75665,1,8,0:0:0:0:
323,111,75700,1,0,0:0:0:0:
323,77,75736,1,8,0:0:0:0:
291,64,75772,1,0,0:0:0:0:
179,131,75808,5,8,0:0:0:0:
148,117,75843,1,0,0:0:0:0:
148,83,75879,1,8,0:0:0:0:
180,70,75915,1,0,0:0:0:0:
334,158,75951,1,8,0:0:0:0:
365,144,75986,1,0,0:0:0:0:
365,110,76022,1,8,0:0:0:0:
333,97,76058,1,0,0:0:0:0:
225,133,76093,5,8,0:0:0:0:
194,119,76128,1,0,0:0:0:0:
194,85,76164,1,8,0:0:0:0:
226,72,76200,1,0,0:0:0:0:
380,160,76236,1,8,0:0:0:0:
411,146,76271,1,0,0:0:0:0:
411,112,76307,1,8,0:0:0:0:
379,99,76343,1,0,0:0:0:0:
253,128,76379,6,0,P|169:71|254:16,1,240,8|0,0:0|0:0,0:0:0:0:
436,85,76665,6,0,L|274:77,1,150,6|0,1:2|0:0,0:0:0:0:
480,192,76951,2,0,L|488:134,3,44.999998626709,2|0|0|0,0:0|0:0|0:0|0:0,0:0:0:0:
410,112,77236,6,0,L|402:54,3,44.999998626709,2|0|0|0,0:0|0:0|0:0|0:0,0:0:0:0:
326,207,77522,2,0,L|334:149,3,44.999998626709,2|0|0|0,0:0|0:0|0:0|0:0,0:0:0:0:
255,89,77808,6,0,L|247:31,3,44.999998626709,2|0|0|0,0:0|0:0|0:0|0:0,0:0:0:0:
171,184,78094,2,0,L|179:126,3,44.999998626709,2|0|0|0,0:0|0:0|0:0|0:0,0:0:0:0:
101,71,78379,6,0,L|93:13,3,44.999998626709,2|0|0|0,0:0|0:0|0:0|0:0,0:0:0:0:
17,166,78665,2,0,L|25:108,3,44.999998626709,2|0|0|0,0:0|0:0|0:0|0:0,0:0:0:0:
100,192,78951,5,2,0:0:0:0:
93,148,79022,1,0,0:0:0:0:
86,104,79093,1,0,0:0:0:0:
80,59,79165,1,0,0:0:0:0:
156,332,79236,1,2,0:0:0:0:
163,288,79307,1,0,0:0:0:0:
170,244,79378,1,0,0:0:0:0:
176,199,79450,1,0,0:0:0:0:
253,177,79522,5,2,0:0:0:0:
246,133,79593,1,0,0:0:0:0:
239,89,79664,1,0,0:0:0:0:
233,44,79736,1,0,0:0:0:0:
309,317,79807,1,2,0:0:0:0:
316,273,79878,1,0,0:0:0:0:
323,229,79951,1,0,0:0:0:0:
329,184,80022,1,0,0:0:0:0:
406,181,80093,5,2,0:0:0:0:
399,137,80165,1,0,0:0:0:0:
392,93,80236,1,0,0:0:0:0:
386,48,80308,1,0,0:0:0:0:
462,321,80379,1,2,0:0:0:0:
469,277,80451,1,0,0:0:0:0:
476,233,80522,1,0,0:0:0:0:
482,188,80592,1,0,0:0:0:0:
406,181,80665,5,2,0:0:0:0:
399,137,80736,1,0,0:0:0:0:
392,93,80807,1,0,0:0:0:0:
386,48,80879,1,0,0:0:0:0:
309,317,80950,1,2,0:0:0:0:
316,273,81021,1,0,0:0:0:0:
323,229,81092,1,0,0:0:0:0:
329,184,81164,1,0,0:0:0:0:
252,155,81236,6,0,L|244:97,3,44.999998626709,2|0|0|0,0:0|0:0|0:0|0:0,0:0:0:0:
382,143,81522,1,10,0:0:0:0:
421,125,81593,1,0,0:0:0:0:
420,83,81664,1,0,0:0:0:0:
381,67,81736,1,0,0:0:0:0:
458,51,81808,6,0,L|466:-7,3,44.999998626709,2|0|0|0,0:0|0:0|0:0|0:0,0:0:0:0:
330,322,82093,1,10,0:0:0:0:
291,304,82164,1,0,0:0:0:0:
292,262,82235,1,0,0:0:0:0:
331,246,82307,1,0,0:0:0:0:
254,230,82379,6,0,L|246:172,3,44.999998626709,2|0|0|0,0:0|0:0|0:0|0:0,0:0:0:0:
111,199,82665,1,10,0:0:0:0:
72,181,82736,1,0,0:0:0:0:
73,139,82807,1,0,0:0:0:0:
112,123,82879,1,0,0:0:0:0:
35,107,82951,6,0,L|27:49,3,44.999998626709,2|0|0|0,0:0|0:0|0:0|0:0,0:0:0:0:
163,378,83236,1,10,0:0:0:0:
202,360,83307,1,0,0:0:0:0:
201,318,83378,1,0,0:0:0:0:
162,302,83450,1,0,0:0:0:0:
239,286,83522,6,0,L|247:228,3,44.999998626709,2|0|0|0,0:0|0:0|0:0|0:0,0:0:0:0:
401,199,83808,1,10,0:0:0:0:
440,181,83879,1,0,0:0:0:0:
439,139,83950,1,0,0:0:0:0:
400,123,84022,1,0,0:0:0:0:
477,107,84094,6,0,L|485:49,3,44.999998626709,2|0|0|0,0:0|0:0|0:0|0:0,0:0:0:0:
349,378,84379,1,10,0:0:0:0:
310,360,84450,1,0,0:0:0:0:
311,318,84521,1,0,0:0:0:0:
350,302,84593,1,0,0:0:0:0:
273,286,84665,6,0,L|265:228,3,44.999998626709,2|0|0|0,0:0|0:0|0:0|0:0,0:0:0:0:
111,199,84951,1,10,0:0:0:0:
72,181,85022,1,0,0:0:0:0:
73,139,85093,1,0,0:0:0:0:
112,123,85165,1,0,0:0:0:0:
35,107,85237,6,0,L|27:49,1,44.999998626709,2|0,0:0|0:0,0:0:0:0:
194,191,85379,2,0,L|202:133,1,44.999998626709,8|0,0:0|0:0,0:0:0:0:
123,98,85522,2,0,L|115:40,1,44.999998626709,2|0,0:0|0:0,0:0:0:0:
284,195,85665,2,0,L|292:137,1,44.999998626709,10|0,0:0|0:0,0:0:0:0:
123,98,85808,5,6,0:0:0:0:
129,49,85879,1,0,0:0:0:0:
166,17,85950,1,0,0:0:0:0:
215,16,86022,1,0,0:0:0:0:
370,247,86093,2,0,L|379:183,1,50,10|0,0:0|0:0,0:0:0:0:
296,189,86236,2,0,L|287:125,1,50,0|0,0:0|0:0,0:0:0:0:
373,124,86379,5,2,0:0:0:0:
417,104,86450,1,0,0:0:0:0:
432,58,86521,1,0,0:0:0:0:
408,16,86593,1,0,0:0:0:0:
256,227,86665,2,0,L|262:276,1,50,10|0,0:0|0:0,0:0:0:0:
343,285,86808,2,0,L|336:334,1,50,0|0,0:0|0:0,0:0:0:0:
256,352,86951,5,2,0:0:0:0:
231,310,87022,1,0,0:0:0:0:
249,266,87093,1,0,0:0:0:0:
296,255,87165,1,0,0:0:0:0:
139,140,87236,2,0,L|63:140,1,50,10|0,0:0|0:0,0:0:0:0:
170,79,87379,2,0,L|246:79,1,50,0|0,0:0|0:0,0:0:0:0:
139,140,87522,5,2,0:0:0:0:
100,112,87593,1,0,0:0:0:0:
109,66,87664,1,0,0:0:0:0:
154,54,87736,1,0,0:0:0:0:
308,161,87808,2,0,L|232:161,1,50,10|0,0:0|0:0,0:0:0:0:
182,233,87951,2,0,L|258:233,1,50,0|0,0:0|0:0,0:0:0:0:
316,231,88093,5,2,0:0:0:0:
357,208,88164,1,0,0:0:0:0:
355,161,88235,1,0,0:0:0:0:
311,143,88307,1,0,0:0:0:0:
156,306,88379,2,0,L|147:242,1,50,10|0,0:0|0:0,0:0:0:0:
230,248,88522,2,0,L|239:184,1,50,0|0,0:0|0:0,0:0:0:0:
158,224,88665,5,2,0:0:0:0:
109,218,88736,1,0,0:0:0:0:
77,181,88807,1,0,0:0:0:0:
79,132,88879,1,0,0:0:0:0:
237,38,88951,2,0,L|230:87,1,50,10|0,0:0|0:0,0:0:0:0:
149,96,89094,2,0,L|155:145,1,50,0|0,0:0|0:0,0:0:0:0:
238,146,89236,5,2,0:0:0:0:
281,127,89307,1,0,0:0:0:0:
280,80,89378,1,0,0:0:0:0:
235,65,89450,1,0,0:0:0:0:
388,166,89522,2,0,L|464:166,1,50,10|0,0:0|0:0,0:0:0:0:
357,105,89665,2,0,L|281:105,1,50,0|0,0:0|0:0,0:0:0:0:
388,166,89808,5,2,0:0:0:0:
434,148,89879,1,0,0:0:0:0:
461,107,89950,1,0,0:0:0:0:
458,58,90022,1,0,0:0:0:0:
307,105,90093,2,0,L|357:105,1,50,10|0,0:0|0:0,0:0:0:0:
438,166,90236,2,0,L|388:166,1,50,0|0,0:0|0:0,0:0:0:0:
307,105,90379,5,2,0:0:0:0:
291,59,90450,1,0,0:0:0:0:
318,19,90521,1,0,0:0:0:0:
366,18,90593,1,0,0:0:0:0:
210,293,90665,2,0,L|201:229,1,50,10|0,0:0|0:0,0:0:0:0:
284,235,90808,2,0,L|293:171,1,50,0|0,0:0|0:0,0:0:0:0:
210,293,90951,5,2,0:0:0:0:
170,266,91022,1,0,0:0:0:0:
172,218,91093,1,0,0:0:0:0:
214,196,91165,1,0,0:0:0:0:
370,171,91236,2,0,L|363:220,1,50,10|0,0:0|0:0,0:0:0:0:
282,229,91379,2,0,L|288:278,1,50,0|0,0:0|0:0,0:0:0:0:
370,171,91522,5,2,0:0:0:0:
412,149,91593,1,0,0:0:0:0:
413,102,91664,1,0,0:0:0:0:
372,79,91736,1,0,0:0:0:0:
221,148,91808,2,0,L|145:148,1,50,10|0,0:0|0:0,0:0:0:0:
252,87,91951,2,0,L|328:87,1,50,0|0,0:0|0:0,0:0:0:0:
221,148,92093,5,2,0:0:0:0:
173,138,92164,1,0,0:0:0:0:
143,99,92235,1,0,0:0:0:0:
147,50,92307,1,0,0:0:0:0:
302,87,92379,2,0,L|252:87,1,50,10|0,0:0|0:0,0:0:0:0:
171,148,92522,2,0,L|221:148,1,50,0|0,0:0|0:0,0:0:0:0:
302,87,92665,5,2,0:0:0:0:
314,133,92736,1,0,0:0:0:0:
286,173,92807,1,0,0:0:0:0:
238,178,92879,1,0,0:0:0:0:
390,336,92951,2,0,L|399:272,1,50,10|0,0:0|0:0,0:0:0:0:
316,278,93094,2,0,L|307:214,1,50,0|0,0:0|0:0,0:0:0:0:
390,336,93236,5,2,0:0:0:0:
393,287,93307,1,0,0:0:0:0:
362,249,93378,1,0,0:0:0:0:
313,244,93450,1,0,0:0:0:0:
157,114,93522,2,0,L|163:163,1,50,10|0,0:0|0:0,0:0:0:0:
245,172,93665,2,0,L|238:221,1,50,0|0,0:0|0:0,0:0:0:0:
157,114,93808,5,2,0:0:0:0:
108,107,93879,1,0,0:0:0:0:
78,69,93950,1,0,0:0:0:0:
83,20,94022,1,0,0:0:0:0:
256,128,94093,2,0,L|332:128,1,50,10|0,0:0|0:0,0:0:0:0:
225,67,94236,2,0,L|149:67,1,50,0|0,0:0|0:0,0:0:0:0:
353,196,94379,6,0,L|429:196,1,50,2|0,0:0|0:0,0:0:0:0:
128,192,94522,2,0,L|119:122,1,50,8|0,0:0|0:0,0:0:0:0:
259,117,94665,2,0,L|252:67,1,50,10|2,0:0|0:0,0:0:0:0:
390,142,94808,2,0,L|384:192,1,50,10|2,0:0|0:0,0:0:0:0:
159,196,94951,6,0,L|83:196,3,50,2|0|0|0,0:0|0:0|0:0|0:0,0:0:0:0:
303,196,95236,2,0,L|431:196,1,100,14|0,0:0|0:0,0:0:0:0:
160,192,95522,2,0,L|160:64,1,100,2|0,0:0|0:0,0:0:0:0:
296,73,95808,1,10,0:0:0:0:
160,92,95951,1,0,0:0:0:0:
393,161,96092,5,2,0:0:0:0:
257,180,96236,2,0,L|257:280,1,100,0|10,0:0|0:0,0:0:0:0:
481,340,96522,2,0,L|353:340,2,100,0|2|0,0:0|0:0|0:0,0:0:0:0:
256,352,96951,2,0,P|203:312|266:271,1,150,10|0,0:0|0:0,0:0:0:0:
416,224,97236,6,0,L|288:224,1,100,2|0,0:0|0:0,0:0:0:0:
192,160,97522,2,0,L|292:160,1,100,10|0,0:0|0:0,0:0:0:0:
70,109,97808,1,2,0:0:0:0:
169,103,97950,1,0,0:0:0:0:
269,97,98093,1,10,0:0:0:0:
128,32,98236,1,0,0:0:0:0:
388,126,98379,6,0,L|260:126,2,100,2|0|10,0:0|0:0|0:0,0:0:0:0:
124,126,98808,2,0,L|252:126,2,100,0|2|0,0:0|0:0|0:0,0:0:0:0:
336,29,99236,1,10,0:0:0:0:
176,29,99379,1,0,0:0:0:0:
416,192,99522,6,0,L|416:64,1,100,2|0,0:0|0:0,0:0:0:0:
280,127,99808,1,10,0:0:0:0:
416,92,99951,1,0,0:0:0:0:
191,166,100093,1,2,0:0:0:0:
327,131,100237,2,0,L|327:231,1,100,0|10,0:0|0:0,0:0:0:0:
156,313,100522,1,0,0:0:0:0:
373,308,100665,5,2,0:0:0:0:
256,288,100808,2,0,L|384:288,1,100,0|10,0:0|0:0,0:0:0:0:
139,308,101093,1,0,0:0:0:0:
256,288,101236,2,0,L|128:288,1,100,2|0,0:0|0:0,0:0:0:0:
373,308,101522,2,0,P|434:266|377:210,1,150,10|0,0:0|0:0,0:0:0:0:
237,261,101808,6,0,L|109:261,1,100,2|0,0:0|0:0,0:0:0:0:
275,261,102093,2,0,L|403:261,1,100,10|0,0:0|0:0,0:0:0:0:
128,192,102379,2,0,L|128:64,1,100,2|0,0:0|0:0,0:0:0:0:
268,60,102665,1,10,0:0:0:0:
128,92,102808,1,0,0:0:0:0:
374,99,102951,5,2,0:0:0:0:
256,160,103093,1,0,0:0:0:0:
138,99,103236,1,10,0:0:0:0:
397,151,103379,5,0,0:0:0:0:
279,212,103521,1,2,0:0:0:0:
397,151,103665,1,0,0:0:0:0:
115,151,103808,1,10,0:0:0:0:
256,160,103951,2,0,L|192:160,1,50,2|2,0:0|0:0,0:0:0:0:
397,151,104093,6,0,L|397:23,1,100,6|0,0:0|0:0,0:0:0:0:
194,155,104379,1,10,0:0:0:0:
318,155,104522,1,0,0:0:0:0:
94,155,104665,2,0,L|222:155,1,100,2|0,0:0|0:0,0:0:0:0:
58,70,104951,1,10,0:0:0:0:
256,64,105093,1,0,0:0:0:0:
32,96,105236,5,2,0:0:0:0:
160,96,105379,1,0,0:0:0:0:
32,96,105522,1,10,0:0:0:0:
288,95,105665,1,0,0:0:0:0:
160,96,105808,2,0,L|160:224,1,100,2|0,0:0|0:0,0:0:0:0:
363,195,106093,2,0,L|263:195,1,100,10|0,0:0|0:0,0:0:0:0:
314,144,106308,1,0,0:0:0:0:
115,151,106379,6,0,L|115:23,1,100,6|0,0:0|0:0,0:0:0:0:
318,155,106665,1,10,0:0:0:0:
194,155,106808,1,0,0:0:0:0:
418,155,106951,2,0,L|290:155,1,100,2|0,0:0|0:0,0:0:0:0:
454,70,107237,1,10,0:0:0:0:
256,64,107379,1,0,0:0:0:0:
480,96,107522,5,2,0:0:0:0:
352,96,107665,1,0,0:0:0:0:
480,96,107808,1,10,0:0:0:0:
224,95,107951,1,0,0:0:0:0:
352,96,108094,2,0,L|352:224,1,100,2|0,0:0|0:0,0:0:0:0:
128,192,108379,1,10,0:0:0:0:
256,192,108522,2,0,L|192:192,1,50,10|10,0:0|0:0,0:0:0:0:
376,159,108665,5,6,0:0:0:0:
496,123,108808,1,0,0:0:0:0:
256,96,108951,1,10,0:0:0:0:
496,123,109093,1,0,0:0:0:0:
136,159,109236,1,10,0:0:0:0:
256,96,109379,1,0,0:0:0:0:
136,159,109522,1,10,0:0:0:0:
376,159,109665,2,0,L|320:160,1,50,0|10,0:0|0:0,0:0:0:0:
136,159,109808,5,14,0:0:0:0:
256,96,109951,1,10,0:0:0:0:
16,222,110093,1,10,0:0:0:0:
256,96,110236,1,10,0:0:0:0:
496,222,110379,1,14,0:0:0:0:
256,96,110522,1,10,0:0:0:0:
496,222,110665,1,10,0:0:0:0:
256,96,110808,1,10,0:0:0:0:
16,222,110951,6,0,L|31:159,1,50,14|10,0:0|0:0,0:0:0:0:
173,139,111093,2,0,L|188:76,1,50,10|10,0:0|0:0,0:0:0:0:
332,79,111236,2,0,L|347:16,1,50,14|10,0:0|0:0,0:0:0:0:
143,116,111379,2,0,L|80:101,1,50,10|10,0:0|0:0,0:0:0:0:
369,116,111522,6,0,L|432:101,1,50,14|10,0:0|0:0,0:0:0:0:
256,224,111665,2,0,L|207:212,1,50,10|10,0:0|0:0,0:0:0:0:
412,352,111808,2,0,L|460:340,1,50,14|10,0:0|0:0,0:0:0:0:
230,190,111951,2,0,L|278:178,1,50,10|10,0:0|0:0,0:0:0:0:
461,340,112093,5,2,0:0:0:0:
341,308,112236,2,0,L|390:296,1,50,2|2,0:0|0:0,0:0:0:0:
256,256,112379,2,0,L|369:232,1,100,2|2,0:0|0:0,0:0:0:0:
103,353,112665,6,0,L|54:341,1,50,14|0,0:3|0:0,0:0:0:0:
208,255,112808,1,14,0:3:0:0:
360,198,112879,1,14,0:3:0:0:
163,195,112951,5,14,0:3:0:0:
131,188,112986,1,0,0:0:0:0:
122,158,113022,1,14,0:3:0:0:
144,135,113058,1,0,0:0:0:0:
267,116,113093,2,0,L|303:113,1,25,14|0,0:3|0:0,0:0:0:0:
421,93,113165,2,0,L|457:90,1,25,14|0,0:3|0:0,0:0:0:0:
208,255,113236,6,0,L|48:255,1,110.000003356934,6|0,0:0|0:0,0:0:0:0:
304,255,113522,2,0,L|464:255,1,110.000003356934,10|0,0:0|0:0,0:0:0:0:
158,130,113808,1,2,0:0:0:0:
284,131,113951,1,0,0:0:0:0:
32,32,114093,1,10,0:0:0:0:
284,131,114236,6,0,L|284:259,1,110.000003356934,0|2,0:0|0:0,0:0:0:0:
158,130,114522,1,0,0:0:0:0:
394,131,114665,2,0,L|258:131,1,110.000003356934,10|0,0:0|0:0,0:0:0:0:
496,206,114951,1,2,0:0:0:0:
284,131,115094,1,0,0:0:0:0:
496,206,115236,2,0,L|496:334,1,110.000003356934,10|0,0:0|0:0,0:0:0:0:
245,198,115522,6,0,L|381:198,1,110.000003356934,2|0,0:0|0:0,0:0:0:0:
149,311,115808,2,0,L|13:311,1,110.000003356934,10|0,0:0|0:0,0:0:0:0:
292,188,116093,1,2,0:0:0:0:
166,189,116236,1,0,0:0:0:0:
418,90,116378,1,10,0:0:0:0:
166,189,116522,6,0,L|294:189,1,110.000003356934,0|2,0:0|0:0,0:0:0:0:
150,164,116808,1,0,0:0:0:0:
371,103,116950,1,10,0:0:0:0:
245,104,117093,1,0,0:0:0:0:
497,102,117236,1,2,0:0:0:0:
245,104,117379,1,0,0:0:0:0:
497,102,117522,1,10,0:0:0:0:
371,103,117665,1,0,0:0:0:0:
146,128,117808,6,0,L|256:128,1,110.000003356934,2|0,0:0|0:0,0:0:0:0:
480,288,118093,2,0,L|370:288,1,110.000003356934,10|0,0:0|0:0,0:0:0:0:
128,145,118379,1,2,0:0:0:0:
254,146,118522,1,0,0:0:0:0:
16,47,118664,1,10,0:0:0:0:
255,160,118808,6,0,L|255:32,1,110.000003356934,0|2,0:0|0:0,0:0:0:0:
128,145,119093,1,0,0:0:0:0:
352,160,119236,2,0,L|352:32,1,110.000003356934,10|0,0:0|0:0,0:0:0:0:
88,244,119522,1,2,0:0:0:0:
319,88,119665,1,0,0:0:0:0:
193,87,119808,1,10,0:0:0:0:
424,244,119951,1,0,0:0:0:0:
201,67,120093,6,0,L|311:67,1,110.000003356934,2|0,0:0|0:0,0:0:0:0:
26,269,120379,1,10,0:0:0:0:
152,268,120522,1,0,0:0:0:0:
386,170,120665,1,2,0:0:0:0:
260,169,120808,1,0,0:0:0:0:
496,82,120951,1,10,0:0:0:0:
260,169,121093,6,0,L|372:169,1,110.000003356934,0|2,0:0|0:0,0:0:0:0:
244,114,121379,1,0,0:0:0:0:
496,82,121522,1,10,0:0:0:0:
370,81,121665,1,0,0:0:0:0:
142,81,121808,6,0,L|78:81,3,55.0000016784668,2|0|0|0,0:0|0:0|0:0|0:0,0:0:0:0:
307,16,122093,2,0,L|371:16,1,55.0000016784668,10|0,0:0|0:0,0:0:0:0:
205,16,122236,2,0,L|141:16,1,55.0000016784668,2|0,0:0|0:0,0:0:0:0:
370,81,122379,6,0,L|498:81,1,110.000003356934,6|0,0:0|0:0,0:0:0:0:
256,192,122665,1,10,0:0:0:0:
480,81,122808,1,0,0:0:0:0:
256,192,122951,1,2,0:0:0:0:
130,193,123094,1,0,0:0:0:0:
382,94,123236,1,10,0:0:0:0:
130,193,123379,6,0,L|131:62,1,110.000003356934,0|2,0:0|0:0,0:0:0:0:
382,190,123665,1,0,0:0:0:0:
256,192,123808,1,10,0:0:0:0:
382,190,123951,1,0,0:0:0:0:
130,190,124093,1,2,0:0:0:0:
256,192,124236,1,0,0:0:0:0:
16,224,124379,1,10,0:0:0:0:
256,192,124522,1,0,0:0:0:0:
16,224,124665,6,0,L|128:224,1,110.000003356934,2|0,0:0|0:0,0:0:0:0:
386,224,124951,1,10,0:0:0:0:
126,224,125093,1,0,0:0:0:0:
370,222,125236,1,2,0:0:0:0:
244,223,125379,1,0,0:0:0:0:
496,124,125521,1,10,0:0:0:0:
256,224,125665,6,0,L|377:222,1,110.000003356934,0|2,0:0|0:0,0:0:0:0:
130,190,125951,1,0,0:0:0:0:
256,192,126094,1,10,0:0:0:0:
130,190,126237,1,0,0:0:0:0:
382,190,126379,1,2,0:0:0:0:
256,192,126522,1,0,0:0:0:0:
496,224,126665,1,10,0:0:0:0:
256,192,126808,1,0,0:0:0:0:
496,224,126951,6,0,L|496:64,1,110.000003356934,2|0,0:0|0:0,0:0:0:0:
256,192,127236,1,10,0:0:0:0:
382,193,127379,1,0,0:0:0:0:
130,191,127522,1,2,0:0:0:0:
256,192,127665,1,0,0:0:0:0:
16,93,127807,1,10,0:0:0:0:
256,192,127951,6,0,L|146:192,1,110.000003356934,0|2,0:0|0:0,0:0:0:0:
382,191,128236,1,0,0:0:0:0:
256,192,128379,1,10,0:0:0:0:
496,93,128521,1,0,0:0:0:0:
256,288,128665,1,2,0:0:0:0:
382,289,128808,1,0,0:0:0:0:
130,289,128951,1,10,0:0:0:0:
382,289,129093,1,0,0:0:0:0:
130,289,129236,6,0,L|16:288,1,110.000003356934,2|0,0:0|0:0,0:0:0:0:
256,160,129522,1,10,0:0:0:0:
130,161,129665,1,0,0:0:0:0:
256,160,129808,1,2,0:0:0:0:
16,160,129951,1,0,0:0:0:0:
256,160,130093,1,10,0:0:0:0:
16,160,130236,6,0,L|128:160,1,110.000003356934,0|2,0:0|0:0,0:0:0:0:
386,160,130522,1,0,0:0:0:0:
130,161,130665,1,10,0:0:0:0:
256,160,130808,1,0,0:0:0:0:
496,169,130951,6,0,L|422:173,1,55.0000016784668,2|0,0:0|0:0,0:0:0:0:
256,224,131093,2,0,L|174:230,1,55.0000016784668,10|0,0:0|0:0,0:0:0:0:
386,167,131236,2,0,L|468:173,1,55.0000016784668,10|0,0:0|0:0,0:0:0:0:
256,224,131379,1,10,0:0:0:0:
71,171,131451,1,10,0:0:0:0:
253,288,131522,6,0,L|388:288,1,110.000003356934,6|0,0:0|0:0,0:0:0:0:
13,295,131808,1,10,0:0:0:0:
150,302,131951,1,0,0:0:0:0:
389,223,132093,1,2,0:0:0:0:
252,230,132236,1,0,0:0:0:0:
493,355,132379,1,10,0:0:0:0:
252,230,132522,6,0,L|389:231,1,110.000003356934,0|2,0:0|0:0,0:0:0:0:
115,223,132808,1,0,0:0:0:0:
252,230,132951,1,10,0:0:0:0:
493,355,133093,1,0,0:0:0:0:
252,230,133236,1,2,0:0:0:0:
389,237,133379,1,0,0:0:0:0:
118,237,133522,1,10,0:0:0:0:
391,237,133665,1,0,0:0:0:0:
120,237,133808,6,0,L|120:109,1,110.000003356934,2|0,0:0|0:0,0:0:0:0:
393,246,134093,1,10,0:0:0:0:
256,253,134236,1,0,0:0:0:0:
16,347,134379,1,2,0:0:0:0:
153,354,134522,1,0,0:0:0:0:
393,246,134665,1,10,0:0:0:0:
153,354,134808,6,0,L|18:353,1,110.000003356934,0|2,0:0|0:0,0:0:0:0:
317,339,135093,1,0,0:0:0:0:
180,346,135236,1,10,0:0:0:0:
43,353,135379,1,0,0:0:0:0:
393,223,135522,1,2,0:0:0:0:
119,237,135665,1,0,0:0:0:0:
393,223,135808,1,10,0:0:0:0:
256,230,135951,1,0,0:0:0:0:
480,352,136093,6,0,L|480:224,1,110.000003356934,2|0,0:0|0:0,0:0:0:0:
256,216,136379,1,10,0:0:0:0:
393,223,136522,1,0,0:0:0:0:
119,237,136665,1,2,0:0:0:0:
256,216,136808,1,0,0:0:0:0:
16,185,136951,1,10,0:0:0:0:
256,216,137093,6,0,L|397:215,1,110.000003356934,0|2,0:0|0:0,0:0:0:0:
119,209,137379,1,0,0:0:0:0:
256,216,137522,1,10,0:0:0:0:
119,209,137665,1,0,0:0:0:0:
417,345,137808,1,2,0:0:0:0:
188,96,137951,1,0,0:0:0:0:
325,89,138094,1,10,0:0:0:0:
95,345,138236,1,0,0:0:0:0:
417,345,138379,6,0,L|277:345,1,110.000003356934,2|0,0:0|0:0,0:0:0:0:
16,358,138665,1,10,0:0:0:0:
153,365,138808,1,0,0:0:0:0:
393,237,138951,1,2,0:0:0:0:
256,216,139094,1,0,0:0:0:0:
496,185,139237,1,10,0:0:0:0:
256,216,139379,6,0,P|224:176|257:136,1,110.000003356934,0|2,0:0|0:0,0:0:0:0:
496,185,139665,1,0,0:0:0:0:
359,164,139808,1,10,0:0:0:0:
153,164,139951,1,0,0:0:0:0:
377,86,140093,6,0,L|454:86,3,55.0000016784668,2|0|0|0,0:0|0:0|0:0|0:0,0:0:0:0:
210,109,140379,2,0,L|133:109,1,55.0000016784668,10|0,0:0|0:0,0:0:0:0:
357,109,140522,2,0,L|302:109,1,55.0000016784668,2|0,0:0|0:0,0:0:0:0:
135,86,140665,6,0,L|263:86,1,110.000003356934,6|0,0:0|0:0,0:0:0:0:
16,197,140951,1,10,0:0:0:0:
245,86,141093,1,0,0:0:0:0:
16,197,141236,1,2,0:0:0:0:
153,204,141379,1,0,0:0:0:0:
359,204,141522,1,10,0:0:0:0:
119,264,141665,6,0,L|235:264,1,110.000003356934,0|2,0:0|0:0,0:0:0:0:
496,197,141951,1,0,0:0:0:0:
359,204,142094,1,10,0:0:0:0:
153,204,142236,1,0,0:0:0:0:
393,163,142379,1,2,0:0:0:0:
256,170,142522,1,0,0:0:0:0:
496,197,142665,1,10,0:0:0:0:
256,170,142808,1,0,0:0:0:0:
496,197,142951,6,0,L|368:197,1,110.000003356934,2|0,0:0|0:0,0:0:0:0:
126,197,143236,1,10,0:0:0:0:
386,197,143379,1,0,0:0:0:0:
119,213,143522,1,2,0:0:0:0:
256,220,143665,1,0,0:0:0:0:
16,359,143808,1,10,0:0:0:0:
256,220,143951,1,0,0:0:0:0:
201,220,144022,1,0,0:0:0:0:
146,221,144093,5,2,0:0:0:0:
393,227,144236,1,0,0:0:0:0:
256,220,144379,1,10,0:0:0:0:
496,136,144522,1,0,0:0:0:0:
186,150,144665,1,2,0:0:0:0:
323,143,144808,1,0,0:0:0:0:
83,59,144951,1,10,0:0:0:0:
429,59,145093,2,0,L|337:61,1,55.0000016784668,0|0,0:0|0:0,0:0:0:0:
186,150,145236,6,0,L|327:152,1,110.000003356934,6|0,0:0|0:0,0:0:0:0:
16,344,145522,1,10,0:0:0:0:
153,337,145665,1,0,0:0:0:0:
393,267,145808,1,10,0:0:0:0:
256,260,145951,1,0,0:0:0:0:
498,364,146093,1,10,0:0:0:0:
256,260,146236,1,0,0:0:0:0:
498,364,146379,6,0,L|354:364,1,110.000003356934,6|0,0:0|0:0,0:0:0:0:
124,364,146665,1,10,0:0:0:0:
388,364,146808,1,0,0:0:0:0:
81,219,146951,1,10,0:0:0:0:
320,151,147093,1,0,0:0:0:0:
183,144,147236,1,10,0:0:0:0:
431,219,147379,2,0,L|350:219,1,55.0000016784668,0|10,0:0|0:0,0:0:0:0:
136,204,147522,5,14,0:0:0:0:
256,202,147665,1,10,0:0:0:0:
16,204,147808,1,10,0:0:0:0:
256,202,147951,1,10,0:0:0:0:
496,204,148093,1,14,0:0:0:0:
256,202,148236,1,10,0:0:0:0:
496,204,148379,1,10,0:0:0:0:
256,202,148522,1,10,0:0:0:0:
22,194,148665,6,0,L|16:140,1,55.0000016784668,14|10,0:0|0:0,0:0:0:0:
171,130,148808,2,0,L|177:75,1,55.0000016784668,10|10,0:0|0:0,0:0:0:0:
341,130,148951,2,0,L|334:75,1,55.0000016784668,14|10,0:0|0:0,0:0:0:0:
489,194,149093,2,0,L|496:140,1,55.0000016784668,10|10,0:0|0:0,0:0:0:0:
163,246,149236,6,0,L|84:236,1,55.0000016784668,14|10,0:0|0:0,0:0:0:0:
296,149,149379,2,0,L|325:149,1,27.5000008392334,10|2,0:0|0:0,0:0:0:0:
216,149,149451,2,0,L|187:149,1,27.5000008392334,10|2,0:0|0:0,0:0:0:0:
349,246,149522,6,0,L|428:236,1,55.0000016784668,14|10,0:0|0:0,0:0:0:0:
216,149,149665,2,0,L|187:149,1,27.5000008392334,10|2,0:0|0:0,0:0:0:0:
296,149,149737,2,0,L|325:149,1,27.5000008392334,10|2,0:0|0:0,0:0:0:0:
163,246,149808,6,0,L|48:245,3,85.0000016212464,6|0|0|0,1:2|0:0|0:0|0:0,0:0:0:0:
173,67,150379,2,0,L|260:67,1,85.0000016212464,2|0,0:0|0:0,0:0:0:0:
354,25,150664,1,0,0:0:0:0:
225,24,150808,1,0,0:0:0:0:
354,25,150951,5,2,0:0:0:0:
344,105,151094,1,0,0:0:0:0:
270,141,151236,1,0,0:0:0:0:
398,156,151379,1,2,0:0:0:0:
388,236,151522,1,0,0:0:0:0:
314,272,151664,1,0,0:0:0:0:
183,271,151808,2,0,L|72:262,1,85.0000016212464,2|0,0:0|0:0,0:0:0:0:
349,246,152093,5,6,0:0:0:0:
423,210,152235,1,0,0:0:0:0:
433,130,152378,1,0,0:0:0:0:
371,77,152521,1,0,0:0:0:0:
242,141,152664,1,2,0:0:0:0:
168,105,152808,1,0,0:0:0:0:
158,25,152951,1,0,0:0:0:0:
287,24,153093,1,0,0:0:0:0:
158,25,153236,5,2,0:0:0:0:
168,105,153379,1,0,0:0:0:0:
242,141,153521,1,0,0:0:0:0:
109,213,153665,2,0,L|0:217,2,85.0000016212464,2|0|0,0:0|0:0|0:0,0:0:0:0:
239,206,154093,1,2,0:0:0:0:
109,213,154236,1,0,0:0:0:0:
403,213,154379,5,4,0:2:0:0:
445,142,154521,1,0,0:0:0:0:
412,68,154664,1,0,0:0:0:0:
332,52,154807,1,0,0:0:0:0:
203,297,154951,1,2,0:0:0:0:
160,226,155093,1,0,0:0:0:0:
193,152,155236,1,0,0:0:0:0:
322,134,155379,1,0,0:0:0:0:
193,152,155522,6,0,L|295:143,2,85.0000016212464,2|0|0,0:0|0:0|0:0,0:0:0:0:
319,152,155951,2,0,L|217:143,2,85.0000016212464,2|0|0,0:0|0:0|0:0,0:0:0:0:
452,137,156379,2,0,L|348:128,1,85.0000016212464,2|0,0:0|0:0,0:0:0:0:
109,213,156665,5,6,0:0:0:0:
66,142,156807,1,0,0:0:0:0:
99,68,156950,1,0,0:0:0:0:
179,52,157093,1,0,0:0:0:0:
309,297,157237,1,2,0:0:0:0:
352,226,157379,1,0,0:0:0:0:
319,152,157522,1,0,0:0:0:0:
190,134,157665,1,0,0:0:0:0:
319,152,157808,6,0,L|217:143,2,85.0000016212464,2|0|0,0:0|0:0|0:0,0:0:0:0:
193,152,158237,2,0,L|295:143,2,85.0000016212464,2|0|0,0:0|0:0|0:0,0:0:0:0:
467,344,158665,1,2,1:2:0:0:
487,315,158700,1,0,1:0:0:0:
494,280,158736,1,0,1:0:0:0:
485,246,158772,1,0,1:0:0:0:
463,219,158807,1,0,1:0:0:0:
431,204,158843,1,0,1:0:0:0:
396,203,158879,1,0,1:0:0:0:
196,236,158951,6,0,L|192:127,1,85.0000016212464,4|0,1:2|0:0,0:0:0:0:
316,236,159236,2,0,L|320:127,1,85.0000016212464,0|0,0:0|0:0,0:0:0:0:
166,133,159522,1,2,0:0:0:0:
240,97,159664,1,0,0:0:0:0:
250,17,159807,1,0,0:0:0:0:
99,18,159951,1,0,0:0:0:0:
250,17,160093,5,2,0:0:0:0:
240,97,160236,1,0,0:0:0:0:
166,133,160378,1,0,0:0:0:0:
324,99,160522,1,2,0:0:0:0:
314,179,160665,1,0,0:0:0:0:
240,215,160807,1,0,0:0:0:0:
88,176,160951,2,0,L|91:260,1,85.0000016212464,2|0,0:0|0:0,0:0:0:0:
348,196,161236,6,0,L|351:111,1,85.0000016212464,8|8,0:0|0:0,0:0:0:0:
256,96,161522,1,2,0:0:0:0:
402,124,161665,1,8,0:0:0:0:
441,110,161736,1,8,0:0:0:0:
458,73,161807,1,8,0:0:0:0:
443,34,161879,1,8,0:0:0:0:
405,19,161950,1,8,0:0:0:0:
256,96,162093,1,2,0:0:0:0:
356,84,162236,2,0,L|359:26,1,42.5000008106232,8|0,0:0|0:0,0:0:0:0:
256,96,162379,6,0,L|135:102,1,85.0000016212464,8|8,0:0|0:0,0:0:0:0:
340,100,162665,2,0,L|256:96,1,85.0000016212464,2|8,0:0|0:0,0:0:0:0:
49,256,162951,2,0,L|133:251,1,85.0000016212464,2|0,0:0|0:0,0:0:0:0:
287,205,163236,1,2,0:0:0:0:
244,202,163307,1,8,0:0:0:0:
202,200,163378,1,8,0:0:0:0:
159,198,163450,1,8,0:0:0:0:
329,125,163522,6,0,L|419:119,2,85.0000016212464,12|8|2,1:2|0:0|0:0,0:0:0:0:
193,159,163951,2,0,L|200:106,1,42.5000008106232,8|8,0:0|0:0,0:0:0:0:
265,108,164093,2,0,L|272:55,1,42.5000008106232,8|8,0:0|0:0,0:0:0:0:
338,58,164236,1,8,0:0:0:0:
210,52,164379,2,0,L|120:46,1,85.0000016212464,2|8,0:0|0:0,0:0:0:0:
250,282,164665,6,0,L|256:192,1,85.0000016212464,8|0,0:0|0:0,0:0:0:0:
117,165,164951,2,0,L|111:75,1,85.0000016212464,2|8,0:0|0:0,0:0:0:0:
228,93,165236,2,0,L|284:91,1,42.5000008106232,2|2,0:0|0:0,0:0:0:0:
200,160,165379,2,0,L|193:107,1,42.5000008106232,2|0,0:0|0:0,0:0:0:0:
270,91,165522,2,0,L|326:89,1,42.5000008106232,2|2,0:0|0:0,0:0:0:0:
384,83,165665,2,0,L|391:30,1,42.5000008106232,10|8,0:0|0:0,0:0:0:0:
183,260,165808,6,0,L|77:260,1,100,12|8,1:2|0:0,0:0:0:0:
300,263,166093,2,0,L|406:263,1,100,2|8,0:0|0:0,0:0:0:0:
347,211,166308,1,8,0:0:0:0:
496,162,166379,1,8,0:0:0:0:
446,162,166450,1,8,0:0:0:0:
396,162,166521,1,8,0:0:0:0:
156,146,166665,2,0,L|256:146,1,100,2|0,0:0|0:0,0:0:0:0:
203,94,166880,1,0,0:0:0:0:
356,146,166951,5,4,1:2:0:0:
106,146,167093,2,0,L|192:145,1,50,2|2,0:2|0:2,0:0:0:0:
356,146,167236,2,0,L|256:146,1,100,2|2,0:2|0:0,0:0:0:0:
463,352,167522,2,0,L|377:351,1,50,0|0,1:0|1:0,0:0:0:0:
256,192,167665,2,0,L|206:192,1,50,0|0,1:0|1:0,0:0:0:0:
356,146,167808,5,0,1:0:0:0:
386,135,167843,1,0,1:0:0:0:
395,104,167879,1,0,1:0:0:0:
375,79,167915,1,0,1:0:0:0:
249,61,167951,2,0,L|211:64,1,25,0|0,1:0|1:0,0:0:0:0:
98,114,168022,2,0,L|60:117,1,25,0|0,1:0|1:0,0:0:0:0:
375,79,168093,6,0,L|494:71,1,100,12|8,1:2|0:0,0:0:0:0:
256,192,168378,1,2,0:0:0:0:
475,72,168521,2,0,L|356:64,1,100,12|8,1:2|0:0,0:0:0:0:
137,65,168807,1,2,0:0:0:0:
375,79,168950,2,0,L|494:71,1,100,12|8,1:2|0:0,0:0:0:0:
224,256,169235,6,0,L|214:142,1,100,8|8,0:0|0:0,0:0:0:0:
347,326,169521,2,0,L|357:212,1,100,2|8,0:0|0:0,0:0:0:0:
224,167,169807,2,0,L|300:166,1,50,2|2,0:0|0:0,0:0:0:0:
344,122,169950,2,0,L|268:121,1,50,0|2,0:0|0:0,0:0:0:0:
115,128,170093,5,8,0:0:0:0:
72,109,170164,1,0,0:0:0:0:
70,61,170235,1,8,0:0:0:0:
111,39,170307,1,0,0:0:0:0:
274,166,170378,2,0,L|287:99,1,50,2|0,0:0|0:0,0:0:0:0:
132,89,170521,2,0,L|119:22,1,50,2|0,0:0|0:0,0:0:0:0:
193,33,170664,2,0,L|280:33,1,50,8|0,0:0|0:0,0:0:0:0:
92,192,170807,2,0,L|105:125,1,50,2|0,0:0|0:0,0:0:0:0:
273,166,170950,1,2,0:0:0:0:
283,118,171021,1,0,0:0:0:0:
254,79,171092,1,8,0:0:0:0:
205,74,171164,1,0,0:0:0:0:
357,271,171235,6,0,L|344:204,1,50,8|0,0:0|0:0,0:0:0:0:
277,216,171378,2,0,L|264:149,1,50,8|8,0:0|0:0,0:0:0:0:
407,153,171521,2,0,L|474:153,1,50,2|2,0:0|0:0,0:0:0:0:
277,216,171664,2,0,L|210:216,1,50,8|0,0:0|0:0,0:0:0:0:
418,275,171807,1,2,0:0:0:0:
450,265,171842,1,0,0:0:0:0:
472,240,171878,1,2,0:0:0:0:
477,208,171914,1,0,0:0:0:0:
466,177,171949,1,8,0:0:0:0:
440,157,171985,1,0,0:0:0:0:
407,153,172021,1,8,0:0:0:0:
256,192,172093,6,0,L|384:192,1,100,12|8,1:2|0:0,0:0:0:0:
118,152,172378,1,2,0:0:0:0:
356,192,172521,2,0,L|256:192,1,100,12|8,1:2|0:0,0:0:0:0:
496,298,172807,2,0,L|396:298,1,100,12|2,1:2|0:0,0:0:0:0:
116,298,173093,1,12,1:2:0:0:
320,288,173235,6,0,L|330:160,1,100,8|8,0:0|0:0,0:0:0:0:
192,288,173521,2,0,L|182:160,1,100,2|8,0:0|0:0,0:0:0:0:
328,188,173807,2,0,L|268:188,1,50,2|2,0:0|0:0,0:0:0:0:
210,143,173950,2,0,L|270:143,1,50,0|2,0:0|0:0,0:0:0:0:
439,143,174093,6,0,L|452:76,1,50,8|0,0:0|0:0,0:0:0:0:
295,82,174235,1,2,0:0:0:0:
356,73,174307,2,0,L|369:6,1,50,2|0,0:0|0:0,0:0:0:0:
210,143,174450,1,2,0:0:0:0:
271,134,174522,2,0,L|284:67,1,50,2|0,0:0|0:0,0:0:0:0:
127,26,174664,2,0,L|67:26,3,50,2|2|8|0,0:0|0:0|0:0|0:0,0:0:0:0:
241,134,174950,2,0,L|228:67,1,50,8|0,0:0|0:0,0:0:0:0:
161,87,175093,2,0,L|148:20,1,50,8|0,0:0|0:0,0:0:0:0:
336,32,175235,6,0,L|264:32,1,50,2|2,0:0|0:0,0:0:0:0:
127,26,175378,2,0,L|77:26,1,50,2|2,0:0|0:0,0:0:0:0:
256,192,175521,2,0,L|306:192,1,50,2|2,0:0|0:0,0:0:0:0:
96,352,175664,2,0,L|46:352,1,50,2|2,0:0|0:0,0:0:0:0:
256,192,175807,1,2,1:2:0:0:
395,193,175878,1,2,1:2:0:0:
256,192,175950,1,2,1:2:0:0:
395,193,176021,1,2,1:2:0:0:
137,79,176093,6,0,L|18:71,1,100,12|8,1:2|0:0,0:0:0:0:
256,192,176378,1,2,0:0:0:0:
37,72,176521,2,0,L|156:64,1,100,12|8,1:2|0:0,0:0:0:0:
375,65,176807,1,8,0:0:0:0:
137,79,176950,2,0,L|18:71,1,100,12|8,1:2|0:0,0:0:0:0:
310,114,177235,6,0,L|211:107,1,100,8|8,0:0|0:0,0:0:0:0:
416,192,177521,1,2,1:2:0:0:
478,185,177593,1,0,1:2:0:0:
416,192,177664,1,8,1:2:0:0:
478,185,177736,1,0,1:2:0:0:
288,192,177807,1,2,1:2:0:0:
257,186,177842,1,0,0:0:0:0:
247,156,177878,1,2,1:2:0:0:
267,132,177914,1,0,0:0:0:0:
379,107,177950,1,2,1:2:0:0:
410,101,177985,1,0,0:0:0:0:
421,71,178021,1,2,1:2:0:0:
400,47,178057,1,0,0:0:0:0:
267,132,178093,6,0,L|192:132,2,50,4|0|0,1:3|0:0|0:0,0:0:0:0:
118,270,178307,2,0,L|43:270,2,50,4|0|0,1:3|0:0|0:0,0:0:0:0:
267,132,178521,2,0,L|342:132,1,50,4|0,1:3|0:0,0:0:0:0:
244,77,178664,2,0,L|231:10,1,50,8|0,0:0|0:0,0:0:0:0:
386,303,178807,2,0,L|311:303,1,50,4|0,1:3|0:0,0:0:0:0:
126,303,178950,2,0,L|201:303,1,50,4|0,1:3|0:0,0:0:0:0:
357,209,179093,1,4,1:2:0:0:
307,209,179164,1,0,0:0:0:0:
257,209,179235,5,0,0:0:0:0:
207,209,179307,1,0,0:0:0:0:
384,294,179378,1,4,1:3:0:0:
445,285,179450,2,0,L|458:218,1,50,0|0,0:0|0:0,0:0:0:0:
257,209,179593,2,0,L|244:142,1,50,4|0,1:3|0:0,0:0:0:0:
416,97,179735,2,0,L|403:30,1,50,4|0,1:3|0:0,0:0:0:0:
256,32,179878,1,4,1:3:0:0:
106,47,179950,1,4,1:3:0:0:
86,73,179985,1,0,1:3:0:0:
92,105,180021,1,0,1:3:0:0:
119,122,180057,1,0,1:3:0:0:
257,209,180093,6,0,L|345:208,1,50,0|0,1:3|0:0,0:0:0:0:
168,153,180235,1,0,1:3:0:0:
27,130,180307,1,0,1:3:0:0:
225,277,180378,2,0,L|238:210,1,50,4|0,1:3|0:0,0:0:0:0:
70,140,180521,2,0,L|83:73,1,50,4|0,1:3|0:0,0:0:0:0:
226,75,180664,1,0,1:3:0:0:
371,190,180735,2,0,L|358:123,1,50,4|0,1:3|0:0,0:0:0:0:
203,142,180878,1,0,1:3:0:0:
44,160,180950,2,0,L|132:159,1,50,4|0,1:3|0:0,0:0:0:0:
322,190,181093,2,0,L|410:189,1,50,4|0,1:3|0:0,0:0:0:0:
202,263,181235,6,0,L|114:262,1,50,0|0,1:3|1:3,0:0:0:0:
347,298,181378,1,4,1:3:0:0:
366,271,181413,1,0,1:3:0:0:
358,240,181449,1,0,1:3:0:0:
329,226,181485,1,0,1:3:0:0:
216,224,181521,1,0,1:3:0:0:
72,216,181593,1,4,1:3:0:0:
54,189,181628,1,0,1:3:0:0:
62,158,181664,1,0,1:3:0:0:
91,144,181700,1,0,1:3:0:0:
203,142,181736,1,0,1:3:0:0:
347,129,181807,2,0,L|415:122,1,50,4|0,1:3|0:0,0:0:0:0:
207,37,181950,2,0,L|256:32,1,50,4|0,1:3|0:0,0:0:0:0:
397,123,182093,5,0,1:3:0:0:
257,31,182164,1,0,1:3:0:0:
115,123,182235,1,4,1:3:0:0:
97,96,182270,1,0,1:3:0:0:
105,65,182306,1,0,1:3:0:0:
134,51,182342,1,0,1:3:0:0:
257,31,182378,2,0,L|306:26,1,50,0|0,1:3|1:3,0:0:0:0:
113,187,182521,1,4,1:3:0:0:
94,160,182556,1,0,1:3:0:0:
102,129,182592,1,0,1:3:0:0:
131,115,182628,1,0,1:3:0:0:
244,113,182664,5,4,1:3:0:0:
388,105,182736,1,0,1:3:0:0:
406,78,182771,1,0,1:3:0:0:
398,47,182807,1,4,1:3:0:0:
369,33,182843,1,0,1:3:0:0:
257,31,182879,1,0,1:3:0:0:
113,22,182950,2,0,L|184:21,1,50,0|0,1:3|0:0,0:0:0:0:
399,22,183093,2,0,L|328:21,1,50,0|0,1:3|1:3,0:0:0:0:
66,202,183235,6,0,L|16:202,1,50,4|4,1:3|1:3,0:0:0:0:
160,136,183378,2,0,L|209:137,1,50,4|4,1:3|1:3,0:0:0:0:
352,137,183521,2,0,L|302:137,1,50,4|4,1:3|1:3,0:0:0:0:
446,202,183664,2,0,L|496:202,1,50,4|4,1:3|1:3,0:0:0:0:
256,192,183807,5,4,1:3:0:0:
114,170,183878,1,4,1:3:0:0:
256,192,183950,1,4,1:3:0:0:
398,213,184021,1,4,1:3:0:0:
158,251,184093,1,4,1:3:0:0:
16,272,184164,1,4,1:3:0:0:
158,251,184235,1,4,1:3:0:0:
16,272,184306,1,4,1:3:0:0:
256,192,184378,6,0,L|461:191,1,200,4|2,1:2|0:0,0:0:0:0:
156,191,185520,2,0,L|477:190,1,300,2|2,0:0|0:0,0:0:0:0:
309,355,186663,6,0,P|106:188|311:18,1,600,6|2,0:0|0:0,0:0:0:0:
83,43,188949,6,0,L|13:43,3,50,6|0|0|0,0:0|0:0|0:0|0:0,0:0:0:0:
108,96,189520,2,0,L|178:96,3,50,2|0|0|0,0:0|0:0|0:0|0:0,0:0:0:0:
234,162,190092,6,0,L|164:162,2,50,2|0|0,0:0|0:0|0:0,0:0:0:0:
309,209,190520,2,0,L|239:209,2,50,2|0|0,0:0|0:0|0:0,0:0:0:0:
203,209,190949,1,2,0:0:0:0:
429,43,191235,6,0,L|499:43,3,50,6|0|0|0,0:0|0:0|0:0|0:0,0:0:0:0:
404,96,191806,2,0,L|334:96,3,50,2|0|0|0,0:0|0:0|0:0|0:0,0:0:0:0:
278,162,192378,6,0,L|348:162,2,50,2|0|0,0:0|0:0|0:0,0:0:0:0:
203,209,192806,2,0,L|273:209,2,50,2|0|0,0:0|0:0|0:0,0:0:0:0:
309,209,193235,1,2,0:0:0:0:
203,209,193378,1,0,0:0:0:0:
352,288,193520,6,0,P|417:240|342:175,1,200,6|2,0:0|0:0,0:0:0:0:
106,152,194663,2,0,L|406:152,1,300,2|2,0:0|0:0,0:0:0:0:
256,384,195806,6,0,P|158:384|128:3,1,600,6|2,0:0|0:0,0:0:0:0:
429,43,198092,6,0,L|499:43,3,50,6|0|0|0,0:0|0:0|0:0|0:0,0:0:0:0:
404,96,198663,2,0,L|334:96,3,50,2|0|0|0,0:0|0:0|0:0|0:0,0:0:0:0:
278,162,199235,6,0,L|348:162,2,50,2|0|0,0:0|0:0|0:0,0:0:0:0:
203,209,199663,2,0,L|273:209,2,50,2|0|0,0:0|0:0|0:0,0:0:0:0:
309,209,200092,1,2,0:0:0:0:
83,43,200378,6,0,L|13:43,3,50,6|0|0|0,0:0|0:0|0:0|0:0,0:0:0:0:
108,96,200949,2,0,L|178:96,3,50,2|0|0|0,0:0|0:0|0:0|0:0,0:0:0:0:
234,162,201521,6,0,L|164:162,2,50,2|0|0,0:0|0:0|0:0,0:0:0:0:
309,209,201949,2,0,L|239:209,2,50,2|0|0,0:0|0:0|0:0,0:0:0:0:
203,209,202378,1,2,0:0:0:0:
309,209,202521,1,0,0:0:0:0:
74,364,202663,6,0,P|34:317|86:242,1,150.000005722046,4|0,1:2|0:0,0:0:0:0:
256,192,203235,2,0,P|296:145|244:70,1,150.000005722046,2|0,0:0|0:0,0:0:0:0:
71,246,203806,2,0,L|231:246,2,150.000005722046,10|0|0,0:0|0:0|0:0,0:0:0:0:
256,256,204663,1,2,0:0:0:0:
441,246,204949,6,0,L|281:246,3,150.000005722046,6|0|0|0,1:2|0:0|0:0|0:0,0:0:0:0:
467,357,206092,2,0,P|501:294|461:222,1,150.000005722046,8|0,0:0|0:0,0:0:0:0:
256,160,206663,1,2,0:0:0:0:
496,66,206949,1,0,1:2:0:0:
256,160,207235,5,6,1:2:0:0:
191,131,207377,1,0,0:0:0:0:
189,60,207520,1,0,0:0:0:0:
252,27,207663,1,0,0:0:0:0:
364,252,207806,1,2,0:0:0:0:
430,223,207948,1,0,0:0:0:0:
432,152,208091,1,0,0:0:0:0:
369,119,208234,1,0,0:0:0:0:
216,125,208378,6,0,L|122:125,2,75.0000028610231,10|0|0,0:0|0:0|0:0,0:0:0:0:
103,190,208806,1,2,0:0:0:0:
101,119,208949,1,0,0:0:0:0:
164,86,209092,1,0,0:0:0:0:
47,64,209235,1,2,0:0:0:0:
256,160,209520,5,6,1:2:0:0:
322,131,209663,1,0,0:0:0:0:
324,60,209806,1,0,0:0:0:0:
261,27,209948,1,0,0:0:0:0:
148,252,210092,1,2,0:0:0:0:
82,223,210235,1,0,0:0:0:0:
80,152,210378,1,0,0:0:0:0:
143,119,210520,1,0,0:0:0:0:
296,125,210663,6,0,L|390:125,2,75.0000028610231,10|0|0,0:0|0:0|0:0,0:0:0:0:
409,190,211091,1,2,0:0:0:0:
411,119,211234,1,0,0:0:0:0:
348,86,211377,1,0,0:0:0:0:
465,64,211520,2,0,L|472:9,1,37.5000014305115,2|0,1:2|1:0,0:0:0:0:
394,91,211663,2,0,L|401:36,1,37.5000014305115,0|0,1:0|1:0,0:0:0:0:
256,32,211806,6,0,P|207:86|275:121,1,150.000005722046,6|0,1:2|0:0,0:0:0:0:
448,160,212378,1,2,0:0:0:0:
192,192,212663,1,0,1:2:0:0:
448,160,212949,2,0,L|288:160,2,150.000005722046,10|0|0,0:0|0:0|0:0,0:0:0:0:
160,160,213806,1,2,1:2:0:0:
448,160,214092,6,0,P|489:96|434:40,1,150.000005722046,6|0,1:2|0:0,0:0:0:0:
305,53,214520,2,0,L|480:64,1,150.000005722046,0|0,1:0|0:0,0:0:0:0:
307,126,214949,2,0,L|221:118,1,75.0000028610231,0|0,1:0|0:0,0:0:0:0:
113,103,215235,1,8,0:0:0:0:
381,288,215520,1,0,1:0:0:0:
131,288,215806,2,0,P|81:236|153:199,1,150.000005722046,2|0,0:0|1:0,0:0:0:0:
174,186,216163,1,0,1:0:0:0:
222,173,216235,1,0,1:0:0:0:
174,186,216306,1,0,1:0:0:0:
344,280,216378,5,6,1:2:0:0:
340,206,216520,1,0,0:0:0:0:
294,148,216663,1,0,0:0:0:0:
223,128,216806,1,0,0:0:0:0:
349,127,216949,2,0,L|354:35,1,75.0000028610231,2|0,0:0|0:0,0:0:0:0:
197,255,217235,2,0,L|192:163,1,75.0000028610231,0|0,1:0|0:0,0:0:0:0:
311,182,217520,6,0,L|212:178,2,75.0000028610231,10|0|0,0:0|0:0|0:0,0:0:0:0:
439,319,217949,2,0,L|340:315,2,75.0000028610231,2|0|0,0:0|0:0|0:0,0:0:0:0:
288,320,218378,1,2,1:2:0:0:
115,341,218663,6,0,L|107:255,1,75.0000028610231,6|0,1:2|0:0,0:0:0:0:
200,230,218949,1,0,0:0:0:0:
343,153,219092,1,0,1:0:0:0:
269,148,219234,1,2,0:0:0:0:
194,144,219377,1,0,0:0:0:0:
337,68,219520,2,0,L|444:75,1,75.0000028610231,0|0,1:0|0:0,0:0:0:0:
251,150,219806,5,10,0:0:0:0:
16,291,220092,1,0,1:0:0:0:
256,352,220378,2,0,P|305:299|242:269,1,150.000005722046,8|2,0:0|1:2,0:0:0:0:
190,272,220735,1,0,1:2:0:0:
256,264,220806,1,0,1:2:0:0:
190,272,220878,1,0,1:2:0:0:
397,366,220949,6,0,L|406:249,1,100,6|0,1:2|0:0,0:0:0:0:
257,234,221235,2,0,L|248:117,1,100,10|0,0:0|0:0,0:0:0:0:
476,124,221520,1,2,1:2:0:0:
341,104,221663,1,2,0:0:0:0:
476,124,221806,2,0,L|485:7,1,100,10|0,0:0|0:0,0:0:0:0:
223,115,222092,6,0,L|440:108,1,200,2|10,1:2|0:0,0:0:0:0:
304,60,222520,1,2,0:0:0:0:
80,111,222663,2,0,L|195:99,2,100,2|2|10,1:2|0:0|0:0,0:0:0:0:
238,262,223092,2,0,L|242:210,1,50,0|0,0:0|0:0,0:0:0:0:
73,199,223235,6,0,L|63:82,1,100,2|0,1:2|0:0,0:0:0:0:
209,69,223520,2,0,L|79:50,1,100,10|0,0:0|0:0,0:0:0:0:
346,268,223806,1,2,1:2:0:0:
236,239,223949,1,2,0:0:0:0:
368,369,224092,2,0,L|378:252,1,100,10|0,0:0|0:0,0:0:0:0:
149,258,224378,6,0,L|373:241,1,200,2|10,1:2|0:0,0:0:0:0:
201,260,224806,1,2,0:0:0:0:
415,159,224949,2,0,L|305:152,1,100,2|2,1:2|0:0,0:0:0:0:
97,159,225235,2,0,L|207:152,1,100,10|2,0:0|0:0,0:0:0:0:
475,320,225520,6,0,L|481:203,1,100,2|0,1:2|0:0,0:0:0:0:
345,211,225806,2,0,L|351:94,1,100,10|0,0:0|0:0,0:0:0:0:
124,208,226092,2,0,L|118:91,1,100,2|2,1:2|0:0,0:0:0:0:
254,99,226378,2,0,L|248:-18,1,100,10|0,0:0|0:0,0:0:0:0:
25,33,226663,6,0,L|167:28,3,100,2|0|10|2,1:2|0:0|0:0|0:0,0:0:0:0:
352,224,227235,2,0,L|246:233,1,100,2|2,1:2|0:0,0:0:0:0:
25,33,227520,1,10,0:0:0:0:
170,157,227663,2,0,L|174:105,1,50,0|0,0:0|0:0,0:0:0:0:
37,320,227806,6,0,L|31:203,1,100,2|0,1:2|0:0,0:0:0:0:
167,211,228092,2,0,L|161:94,1,100,10|0,0:0|0:0,0:0:0:0:
388,208,228378,2,0,L|394:91,1,100,2|2,1:2|0:0,0:0:0:0:
258,99,228664,2,0,L|264:-18,1,100,10|0,0:0|0:0,0:0:0:0:
487,33,228949,6,0,L|345:28,3,100,2|0|10|2,1:2|0:0|0:0|0:0,0:0:0:0:
160,224,229521,2,0,L|266:233,1,100,2|2,1:2|0:0,0:0:0:0:
487,33,229806,1,10,0:0:0:0:
342,157,229949,2,0,L|338:105,1,50,2|0,0:0|0:0,0:0:0:0:
169,87,230092,6,0,L|59:89,1,100,6|0,1:2|0:0,0:0:0:0:
203,218,230378,2,0,L|93:220,1,100,10|0,0:0|0:0,0:0:0:0:
334,336,230663,1,2,1:2:0:0:
464,322,230806,1,2,0:0:0:0:
334,336,230949,2,0,L|444:338,1,100,10|0,0:0|0:0,0:0:0:0:
212,308,231235,6,0,P|151:272|236:199,1,200,2|10,1:2|0:0,0:0:0:0:
354,195,231663,1,2,0:0:0:0:
114,190,231806,2,0,L|235:191,1,100,2|2,1:2|0:0,0:0:0:0:
65,191,232092,2,0,L|55:80,1,100,10|0,0:0|0:0,0:0:0:0:
110,78,232306,1,0,0:0:0:0:
286,70,232378,6,0,L|178:71,1,100,2|0,1:2|0:0,0:0:0:0:
312,126,232663,2,0,L|420:127,1,100,10|0,0:0|0:0,0:0:0:0:
206,154,232949,1,2,1:2:0:0:
327,154,233092,1,2,0:0:0:0:
180,210,233235,2,0,L|72:211,1,100,10|0,0:0|0:0,0:0:0:0:
339,314,233520,6,0,P|337:256|196:211,1,200,2|10,1:2|0:0,0:0:0:0:
100,208,233949,1,2,0:0:0:0:
337,186,234092,2,0,L|352:82,1,100,2|2,1:2|0:0,0:0:0:0:
143,104,234378,2,0,L|128:0,1,100,10|2,0:0|0:0,0:0:0:0:
366,69,234663,6,0,L|244:69,1,100,2|0,1:2|0:0,0:0:0:0:
129,108,234949,2,0,L|229:108,1,100,10|0,0:0|0:0,0:0:0:0:
472,297,235235,2,0,L|350:297,1,100,2|2,1:2|0:0,0:0:0:0:
235,336,235521,2,0,L|335:336,1,100,10|0,0:0|0:0,0:0:0:0:
96,269,235806,6,0,L|196:269,3,100,2|0|10|2,1:2|0:0|0:0|0:0,0:0:0:0:
413,208,236378,2,0,L|273:208,1,100,2|2,1:2|0:0,0:0:0:0:
447,111,236663,1,10,0:0:0:0:
331,113,236806,2,0,L|240:114,1,50,0|0,0:0|0:0,0:0:0:0:
146,69,236949,6,0,L|268:69,1,100,2|0,1:2|0:0,0:0:0:0:
383,108,237235,2,0,L|283:108,1,100,10|0,0:0|0:0,0:0:0:0:
40,297,237521,2,0,L|162:297,1,100,2|2,1:2|0:0,0:0:0:0:
277,336,237807,2,0,L|177:336,1,100,10|0,0:0|0:0,0:0:0:0:
416,269,238092,6,0,L|316:269,3,100,2|0|10|2,1:2|0:0|0:0|0:0,0:0:0:0:
99,208,238664,2,0,L|239:208,1,100,2|2,1:2|0:0,0:0:0:0:
65,111,238949,1,10,0:0:0:0:
181,113,239092,2,0,L|272:114,1,50,2|0,0:0|0:0,0:0:0:0:
438,172,239235,5,4,1:2:0:0:
482,108,239520,1,2,0:0:0:0:
454,37,239806,1,2,0:0:0:0:
379,20,240092,1,2,0:0:0:0:
256,64,240378,1,2,0:0:0:0:
181,84,240663,1,2,0:0:0:0:
136,148,240949,1,2,0:0:0:0:
144,226,241235,1,2,0:0:0:0:
369,226,241520,5,2,0:0:0:0:
377,148,241806,1,2,0:0:0:0:
332,84,242092,1,2,0:0:0:0:
256,64,242377,1,2,0:0:0:0:
134,20,242663,1,2,0:0:0:0:
59,37,242949,1,2,0:0:0:0:
31,108,243235,1,2,0:0:0:0:
74,172,243520,1,2,0:0:0:0:
366,255,243806,5,6,0:0:0:0:
371,215,243948,1,0,0:0:0:0:
376,175,244091,1,0,0:0:0:0:
380,135,244234,1,0,0:0:0:0:
262,192,244378,1,2,0:0:0:0:
258,152,244520,1,0,0:0:0:0:
253,112,244663,1,0,0:0:0:0:
249,72,244806,1,0,0:0:0:0:
132,135,244949,5,2,0:0:0:0:
136,175,245092,1,0,0:0:0:0:
141,215,245235,1,0,0:0:0:0:
256,223,245378,1,2,0:0:0:0:
261,183,245521,1,0,0:0:0:0:
265,143,245664,1,0,0:0:0:0:
380,135,245806,1,2,0:0:0:0:
146,255,246092,5,2,0:0:0:0:
141,215,246234,1,0,0:0:0:0:
136,175,246377,1,0,0:0:0:0:
132,135,246520,1,0,0:0:0:0:
250,192,246664,1,2,0:0:0:0:
254,152,246806,1,0,0:0:0:0:
259,112,246949,1,0,0:0:0:0:
263,72,247092,1,0,0:0:0:0:
380,135,247235,5,2,0:0:0:0:
376,175,247378,1,0,0:0:0:0:
371,215,247521,1,0,0:0:0:0:
256,223,247664,1,2,0:0:0:0:
251,183,247807,1,0,0:0:0:0:
247,143,247950,1,0,0:0:0:0:
132,135,248092,1,2,0:0:0:0:
136,175,248235,1,0,0:0:0:0:
256,320,248378,5,6,0:0:0:0:
270,243,248663,1,2,0:0:0:0:
226,179,248949,1,2,0:0:0:0:
149,165,249235,1,2,0:0:0:0:
256,160,249520,1,2,0:0:0:0:
332,139,249805,1,2,0:0:0:0:
371,71,250091,1,2,0:0:0:0:
352,0,250377,1,2,0:0:0:0:
161,0,250663,5,2,0:0:0:0:
142,71,250949,1,2,0:0:0:0:
181,139,251235,1,2,0:0:0:0:
256,160,251520,1,2,0:0:0:0:
364,165,251805,1,2,0:0:0:0:
287,179,252091,1,2,0:0:0:0:
243,243,252377,1,2,0:0:0:0:
256,320,252662,1,2,0:0:0:0:
431,368,252949,6,0,P|239:219|431:69,1,560,6|2,0:0|0:0,0:0:0:0:
192,64,255235,5,2,0:0:0:0:
256,192,255378,12,0,260663,0:0:0:0:
171,337,260949,6,0,P|147:279|181:128,1,200,0|0,0:0|0:0,0:0:0:0:
341,337,261520,2,0,P|365:279|331:128,1,200,0|0,0:0|0:0,0:0:0:0:
133,283,262092,6,0,P|109:225|143:74,1,200,0|0,0:0|0:0,0:0:0:0:
379,283,262663,2,0,P|403:225|369:74,1,200,0|0,0:0|0:0,0:0:0:0:
94,244,263235,6,0,P|90:137|169:80,1,200,0|0,0:0|0:0,0:0:0:0:
418,244,263806,2,0,P|422:137|343:80,1,200,0|0,0:0|0:0,0:0:0:0:
69,222,264378,6,0,L|61:87,1,100,2|2,0:2|2:0,0:0:0:0:
174,120,264663,2,0,L|166:-15,1,100,2|2,0:2|2:0,0:0:0:0:
307,39,264949,1,2,0:2:0:0:
368,112,265091,1,2,2:0:0:0:
346,206,265234,1,2,0:2:0:0:
257,244,265377,1,2,2:0:0:0:
396,332,265520,6,0,L|404:197,2,100,2|2|2,0:2|2:0|0:2,0:0:0:0:
256,192,265949,2,0,L|248:57,2,100,2|2|2,2:0|0:2|2:0,0:0:0:0:
377,195,266378,1,2,0:2:0:0:
496,195,266520,1,2,2:0:0:0:
256,192,266663,5,2,0:2:0:0:
143,170,266806,1,2,0:2:0:0:
256,192,266949,1,2,0:2:0:0:
30,148,267092,1,2,0:2:0:0:
369,214,267235,1,2,0:2:0:0:
256,192,267378,1,2,0:2:0:0:
143,170,267520,1,2,0:2:0:0:
369,214,267663,1,2,0:2:0:0:
143,214,267806,5,2,0:2:0:0:
256,192,267949,1,2,0:2:0:0:
143,214,268092,1,2,0:2:0:0:
369,214,268235,1,2,0:2:0:0:
256,192,268378,1,2,0:2:0:0:
369,214,268521,1,2,0:2:0:0:
143,214,268663,1,2,0:2:0:0:
369,214,268806,1,2,0:2:0:0:
143,170,268949,5,2,0:2:0:0:
256,192,269092,1,2,0:2:0:0:
482,148,269235,1,2,0:2:0:0:
256,192,269378,1,2,0:2:0:0:
482,148,269520,1,2,0:2:0:0:
369,170,269663,1,2,0:2:0:0:
143,170,269806,1,2,0:2:0:0:
369,170,269949,1,2,0:2:0:0:
143,170,270092,5,2,0:2:0:0:
256,192,270235,1,2,0:2:0:0:
30,148,270378,1,2,0:2:0:0:
256,192,270520,1,2,0:2:0:0:
143,214,270663,1,2,0:2:0:0:
369,170,270806,1,2,0:2:0:0:
143,170,270949,1,2,0:2:0:0:
369,170,271092,1,2,0:2:0:0:
74,357,271235,6,0,L|63:292,1,55.0000016784668,2|0,0:2|0:0,0:0:0:0:
256,192,271378,2,0,L|267:127,1,55.0000016784668,2|0,0:2|0:0,0:0:0:0:
32,128,271520,2,0,L|128:128,1,55.0000016784668,2|0,0:2|0:0,0:0:0:0:
288,64,271663,2,0,L|343:64,1,55.0000016784668,2|0,0:2|0:0,0:0:0:0:
142,128,271806,6,0,L|87:128,1,55.0000016784668,2|0,0:2|0:0,0:0:0:0:
297,118,271949,2,0,L|286:53,1,55.0000016784668,2|0,0:2|0:0,0:0:0:0:
151,182,272092,2,0,L|140:117,1,55.0000016784668,2|0,0:2|0:0,0:0:0:0:
370,128,272235,2,0,L|425:128,1,55.0000016784668,2|0,0:2|0:0,0:0:0:0:
192,320,272378,6,0,L|247:320,1,55.0000016784668,2|0,0:2|0:0,0:0:0:0:
448,320,272520,2,0,L|437:255,1,55.0000016784668,2|0,0:2|0:0,0:0:0:0:
256,320,272663,2,0,L|245:255,1,55.0000016784668,2|0,0:2|0:0,0:0:0:0:
502,265,272806,2,0,L|447:265,1,55.0000016784668,2|0,0:2|0:0,0:0:0:0:
246,265,272948,6,0,L|257:200,1,55.0000016784668,2|0,0:2|0:0,0:0:0:0:
438,265,273091,2,0,L|449:200,1,55.0000016784668,2|0,0:2|0:0,0:0:0:0:
204,180,273235,2,0,L|149:180,1,55.0000016784668,2|0,0:2|0:0,0:0:0:0:
363,180,273378,2,0,L|308:180,1,55.0000016784668,2|0,0:2|0:0,0:0:0:0:
149,180,273520,5,2,0:2:0:0:
130,150,273555,1,0,0:0:0:0:
143,117,273591,1,0,0:0:0:0:
177,108,273627,1,0,0:0:0:0:
363,180,273663,1,2,0:2:0:0:
381,150,273698,1,0,0:0:0:0:
368,117,273734,1,0,0:0:0:0:
334,108,273770,1,0,0:0:0:0:
130,150,273806,5,2,0:2:0:0:
111,120,273841,1,0,0:0:0:0:
124,87,273877,1,0,0:0:0:0:
158,78,273913,1,0,0:0:0:0:
382,150,273949,1,2,0:2:0:0:
401,120,273984,1,0,0:0:0:0:
388,87,274020,1,0,0:0:0:0:
354,78,274056,1,0,0:0:0:0:
111,120,274092,5,2,0:2:0:0:
86,114,274109,1,0,0:0:0:0:
68,97,274127,1,0,0:0:0:0:
61,73,274145,1,0,0:0:0:0:
67,49,274163,1,0,0:0:0:0:
84,31,274181,1,0,0:0:0:0:
108,25,274199,1,0,0:0:0:0:
334,108,274234,5,2,0:2:0:0:
359,102,274253,1,0,0:0:0:0:
377,85,274269,1,0,0:0:0:0:
384,61,274288,1,0,0:0:0:0:
378,37,274305,1,0,0:0:0:0:
361,19,274323,1,0,0:0:0:0:
337,13,274341,1,0,0:0:0:0:
178,108,274377,5,2,0:2:0:0:
153,102,274394,1,0,0:0:0:0:
135,85,274412,1,0,0:0:0:0:
128,61,274430,1,0,0:0:0:0:
134,37,274448,1,0,0:0:0:0:
151,19,274466,1,0,0:0:0:0:
175,13,274484,1,0,0:0:0:0:
401,120,274520,5,2,0:2:0:0:
426,114,274537,1,0,0:0:0:0:
444,97,274555,1,0,0:0:0:0:
451,73,274573,1,0,0:0:0:0:
445,49,274591,1,0,0:0:0:0:
428,31,274609,1,0,0:0:0:0:
404,25,274627,1,0,0:0:0:0:
176,13,274663,5,0,0:0:0:0:
401,120,274806,2,0,L|334:119,1,55.0000016784668,2|2,2:0|2:0,0:0:0:0:
111,120,274949,2,0,L|257:121,1,110.000003356934,2|2,2:0|2:0,0:0:0:0:
496,192,275235,6,0,L|496:128,1,55.0000016784668,2|2,2:0|2:0,0:0:0:0:
335,192,275378,2,0,L|335:137,1,55.0000016784668,2|2,2:0|2:0,0:0:0:0:
177,192,275520,2,0,L|177:128,1,55.0000016784668,2|2,2:0|2:0,0:0:0:0:
16,192,275663,2,0,L|16:137,1,55.0000016784668,2|2,2:0|2:0,0:0:0:0:
256,96,275806,6,0,L|377:96,1,110.000003356934,6|0,0:2|0:0,0:0:0:0:
126,192,276092,2,0,L|5:192,1,110.000003356934,0|0,0:0|0:0,0:0:0:0:
256,96,276378,1,2,0:2:0:0:
128,96,276520,1,2,0:2:0:0:
384,96,276663,1,2,0:2:0:0:
128,96,276806,1,2,0:2:0:0:
384,96,276949,6,0,L|263:96,1,110.000003356934,2|0,0:2|0:0,0:0:0:0:
496,192,277235,2,0,L|375:192,1,110.000003356934,0|0,0:0|0:0,0:0:0:0:
163,71,277520,1,2,0:2:0:0:
291,71,277662,1,2,0:2:0:0:
35,71,277806,1,6,0:2:0:0:
291,71,277949,2,0,L|205:71,1,55.0000016784668,2|0,0:2|0:0,0:0:0:0:
389,192,278092,6,0,L|495:192,1,106.70000173394,6|0,0:2|0:0,0:0:0:0:
123,192,278370,2,0,L|17:192,1,106.70000173394,0|0,0:0|0:0,0:0:0:0:
256,192,278648,1,2,0:2:0:0:
143,192,278788,1,2,0:2:0:0:
369,192,278927,1,2,0:2:0:0:
143,192,279066,1,2,0:2:0:0:
369,192,279205,6,0,L|475:192,1,106.70000173394,6|0,0:2|0:0,0:0:0:0:
143,192,279484,2,0,L|36:192,1,106.70000173394
360,123,279762,1,6,0:2:0:0:
152,123,279901,1,2,0:2:0:0:
416,192,280040,2,0,L|512:192,1,53.3500008669701,2|0,0:2|0:0,0:0:0:0:
229,192,280180,2,0,L|282:192,1,53.3500008669701,2|0,0:2|0:0,0:0:0:0:
43,192,280319,6,0,L|43:72,1,104.50000099659,6|0,0:2|0:0,0:0:0:0:
469,192,280590,2,0,L|469:72,1,104.50000099659,0|0,0:0|0:0,0:0:0:0:
256,96,280861,1,2,0:2:0:0:
382,96,280997,1,2,0:2:0:0:
130,96,281133,1,2,0:2:0:0:
382,96,281269,1,2,0:2:0:0:
32,192,281404,6,0,L|160:192,1,104.50000099659,6|0,0:2|0:0,0:0:0:0:
480,192,281676,2,0,L|376:192,1,104.50000099659,0|0,0:0|0:0,0:0:0:0:
137,192,281947,1,2,0:2:0:0:
256,192,282083,1,2,0:2:0:0:
18,192,282219,1,6,0:2:0:0:
308,191,282355,2,0,L|255:191,1,52.2500004982948,2|0,0:2|0:0,0:0:0:0:
457,191,282490,6,0,L|329:191,1,104.50000099659,6|0,0:2|0:0,0:0:0:0:
55,191,282762,2,0,L|183:191,1,104.50000099659,0|0,0:0|0:0,0:0:0:0:
384,128,283033,1,6,0:2:0:0:
128,128,283169,1,2,0:2:0:0:
352,96,283305,2,0,L|448:96,1,52.2500004982948,2|0,0:2|0:0,0:0:0:0:
108,96,283441,2,0,L|160:96,1,52.2500004982948,2|0,0:2|0:0,0:0:0:0:
372,189,283576,6,0,L|404:93,1,68.9333327758586,4|0,0:3|2:0,0:0:0:0:
222,127,283754,2,0,L|291:127,1,68.9333327758586,4|0,0:3|2:0,0:0:0:0:
117,108,283933,2,0,L|149:12,1,68.9333327758586,4|0,0:3|2:0,0:0:0:0:
416,188,284111,6,0,L|395:122,1,68.9333327758586,4|0,0:3|2:0,0:0:0:0:
222,127,284289,2,0,L|318:127,1,68.9333327758586,4|0,0:3|2:0,0:0:0:0:
117,108,284468,2,0,L|96:173,1,68.9333327758586,4|0,0:3|2:0,0:0:0:0:
333,188,284647,6,0,L|318:128,1,51.1500008741455,6|0,1:2|0:0,0:0:0:0:
252,125,284779,2,0,L|183:125,1,51.1500008741455,0|0,1:0|0:0,0:0:0:0:
399,292,284912,2,0,L|384:232,1,51.1500008741455,0|0,1:0|0:0,0:0:0:0:
318,229,285044,2,0,L|249:229,1,51.1500008741455,0|0,1:0|0:0,0:0:0:0:
465,380,285177,6,0,L|480:320,1,51.1500008741455,2|0,1:2|0:0,0:0:0:0:
267,229,285310,2,0,L|252:169,1,51.1500008741455,2|0,1:2|0:0,0:0:0:0:
462,74,285443,2,0,L|393:74,1,51.1500008741455,2|0,1:2|0:0,0:0:0:0:
192,160,285576,2,0,L|141:160,1,51.1500008741455,2|0,1:2|0:0,0:0:0:0:
360,262,285708,6,0,L|373:311,1,51.1500008741455,6|0,1:2|0:0,0:0:0:0:
303,337,285841,2,0,L|234:337,1,51.1500008741455,0|0,1:2|0:0,0:0:0:0:
54,140,285974,2,0,L|42:189,1,51.1500008741455,0|0,1:2|0:0,0:0:0:0:
111,215,286107,2,0,L|180:215,1,51.1500008741455,0|0,1:2|0:0,0:0:0:0:
360,262,286239,6,0,L|373:311,1,51.1500008741455,6|0,1:2|0:0,0:0:0:0:
152,75,286372,2,0,L|204:75,1,51.1500008741455,2|0,1:2|0:0,0:0:0:0:
400,163,286505,2,0,L|452:163,1,51.1500008741455,6|0,1:2|0:0,0:0:0:0:
242,127,286638,2,0,L|191:127,1,51.1500008741455,2|0,1:2|1:0,0:0:0:0:
360,262,286770,6,0,L|373:311,1,49.499999848938,6|0,1:2|0:0,0:0:0:0:
303,337,286898,2,0,L|234:337,1,49.499999848938,0|0,1:2|0:0,0:0:0:0:
420,134,287027,2,0,L|433:183,1,49.499999848938,0|0,1:2|0:0,0:0:0:0:
363,209,287156,2,0,L|294:209,1,49.499999848938,0|0,1:2|0:0,0:0:0:0:
483,240,287285,6,0,L|496:289,1,49.499999848938,2|0,1:2|0:0,0:0:0:0:
283,187,287413,2,0,L|270:236,1,49.499999848938,2|0,1:2|0:0,0:0:0:0:
462,53,287542,2,0,L|393:53,1,49.499999848938,2|0,1:2|0:0,0:0:0:0:
204,186,287671,2,0,L|273:186,1,49.499999848938,2|0,1:2|0:0,0:0:0:0:
410,53,287800,6,0,L|397:102,1,49.499999848938,6|0,1:2|0:0,0:0:0:0:
324,140,287928,2,0,L|311:189,1,49.499999848938,0|0,1:2|0:0,0:0:0:0:
385,261,288057,2,0,L|398:310,1,49.499999848938,0|0,1:2|0:0,0:0:0:0:
102,53,288186,6,0,L|115:102,1,49.499999848938,4|0,1:2|0:0,0:0:0:0:
188,140,288314,2,0,L|201:189,1,49.499999848938,2|0,1:2|0:0,0:0:0:0:
127,261,288443,2,0,L|114:310,1,49.499999848938,2|0,1:2|0:0,0:0:0:0:
320,64,288572,6,0,L|384:64,1,49.499999848938,6|0,1:2|1:2,0:0:0:0:
142,64,288701,2,0,L|192:64,1,49.499999848938,2|0,1:2|1:2,0:0:0:0:
410,53,288830,6,0,L|397:102,1,48.9500016992379,6|0,1:2|0:0,0:0:0:0:
324,140,288956,2,0,L|311:189,1,48.9500016992379,0|0,1:0|1:0,0:0:0:0:
448,288,289083,2,0,L|384:288,1,48.9500016992379,0|0,1:0|1:0,0:0:0:0:
102,53,289209,6,0,L|115:102,1,48.9500016992379,6|0,1:2|0:0,0:0:0:0:
188,140,289335,2,0,L|201:189,1,48.9500016992379,0|0,1:0|1:0,0:0:0:0:
64,288,289462,2,0,L|128:288,1,48.9500016992379,0|0,1:0|1:0,0:0:0:0:
320,288,289589,6,0,L|384:288,1,48.3999995273438,6|0,1:2|0:0,0:0:0:0:
299,238,289715,2,0,L|286:189,1,48.3999995273438,0|0,1:2|1:2,0:0:0:0:
448,288,289841,2,0,L|384:288,1,48.3999995273438,0|0,1:2|1:2,0:0:0:0:
192,288,289967,6,0,L|128:288,1,48.3999995273438,6|0,1:2|0:0,0:0:0:0:
213,238,290093,2,0,L|226:189,1,48.3999995273438,0|0,1:2|1:2,0:0:0:0:
64,288,290219,2,0,L|128:288,1,48.3999995273438,0|0,1:2|1:2,0:0:0:0:
282,96,290345,6,0,L|295:47,1,48.3999995273438,6|0,1:2|0:0,0:0:0:0:
230,96,290470,2,0,L|217:47,1,48.3999995273438,0|0,1:2|1:2,0:0:0:0:
399,288,290596,2,0,L|448:288,1,48.3999995273438,0|0,1:2|1:2,0:0:0:0:
149,353,290721,6,0,L|64:352,1,48.3999995273438,6|0,0:2|0:0,0:0:0:0:
256,256,290847,2,0,L|341:255,1,48.3999995273438,0|0,0:0|0:0,0:0:0:0:
128,160,290972,2,0,L|43:159,1,48.3999995273438,0|0,0:0|0:0,0:0:0:0:
363,353,291098,6,0,L|448:352,1,48.3999995273438,6|0,1:2|0:0,0:0:0:0:
256,256,291224,2,0,L|171:255,1,48.3999995273438,0|0,0:0|0:0,0:0:0:0:
384,160,291349,2,0,L|469:159,1,48.3999995273438,0|0,0:0|0:0,0:0:0:0:
160,352,291473,6,0,L|173:303,1,48.3999995273438,6|0,1:2|0:0,0:0:0:0:
334,173,291598,2,0,L|347:124,1,48.3999995273438,0|0,0:0|0:0,0:0:0:0:
128,160,291723,2,0,L|43:159,1,48.3999995273438,0|0,0:0|0:0,0:0:0:0:
352,352,291848,6,0,L|339:303,1,46.2000012548218,6|0,1:2|0:0,0:0:0:0:
178,173,291968,2,0,L|165:124,1,46.2000012548218,0|0,0:0|0:0,0:0:0:0:
384,160,292088,2,0,L|469:159,1,46.2000012548218,0|0,0:0|0:0,0:0:0:0:
194,268,292208,6,0,L|109:267,1,46.2000012548218,6|0,1:2|0:0,0:0:0:0:
352,61,292328,2,0,L|339:110,1,46.2000012548218,0|0,0:0|0:0,0:0:0:0:
174,110,292448,2,0,L|161:61,1,46.2000012548218,0|0,0:0|0:0,0:0:0:0:
351,185,292568,6,0,L|436:184,1,45.0999995595703,6|0,1:2|0:0,0:0:0:0:
161,185,292685,2,0,L|76:184,1,45.0999995595703,0|0,0:0|0:0,0:0:0:0:
384,256,292803,1,0,0:0:0:0:
408,256,292832,1,0,0:0:0:0:
408,256,292862,1,0,0:0:0:0:
384,256,292891,1,0,0:0:0:0:
274,122,292920,5,0,0:0:0:0:
256,192,292950,2,0,L|256:224,9,22.5499997797852
238,122,293244,1,0,0:0:0:0:
126,169,293273,5,0,0:0:0:0:
110,233,293300,2,0,L|110:265,9,21.4499998265305
126,169,293578,1,0,0:0:0:0:
240,122,293606,5,0,0:0:0:0:
256,192,293634,2,0,L|256:224,9,21.4499998265305
272,122,293911,1,0,0:0:0:0:
388,185,293939,5,0,0:0:0:0:
402,233,293964,2,0,L|402:265,9,19.5250004975395
388,185,294218,1,0,0:0:0:0:
270,122,294244,5,0,0:0:0:0:
256,192,294269,2,0,L|256:224,9,19.5250004975395
242,122,294523,1,0,0:0:0:0:
120,169,294549,5,0,0:0:0:0:
104,233,294572,2,0,L|104:260,9,18.1500004929657
120,169,294806,1,0,0:0:0:0:
243,122,294830,5,0,0:0:0:0:
256,288,294853,2,0,L|256:320,9,18.1500004929657
269,122,295088,1,0,0:0:0:0:
397,169,295111,5,0,0:0:0:0:
408,233,295131,2,0,L|408:256,9,15.9500004867554
397,169,295340,1,0,0:0:0:0:
267,122,295361,5,0,0:0:0:0:
256,224,295381,2,0,L|256:240,9,15.9500004867554
245,122,295590,1,0,0:0:0:0:
108,169,295611,5,0,0:0:0:0:
98,233,295629,2,0,L|98:248,9,14.575000493721
108,169,295817,1,0,0:0:0:0:
246,118,295836,5,0,0:0:0:0:
256,288,295854,2,0,L|256:304,9,14.575000493721
266,118,296042,1,0,0:0:0:0:
404,169,296061,5,0,0:0:0:0:
414,233,296078,2,0,L|414:248,9,13.2000002255859
404,169,296248,1,0,0:0:0:0:
266,48,296265,5,0,0:0:0:0:
256,184,296282,2,0,L|256:208,9,13.2000002255859
246,48,296453,1,0,0:0:0:0:
102,169,296470,5,0,0:0:0:0:
92,233,296487,2,0,L|92:248,9,13.2000002255859
102,169,296657,1,0,0:0:0:0:
246,88,296674,5,0,0:0:0:0:
256,200,296691,2,0,L|256:216,9,13.2000002255859
266,88,296862,1,0,0:0:0:0:
410,169,296880,5,0,0:0:0:0:
420,233,296897,2,0,L|420:248,5,13.2500000202179
410,169,297010,1,0,0:0:0:0:
165,43,297029,5,0,0:0:0:0:
155,107,297047,2,0,L|155:122,5,13.2500000202179
165,43,297159,1,0,0:0:0:0:
347,43,297179,5,0,0:0:0:0:
359,107,297199,2,0,L|359:122,5,15.9500004867554
347,43,297322,1,0,0:0:0:0:
102,169,297343,5,0,0:0:0:0:
90,233,297363,2,0,L|90:248,5,15.9500004867554
102,169,297486,1,0,0:0:0:0:
329,304,297507,5,0,0:0:0:0:
346,300,297530,1,0,0:0:0:0:
360,289,297553,1,0,0:0:0:0:
368,273,297577,1,0,0:0:0:0:
368,255,297600,1,0,0:0:0:0:
360,239,297624,1,0,0:0:0:0:
346,228,297647,1,0,0:0:0:0:
328,225,297671,1,0,0:0:0:0:
183,304,297694,5,0,0:0:0:0:
166,300,297717,1,0,0:0:0:0:
152,289,297740,1,0,0:0:0:0:
144,273,297764,1,0,0:0:0:0:
144,255,297787,1,0,0:0:0:0:
152,239,297811,1,0,0:0:0:0:
166,228,297834,1,0,0:0:0:0:
184,225,297858,1,0,0:0:0:0:
351,150,297882,5,0,0:0:0:0:
369,147,297907,1,0,0:0:0:0:
385,136,297932,1,0,0:0:0:0:
393,119,297957,1,0,0:0:0:0:
392,100,297982,1,0,0:0:0:0:
383,83,298007,1,0,0:0:0:0:
367,73,298032,1,0,0:0:0:0:
348,72,298057,1,0,0:0:0:0:
161,150,298082,5,0,0:0:0:0:
143,147,298107,1,0,0:0:0:0:
127,136,298132,1,0,0:0:0:0:
119,119,298157,1,0,0:0:0:0:
120,100,298182,1,0,0:0:0:0:
129,83,298207,1,0,0:0:0:0:
145,73,298232,1,0,0:0:0:0:
164,72,298257,1,0,0:0:0:0:
413,252,298282,5,0,0:0:0:0:
425,252,298298,1,0,0:0:0:0:
438,249,298315,1,0,0:0:0:0:
450,244,298332,1,0,0:0:0:0:
460,236,298349,1,0,0:0:0:0:
468,226,298366,1,0,0:0:0:0:
474,214,298383,1,0,0:0:0:0:
477,202,298400,1,0,0:0:0:0:
477,189,298417,1,0,0:0:0:0:
474,176,298434,1,0,0:0:0:0:
468,164,298450,1,0,0:0:0:0:
460,154,298467,1,0,0:0:0:0:
450,146,298484,1,0,0:0:0:0:
439,141,298501,1,0,0:0:0:0:
426,138,298518,1,0,0:0:0:0:
413,138,298535,1,0,0:0:0:0:
256,192,298553,5,2,1:2:0:0:
227,192,298575,1,0,0:0:0:0:
256,192,298598,1,0,1:0:0:0:
227,192,298620,1,0,0:0:0:0:
256,192,298643,1,2,1:2:0:0:
227,192,298665,1,0,0:0:0:0:
256,192,298688,1,0,1:0:0:0:
227,192,298710,1,0,0:0:0:0:
256,192,298733,1,2,1:2:0:0:
227,192,298755,1,0,0:0:0:0:
256,192,298779,1,0,1:0:0:0:
227,192,298800,1,0,0:0:0:0:
256,192,298823,1,2,1:2:0:0:
227,192,298845,1,0,0:0:0:0:
256,192,298868,1,0,1:0:0:0:
227,192,298890,1,0,0:0:0:0:
256,192,298913,5,2,1:2:0:0:
227,192,298935,1,0,0:0:0:0:
256,192,298958,1,0,1:0:0:0:
227,192,298980,1,0,0:0:0:0:
256,192,299003,1,2,1:2:0:0:
227,192,299025,1,0,0:0:0:0:
256,192,299048,1,0,1:0:0:0:
227,192,299071,1,0,0:0:0:0:
256,192,299093,1,2,1:2:0:0:
227,192,299115,1,0,0:0:0:0:
256,192,299138,1,0,1:0:0:0:
227,192,299161,1,0,0:0:0:0:
256,192,299183,1,2,1:2:0:0:
227,192,299206,1,0,0:0:0:0:
256,192,299228,1,0,1:0:0:0:
227,192,299251,1,0,0:0:0:0:
256,192,299273,5,2,1:2:0:0:
227,192,299296,1,0,0:0:0:0:
256,192,299318,1,0,1:0:0:0:
227,192,299341,1,0,0:0:0:0:
256,192,299363,1,2,1:2:0:0:
227,192,299386,1,0,0:0:0:0:
256,192,299408,1,0,1:0:0:0:
227,192,299431,1,0,0:0:0:0:
256,192,299453,1,2,1:2:0:0:
227,192,299476,1,0,0:0:0:0:
256,192,299498,1,0,1:0:0:0:
227,192,299521,1,0,0:0:0:0:
256,192,299543,1,2,1:2:0:0:
227,192,299566,1,0,0:0:0:0:
256,192,299589,1,0,1:0:0:0:
227,192,299611,1,0,0:0:0:0:
256,192,299634,5,2,1:2:0:0:
227,192,299656,1,0,0:0:0:0:
256,192,299679,1,0,1:0:0:0:
227,192,299701,1,0,0:0:0:0:
256,192,299724,1,2,1:2:0:0:
227,192,299746,1,0,0:0:0:0:
256,192,299769,1,0,1:0:0:0:
227,192,299791,1,0,0:0:0:0:
256,192,299814,1,2,1:2:0:0:
227,192,299836,1,0,0:0:0:0:
256,192,299859,1,0,1:0:0:0:
227,192,299881,1,0,0:0:0:0:
256,192,299904,1,2,1:2:0:0:
227,192,299926,1,0,0:0:0:0:
256,192,299949,1,0,1:0:0:0:
227,192,299971,1,0,0:0:0:0:
256,192,299994,5,2,1:2:0:0:
227,192,300016,1,0,0:0:0:0:
256,192,300039,1,0,1:0:0:0:
227,192,300062,1,0,0:0:0:0:
256,192,300084,1,2,1:2:0:0:
227,192,300107,1,0,0:0:0:0:
256,192,300129,1,0,1:0:0:0:
227,192,300152,1,0,0:0:0:0:
256,192,300174,1,2,1:2:0:0:
227,192,300197,1,0,0:0:0:0:
256,192,300219,1,0,1:0:0:0:
227,192,300242,1,0,0:0:0:0:
256,192,300264,1,2,1:2:0:0:
227,192,300287,1,0,0:0:0:0:
256,192,300309,1,0,1:0:0:0:
227,192,300332,1,0,0:0:0:0:
256,192,300354,5,2,1:2:0:0:
227,192,300377,1,0,0:0:0:0:
256,192,300399,1,0,1:0:0:0:
227,192,300422,1,0,0:0:0:0:
256,192,300444,1,2,1:2:0:0:
227,192,300467,1,0,0:0:0:0:
256,192,300489,1,0,1:0:0:0:
227,192,300512,1,0,0:0:0:0:
256,192,300534,1,2,1:2:0:0:
227,192,300557,1,0,0:0:0:0:
256,192,300580,1,0,1:0:0:0:
227,192,300602,1,0,0:0:0:0:
256,192,300625,1,2,1:2:0:0:
227,192,300647,1,0,0:0:0:0:
256,192,300670,1,0,1:0:0:0:
227,192,300692,1,0,0:0:0:0:
256,192,300715,5,2,1:2:0:0:
227,192,300737,1,0,0:0:0:0:
256,192,300760,1,0,1:0:0:0:
227,192,300782,1,0,0:0:0:0:
256,192,300805,1,2,1:2:0:0:
227,192,300827,1,0,0:0:0:0:
256,192,300850,1,0,1:0:0:0:
227,192,300872,1,0,0:0:0:0:
256,192,300895,1,2,1:2:0:0:
227,192,300917,1,0,0:0:0:0:
256,192,300940,1,0,1:0:0:0:
227,192,300962,1,0,0:0:0:0:
256,192,300985,1,2,1:2:0:0:
227,192,301007,1,0,0:0:0:0:
256,192,301030,1,0,1:0:0:0:
227,192,301053,1,0,0:0:0:0:
256,192,301075,5,2,1:2:0:0:
227,192,301098,1,0,0:0:0:0:
256,192,301120,1,0,1:0:0:0:
227,192,301143,1,0,0:0:0:0:
256,192,301165,1,2,1:2:0:0:
227,192,301188,1,0,0:0:0:0:
256,192,301210,1,0,1:0:0:0:
227,192,301233,1,0,0:0:0:0:
256,192,301255,1,2,1:2:0:0:
227,192,301278,1,0,0:0:0:0:
256,192,301300,1,0,1:0:0:0:
227,192,301323,1,0,0:0:0:0:
256,192,301345,1,2,1:2:0:0:
227,192,301368,1,0,0:0:0:0:
256,192,301390,1,0,1:0:0:0:
227,192,301413,1,0,0:0:0:0:
256,192,301435,5,2,1:2:0:0:
227,192,301458,1,0,0:0:0:0:
256,192,301480,1,0,1:0:0:0:
227,192,301503,1,0,0:0:0:0:
256,192,301525,1,2,1:2:0:0:
227,192,301548,1,0,0:0:0:0:
256,192,301571,1,0,1:0:0:0:
227,192,301593,1,0,0:0:0:0:
256,192,301616,1,2,1:2:0:0:
227,192,301638,1,0,0:0:0:0:
256,192,301661,1,0,1:0:0:0:
227,192,301683,1,0,0:0:0:0:
256,192,301706,1,2,1:2:0:0:
227,192,301728,1,0,0:0:0:0:
256,192,301751,1,0,1:0:0:0:
227,192,301773,1,0,0:0:0:0:
256,192,301796,5,2,1:2:0:0:
227,192,301818,1,0,0:0:0:0:
256,192,301841,1,0,1:0:0:0:
227,192,301863,1,0,0:0:0:0:
256,192,301886,1,2,1:2:0:0:
227,192,301908,1,0,0:0:0:0:
256,192,301931,1,0,1:0:0:0:
227,192,301953,1,0,0:0:0:0:
256,192,301976,1,2,1:2:0:0:
227,192,301998,1,0,0:0:0:0:
256,192,302021,1,0,1:0:0:0:
227,192,302043,1,0,0:0:0:0:
256,192,302066,1,2,1:2:0:0:
227,192,302089,1,0,0:0:0:0:
256,192,302111,1,0,1:0:0:0:
227,192,302134,1,0,0:0:0:0:
256,192,302156,5,2,1:2:0:0:
227,192,302179,1,0,0:0:0:0:
256,192,302201,1,0,1:0:0:0:
227,192,302224,1,0,0:0:0:0:
256,192,302246,1,2,1:2:0:0:
227,192,302269,1,0,0:0:0:0:
256,192,302291,1,0,1:0:0:0:
227,192,302314,1,0,0:0:0:0:
256,192,302336,1,2,1:2:0:0:
227,192,302359,1,0,0:0:0:0:
256,192,302381,1,0,1:0:0:0:
227,192,302404,1,0,0:0:0:0:
256,192,302426,1,2,1:2:0:0:
227,192,302449,1,0,0:0:0:0:
256,192,302471,1,0,1:0:0:0:
227,192,302494,1,0,0:0:0:0:
256,192,302516,5,2,1:2:0:0:
227,192,302539,1,0,0:0:0:0:
256,192,302562,1,0,1:0:0:0:
227,192,302584,1,0,0:0:0:0:
256,192,302607,1,2,1:2:0:0:
227,192,302629,1,0,0:0:0:0:
256,192,302652,1,0,1:0:0:0:
227,192,302674,1,0,0:0:0:0:
256,192,302697,1,2,1:2:0:0:
227,192,302719,1,0,0:0:0:0:
256,192,302742,1,0,1:0:0:0:
227,192,302764,1,0,0:0:0:0:
256,192,302787,1,2,1:2:0:0:
227,192,302809,1,0,0:0:0:0:
256,192,302832,1,0,1:0:0:0:
480,192,302877,5,2,0:2:0:0:
256,192,303012,12,0,303079,0:0:0:0:
256,192,303113,12,0,303181,0:0:0:0:
256,192,303214,12,0,303282,0:0:0:0:
256,192,303316,12,0,303383,0:0:0:0:
256,192,303417,12,0,303485,0:0:0:0:
256,192,303518,12,0,303586,0:0:0:0:
256,192,303620,12,0,303687,0:0:0:0:
256,192,303721,12,0,303789,0:0:0:0:
256,192,303822,12,0,303890,0:0:0:0:
256,192,303924,12,0,303991,0:0:0:0:
256,192,304025,12,0,304093,0:0:0:0:
256,192,304127,12,0,304194,0:0:0:0:
256,192,304228,12,0,304295,0:0:0:0:
256,192,304329,12,0,304397,0:0:0:0:
256,192,304431,12,0,304498,0:0:0:0:
256,192,304532,12,0,304599,0:0:0:0:
256,192,304633,12,0,304701,0:0:0:0:
256,192,304735,12,0,304802,0:0:0:0:
256,192,304836,12,0,304904,0:0:0:0:
256,192,304937,12,0,305005,0:0:0:0:
256,192,305039,12,0,305106,0:0:0:0:
256,192,305140,12,0,305208,0:0:0:0:
256,192,305241,12,0,305309,0:0:0:0:
256,192,305342,12,0,305410,0:0:0:0:
256,192,305444,12,0,305512,0:0:0:0:
256,192,305545,12,0,305613,0:0:0:0:
256,192,305647,12,0,305714,0:0:0:0:
256,192,305748,12,0,305816,0:0:0:0:
256,192,305849,12,0,305917,0:0:0:0:
256,192,305950,12,0,306018,0:0:0:0:
256,192,306052,12,0,306120,0:0:0:0:
256,192,306153,12,0,306221,0:0:0:0:
256,192,306255,12,0,306322,0:0:0:0:
256,192,306356,12,0,306424,0:0:0:0:
256,192,306458,12,0,306525,0:0:0:0:
256,192,306559,12,0,306627,0:0:0:0:
256,192,306660,12,0,306728,0:0:0:0:
256,192,306761,12,0,306829,0:0:0:0:
256,192,306863,12,0,306930,0:0:0:0:
256,192,306964,12,0,307066,0:0:0:0:
256,192,307201,6,0,L|256:96,3,50,2|2|2|2,0:0|0:0|0:0|0:0,0:0:0:0:
256,192,307417,1,2,0:2:0:0:
