osu file format v14

[General]
AudioFilename: audio.mp3
AudioLeadIn: 2000
PreviewTime: 182450
Countdown: 0
SampleSet: Soft
StackLeniency: 0.4
Mode: 0
LetterboxInBreaks: 0
WidescreenStoryboard: 0

[Editor]
DistanceSpacing: 2
BeatDivisor: 4
GridSize: 16
TimelineZoom: 2.299999

[Metadata]
Title:Pluto -Tenderness
TitleUnicode:Pluto -Tenderness
Artist:RIN
ArtistUnicode:RIN
Creator:My Angel Azusa
Version:Hades In The Heaven
Source:DanceDanceRevolution SuperNOVA2
Tags:DDR beatmania IIDX 15 DJ TROOPERS CS Console C79 Function Phantom Ocelot D16 Diverse System DVSP-0061 Arrangement Remix sotarks
BeatmapID:1241443
BeatmapSetID:573313

[Difficulty]
HPDrainRate:4.7
CircleSize:4.7
OverallDifficulty:8.3
ApproachRate:9.7
SliderMultiplier:1.7
SliderTickRate:1

[Events]
//Background and Video events
0,0,"Pluto.jpg",0,0
//Break Periods
//Storyboard Layer 0 (Background)
//Storyboard Layer 1 (Fail)
//Storyboard Layer 2 (Pass)
//Storyboard Layer 3 (Foreground)
//Storyboard Sound Samples

[TimingPoints]
50,300,4,2,22,20,1,0
50,-200,4,2,22,20,0,0
1395,-500,4,2,22,25,0,0
3795,-333.333333333333,4,2,22,30,0,0
6195,-250,4,2,22,35,0,0
8595,-200,4,2,22,40,0,0
10995,-166.666666666666,4,2,22,45,0,0
13395,-142.857142857143,4,2,22,50,0,0
15795,-100,4,2,22,30,0,0
19095,-100,4,2,22,15,0,0
19255,-166.666666666667,4,2,22,45,0,0
40095,-166.666666666667,4,2,22,22,0,0
40845,-166.666666666667,4,2,22,45,0,0
42495,-166.666666666667,4,2,22,22,0,0
43245,-166.666666666667,4,2,22,45,0,0
44895,-166.666666666667,4,2,22,22,0,0
45645,-166.666666666667,4,2,22,45,0,0
47295,-166.666666666667,4,2,22,22,0,0
48045,-166.666666666667,4,2,22,45,0,0
49695,-166.666666666667,4,2,22,22,0,0
50445,-166.666666666667,4,2,22,45,0,0
52095,-166.666666666667,4,2,22,22,0,0
52845,-166.666666666667,4,2,22,45,0,0
54495,-166.666666666667,4,2,22,22,0,0
55245,-166.666666666667,4,2,22,45,0,0
57045,-133.333333333333,4,2,22,45,0,0
57645,-125,4,2,22,50,0,0
59895,-83.3333333333333,4,2,22,65,0,0
60045,-125,4,2,22,50,0,0
60645,-71.4285714285714,4,2,22,65,0,0
61095,-83.3333333333333,4,2,22,55,0,0
61245,-125,4,2,22,50,0,0
61845,-100,4,2,22,55,0,0
62445,-125,4,2,22,50,0,0
64695,-83.3333333333333,4,2,22,55,0,0
64845,-125,4,2,22,50,0,0
65445,-71.4285714285714,4,2,22,55,0,0
65895,-83.3333333333333,4,2,22,55,0,0
66045,-125,4,2,22,50,0,0
66645,-100,4,2,22,55,0,0
67245,-100,4,2,22,55,0,0
69495,-83.3333333333333,4,2,22,55,0,0
69645,-100,4,2,22,55,0,0
70245,-71.4285714285714,4,2,22,65,0,0
70695,-83.3333333333333,4,2,22,55,0,0
70845,-100,4,2,22,55,0,0
74295,-83.3333333333333,4,2,22,55,0,0
74445,-100,4,2,22,55,0,0
75045,-71.4285714285714,4,2,22,65,0,0
75345,-100,4,2,22,55,0,0
76245,-66.6666666666667,4,2,22,65,0,0
85245,-71.4285714285714,4,2,22,40,0,0
85470,-71.4285714285714,4,2,22,5,0,0
85545,-71.4285714285714,4,2,22,30,0,0
85770,-71.4285714285714,4,2,22,5,0,0
85845,-250,2,2,22,20,0,0
86370,-250,2,2,22,5,0,0
86445,-86.9565217391304,2,2,22,55,0,0
96045,-90.9090909090909,2,2,22,60,0,0
107445,-133.333333333333,2,2,22,60,0,0
108045,-83.3333333333333,2,2,22,60,0,0
109845,-153.846153846153,2,2,22,60,0,0
110445,-100,2,2,22,60,0,0
112245,-181.818181818181,2,2,22,60,0,0
112845,-111.111111111111,2,2,22,60,0,0
115245,-90.9090909090909,2,2,22,60,0,0
120045,-111.111111111111,2,2,22,60,0,0
120345,-90.9090909090909,2,2,22,60,0,0
120645,-76.9230769230769,2,2,22,60,0,0
120945,-66.6666666666667,2,2,22,60,0,0
121245,-58.8235294117647,2,2,22,60,0,0
121545,-66.6666666666667,2,2,22,60,0,0
122445,-111.111111111111,2,2,22,60,0,0
122745,-66.6666666666667,2,2,22,60,0,0
123045,-76.9230769230769,2,2,22,60,0,0
123345,-55.5555555555556,2,2,22,60,0,0
123645,-58.8235294117647,2,2,22,60,0,0
123945,-71.4285714285714,2,2,22,60,0,0
124245,-100,2,2,22,60,0,0
124845,-200,2,2,22,60,0,0
125295,-200,2,2,22,30,0,0
126645,-200,2,2,22,50,0,0
127170,-200,2,2,22,5,0,0
127245,-200,2,2,22,50,0,0
127395,-200,2,2,22,30,0,0
129045,-200,2,2,22,50,0,0
129570,-200,2,2,22,5,0,0
129645,-200,2,2,22,50,0,0
129795,-200,2,2,22,30,0,0
131445,-200,2,2,22,50,0,0
131970,-200,2,2,22,5,0,0
132045,-117.647058823529,2,2,22,50,0,0
132120,-117.647058823529,2,2,22,30,0,0
133695,-117.647058823529,2,2,22,60,0,0
134445,-142.857142857143,2,2,22,50,0,0
137145,-111.111111111111,2,2,22,60,0,0
137445,-90.9090909090909,2,2,22,60,0,0
137745,-76.9230769230769,2,2,22,60,0,0
138045,-133.333333333333,2,2,22,50,0,0
139245,-142.857142857143,2,2,22,60,0,0
139545,-111.111111111111,2,2,22,60,0,0
139845,-90.9090909090909,2,2,22,60,0,0
140145,-76.9230769230769,2,2,22,60,0,0
140445,-133.333333333333,2,2,22,60,0,0
141645,-142.857142857143,2,2,22,60,0,0
141945,-111.111111111111,2,2,22,60,0,0
142245,-90.9090909090909,2,2,22,60,0,0
142545,-76.9230769230769,2,2,22,60,0,0
142845,-133.333333333333,2,2,22,60,0,0
144045,-83.3333333333333,2,2,22,60,0,0
145245,-125,2,2,22,60,0,0
146295,-83.3333333333333,2,2,22,60,0,0
146445,-125,2,2,22,60,0,0
147045,-71.4285714285714,2,2,22,60,0,0
147495,-83.3333333333333,2,2,22,60,0,0
147645,-125,2,2,22,60,0,0
148245,-100,2,2,22,60,0,0
149445,-83.3333333333333,2,2,22,60,0,0
151245,-125,2,2,22,60,0,0
151845,-71.4285714285714,2,2,22,60,0,0
152295,-83.3333333333333,2,2,22,60,0,0
152445,-100,2,2,22,60,0,0
153645,-83.3333333333333,2,2,22,60,0,0
154845,-125,2,2,22,60,0,0
155895,-83.3333333333333,2,2,22,60,0,0
156045,-125,2,2,22,60,0,0
156645,-71.4285714285714,2,2,22,60,0,0
157095,-83.3333333333333,2,2,22,60,0,0
157245,-125,2,2,22,60,0,0
157845,-100,2,2,22,60,0,0
159045,-83.3333333333333,2,2,22,60,0,0
160845,-125,2,2,22,60,0,0
161445,-71.4285714285714,2,2,22,60,0,0
161895,-83.3333333333333,2,2,22,60,0,0
162045,-100,2,2,22,60,0,0
162120,-100,2,2,22,5,0,0
162195,-100,2,2,22,30,0,0
162270,-100,2,2,22,5,0,0
162345,-100,2,2,22,35,0,0
162420,-100,2,2,22,5,0,0
162495,-100,2,2,22,50,0,0
162570,-100,2,2,22,5,0,0
162645,-100,2,2,22,50,0,0
162720,-100,2,2,22,5,0,0
162795,-100,2,2,22,50,0,0
162870,-100,2,2,22,5,0,0
162945,-83.3333333333333,2,2,22,60,0,0
163245,-76.9230769230769,2,2,22,50,0,0
180045,-66.6666666666667,2,2,22,50,0,0
181695,-100,2,2,22,60,0,0
182450,285.714285714286,6,2,22,80,1,1
182450,-83.3333333333333,6,2,22,80,0,1
188735,264.31718061674,6,2,22,80,1,1
189263,264.31718061674,6,2,22,85,1,1
189263,-83.3333333333333,6,2,22,85,0,1
191774,-100,6,2,22,60,0,1
192418,264.31718061674,6,2,22,80,1,1
193472,-133.333333333333,6,2,22,50,0,1
194000,-133.333333333333,6,2,22,40,0,1
194782,-100,6,2,22,50,0,1
195562,552.995391705069,4,2,22,80,1,0
199830,-100,4,2,22,5,0,0
204272,-100,4,2,22,5,0,0
212147,-125,4,2,22,40,0,0
212702,-83.3333333333333,4,2,22,45,0,0
213257,276.497695852535,4,2,22,70,1,0
213257,-125,4,2,22,70,0,0
216140,-83.3333333333333,4,2,22,70,0,0
216554,-125,4,2,22,70,0,0
220564,-83.3333333333333,4,2,22,70,0,0
221255,-79.9999999999999,4,2,22,70,0,0
221393,-57.1428571428571,4,2,22,70,0,0
221531,-66.6666666666667,4,2,22,70,0,0
222637,-71.4285714285714,4,2,22,70,0,0
222914,-133.333333333333,4,2,22,70,0,0
225126,-200,4,2,22,70,0,0
225264,-55.5555555555556,4,2,22,70,0,0
225402,-125,4,2,22,70,0,0
226232,-66.6666666666667,4,2,22,70,0,0
226508,-100,4,2,22,70,0,0
227200,-133.333333333333,4,2,22,70,0,0
227338,-66.6666666666667,4,2,22,70,0,0
227753,-200,4,2,22,40,0,0
228306,-83.3333333333333,4,2,22,80,0,0
230379,-66.6666666666667,4,2,22,80,0,0
230932,-83.3333333333333,4,1,22,80,0,0
233697,-500,4,2,22,80,0,0
234250,-83.3333333333333,4,1,22,80,0,0
237154,-66.6666666666667,4,2,22,80,0,0
237568,-83.3333333333333,4,1,22,80,0,0
238951,-100,4,2,22,80,0,0
239227,-83.3333333333333,4,2,22,80,0,0
240472,-66.6666666666667,4,2,22,80,0,0
240886,-133.333333333333,4,2,22,80,0,0
241163,-133.333333333333,4,2,22,60,0,0
249734,-133.333333333333,4,2,22,70,0,0
258740,-100,4,2,22,60,0,0
258948,-100,4,2,22,5,0,0
259017,-100,4,2,22,60,0,0
259224,-100,4,2,22,5,0,0
259293,-166.666666666667,4,2,22,40,0,0
259639,-166.666666666667,4,2,22,5,0,0
259708,238.095238095238,6,2,22,80,1,1
259946,258.620689655172,6,2,22,80,1,1
260204,-76.9230769230769,6,2,22,80,0,1
261239,258.620689655172,6,2,22,40,1,1
261239,-333.333333333333,6,2,22,40,0,1
261610,-76.9230769230769,6,2,22,80,0,1
262392,-66.6666666666667,6,2,22,80,0,1
263294,-76.9230769230769,6,2,22,80,0,1
263422,-200,6,2,22,80,0,1
264575,-200,6,2,22,80,0,1
264836,-90.9090909090909,6,2,22,80,0,1
265358,-200,6,2,22,80,0,1
265890,-90.9090909090909,6,2,22,80,0,1
266390,-500,6,2,22,80,0,1
268609,-80,6,2,22,80,0,1
269514,-100,6,2,22,80,0,1
269889,-200,6,2,22,60,0,1
270407,-100,6,2,22,70,0,1
270920,-66.6666666666667,6,2,22,80,0,1
271441,-50,6,2,22,90,0,1
271842,-50,6,2,22,100,0,1
272230,-400,6,2,22,40,0,0
272982,280.373831775701,4,2,22,60,1,0
272998,-90.9090909090909,4,2,22,60,0,0
281947,-111.111111111111,4,2,22,70,0,0
283069,-83.3333333333333,4,2,22,70,0,0
284190,-111.111111111111,4,2,22,70,0,0
285312,-83.3333333333333,4,2,22,70,0,0
286433,-111.111111111111,4,2,22,70,0,0
287555,-83.3333333333333,4,2,22,70,0,0
290359,-55.5555555555556,4,2,22,70,0,0
290499,-83.3333333333333,4,2,22,70,0,0
290639,-66.6666666666667,4,2,22,70,0,0
290919,-100,4,2,22,70,0,0
294704,-66.6666666666667,4,2,22,70,0,0
294845,-100,4,2,22,70,0,0
295125,-50,4,2,22,70,0,0
295405,-83.3333333333333,4,2,22,70,0,0
296527,-55.5555555555556,4,2,22,70,0,0
296807,-100,4,2,22,70,0,0
297088,-50,4,2,22,70,0,0
297648,-66.6666666666667,4,2,22,70,0,0
298770,-133.333333333333,4,2,22,70,0,0
299331,-200,4,2,22,70,0,0
299611,-66.6666666666667,4,2,22,70,0,0
299891,-83.3333333333333,4,2,22,70,0,0
301854,-66.6666666666667,4,2,22,70,0,0
302134,-83.3333333333333,4,2,22,70,0,0
304097,-200,4,2,22,70,0,0
304377,-83.3333333333333,4,2,22,70,0,0
304798,-66.6666666666667,4,2,22,70,0,0
306620,-76.9230769230769,4,2,22,70,0,0
307742,-100,4,2,22,20,0,0
309223,280.373831775701,4,2,22,32,1,0
312519,-100,4,2,22,36,0,0
313472,-100,4,2,22,56,0,0
314409,-100,4,2,22,5,0,0

[Colours]
Combo1 : 192,192,192
Combo2 : 255,155,255
Combo3 : 0,53,117
Combo4 : 247,0,123

[HitObjects]
246,65,50,6,0,P|263:175|151:84,1,340,0|0,1:0|0:0,0:0:0:0:
147,91,1400,6,0,L|186:88,1,34,2|0,0:0|0:0,0:0:0:0:
161,103,2000,2,0,L|200:100,1,34
208,112,2600,6,0,L|175:115,1,34,2|0,0:0|0:0,0:0:0:0:
222,124,3200,2,0,L|189:127,1,34
369,122,3800,6,0,L|372:173,1,50.9999984436036,2|0,0:0|0:0,0:0:0:0:
353,140,4400,2,0,L|356:191,1,50.9999984436036
340,209,5000,6,0,L|337:158,1,50.9999984436036,2|0,0:0|0:0,0:0:0:0:
324,228,5600,2,0,L|321:177,1,50.9999984436036
240,308,6200,6,0,B|206:314|206:314|166:307,1,68,2|0,0:0|0:0,0:0:0:0:
106,308,6800,2,0,B|140:302|140:302|180:309,1,68
173,240,7400,6,0,B|167:274|167:274|174:314,1,68,2|0,0:0|0:0,0:0:0:0:
172,375,8000,2,0,B|178:341|178:341|171:301,1,68
96,201,8600,6,0,P|83:170|86:109,1,85,2|0,0:0|0:0,0:0:0:0:
70,37,9200,2,0,P|83:68|80:129,1,85
164,105,9800,6,0,P|133:118|72:115,1,85,2|0,0:0|0:0,0:0:0:0:
0,131,10400,2,0,P|31:118|92:121,1,85
243,161,11000,6,0,B|244:188|261:206|261:206|258:178|283:152,1,101.999996887207,2|0,0:0|0:0,0:0:0:0:
406,151,11600,2,0,B|405:124|388:106|388:106|391:134|366:160,1,101.999996887207
318,74,12200,6,0,B|291:75|273:92|273:92|301:89|327:114,1,101.999996887207,2|0,0:0|0:0,0:0:0:0:
330,238,12800,2,0,B|357:237|375:220|375:220|347:223|321:198,1,101.999996887207
149,99,13400,6,0,L|158:221,1,118.999996368408,2|0,0:0|0:0,0:0:0:0:
335,321,14000,2,0,L|326:202,1,118.999996368408
228,69,14600,6,0,L|237:191,1,118.999996368408,2|0,0:0|0:0,0:0:0:0:
414,291,15200,2,0,L|405:172,1,118.999996368408
256,192,15800,12,0,19100,0:0:0:0:
86,114,19250,5,0,1:0:0:0:
86,114,19400,2,0,L|205:109,1,101.999996887207,2|0,0:0|0:0,0:0:0:0:
283,73,19850,1,0,3:0:0:0:
286,83,20150,1,2,0:0:0:0:
351,161,20300,2,0,L|348:265,1,101.999996887207,0|0,3:0|0:0,0:0:0:0:
351,161,20750,1,2,0:0:0:0:
270,303,21650,5,2,0:0:0:0:
270,303,21800,2,0,L|147:304,1,101.999996887207,2|0,0:0|3:0,0:0:0:0:
82,247,22250,1,0,0:0:0:0:
73,240,22550,1,0,3:0:0:0:
100,141,22700,2,0,P|151:129|199:143,1,101.999996887207,2|2,0:0|0:0,0:0:0:0:
100,141,23150,1,2,0:0:0:0:
303,298,24050,5,0,1:0:0:0:
303,298,24200,2,0,B|309:246|309:246|300:186,1,101.999996887207,2|0,0:0|0:0,0:0:0:0:
274,97,24650,1,0,3:0:0:0:
269,87,24950,1,0,1:0:0:0:
362,127,25100,2,0,L|474:125,1,101.999996887207,2|2,0:0|0:0,0:0:0:0:
362,127,25550,1,0,3:0:0:0:
229,207,26450,5,0,1:0:0:0:
229,207,26600,2,0,P|176:221|119:206,1,101.999996887207,2|0,0:0|0:0,0:0:0:0:
50,148,27050,1,0,3:0:0:0:
42,154,27350,1,2,0:0:0:0:
120,89,27500,2,0,P|173:75|230:90,1,101.999996887207,0|2,3:0|0:0,0:0:0:0:
120,89,27950,1,0,3:0:0:0:
120,89,28850,5,0,1:0:0:0:
120,89,29000,2,0,P|173:75|230:90,1,101.999996887207,2|0,0:0|0:0,0:0:0:0:
291,155,29450,2,0,L|401:153,1,101.999996887207,0|2,3:0|0:0,0:0:0:0:
233,206,29900,2,0,P|214:159|226:111,1,101.999996887207,0|2,3:0|0:0,0:0:0:0:
301,234,30350,1,0,3:0:0:0:
127,261,31250,5,2,0:0:0:0:
127,261,31400,2,0,L|117:159,1,101.999996887207,2|0,0:0|0:0,0:0:0:0:
217,175,31850,2,0,P|257:185|317:165,1,101.999996887207,0|0,3:0|0:0,0:0:0:0:
207,73,32300,2,0,L|216:174,1,101.999996887207,0|2,3:0|0:0,0:0:0:0:
306,36,32750,1,2,0:0:0:0:
475,213,33650,5,0,1:0:0:0:
475,213,33800,2,0,P|425:224|376:212,1,101.999996887207,2|0,0:0|0:0,0:0:0:0:
273,216,34250,2,0,P|223:227|174:215,1,101.999996887207,2|0,0:0|0:0,0:0:0:0:
326,266,34700,2,0,L|333:391,1,101.999996887207,0|0,3:0|0:0,0:0:0:0:
376,212,35150,1,2,0:0:0:0:
162,45,36050,5,2,0:0:0:0:
162,45,36200,2,0,B|151:95|151:95|164:152,1,101.999996887207,0|2,3:0|0:0,0:0:0:0:
162,244,36650,2,0,B|173:194|173:194|160:137,1,101.999996887207,0|0,3:0|3:0,0:0:0:0:
96,267,37100,2,0,P|121:302|187:310,1,101.999996887207,2|2,0:0|0:0,0:0:0:0:
161,144,37550,1,0,3:0:0:0:
83,92,38450,5,2,1:2:0:0:
167,152,38600,2,0,L|286:143,1,101.999996887207,2|2,0:0|0:0,0:0:0:0:
151,226,39050,2,0,L|270:217,1,101.999996887207,0|2,3:0|0:0,0:0:0:0:
341,316,39500,2,0,L|338:266,1,50.9999984436036,0|0,3:0|0:0,0:0:0:0:
416,127,39800,1,2,0:0:0:0:
425,254,39950,2,0,L|421:203,1,50.9999984436036,2|0,0:0|0:0,0:0:0:0:
92,246,40850,5,0,1:0:0:0:
27,167,41000,2,0,P|21:136|40:56,1,101.999996887207,2|2,0:0|0:0,0:0:0:0:
181,76,41450,2,0,P|187:107|168:187,1,101.999996887207,0|2,3:0|0:0,0:0:0:0:
288,255,41900,2,0,L|237:258,1,50.9999984436036,0|0,3:0|0:0,0:0:0:0:
174,175,42200,1,2,0:0:0:0:
302,168,42350,2,0,L|251:172,1,50.9999984436036,0|0,3:0|0:0,0:0:0:0:
458,157,43250,5,0,1:0:0:0:
376,95,43400,2,0,B|346:86|346:86|271:97,1,101.999996887207,2|0,0:0|3:0,0:0:0:0:
376,211,43850,2,0,B|346:220|346:220|271:209,1,101.999996887207,0|2,3:0|0:0,0:0:0:0:
146,134,44300,2,0,P|129:155|125:180,1,50.9999984436036,0|0,3:0|0:0,0:0:0:0:
257,296,44600,1,2,0:0:0:0:
205,188,44750,2,0,P|200:212|208:236,1,50.9999984436036,0|0,1:0|0:0,0:0:0:0:
42,232,45650,5,0,3:0:0:0:
124,294,45800,2,0,B|154:303|154:303|229:292,1,101.999996887207,0|2,3:0|0:0,0:0:0:0:
124,178,46250,2,0,B|154:169|154:169|229:180,1,101.999996887207,0|2,3:0|0:0,0:0:0:0:
354,255,46700,2,0,P|371:234|375:209,1,50.9999984436036,0|0,3:0|0:0,0:0:0:0:
249,88,47000,1,2,0:0:0:0:
295,201,47150,2,0,P|299:176|291:152,1,50.9999984436036,0|0,3:0|0:0,0:0:0:0:
291,152,48050,5,2,1:2:0:0:
341,152,48200,2,0,L|290:151,1,50.9999984436036,2|0,0:0|0:0,0:0:0:0:
418,90,48500,1,0,0:0:0:0:
468,90,48650,2,0,L|417:89,1,50.9999984436036,0|0,3:0|0:0,0:0:0:0:
272,15,48950,1,2,0:0:0:0:
373,16,49100,2,0,L|270:14,1,101.999996887207,0|0,1:0|0:0,0:0:0:0:
239,150,49550,2,0,L|289:150,1,50.9999984436036,0|0,3:0|0:0,0:0:0:0:
102,169,50450,5,2,0:0:0:0:
101,220,50600,2,0,L|101:170,1,50.9999984436036,2|0,0:0|0:0,0:0:0:0:
164,296,50900,1,0,3:0:0:0:
163,347,51050,2,0,L|163:297,1,50.9999984436036,0|0,3:0|0:0,0:0:0:0:
239,150,51350,1,0,3:0:0:0:
237,252,51500,2,0,L|238:150,1,101.999996887207,0|0,1:0|0:0,0:0:0:0:
104,117,51950,2,0,L|103:168,1,50.9999984436036,0|0,3:0|0:0,0:0:0:0:
291,152,52850,5,4,3:0:0:0:
290,152,53000,2,0,P|282:175|285:200,1,50.9999984436036
369,300,53300,1,2,0:0:0:0:
369,299,53450,2,0,P|377:275|374:250,1,50.9999984436036,0|0,3:0|0:0,0:0:0:0:
255,264,53750,1,2,0:0:0:0:
255,264,53900,2,0,P|278:272|303:269,1,50.9999984436036,0|0,3:0|0:0,0:0:0:0:
403,186,54200,1,2,0:0:0:0:
402,186,54350,2,0,P|378:177|353:180,1,50.9999984436036,0|0,3:0|0:0,0:0:0:0:
256,192,55250,5,0,3:0:0:0:
256,192,55400,1,0,3:0:0:0:
128,192,55700,1,0,3:0:0:0:
125,201,55850,1,8,3:0:0:0:
384,192,56150,1,4,3:0:0:0:
387,201,56300,1,8,3:0:0:0:
256,177,56600,5,0,1:0:0:0:
256,192,56750,1,0,1:0:0:0:
256,177,57050,6,0,L|319:172,1,63.7500024318696
256,192,57350,2,0,L|319:187,1,63.7500024318696
176,62,57650,5,0,1:0:0:0:
128,144,57800,1,0,3:0:0:0:
152,235,57950,1,0,3:0:0:0:
233,282,58100,1,0,3:0:0:0:
325,259,58250,6,0,P|358:253|394:260,1,68,8|0,0:0|0:0,0:0:0:0:
421,276,58475,1,0,0:0:0:0:
421,276,58550,1,0,3:0:0:0:
357,346,58700,1,0,3:0:0:0:
256,192,58850,5,0,1:0:0:0:
210,372,59000,1,0,1:0:0:0:
256,192,59150,1,0,3:0:0:0:
233,282,59300,1,0,3:0:0:0:
279,102,59450,5,8,0:0:0:0:
260,196,59600,1,0,1:0:0:0:
260,196,59675,1,0,1:0:0:0:
91,80,59900,6,0,L|96:102,6,12.7499996109009,0|0|0|0|0|0|0,3:0|3:0|3:0|3:0|3:0|3:0|3:0,3:0:0:0:
93,92,60050,6,0,L|91:170,1,68,0|0,1:0|3:0,0:0:0:0:
178,246,60350,1,0,3:0:0:0:
178,246,60500,1,0,3:0:0:0:
320,189,60650,6,0,B|141:200|141:200|178:246,1,237.999992736817,8|0,0:0|0:0,0:0:0:0:
320,189,61100,6,0,L|324:216,1,25.4999992218018,0|0,1:0|0:0,0:0:0:0:
328,186,61175,2,0,L|331:211,1,25.4999992218018,0|0,1:0|0:0,0:0:0:0:
336,183,61250,6,0,L|347:257,1,68,0|8,1:0|0:0,0:0:0:0:
178,246,61550,2,0,L|166:320,1,68,0|0,1:0|0:0,0:0:0:0:
345,250,61850,5,8,0:0:0:0:
172,321,62000,1,0,1:0:0:0:
172,321,62075,1,0,1:0:0:0:
172,321,62150,2,0,P|197:319|214:322,1,42.5,0|0,3:0|3:0,3:0:0:0:
300,332,62300,1,0,1:0:0:0:
300,332,62375,1,0,1:0:0:0:
300,332,62450,5,0,1:0:0:0:
345,250,62600,1,0,3:0:0:0:
324,159,62750,1,0,3:0:0:0:
243,112,62900,1,0,3:0:0:0:
151,135,63050,6,0,P|118:141|82:134,1,68,8|0,0:0|0:0,0:0:0:0:
55,118,63275,1,0,0:0:0:0:
55,118,63350,1,0,3:0:0:0:
119,48,63500,1,0,3:0:0:0:
220,202,63650,5,0,1:0:0:0:
266,22,63800,1,0,1:0:0:0:
220,202,63950,1,8,1:0:0:0:
243,112,64100,1,0,3:0:0:0:
197,292,64250,5,8,0:0:0:0:
224,207,64400,1,0,1:0:0:0:
224,207,64475,1,0,1:0:0:0:
385,314,64700,6,0,L|380:292,6,12.7499996109009,0|0|0|0|0|0|0,3:0|3:0|3:0|3:0|3:0|3:0|3:0,3:0:0:0:
382,301,64850,6,0,P|384:259|367:221,1,68,0|0,1:0|3:0,0:0:0:0:
274,165,65150,1,0,3:0:0:0:
274,165,65300,1,0,3:0:0:0:
243,278,65450,6,0,B|300:326|300:326|272:154,1,237.999992736817,8|0,0:0|3:0,0:0:0:0:
301,328,65900,6,0,L|328:324,1,25.4999992218018,0|0,3:0|0:0,0:0:0:0:
298,320,65975,2,0,L|323:316,1,25.4999992218018,0|0,3:0|0:0,0:0:0:0:
295,312,66050,6,0,L|202:325,1,68,0|8,1:0|1:0,0:0:0:0:
141,302,66275,1,0,0:0:0:0:
136,313,66350,2,0,L|128:260,1,34,0|0,1:0|0:0,0:0:0:0:
42,344,66500,2,0,L|48:311,1,34,0|0,1:0|0:0,0:0:0:0:
72,227,66650,5,8,1:0:0:0:
87,183,66725,1,0,1:0:0:0:
81,138,66800,1,0,3:0:0:0:
55,101,66875,1,0,3:0:0:0:
43,167,66950,5,0,3:0:0:0:
87,183,67025,1,0,3:0:0:0:
132,177,67100,1,0,3:0:0:0:
169,151,67175,1,0,3:0:0:0:
188,109,67250,5,0,1:0:0:0:
247,26,67400,1,0,3:0:0:0:
345,58,67550,1,0,3:0:0:0:
345,160,67700,1,0,3:0:0:0:
247,192,67850,6,0,L|255:283,1,85,8|0,0:0|0:0,0:0:0:0:
259,318,68075,1,0,0:0:0:0:
259,318,68150,1,0,3:0:0:0:
357,286,68300,1,0,3:0:0:0:
161,350,68450,5,0,1:0:0:0:
259,318,68600,1,0,1:0:0:0:
70,304,68750,1,0,1:0:0:0:
161,350,68900,1,0,3:0:0:0:
38,206,69050,5,8,0:0:0:0:
75,309,69200,1,0,1:0:0:0:
75,309,69275,1,0,1:0:0:0:
176,163,69500,6,0,L|181:141,6,12.7499996109009,0|0|0|0|0|0|0,3:0|3:0|3:0|3:0|3:0|3:0|3:0,3:0:0:0:
178,150,69650,6,0,L|263:139,1,85,0|0,1:0|1:0,0:0:0:0:
171,62,69950,2,0,L|86:73,1,85,0|0,3:0|3:0,3:0:0:0:
262,139,70250,6,0,L|423:118,1,118.999996368408,8|0,0:0|0:0,0:0:0:0:
487,219,70550,1,0,0:0:0:0:
355,255,70700,6,0,L|360:289,1,25.4999992218018,0|0,3:0|3:0,3:0:0:0:
344,272,70775,2,0,L|348:298,1,25.4999992218018,0|0,3:0|3:0,3:0:0:0:
333,289,70850,5,0,1:0:0:0:
178,251,71000,2,0,L|226:242,1,42.5,8|0,0:0|0:0,0:0:0:0:
277,199,71150,1,0,1:0:0:0:
277,199,71300,1,0,3:0:0:0:
127,186,71450,6,0,L|226:167,1,85,8|0,0:0|0:0,0:0:0:0:
267,126,71675,1,0,1:0:0:0:
267,126,71750,1,0,1:0:0:0:
93,85,71900,1,0,3:0:0:0:
93,85,71975,1,0,3:0:0:0:
93,85,72050,6,0,L|9:100,1,85,0|0,1:0|3:0,0:0:0:0:
127,186,72350,2,0,L|43:201,1,85,0|0,3:0|3:0,0:0:0:0:
230,270,72650,6,0,L|245:353,1,85,8|0,0:0|0:0,0:0:0:0:
331,236,72950,2,0,L|346:319,1,85,0|0,1:0|0:0,0:0:0:0:
255,177,73250,5,0,1:0:0:0:
230,270,73400,1,0,1:0:0:0:
137,245,73550,2,0,B|136:288|136:288|157:334,1,85,2|0,1:2|0:0,0:0:0:0:
162,152,73850,5,8,0:0:0:0:
259,181,74000,1,0,1:0:0:0:
259,181,74075,1,0,1:0:0:0:
375,85,74300,6,0,L|397:80,6,12.7499996109009,0|0|0|0|0|0|0,3:0|3:0|3:0|3:0|3:0|3:0|3:0,3:0:0:0:
387,82,74450,6,0,L|394:181,1,85,0|0,1:0|3:0,0:0:0:0:
331,339,74750,2,0,L|325:254,1,85,0|0,3:0|3:0,0:0:0:0:
247,58,75050,6,0,L|254:176,1,118.999996368408,8|0,0:0|0:0,0:0:0:0:
325,254,75350,1,0,0:0:0:0:
162,231,75500,2,0,L|166:285,1,42.5,0|0,3:0|3:0,3:0:0:0:
198,351,75650,5,0,1:0:0:0:
64,302,75800,1,0,1:0:0:0:
52,261,75875,1,0,1:0:0:0:
56,219,75950,1,0,1:0:0:0:
185,111,76100,1,0,0:0:0:0:
194,109,76175,1,0,0:0:0:0:
205,105,76250,6,0,L|197:45,1,31.8750012159348,0|0,3:0|3:0,3:0:0:0:
213,100,76325,2,0,L|205:40,1,31.8750012159348,0|0,3:0|3:0,3:0:0:0:
222,96,76400,2,0,L|214:36,1,31.8750012159348,0|0,3:0|3:0,3:0:0:0:
231,91,76475,2,0,L|223:31,1,31.8750012159348,0|0,3:0|3:0,3:0:0:0:
261,106,76550,6,0,L|253:165,1,31.8750012159348,0|0,3:0|3:0,3:0:0:0:
269,111,76625,2,0,L|261:170,1,31.8750012159348,0|0,3:0|3:0,3:0:0:0:
278,115,76700,2,0,L|270:174,1,31.8750012159348,0|0,3:0|3:0,3:0:0:0:
287,120,76775,2,0,L|279:179,1,31.8750012159348,0|0,3:0|3:0,3:0:0:0:
323,109,76850,5,0,1:0:0:0:
256,192,76925,12,0,85100,0:0:0:0:
181,193,85250,6,0,P|209:251|315:239,1,178.499994552612,2|0,0:0|0:0,0:0:0:0:
309,138,85550,6,0,P|226:122|181:193,1,178.499994552612,2|0,0:0|0:0,0:0:0:0:
311,244,85850,6,0,P|329:212|298:129,1,119,2|0,0:0|0:0,0:0:0:0:
256,192,86450,5,4,1:0:0:0:
401,176,86600,1,0,1:0:0:0:
238,119,86750,1,8,0:0:0:0:
276,288,86900,1,0,3:0:0:0:
264,309,86975,1,0,3:0:0:0:
246,325,87050,1,0,3:0:0:0:
223,333,87125,1,0,3:0:0:0:
199,333,87200,1,0,1:0:0:0:
106,255,87350,2,0,L|204:252,1,97.7500018644333,8|0,0:0|0:0,0:0:0:0:
264,309,87575,1,0,0:0:0:0:
276,288,87650,6,0,P|283:241|260:196,1,97.7500018644333,0|0,1:0|0:0,0:0:0:0:
304,30,87950,2,0,P|297:77|320:122,1,97.7500018644333,8|0,0:0|3:0,0:0:0:0:
342,128,88175,1,0,3:0:0:0:
366,130,88250,1,0,3:0:0:0:
390,127,88325,1,0,3:0:0:0:
413,119,88400,1,0,1:0:0:0:
290,27,88550,1,8,0:0:0:0:
267,186,88700,1,0,3:0:0:0:
267,186,88775,1,0,3:0:0:0:
267,186,88850,6,0,P|211:185|154:194,1,97.7500018644333,0|0,1:0|0:0,0:0:0:0:
49,276,89150,1,8,0:0:0:0:
169,190,89300,1,0,3:0:0:0:
176,166,89375,1,0,3:0:0:0:
173,142,89450,1,0,3:0:0:0:
161,121,89525,1,0,3:0:0:0:
142,106,89600,1,0,1:0:0:0:
106,229,89750,2,0,P|141:259|198:260,1,97.7500018644333,8|0,0:0|3:0,0:0:0:0:
277,334,89975,1,0,3:0:0:0:
263,320,90050,6,0,L|259:211,1,97.7500018644333,0|0,1:0|0:0,0:0:0:0:
354,61,90350,2,0,L|357:158,1,97.7500018644333,8|0,0:0|3:0,0:0:0:0:
357,182,90575,1,0,3:0:0:0:
358,206,90650,1,0,3:0:0:0:
359,231,90725,1,0,3:0:0:0:
360,255,90800,1,0,1:0:0:0:
357,158,90950,1,8,0:0:0:0:
266,228,91100,1,0,3:0:0:0:
266,228,91175,1,0,3:0:0:0:
266,228,91250,5,0,1:0:0:0:
256,104,91400,1,0,0:0:0:0:
144,222,91550,1,8,0:0:0:0:
97,66,91700,2,0,L|122:12,1,48.8750009322167,0|0,3:0|3:0,3:0:0:0:
167,109,91850,1,0,3:0:0:0:
167,109,91925,1,0,3:0:0:0:
167,109,92000,1,0,1:0:0:0:
48,214,92150,2,0,P|91:208|145:222,1,97.7500018644333,8|0,0:0|3:0,0:0:0:0:
200,268,92375,1,0,3:0:0:0:
206,276,92450,5,0,1:0:0:0:
308,332,92600,1,0,0:0:0:0:
407,271,92750,1,8,0:0:0:0:
403,154,92900,1,0,3:0:0:0:
427,150,92975,1,0,3:0:0:0:
451,147,93050,1,0,3:0:0:0:
475,144,93125,1,0,3:0:0:0:
499,140,93200,1,0,1:0:0:0:
299,98,93350,1,8,0:0:0:0:
198,160,93500,1,0,3:0:0:0:
198,160,93575,1,0,3:0:0:0:
198,160,93650,6,0,L|84:150,1,97.7500018644333,0|0,1:0|0:0,0:0:0:0:
206,276,93950,1,8,0:0:0:0:
100,151,94100,2,0,P|97:124|105:97,1,48.8750009322167,0|0,3:0|3:0,3:0:0:0:
183,41,94250,1,0,3:0:0:0:
183,41,94325,1,0,3:0:0:0:
183,41,94400,1,0,1:0:0:0:
221,248,94550,2,0,L|107:238,1,97.7500018644333,8|0,0:0|3:0,0:0:0:0:
49,268,94775,1,0,3:0:0:0:
38,276,94850,5,0,1:0:0:0:
122,356,95000,1,0,0:0:0:0:
206,276,95150,1,8,0:0:0:0:
290,356,95300,1,0,3:0:0:0:
314,355,95375,1,0,3:0:0:0:
338,355,95450,1,0,3:0:0:0:
363,354,95525,1,0,3:0:0:0:
387,354,95600,1,0,1:0:0:0:
471,274,95750,1,8,0:0:0:0:
359,236,95900,1,8,0:0:0:0:
359,236,95975,1,8,0:0:0:0:
359,236,96050,6,0,B|371:190|371:190|358:142,1,93.5000028533936,0|0,1:0|0:0,0:0:0:0:
266,81,96350,1,10,0:2:0:0:
154,101,96500,1,2,3:2:0:0:
88,194,96650,1,2,3:2:0:0:
110,322,96800,1,2,1:2:0:0:
238,300,96950,1,10,0:2:0:0:
216,172,97100,1,0,3:0:0:0:
216,172,97175,1,0,3:0:0:0:
216,172,97250,5,2,1:2:0:0:
110,322,97400,1,2,0:2:0:0:
291,367,97550,1,10,0:2:0:0:
397,217,97700,1,2,3:2:0:0:
216,172,97850,1,0,3:0:0:0:
216,172,97925,1,0,3:0:0:0:
216,172,98000,1,0,1:0:0:0:
291,367,98150,1,10,0:2:0:0:
216,172,98300,1,2,3:2:0:0:
216,172,98375,1,0,3:0:0:0:
216,172,98450,6,0,P|205:121|217:72,1,93.5000028533936,2|0,1:2|0:0,0:0:0:0:
317,123,98750,1,10,0:2:0:0:
212,81,98900,1,2,3:2:0:0:
123,150,99050,1,2,3:2:0:0:
139,289,99200,1,2,1:2:0:0:
267,344,99350,1,10,0:2:0:0:
378,260,99500,1,0,3:0:0:0:
378,260,99575,1,0,3:0:0:0:
378,260,99650,5,2,1:2:0:0:
286,128,99800,1,2,0:2:0:0:
155,219,99950,1,10,0:2:0:0:
246,350,100100,1,2,3:2:0:0:
291,134,100250,21,0,3:0:0:0:
291,134,100325,1,0,3:0:0:0:
291,134,100400,1,0,1:0:0:0:
246,350,100550,1,8,0:0:0:0:
291,134,100700,1,0,3:0:0:0:
291,134,100775,1,0,3:0:0:0:
291,134,100850,6,0,P|246:92|239:178,1,187.000005706787,0|10,1:0|0:2,0:0:0:0:
105,103,101300,1,2,0:0:0:0:
227,262,101450,2,0,L|324:248,1,93.5000028533936,2|2,0:2|1:2,0:0:0:0:
165,210,101750,2,0,L|201:118,1,93.5000028533936,10|2,0:2|0:2,0:0:0:0:
87,236,102050,6,0,L|26:158,1,93.5000028533936,2|2,0:0|0:0,0:0:0:0:
96,60,102350,1,10,0:0:0:0:
199,123,102500,1,0,3:0:0:0:
221,129,102575,1,0,3:0:0:0:
244,129,102650,1,0,3:0:0:0:
266,121,102725,1,0,3:0:0:0:
284,107,102800,1,0,1:0:0:0:
223,12,102950,1,8,0:0:0:0:
385,104,103100,1,0,3:0:0:0:
385,104,103175,1,0,3:0:0:0:
385,104,103250,6,0,B|398:162|398:162|376:219|376:219|392:288,1,187.000005706787,0|10,1:0|0:2,0:0:0:0:
498,226,103700,1,2,3:2:0:0:
391,283,103850,1,2,3:2:0:0:
259,210,104000,1,2,1:2:0:0:
152,267,104150,1,10,0:2:0:0:
284,340,104300,1,0,3:0:0:0:
284,340,104375,1,0,3:0:0:0:
284,340,104450,6,0,L|162:351,1,93.5000028533936,4|2,1:0|0:0,0:0:0:0:
97,340,104675,1,0,1:0:0:0:
85,336,104750,2,0,L|76:276,1,46.7500014266968,8|0,0:0|0:0,0:0:0:0:
38,205,104900,1,0,1:0:0:0:
40,191,104975,1,0,0:0:0:0:
42,177,105050,5,2,0:0:0:0:
76,173,105125,1,0,0:0:0:0:
111,170,105200,1,8,0:0:0:0:
146,166,105275,1,8,0:0:0:0:
174,189,105350,5,8,0:0:0:0:
208,185,105425,1,0,0:0:0:0:
243,182,105500,1,8,0:0:0:0:
278,178,105575,1,8,0:0:0:0:
303,154,105650,6,0,P|351:145|316:252,1,187.000005706787,6|8,1:2|0:0,0:0:0:0:
243,182,106100,1,0,3:0:0:0:
125,247,106250,1,0,3:0:0:0:
125,247,106325,1,0,3:0:0:0:
125,247,106400,1,0,1:0:0:0:
122,381,106550,1,10,0:2:0:0:
240,316,106700,1,0,3:0:0:0:
240,316,106775,1,0,3:0:0:0:
240,316,106850,5,0,1:0:0:0:
125,247,107000,1,0,0:0:0:0:
161,118,107150,1,8,0:0:0:0:
294,119,107300,2,0,L|353:114,1,46.7500014266968,0|0,3:0|3:0,3:0:0:0:
421,155,107450,1,2,3:2:0:0:
421,155,107525,1,0,3:0:0:0:
421,155,107600,1,0,1:0:0:0:
240,316,107750,2,0,P|221:280|224:210,1,95.6250036478044,8|0,0:0|3:0,0:0:0:0:
318,249,108050,6,0,B|247:260|247:260|193:288|193:288|118:300,1,203.999993774414,6|8,1:2|0:0,0:0:0:0:
11,210,108500,1,0,3:0:0:0:
33,70,108650,1,0,3:0:0:0:
33,70,108725,1,0,3:0:0:0:
33,70,108800,1,0,1:0:0:0:
165,19,108950,2,0,B|178:67|178:67|166:122,1,101.999996887207,8|0,0:0|3:0,0:0:0:0:
115,216,109175,1,0,3:0:0:0:
130,221,109250,6,0,L|180:213,1,50.9999984436036,0|0,1:0|0:0,0:0:0:0:
181,296,109400,2,0,L|232:289,1,50.9999984436036
233,372,109550,2,0,L|284:365,1,50.9999984436036,8|0,0:0|0:0,0:0:0:0:
322,284,109700,1,0,3:0:0:0:
325,258,109775,1,0,3:0:0:0:
329,233,109850,1,2,3:2:0:0:
332,207,109925,1,0,3:0:0:0:
336,182,110000,1,0,1:0:0:0:
219,63,110150,2,0,B|244:67|263:63|263:63|247:78|235:90,1,82.8749962062838,8|0,0:0|3:0,0:0:0:0:
174,184,110450,6,0,P|257:148|221:82,1,170,2|8,1:2|0:0,0:0:0:0:
119,115,110900,1,0,3:0:0:0:
54,216,111050,1,0,3:0:0:0:
54,216,111125,1,0,3:0:0:0:
54,216,111200,2,0,L|56:288,1,42.5,0|0,1:0|0:0,0:0:0:0:
79,333,111350,1,8,0:0:0:0:
256,288,111500,1,0,3:0:0:0:
256,288,111575,1,0,3:0:0:0:
256,288,111650,5,0,1:0:0:0:
433,333,111800,1,0,0:0:0:0:
458,216,111950,2,0,L|358:222,1,85,8|0,0:0|3:0,0:0:0:0:
341,209,112175,1,0,3:0:0:0:
344,174,112250,1,2,3:2:0:0:
348,141,112325,1,0,3:0:0:0:
352,107,112400,1,0,1:0:0:0:
188,292,112550,2,0,B|216:286|216:286|226:292|226:292|255:287,1,70.1250021400452,8|0,0:0|3:0,0:0:0:0:
183,215,112850,6,0,L|188:377,1,152.999995330811,2|8,1:2|0:0,0:0:0:0:
56,275,113300,1,0,3:0:0:0:
104,122,113450,1,0,3:0:0:0:
104,122,113525,1,0,3:0:0:0:
104,122,113600,2,0,L|120:76,1,38.2499988327027,0|0,1:0|0:0,0:0:0:0:
264,120,113750,2,0,P|302:148|318:186,1,76.4999976654053,8|0,0:0|3:0,0:0:0:0:
266,309,113975,1,0,3:0:0:0:
260,327,114050,6,0,P|298:299|314:261,1,76.4999976654053,0|0,1:0|0:0,0:0:0:0:
264,120,114350,1,8,0:0:0:0:
104,122,114500,1,0,3:0:0:0:
104,122,114575,1,0,3:0:0:0:
104,122,114650,2,0,L|118:87,2,38.2499988327027,2|0|0,3:2|3:0|1:0,0:0:0:0:
56,275,114950,1,8,0:0:0:0:
187,367,115100,1,8,0:0:0:0:
213,351,115175,1,8,0:0:0:0:
239,335,115250,6,0,B|285:347|285:347|333:334,1,93.5000028533936,4|0,1:0|0:0,0:0:0:0:
394,242,115550,1,2,0:2:0:0:
374,130,115700,1,2,3:2:0:0:
281,64,115850,1,2,3:2:0:0:
153,86,116000,1,2,1:2:0:0:
175,214,116150,1,10,0:2:0:0:
303,192,116300,1,2,3:2:0:0:
303,192,116375,1,0,3:0:0:0:
303,192,116450,5,2,1:2:0:0:
153,86,116600,1,2,0:2:0:0:
108,267,116750,1,10,0:2:0:0:
258,373,116900,1,2,3:2:0:0:
303,192,117050,1,0,3:0:0:0:
303,192,117125,1,0,3:0:0:0:
303,192,117200,1,0,1:0:0:0:
108,267,117350,1,8,0:0:0:0:
303,192,117500,1,0,3:0:0:0:
303,192,117575,1,0,3:0:0:0:
303,192,117650,6,0,P|354:181|403:193,1,93.5000028533936,4|0,1:0|0:0,0:0:0:0:
351,293,117950,1,10,0:2:0:0:
393,188,118100,1,2,3:2:0:0:
324,99,118250,1,2,3:2:0:0:
185,115,118400,1,2,1:2:0:0:
130,243,118550,1,10,0:2:0:0:
214,354,118700,1,2,3:2:0:0:
215,354,118775,1,0,3:0:0:0:
215,354,118850,5,2,1:2:0:0:
347,262,119000,1,2,0:2:0:0:
256,131,119150,1,10,0:2:0:0:
125,222,119300,1,2,3:2:0:0:
354,269,119450,1,0,3:0:0:0:
354,269,119525,1,0,3:0:0:0:
354,269,119600,1,0,1:0:0:0:
125,222,119750,1,8,0:0:0:0:
354,269,119900,1,0,3:0:0:0:
354,269,119975,1,0,3:0:0:0:
354,269,120050,6,0,L|455:257,1,76.4999976654053,6|0,1:2|0:0,0:0:0:0:
311,248,120350,2,0,L|403:236,1,93.5000028533936,10|2,0:2|0:2,0:2:0:0:
158,269,120650,6,0,L|37:254,1,110.499994941712,2|2,0:2|1:2,0:2:0:0:
201,248,120950,2,0,L|59:231,1,127.500004863739,10|2,0:2|0:2,0:2:0:0:
266,107,121250,6,0,B|122:90,1,144.500002756119,6|2,1:2|0:2,0:2:0:0:
99,260,121550,6,0,B|75:234|75:234|121:246|166:230,1,127.500004863739,10|2,0:2|0:2,0:2:0:0:
187,224,121775,1,0,3:0:0:0:
210,224,121850,1,0,3:0:0:0:
232,232,121925,1,0,3:0:0:0:
250,246,122000,1,0,1:0:0:0:
326,347,122150,1,8,0:0:0:0:
422,252,122300,1,0,3:0:0:0:
422,252,122375,1,0,3:0:0:0:
422,252,122450,6,0,P|399:225|362:242,1,76.4999976654053,4|0,1:2|0:0,0:0:0:0:
426,270,122750,2,0,P|424:230|351:250,1,127.500004863739,10|2,0:2|0:2,0:2:0:0:
90,252,123050,6,0,P|108:193|145:212,1,110.499994941712,2|2,1:2|1:2,0:2:0:0:
76,263,123350,2,0,P|71:206|157:202,1,152.999995330811,10|2,0:2|0:2,0:2:0:0:
256,320,123650,5,2,1:2:0:0:
359,89,123800,1,10,0:2:0:0:
153,89,123950,1,10,0:2:0:0:
256,224,124100,1,0,1:0:0:0:
272,229,124175,1,0,0:0:0:0:
288,234,124250,6,0,L|340:218,1,42.5,8|0,0:0|0:0,0:0:0:0:
422,248,124400,2,0,L|473:263,1,42.5,0|0,1:0|0:0,0:0:0:0:
456,342,124550,5,8,0:0:0:0:
413,342,124625,1,8,0:0:0:0:
371,343,124700,1,8,0:0:0:0:
328,343,124775,1,8,0:0:0:0:
256,320,124850,5,6,1:2:0:0:
106,243,125300,1,2,0:0:0:0:
97,230,125450,1,0,3:0:0:0:
224,162,125750,1,0,3:0:0:0:
233,149,125900,1,2,0:0:0:0:
100,92,126200,1,2,0:0:0:0:
91,79,126350,1,0,3:0:0:0:
226,27,126650,6,0,B|258:23|287:39|287:39|302:27|302:27|327:35|378:35,1,148.75,2|0,0:0|0:0,0:0:0:0:
439,103,127250,5,2,0:0:0:0:
452,112,127400,1,2,0:0:0:0:
297,182,127700,1,2,0:0:0:0:
284,191,127850,1,0,3:0:0:0:
421,291,128150,1,2,0:0:0:0:
434,300,128300,1,2,0:0:0:0:
279,370,128600,1,0,3:0:0:0:
266,379,128750,1,2,0:0:0:0:
121,289,129050,6,0,B|83:270|83:270|55:321|55:321|9:297,1,148.75,2|0,0:0|0:0,0:0:0:0:
28,215,129650,5,2,0:0:0:0:
41,206,129800,1,2,0:0:0:0:
139,67,130100,1,0,3:0:0:0:
154,69,130250,1,2,0:0:0:0:
484,215,130550,1,2,0:0:0:0:
471,206,130700,1,0,3:0:0:0:
373,67,131000,1,2,0:0:0:0:
358,69,131150,1,2,0:0:0:0:
256,192,131450,6,0,B|247:225|258:254|258:254|251:262|251:262|265:300|252:338,1,148.75,2|0,0:0|0:0,0:0:0:0:
171,297,132050,6,0,P|134:294|95:308,1,72.2500013780594,2|0,0:0|3:0,0:0:0:0:
140,143,132500,2,0,P|106:158|79:190,1,72.2500013780594,2|0,0:0|3:0,0:0:0:0:
372,143,132950,6,0,P|405:158|432:190,1,72.2500013780594,2|0,0:0|3:0,0:0:0:0:
341,297,133400,2,0,P|378:294|417:308,1,72.2500013780594,0|2,3:0|0:0,0:0:0:0:
256,384,133700,5,2,0:0:0:0:
256,192,133850,1,2,0:0:0:0:
256,64,134450,5,4,3:0:0:0:
345,101,134600,1,0,0:0:0:0:
381,189,134750,1,0,0:0:0:0:
345,277,134900,1,0,1:0:0:0:
256,340,135050,5,0,1:0:0:0:
150,295,135200,1,0,0:0:0:0:
105,190,135350,1,0,1:0:0:0:
150,83,135500,1,0,1:0:0:0:
256,314,135650,5,2,0:0:0:0:
168,277,135800,1,2,0:0:0:0:
131,189,135950,1,0,3:0:0:0:
168,100,136100,1,2,0:0:0:0:
294,152,136250,5,0,0:0:0:0:
257,242,136400,1,0,0:0:0:0:
168,277,136550,1,0,0:0:0:0:
82,243,136700,1,0,0:0:0:0:
257,242,136850,6,0,L|336:242,1,59.4999981842042,2|0,0:0|3:0,0:0:0:0:
393,242,137150,6,0,L|316:242,1,76.4999976654053,2|0,0:0|3:0,0:0:0:0:
163,242,137450,6,0,L|256:242,1,93.5000028533936,2|0,0:0|3:0,0:0:0:0:
503,242,137750,6,0,L|392:242,1,110.499994941712,0|0,1:0|1:0,0:0:0:0:
206,206,138050,5,2,0:0:0:0:
206,91,138200,1,2,0:0:0:0:
316,56,138350,1,2,0:0:0:0:
383,149,138500,1,2,0:0:0:0:
206,91,138650,5,0,0:0:0:0:
50,140,138800,1,0,0:0:0:0:
50,303,138950,1,0,0:0:0:0:
206,354,139100,1,0,0:0:0:0:
300,222,139250,6,0,P|306:258|300:290,1,59.4999981842042,0|0,1:0|1:0,0:0:0:0:
302,355,139550,6,0,P|296:319|304:274,1,76.4999976654053,0|0,0:0|1:0,0:0:0:0:
467,319,139850,6,0,P|424:330|371:316,1,93.5000028533936,2|0,3:2|0:0,0:0:0:0:
103,255,140150,6,0,P|156:241|210:254,1,110.499994941712,2|0,0:0|3:0,0:0:0:0:
285,167,140450,5,0,0:0:0:0:
285,52,140600,1,2,0:0:0:0:
175,17,140750,1,0,3:0:0:0:
108,110,140900,1,0,0:0:0:0:
175,202,141050,5,0,0:0:0:0:
108,110,141200,1,0,0:0:0:0:
175,17,141350,1,0,0:0:0:0:
285,52,141500,1,0,0:0:0:0:
285,167,141650,6,0,L|363:168,1,59.4999981842042,0|0,3:0|3:0,0:0:0:0:
455,281,141950,6,0,L|369:282,1,76.4999976654053,2|0,0:0|1:0,0:0:0:0:
143,259,142250,6,0,L|261:258,1,93.5000028533936,0|2,3:0|0:0,0:0:0:0:
285,52,142550,6,0,L|172:52,1,110.499994941712,0|0,1:0|1:0,0:0:0:0:
77,114,142850,5,2,0:0:0:0:
41,223,143000,1,2,0:0:0:0:
83,329,143150,1,0,3:0:0:0:
183,383,143300,1,2,0:0:0:0:
112,129,143450,5,0,0:0:0:0:
83,216,143600,1,0,0:0:0:0:
117,301,143750,1,0,0:0:0:0:
197,344,143900,1,0,0:0:0:0:
400,129,144050,5,6,3:2:0:0:
429,216,144200,1,4,3:0:0:0:
395,301,144350,1,0,0:0:0:0:
315,344,144500,1,4,3:0:0:0:
217,360,144650,6,0,B|167:346|167:346|99:356,1,101.999996887207,8|0,0:0|3:0,0:0:0:0:
77,363,144875,1,0,3:0:0:0:
77,363,144950,1,4,3:0:0:0:
171,256,145100,1,4,3:0:0:0:
119,122,145250,6,0,B|122:90|122:90|151:56,1,68,0|0,1:0|1:0,0:0:0:0:
393,122,145550,2,0,B|390:90|390:90|361:56,1,68,0|0,1:0|0:0,0:0:0:0:
256,192,145850,5,8,0:0:0:0:
341,256,146000,1,0,1:0:0:0:
341,256,146075,1,0,1:0:0:0:
368,357,146300,6,0,L|355:354,6,12.7499996109009,0|0|0|0|0|0|0,3:0|3:0|3:0|3:0|3:0|3:0|3:0,3:0:0:0:
355,354,146450,6,0,L|277:356,1,68,2|0,0:0|3:0,0:0:0:0:
202,270,146750,1,0,3:0:0:0:
202,270,146900,1,0,3:0:0:0:
307,220,147050,6,0,B|280:215|265:199|265:199|276:253|256:316|256:316|234:285|183:259,1,237.999992736817,8|0,0:0|0:0,0:0:0:0:
318,140,147500,6,0,L|345:136,1,25.4999992218018,0|0,3:0|0:0,0:0:0:0:
315,132,147575,2,0,L|340:129,1,25.4999992218018,0|0,3:0|0:0,0:0:0:0:
312,124,147650,6,0,L|386:113,1,68,0|0,1:0|0:0,0:0:0:0:
201,269,147950,2,0,L|127:281,1,68,0|0,1:0|3:0,0:0:0:0:
198,103,148250,5,8,0:0:0:0:
140,285,148400,1,0,1:0:0:0:
140,285,148475,1,0,1:0:0:0:
140,285,148550,2,0,P|142:260|140:242,1,42.5,0|0,3:0|3:0,3:0:0:0:
114,147,148700,1,0,1:0:0:0:
114,147,148775,1,0,1:0:0:0:
114,147,148850,5,2,3:2:0:0:
198,103,149000,1,0,3:0:0:0:
289,124,149150,1,0,3:0:0:0:
336,205,149300,1,0,3:0:0:0:
313,297,149450,6,0,P|260:314|206:291,1,101.999996887207,8|0,0:0|3:0,0:0:0:0:
179,274,149675,1,0,3:0:0:0:
179,274,149750,1,4,3:0:0:0:
336,205,149900,1,4,3:0:0:0:
198,103,150050,5,0,1:0:0:0:
283,312,150200,1,0,1:0:0:0:
308,90,150350,1,0,1:0:0:0:
104,180,150500,1,0,3:0:0:0:
336,205,150650,5,8,0:0:0:0:
221,193,150800,1,0,1:0:0:0:
221,193,150875,1,0,1:0:0:0:
104,180,151100,6,0,L|109:158,6,12.7499996109009,0|0|0|0|0|0|0,3:0|3:0|3:0|3:0|3:0|3:0|3:0,3:0:0:0:
106,167,151250,6,0,L|99:74,1,68,2|0,0:0|3:0,0:0:0:0:
221,193,151550,1,0,3:0:0:0:
221,193,151700,1,0,3:0:0:0:
390,119,151850,6,0,P|328:90|221:202,1,237.999992736817,8|0,0:0|0:0,0:0:0:0:
324,282,152300,6,0,L|320:307,1,25.4999992218018,0|0,3:0|0:0,0:0:0:0:
316,279,152375,2,0,L|312:304,1,25.4999992218018,0|0,3:0|0:0,0:0:0:0:
309,272,152450,6,0,L|322:179,1,85,0|0,1:0|1:0,0:0:0:0:
390,119,152675,1,0,0:0:0:0:
379,114,152750,2,0,L|440:104,1,42.5,0|0,1:0|0:0,0:0:0:0:
286,52,152900,2,0,L|347:42,1,42.5
211,115,153050,5,8,0:0:0:0:
196,159,153125,1,0,1:0:0:0:
202,204,153200,1,0,3:0:0:0:
228,241,153275,1,0,3:0:0:0:
240,175,153350,5,0,3:0:0:0:
196,159,153425,1,0,3:0:0:0:
151,165,153500,1,0,3:0:0:0:
114,191,153575,1,0,3:0:0:0:
95,233,153650,5,4,3:0:0:0:
170,317,153800,1,4,3:0:0:0:
284,334,153950,1,2,0:2:0:0:
380,275,154100,1,2,3:2:0:0:
417,167,154250,6,0,B|398:38,1,101.999996887207,10|2,0:0|3:0,0:0:0:0:
378,39,154475,1,0,3:0:0:0:
378,39,154550,1,4,3:0:0:0:
505,156,154700,1,4,3:0:0:0:
300,134,154850,5,2,1:2:0:0:
485,56,155000,1,2,1:2:0:0:
291,139,155150,2,0,L|211:133,1,68,0|0,3:0|0:0,0:0:0:0:
5,109,155450,5,8,0:0:0:0:
114,121,155600,1,0,1:0:0:0:
114,121,155675,1,0,1:0:0:0:
223,133,155900,6,0,L|226:146,6,12.7499996109009,0|0|0|0|0|0|0,3:0|3:0|3:0|3:0|3:0|3:0|3:0,3:0:0:0:
225,145,156050,6,0,L|223:223,1,68,0|2,1:0|3:2,0:0:0:0:
297,301,156350,1,2,3:2:0:0:
297,301,156500,1,2,3:2:0:0:
73,343,156650,6,0,B|111:326|155:346|155:346|191:332|238:349|238:349|216:313|223:284,1,237.999992736817,10|2,0:0|0:0,0:0:0:0:
430,163,157100,6,0,L|426:136,1,25.4999992218018,0|0,3:0|0:0,0:0:0:0:
422,166,157175,2,0,L|419:141,1,25.4999992218018,0|0,3:0|0:0,0:0:0:0:
414,169,157250,6,0,L|403:95,1,68,0|8,1:0|0:0,0:0:0:0:
297,301,157550,2,0,L|309:375,1,68,0|0,1:0|3:0,0:0:0:0:
464,273,157850,5,8,0:0:0:0:
253,183,158000,1,0,1:0:0:0:
253,183,158075,1,0,1:0:0:0:
253,183,158150,2,0,P|228:181|210:183,1,42.5,0|0,3:0|3:0,3:0:0:0:
120,235,158300,1,0,3:0:0:0:
120,235,158375,1,0,3:0:0:0:
120,235,158450,5,0,3:2:0:0:
183,105,158600,1,2,3:2:0:0:
313,168,158750,1,2,3:2:0:0:
250,298,158900,1,2,3:2:0:0:
183,105,159050,6,0,B|132:90|132:90|83:105,1,101.999996887207,10|0,0:0|3:0,0:0:0:0:
54,123,159275,1,0,3:0:0:0:
54,123,159350,1,4,3:0:0:0:
120,235,159500,1,4,3:0:0:0:
313,168,159650,6,0,L|305:93,1,50.9999984436036,0|0,1:0|0:0,0:0:0:0:
410,204,159800,2,0,L|404:254,1,50.9999984436036,0|0,1:0|0:0,0:0:0:0:
313,168,159950,2,0,L|198:176,1,101.999996887207,0|0,1:0|3:0,0:0:0:0:
222,338,160250,5,8,0:0:0:0:
318,288,160400,1,0,1:0:0:0:
318,288,160475,1,0,1:0:0:0:
414,238,160700,6,0,L|417:251,6,12.7499996109009,0|0|0|0|0|0|0,3:0|3:0|3:0|3:0|3:0|3:0|3:0,3:0:0:0:
416,250,160850,6,0,P|434:298|433:330,1,68,0|2,1:0|3:2,0:0:0:0:
222,338,161150,2,0,P|204:290|205:258,1,68,2|2,3:2|3:2,0:0:0:0:
345,168,161450,6,0,B|304:183|260:170|260:170|259:199|259:199|204:160|133:208,1,237.999992736817,10|0,0:0|3:0,0:0:0:0:
303,88,161900,6,0,L|296:63,1,25.4999992218018
293,82,161975,2,0,L|286:57,1,25.4999992218018
272,34,162050,6,0,L|283:76,1,42.5,0|0,3:0|0:0,0:0:0:0:
133,159,162200,2,0,L|144:201,1,42.5,0|0,3:0|0:0,0:0:0:0:
247,21,162350,6,0,L|258:63,1,42.5
108,146,162500,2,0,L|119:188,1,42.5,2|0,0:0|0:0,0:0:0:0:
177,299,162650,6,0,P|200:315|219:320,1,42.5
335,358,162800,2,0,P|360:346|374:332,1,42.5
447,234,162950,6,0,L|373:241,1,50.9999984436036,0|0,3:0|3:0,0:0:0:0:
292,180,163100,2,0,L|342:175,1,50.9999984436036,0|0,3:0|3:0,0:0:0:0:
224,141,163250,5,4,1:0:0:0:
400,78,163400,1,0,0:0:0:0:
287,242,163550,1,10,0:2:0:0:
191,42,163700,1,2,3:2:0:0:
156,64,163775,1,0,3:0:0:0:
132,97,163850,1,2,3:2:0:0:
123,138,163925,1,0,3:0:0:0:
129,178,164000,1,0,1:0:0:0:
396,229,164150,2,0,L|286:241,1,110.499994941712,8|0,0:0|3:0,0:0:0:0:
203,247,164375,1,0,3:0:0:0:
195,252,164450,5,0,1:0:0:0:
352,326,164600,1,2,0:2:0:0:
150,330,164750,1,10,0:2:0:0:
369,176,164900,1,0,3:0:0:0:
387,213,164975,1,0,3:0:0:0:
390,254,165050,1,2,3:2:0:0:
377,293,165125,1,0,3:0:0:0:
351,326,165200,1,0,1:0:0:0:
292,131,165350,2,0,P|339:94|394:91,1,110.499994941712,10|0,0:0|3:0,0:0:0:0:
445,19,165575,1,0,3:0:0:0:
428,15,165650,6,0,P|465:62|468:117,1,110.499994941712,0|0,1:0|0:0,0:0:0:0:
244,60,165950,2,0,L|126:61,1,110.499994941712,10|2,0:2|3:2,0:0:0:0:
96,78,166175,1,0,3:0:0:0:
68,108,166250,1,2,3:2:0:0:
55,147,166325,1,0,3:0:0:0:
57,188,166400,1,0,1:0:0:0:
180,299,166550,2,0,L|293:292,1,110.499994941712,8|0,0:0|3:0,0:0:0:0:
195,210,166775,1,0,3:0:0:0:
210,220,166850,6,0,L|323:213,1,110.499994941712,0|2,1:0|0:2,0:0:0:0:
463,127,167150,1,10,0:2:0:0:
319,44,167300,1,0,3:0:0:0:
319,44,167375,1,0,3:0:0:0:
319,44,167450,2,0,L|258:52,2,55.2499974708558,2|0|0,3:2|3:0|1:0,0:0:0:0:
210,220,167750,1,10,0:2:0:0:
134,93,167900,1,0,3:0:0:0:
134,93,167975,1,0,3:0:0:0:
134,93,168050,6,0,P|72:95|12:133,1,110.499994941712,0|0,1:0|0:0,0:0:0:0:
75,275,168350,2,0,P|137:273|197:235,1,110.499994941712,10|2,0:2|3:2,0:0:0:0:
210,220,168575,1,0,3:0:0:0:
212,261,168650,1,2,1:2:0:0:
214,302,168725,1,0,0:0:0:0:
216,344,168800,1,0,1:0:0:0:
329,145,168950,2,0,B|384:136|384:136|437:152,1,110.499994941712,8|0,0:0|3:0,0:0:0:0:
492,212,169175,1,0,3:0:0:0:
487,220,169250,5,0,1:0:0:0:
329,145,169400,1,2,0:2:0:0:
453,65,169550,1,10,0:2:0:0:
269,22,169700,1,0,3:0:0:0:
255,61,169775,1,0,3:0:0:0:
263,101,169850,1,2,3:2:0:0:
290,132,169925,1,0,3:0:0:0:
329,145,170000,1,0,1:0:0:0:
151,300,170150,2,0,L|136:167,1,110.499994941712,10|0,0:2|3:0,0:0:0:0:
61,166,170375,1,0,3:0:0:0:
61,149,170450,6,0,P|101:113|155:109,1,110.499994941712,0|0,1:0|0:0,0:0:0:0:
332,298,170750,2,0,P|291:333|237:337,1,110.499994941712,10|2,0:0|3:2,0:0:0:0:
272,360,170975,1,0,3:0:0:0:
313,359,171050,1,2,3:2:0:0:
355,359,171125,1,0,3:0:0:0:
396,359,171200,1,0,1:0:0:0:
478,120,171350,2,0,L|346:126,1,110.499994941712,8|0,0:0|0:0,0:0:0:0:
292,86,171575,1,0,0:0:0:0:
282,92,171650,5,0,1:0:0:0:
61,139,171800,1,2,0:2:0:0:
162,70,171950,1,10,0:2:0:0:
39,259,172100,1,0,3:0:0:0:
39,259,172175,1,0,3:0:0:0:
39,258,172250,2,0,P|37:286|43:313,2,55.2499974708558,2|0|0,3:2|3:0|1:0,0:0:0:0:
162,70,172550,1,10,0:2:0:0:
241,242,172700,1,0,3:0:0:0:
241,242,172775,1,0,3:0:0:0:
241,242,172850,6,0,L|311:230,1,55.2499974708558,8|8,0:0|0:0,0:0:0:0:
401,123,173000,2,0,L|346:132,1,55.2499974708558,4|8,3:0|0:0,0:0:0:0:
222,233,173150,6,0,L|292:221,1,55.2499974708558,8|0,0:0|0:0,0:0:0:0:
382,114,173300,2,0,L|273:132,1,110.499994941712,10|0,0:0|0:0,0:0:0:0:
155,102,173600,1,0,1:0:0:0:
351,0,173750,2,0,L|242:18,1,110.499994941712,8|0,0:0|0:0,0:0:0:0:
66,185,174050,5,0,1:0:0:0:
272,132,174200,1,2,0:2:0:0:
155,102,174350,1,10,0:2:0:0:
85,300,174500,1,0,3:0:0:0:
100,337,174575,1,0,3:0:0:0:
131,364,174650,1,2,3:2:0:0:
171,373,174725,1,0,3:0:0:0:
211,362,174800,1,0,1:0:0:0:
360,246,174950,2,0,L|238:263,1,110.499994941712,10|0,0:2|3:0,0:0:0:0:
172,287,175175,1,0,3:0:0:0:
161,286,175250,5,0,1:0:0:0:
317,332,175400,1,0,0:0:0:0:
221,178,175550,1,10,0:2:0:0:
377,224,175700,1,2,3:2:0:0:
417,226,175775,1,0,3:0:0:0:
454,209,175850,1,2,3:2:0:0:
477,175,175925,1,0,3:0:0:0:
480,134,176000,1,0,1:0:0:0:
247,0,176150,2,0,P|208:57|207:97,1,110.499994941712,8|0,0:0|3:0,0:0:0:0:
314,185,176375,1,0,3:0:0:0:
328,169,176450,6,0,B|276:185|276:185|215:177,1,110.499994941712,0|2,1:0|0:2,0:0:0:0:
37,291,176750,2,0,B|92:283|92:283|144:299,1,110.499994941712,10|0,0:2|3:0,0:0:0:0:
177,324,176975,1,0,3:0:0:0:
218,327,177050,1,2,3:2:0:0:
254,309,177125,1,0,3:0:0:0:
275,274,177200,1,0,1:0:0:0:
143,104,177350,1,10,0:2:0:0:
381,174,177500,1,0,3:0:0:0:
381,174,177575,1,0,3:0:0:0:
381,174,177650,6,0,P|391:202|392:235,1,55.2499974708558,10|8,0:2|0:0,0:0:0:0:
292,222,177800,2,4,P|286:251|271:280,1,55.2499974708558,2|4,1:2|3:0,3:0:0:0:
193,215,177950,2,0,P|173:237|145:255,1,55.2499974708558,10|0,0:2|0:0,0:0:0:0:
106,158,178100,6,0,P|80:87|199:72,1,220.999989883423,12|0,0:0|1:0,0:0:0:0:
3,116,178550,2,0,P|12:52|42:7,1,110.499994941712,8|0,0:0|0:0,0:0:0:0:
143,104,178850,5,0,1:0:0:0:
28,201,179000,1,2,0:2:0:0:
35,13,179150,1,10,0:2:0:0:
149,215,179300,1,0,3:0:0:0:
190,215,179375,1,0,3:0:0:0:
231,215,179450,1,2,3:2:0:0:
273,215,179525,1,0,3:0:0:0:
314,215,179600,1,0,1:0:0:0:
149,215,179750,2,0,L|160:332,1,110.499994941712,10|0,0:2|0:0,0:0:0:0:
425,230,180050,6,0,P|433:161|293:64,1,255.000009727478,4|8,1:0|0:0,0:0:0:0:
297,63,180500,1,2,3:0:0:0:
87,230,180650,6,0,P|101:109|214:63,1,255.000009727478,4|8,1:0|0:0,0:0:0:0:
213,62,181100,1,0,0:0:0:0:
87,230,181250,5,0,1:0:0:0:
425,230,181400,1,2,1:3:0:0:
87,230,181550,1,8,0:0:0:0:
425,230,181700,2,0,L|487:223,1,42.5,0|0,1:0|0:0,0:0:0:0:
427,142,181850,5,8,1:0:0:0:
398,120,181925,1,8,1:0:0:0:
362,114,182000,1,8,1:0:0:0:
328,125,182075,1,8,1:0:0:0:
302,150,182150,5,8,1:0:0:0:
292,185,182225,1,8,1:0:0:0:
298,220,182300,1,8,1:0:0:0:
320,249,182375,1,8,1:0:0:0:
350,325,182450,6,0,B|300:339|300:339|250:331,1,101.999996887207,4|8,1:0|0:0,0:0:0:0:
93,129,182735,2,0,B|143:115|143:115|192:122,1,101.999996887207,0|0,1:0|1:0,0:0:0:0:
87,349,183021,2,0,L|76:113,1,203.999993774414,8|0,0:0|1:0,0:0:0:0:
331,205,183450,2,0,L|228:198,2,101.999996887207,8|0|0,0:0|1:0|1:0,0:0:0:0:
501,317,183878,1,8,0:0:0:0:
303,363,184021,1,0,1:0:0:0:
133,251,184164,5,0,1:0:0:0:
306,109,184307,2,0,L|408:116,2,101.999996887207,8|8|0,0:0|1:0|1:0,0:0:0:0:
133,251,184735,1,8,0:0:0:0:
103,31,184878,1,8,1:0:0:0:
306,109,185021,1,0,1:0:0:0:
82,145,185164,1,8,0:0:0:0:
218,35,185307,1,8,0:0:0:0:
246,207,185450,1,0,1:0:0:0:
82,145,185592,1,8,0:0:0:0:
46,180,185664,1,8,0:0:0:0:
38,230,185735,1,8,1:0:0:0:
58,276,185807,1,8,0:0:0:0:
99,306,185878,6,0,P|144:329|194:327,1,101.999996887207,4|8,1:0|0:0,0:0:0:0:
401,129,186164,2,0,P|356:106|306:108,1,101.999996887207,0|0,1:0|1:0,0:0:0:0:
407,264,186450,1,8,0:0:0:0:
187,178,186592,1,0,1:0:0:0:
305,352,186735,1,0,1:0:0:0:
305,108,186878,2,0,L|294:211,1,101.999996887207,8|0,0:0|1:0,0:0:0:0:
94,368,187164,2,0,L|83:265,2,101.999996887207,0|8|8,1:0|0:0|1:0,0:0:0:0:
211,200,187592,5,0,1:0:0:0:
122,15,187735,1,8,0:0:0:0:
5,183,187878,1,8,1:0:0:0:
220,315,188021,2,0,B|269:319|269:319|331:292,1,101.999996887207,0|8,1:0|0:0,0:0:0:0:
124,176,188307,1,8,1:0:0:0:
281,73,188450,1,0,1:0:0:0:
317,297,188592,1,8,0:0:0:0:
124,176,188735,5,8,1:0:0:0:
372,103,188867,1,0,1:0:0:0:
317,297,188999,1,8,0:0:0:0:
352,333,189065,1,8,0:0:0:0:
402,341,189131,1,8,1:0:0:0:
448,321,189197,1,8,0:0:0:0:
474,278,189263,6,0,B|497:233|497:233|441:244,1,101.999996887207,12|0,1:0|1:0,0:0:0:0:
296,129,189527,2,0,B|260:93|260:93|253:149,1,101.999996887207,8|0,1:0|0:0,0:0:0:0:
187,285,189791,2,0,B|141:307|141:307|193:331,1,101.999996887207,8|0,0:0|1:0,0:0:0:0:
387,201,190055,5,8,0:0:0:0:
174,91,190188,1,8,1:0:0:0:
187,328,190320,1,0,1:0:0:0:
372,201,190452,5,8,0:0:0:0:
182,102,190584,1,8,0:0:0:0:
193,316,190716,1,0,1:0:0:0:
360,201,190848,5,8,0:0:0:0:
188,112,190981,1,0,1:0:0:0:
199,304,191113,1,8,1:0:0:0:
349,201,191245,5,0,0:0:0:0:
194,122,191377,1,8,1:0:0:0:
203,294,191509,1,0,1:0:0:0:
338,202,191641,5,8,0:0:0:0:
199,129,191774,2,0,L|197:188,1,42.5,8|0,1:0|0:0,0:0:0:0:
208,285,191906,5,8,1:0:0:0:
31,152,192038,1,0,0:0:0:0:
96,256,192170,2,0,L|96:208,1,42.5,8|0,1:0|0:0,0:0:0:0:
44,34,192302,2,0,L|32:80,1,42.5,8|8,0:0|0:0,0:0:0:0:
25,159,192418,6,0,L|119:153,1,85,12|0,1:0|1:0,0:0:0:0:
487,159,192682,2,0,L|393:153,1,85,8|0,1:0|1:0,0:0:0:0:
97,337,192946,6,0,L|175:284,1,85,8|0,0:0|0:0,0:0:0:0:
415,337,193210,2,0,L|336:284,1,85,8|0,0:0|0:0,0:0:0:0:
256,192,193475,6,0,L|256:111,1,63.7500024318696,0|0,0:0|3:0,0:0:0:0:
256,272,193739,1,0,3:0:0:0:
256,272,193871,1,0,0:0:0:0:
356,134,194003,6,0,P|383:103|429:87,1,63.7500024318696,0|0,3:0|0:0,0:0:0:0:
446,257,194268,1,0,0:0:0:0:
156,134,194400,6,0,P|128:104|84:88,1,63.7500024318696,0|0,3:0|0:0,0:0:0:0:
66,257,194664,1,0,3:0:0:0:
436,169,194796,6,0,P|480:178|522:214,1,85,0|0,3:0|0:0,0:0:0:0:
374,308,195061,1,0,3:0:0:0:
76,169,195193,6,0,P|31:178|-10:214,1,85,0|0,0:0|1:0,0:0:0:0:
138,308,195457,1,0,1:0:0:0:
256,192,195562,5,4,1:0:0:0:
256,192,195700,12,0,199847,0:0:0:0:
256,192,199985,12,0,204271,0:0:0:0:
161,100,204409,6,0,L|158:217,1,85,6|0,0:0|0:0,0:0:0:0:
206,249,204824,1,2,0:0:0:0:
331,239,204962,2,0,B|244:254|244:254|197:247,1,127.5,0|0,3:0|0:0,0:0:0:0:
292,163,205515,6,0,P|311:146|336:134,1,42.5,0|2,0:0|0:0,0:0:0:0:
331,239,205792,2,0,P|356:234|384:237,1,42.5,0|2,0:0|0:0,0:0:0:0:
300,318,206068,2,0,P|324:326|346:342,1,42.5,0|0,3:0|0:0,0:0:0:0:
221,352,206345,1,0,0:0:0:0:
221,352,206483,1,2,0:0:0:0:
149,304,206621,6,0,L|138:246,1,42.5,0|2,0:0|0:0,0:0:0:0:
49,186,206898,2,0,L|104:205,1,42.5,0|2,0:0|0:0,0:0:0:0:
200,159,207174,2,0,L|155:197,1,42.5,0|0,3:0|0:0,0:0:0:0:
115,124,207451,1,0,0:0:0:0:
115,124,207589,1,2,0:0:0:0:
200,159,207727,6,0,P|225:165|256:162,1,42.5,0|2,0:0|0:0,0:0:0:0:
365,114,208004,2,0,P|340:108|309:111,1,42.5,0|2,0:0|0:0,0:0:0:0:
395,187,208280,1,0,3:0:0:0:
391,294,208419,1,4,3:0:0:0:
312,366,208557,1,4,3:0:0:0:
205,361,208695,1,4,3:0:0:0:
312,366,208833,6,0,L|299:258,1,85,6|0,0:0|0:0,0:0:0:0:
251,218,209248,1,2,0:0:0:0:
240,133,209386,2,0,L|250:217,1,85,0|0,3:0|0:0,0:0:0:0:
301,281,209801,1,2,0:0:0:0:
221,294,209939,6,0,P|219:319|210:345,1,42.5,0|2,0:0|0:0,0:0:0:0:
139,267,210216,2,0,P|124:288|102:305,1,42.5,0|2,0:0|0:0,0:0:0:0:
105,190,210492,2,0,P|82:201|55:205,1,42.5,0|0,3:0|0:0,0:0:0:0:
137,110,210769,1,0,0:0:0:0:
137,110,210907,1,2,0:0:0:0:
225,95,211045,6,0,L|291:99,1,42.5,0|2,0:0|0:0,0:0:0:0:
292,186,211322,2,0,L|358:190,1,42.5,0|2,0:0|0:0,0:0:0:0:
359,277,211598,2,0,L|425:281,1,42.5,0|0,3:0|0:0,0:0:0:0:
426,368,211875,1,0,0:0:0:0:
426,368,212013,1,2,0:0:0:0:
359,277,212151,6,0,P|340:271|315:271,1,34,2|0,0:0|0:0,0:0:0:0:
212,228,212428,2,0,P|206:247|206:272,1,34,2|0,0:0|0:0,0:0:0:0:
160,342,212704,6,0,P|188:350|225:350,1,50.9999984436036,2|0,0:0|0:0,0:0:0:0:
318,384,212981,2,0,P|326:355|326:318,1,50.9999984436036,2|0,0:0|0:0,0:0:0:0:
212,228,213257,6,0,L|121:237,1,68,0|0,1:0|1:0,0:0:0:0:
60,118,213533,1,8,0:0:0:0:
206,107,213671,1,0,0:0:0:0:
206,107,213740,1,0,0:0:0:0:
206,107,213809,1,0,1:0:0:0:
65,239,213948,1,0,1:0:0:0:
212,228,214086,2,0,L|279:221,1,68,8|8,0:0|0:0,0:0:0:0:
361,305,214362,5,0,1:0:0:0:
415,179,214501,2,0,P|420:224|402:261,1,68,0|8,1:0|0:0,0:0:0:0:
253,313,214777,1,8,1:0:0:0:
253,313,214846,1,8,1:0:0:0:
313,152,215054,5,0,1:0:0:0:
249,325,215192,1,0,1:0:0:0:
131,183,215330,1,8,3:0:0:0:
131,183,215399,1,4,3:0:0:0:
131,183,215468,5,0,1:0:0:0:
330,257,215607,1,0,3:0:0:0:
149,288,215745,2,0,L|74:284,1,68,8|0,0:0|3:0,0:0:0:0:
19,256,215952,1,8,3:0:0:0:
9,248,216021,1,8,3:0:0:0:
213,114,216160,6,0,L|219:83,4,25.4999992218018,0|0|0|0|8,3:0|3:0|3:0|3:0|3:0,3:0:0:0:
84,134,216436,1,8,1:0:0:0:
164,215,216574,5,0,1:0:0:0:
137,46,216713,1,0,1:0:0:0:
306,19,216851,1,8,0:0:0:0:
333,188,216989,1,0,3:0:0:0:
333,188,217058,1,4,3:0:0:0:
333,188,217127,2,0,L|324:241,1,34,0|0,1:0|0:0,0:0:0:0:
395,247,217266,2,0,L|386:300,1,34,0|0,1:0|0:0,0:0:0:0:
457,306,217404,1,0,3:0:0:0:
309,304,217542,1,4,3:0:0:0:
309,304,217611,1,4,3:0:0:0:
309,304,217680,6,0,B|276:306|276:306|243:323,1,68,0|0,1:0|3:0,0:0:0:0:
43,262,217957,2,0,B|76:260|76:260|109:243,1,68,8|0,0:0|3:0,0:0:0:0:
158,199,218164,1,8,3:0:0:0:
166,209,218233,1,0,1:0:0:0:
5,164,218372,1,0,1:0:0:0:
198,68,218510,2,0,P|211:107|209:152,1,68,8|0,0:0|3:0,0:0:0:0:
85,35,218786,5,0,1:0:0:0:
166,209,218925,1,0,1:0:0:0:
77,24,219063,1,8,0:0:0:0:
174,219,219201,1,0,1:0:0:0:
174,219,219270,1,8,0:0:0:0:
323,24,219478,5,0,1:0:0:0:
128,121,219616,2,0,L|213:124,1,68,0|0,1:0|1:0,0:0:0:0:
255,160,219823,1,8,1:0:0:0:
323,163,219892,6,0,L|255:160,1,68,0|0,1:0|3:0,0:0:0:0:
386,103,220169,1,8,0:0:0:0:
444,233,220307,1,8,3:0:0:0:
444,233,220376,1,8,3:0:0:0:
444,233,220445,1,0,1:0:0:0:
314,291,220584,6,0,L|318:317,4,25.4999992218018,0|0|0|0|8,3:0|3:0|3:0|3:0|3:0,3:0:0:0:
411,328,220860,1,8,1:0:0:0:
253,240,220998,6,0,L|194:249,1,50.9999984436036,0|0,1:0|0:0,0:0:0:0:
140,322,221137,2,0,L|190:329,1,50.9999984436036
230,227,221275,2,0,L|172:237,1,53.125,0|0,3:0|3:0,3:0:0:0:
71,276,221413,6,0,B|67:238|67:238|91:186,1,74.3750007092953,4|0,3:0|3:0,3:0:0:0:
126,143,221551,5,0,1:0:0:0:
302,122,221690,1,0,1:0:0:0:
126,143,221828,5,0,3:0:0:0:
117,96,221897,1,0,3:0:0:0:
136,53,221966,1,0,3:0:0:0:
176,27,222035,1,0,3:0:0:0:
223,28,222104,5,12,0:0:0:0:
302,122,222243,1,0,0:0:0:0:
380,29,222381,1,8,0:0:0:0:
458,122,222519,1,0,3:0:0:0:
458,122,222588,1,0,3:0:0:0:
458,122,222657,6,0,L|461:195,1,59.4999981842042,0|0,1:0|0:0,0:0:0:0:
368,304,222796,2,0,L|365:244,1,59.4999981842042,0|0,1:0|0:0,0:0:0:0:
460,181,222934,6,0,P|476:207|432:196,1,95.6250036478044,8|0,0:0|0:0,0:0:0:0:
343,175,223210,5,0,1:0:0:0:
242,313,223349,1,0,1:0:0:0:
149,134,223487,1,0,3:0:0:0:
179,108,223556,1,0,3:0:0:0:
216,95,223625,1,0,3:0:0:0:
256,94,223694,1,0,3:0:0:0:
294,106,223763,5,0,1:0:0:0:
131,160,223902,1,0,3:0:0:0:
131,160,223971,1,0,3:0:0:0:
131,160,224040,2,0,L|138:206,1,31.8750012159348,0|0,3:0|3:0,3:0:0:0:
217,222,224178,2,0,L|210:268,1,31.8750012159348,0|0,3:0|3:0,3:0:0:0:
148,310,224316,5,0,1:0:0:0:
273,365,224455,1,4,3:0:0:0:
361,264,224593,1,8,0:0:0:0:
292,149,224731,1,0,1:0:0:0:
292,149,224800,1,8,3:0:0:0:
292,149,224869,1,0,1:0:0:0:
161,179,225008,1,8,0:0:0:0:
339,264,225146,6,0,L|361:263,1,21.25
396,282,225284,6,0,L|319:286,1,76.4999976654053,2|0,0:0|0:0,0:0:0:0:
210,323,225422,5,0,1:0:0:0:
161,179,225561,1,0,0:0:0:0:
157,170,225630,1,0,0:0:0:0:
153,161,225699,5,0,3:0:0:0:
195,157,225768,1,0,3:0:0:0:
237,154,225837,1,0,3:0:0:0:
280,151,225906,1,0,3:0:0:0:
322,148,225975,5,0,1:0:0:0:
227,62,226114,1,0,1:0:0:0:
410,142,226252,6,0,B|449:123|449:123|451:230|451:230|408:217,1,191.250007295609,2|0,0:3|0:0,0:0:0:0:
342,266,226528,6,0,P|316:313|401:303,1,170,4|8,1:0|0:0,0:0:0:0:
342,266,226943,5,0,3:0:0:0:
315,297,227012,1,0,3:0:0:0:
326,336,227081,1,0,1:0:0:0:
238,233,227220,6,0,L|229:278,1,31.8750012159348
210,289,227358,6,0,B|209:234|182:212|182:212|207:181|207:181|192:146|205:108,1,191.250007295609,8|0,0:0|0:0,0:0:0:0:
271,145,227634,1,0,1:0:0:0:
308,142,227773,6,0,B|289:169|289:169|270:144,1,63.75,8|0,0:0|0:0,0:0:0:0:
164,118,228049,2,0,B|183:91|183:91|201:115,1,63.75,8|0,0:0|0:0,0:0:0:0:
271,145,228326,5,0,1:0:0:0:
218,256,228464,1,0,1:0:0:0:
305,340,228602,6,0,L|326:338,8,12.7499996109009,0|0|0|0|8|0|0|0|0,3:0|3:0|3:0|3:0|0:0|3:0|3:0|3:0|3:0,3:0:0:0:
414,283,228879,2,0,L|435:281,8,12.7499996109009,0|0|0|0|8|0|0|0|0,3:0|3:0|3:0|3:0|0:0|3:0|3:0|3:0|3:0,3:0:0:0:
392,163,229155,6,0,L|413:161,8,12.7499996109009,0|0|0|0|8|0|0|0|0,3:0|3:0|3:0|3:0|0:0|3:0|3:0|3:0|3:0,3:0:0:0:
271,145,229432,2,0,L|292:143,8,12.7499996109009,0|0|0|0|8|0|0|0|0,3:0|3:0|3:0|3:0|0:0|3:0|3:0|3:0|3:0,3:0:0:0:
218,256,229708,1,0,0:0:0:0:
204,255,229777,1,0,0:0:0:0:
190,254,229846,5,10,0:0:0:0:
186,228,229915,1,0,0:0:0:0:
183,203,229985,1,10,0:0:0:0:
180,178,230054,1,10,0:0:0:0:
158,149,230123,5,10,0:0:0:0:
154,123,230192,1,0,0:0:0:0:
151,98,230261,1,10,0:0:0:0:
148,73,230330,1,0,0:0:0:0:
185,51,230399,6,0,L|176:-11,1,31.8750012159348,0|0,3:0|3:0,3:0:0:0:
193,44,230468,2,0,L|184:-18,1,31.8750012159348,0|0,3:0|3:0,3:0:0:0:
202,40,230538,2,0,L|193:-22,1,31.8750012159348,0|0,3:0|3:0,3:0:0:0:
211,35,230607,2,0,L|202:-27,1,31.8750012159348,0|0,3:0|3:0,3:0:0:0:
250,56,230676,6,0,L|241:117,1,31.8750012159348,0|0,3:0|3:0,3:0:0:0:
258,61,230745,2,0,L|249:122,1,31.8750012159348,0|0,3:0|3:0,3:0:0:0:
267,65,230814,2,0,L|258:126,1,31.8750012159348,0|0,3:0|3:0,3:0:0:0:
276,70,230883,2,0,L|267:131,1,31.8750012159348,0|0,3:0|3:0,3:0:0:0:
320,59,230952,5,0,0:0:0:0:
413,181,231091,1,8,0:0:0:0:
368,327,231229,1,0,1:0:0:0:
223,376,231367,1,8,1:0:0:0:
223,376,231436,1,0,0:0:0:0:
223,376,231505,6,0,P|160:376|109:332,1,101.999996887207,0|8,1:0|1:0,0:0:0:0:
317,161,231782,2,0,P|380:161|431:205,1,101.999996887207,0|8,1:0|1:0,0:0:0:0:
190,292,232058,5,0,0:0:0:0:
157,136,232197,1,8,0:0:0:0:
351,3,232335,1,0,0:0:0:0:
317,161,232473,1,8,0:0:0:0:
84,110,232611,5,0,0:0:0:0:
240,77,232750,1,8,0:0:0:0:
373,271,232888,1,0,0:0:0:0:
215,237,233026,2,0,L|189:226,4,25.4999992218018,8|0|0|0|0,0:0|0:0|0:0|0:0|0:0,0:0:0:0:
352,82,233303,6,0,L|341:195,1,101.999996887207,8|0,0:0|0:0,0:0:0:0:
215,237,233579,1,8,0:0:0:0:
140,93,233717,6,0,B|106:95|106:95|73:113,1,68,0|4,2:0|0:0,0:0:0:0:
215,237,234409,5,0,0:0:0:0:
63,307,234547,2,0,P|103:357|160:369,1,101.999996887207,8|0,0:0|0:0,0:0:0:0:
309,305,234823,1,8,0:0:0:0:
322,110,234962,2,0,P|282:60|225:48,1,101.999996887207,0|8,0:0|0:0,0:0:0:0:
76,111,235238,1,0,0:0:0:0:
239,134,235376,5,8,0:0:0:0:
56,211,235515,1,0,0:0:0:0:
278,361,235653,2,0,L|261:251,1,101.999996887207,8|8,0:0|0:0,0:0:0:0:
422,211,235929,1,8,0:0:0:0:
247,140,236068,1,0,0:0:0:0:
247,140,236137,1,0,0:0:0:0:
247,140,236206,1,8,0:0:0:0:
79,183,236344,1,0,0:0:0:0:
79,183,236413,1,0,0:0:0:0:
79,183,236482,6,0,B|80:128|80:128|112:84,1,101.999996887207,12|0,0:0|0:0,0:0:0:0:
433,183,236759,2,0,B|432:128|432:128|400:84,1,101.999996887207
256,32,237035,1,0,0:0:0:0:
256,256,237174,6,0,P|233:329|292:244,1,318.750012159348,8|0,0:0|0:0,0:0:0:0:
298,192,237588,5,8,0:0:0:0:
163,267,237727,1,0,0:0:0:0:
14,224,237865,1,8,0:0:0:0:
216,119,238003,1,0,0:0:0:0:
216,119,238072,1,0,0:0:0:0:
216,119,238141,5,8,0:0:0:0:
248,303,238280,2,0,P|198:301|162:266,1,101.999996887207,0|8,0:0|0:0,0:0:0:0:
327,359,238556,1,0,0:0:0:0:
216,119,238694,2,0,L|227:220,1,101.999996887207,8|0,0:0|0:0,0:0:0:0:
300,247,238902,1,0,0:0:0:0:
352,193,238971,2,0,P|335:235|267:231,1,85,8|8,0:0|0:0,0:0:0:0:
114,119,239247,6,0,L|241:119,1,101.999996887207,8|8,0:0|0:0,0:0:0:0:
363,76,239524,1,0,0:0:0:0:
476,178,239662,1,8,0:0:0:0:
411,316,239800,2,0,P|364:342|296:339,1,101.999996887207,8|0,0:0|0:0,0:0:0:0:
284,138,240077,1,8,0:0:0:0:
65,219,240215,1,0,0:0:0:0:
294,135,240353,1,8,0:0:0:0:
65,219,240492,6,0,B|143:180|143:180|120:230|120:230|200:191|200:191|176:245|176:245|260:205,1,382.500014591218,8|4,1:0|1:0,1:0:0:0:
350,235,241183,1,0,0:0:0:0:
440,204,241459,1,0,3:0:0:0:
470,113,241736,1,0,0:0:0:0:
470,113,242151,5,2,0:0:0:0:
458,115,242289,1,2,0:0:0:0:
470,113,242565,5,2,3:2:0:0:
458,115,242842,1,2,0:0:0:0:
440,204,243118,5,4,3:0:0:0:
369,106,243395,1,2,0:0:0:0:
365,116,243533,1,2,3:2:0:0:
369,302,243809,1,2,0:2:0:0:
365,291,243948,1,2,3:2:0:0:
253,143,244362,5,2,0:2:0:0:
261,149,244501,1,2,0:2:0:0:
253,264,244777,5,2,3:2:0:0:
261,257,245054,1,2,3:2:0:0:
440,203,245330,5,4,3:0:0:0:
369,301,245607,1,2,0:2:0:0:
365,291,245745,1,2,0:2:0:0:
369,105,246021,1,2,0:0:0:0:
365,116,246160,1,2,0:0:0:0:
253,264,246574,5,2,0:0:0:0:
261,258,246713,1,2,0:0:0:0:
253,143,246989,5,2,3:2:0:0:
261,150,247266,1,2,3:2:0:0:
66,204,247542,5,4,3:0:0:0:
144,112,247819,1,2,0:2:0:0:
148,122,247957,1,2,3:2:0:0:
144,308,248233,1,2,0:2:0:0:
148,297,248372,1,2,3:2:0:0:
253,143,248786,5,2,0:2:0:0:
245,149,248925,1,2,0:2:0:0:
253,264,249201,5,2,3:2:0:0:
245,257,249478,1,2,3:2:0:0:
253,264,249754,6,0,B|312:289|312:289|429:242|429:242|364:210,2,255.000009727478,4|0|0,1:0|3:0|0:0,0:0:0:0:
253,264,251137,2,0,P|264:303|205:380,1,127.500004863739,12|0,0:0|3:0,0:0:0:0:
98,340,251551,2,0,P|87:301|146:224,1,127.500004863739,12|0,0:0|3:0,0:0:0:0:
253,264,251966,6,0,B|276:216|239:150|239:150|273:144|273:144|244:93|271:17,2,255.000009727478,0|0|4,1:0|3:0|1:0,0:0:0:0:
253,264,253349,2,0,L|385:249,1,127.500004863739,12|0,0:0|3:0,0:0:0:0:
454,146,253763,2,0,L|327:160,1,127.500004863739,12|0,0:0|3:0,0:0:0:0:
248,58,254178,6,0,B|188:33|124:65|124:65|63:26|2:51,2,255.000009727478,0|0|0,1:0|3:0|0:0,0:0:0:0:
60,267,255561,2,0,L|52:136,1,127.500004863739,12|0,0:0|3:0,0:0:0:0:
191,142,255975,2,0,L|183:273,1,127.500004863739,12|0,0:0|3:0,0:0:0:0:
297,315,256390,6,0,P|299:194|190:141,2,255.000009727478,4|0|4,1:0|3:0|1:0,0:0:0:0:
175,355,257634,1,4,3:0:0:0:
170,227,257773,2,0,L|175:360,1,127.500004863739,12|0,0:0|3:0,0:0:0:0:
331,321,258187,2,0,L|326:193,1,127.500004863739,12|0,0:0|0:0,0:0:0:0:
185,194,258740,6,0,B|142:224|101:203|101:203|125:240,1,127.5,2|0,0:0|0:0,0:0:0:0:
327,194,259017,2,0,B|370:224|411:203|411:203|387:240,1,127.5,2|0,0:0|0:0,0:0:0:0:
256,160,259293,6,0,L|256:25,1,127.499996109009,0|0,3:0|0:0,0:0:0:0:
256,32,259708,5,0,1:0:0:0:
86,87,259827,1,2,0:0:0:0:
86,265,259946,1,0,1:0:0:0:
256,321,260075,1,0,0:0:0:0:
360,176,260204,6,0,B|247:185,1,110.499994941712,0|0,1:0|0:0,0:0:0:0:
422,93,260463,1,0,1:0:0:0:
311,265,260592,1,2,0:0:0:0:
212,91,260721,1,0,1:0:0:0:
289,283,260851,1,2,0:0:0:0:
234,70,260980,1,0,1:0:0:0:
261,296,261109,1,2,0:0:0:0:
263,53,261239,6,0,P|292:45|316:49,1,50.9999984436036,8|0,0:0|1:0,0:0:0:0:
430,180,261626,5,0,1:0:0:0:
155,280,261756,2,0,P|209:300|269:293,1,110.499994941712,0|2,1:0|0:0,0:0:0:0:
263,53,262014,2,0,P|208:49|157:68,1,110.499994941712,0|2,1:0|0:0,0:0:0:0:
147,81,262402,6,0,B|140:105|129:117|129:117|163:165|163:165|121:176|121:176|161:218|154:290,1,255.000009727478,2|0,1:2|0:0,0:0:0:0:
322,331,262790,5,0,1:0:0:0:
424,188,262920,1,2,0:0:0:0:
319,46,263049,1,0,1:0:0:0:
153,88,263178,1,4,3:0:0:0:
153,88,263243,1,4,3:0:0:0:
153,88,263307,2,0,P|163:131|160:172,1,55.2499974708558,0|0,1:2|0:0,0:0:0:0:
154,279,263437,6,0,B|195:290|195:290|253:279,1,85,0|0,0:0|1:0,0:0:0:0:
82,187,263825,1,0,1:0:0:0:
177,33,263954,1,8,0:0:0:0:
331,128,264083,1,8,0:0:0:0:
154,279,264213,5,2,0:0:0:0:
88,111,264342,1,0,1:0:0:0:
256,45,264471,1,0,1:0:0:0:
322,214,264601,2,0,L|327:283,1,63.75,0|0,3:0|0:0,0:0:0:0:
334,290,264859,6,0,L|346:158,1,93.5000028533936,0|2,1:0|0:0,0:0:0:0:
154,279,265118,2,0,L|262:355,1,93.5000028533936,0|2,1:0|0:0,0:0:0:0:
242,148,265376,6,0,L|181:175,1,63.75
89,169,265635,1,0,3:0:0:0:
50,142,265700,1,0,3:0:0:0:
38,97,265764,1,0,3:0:0:0:
58,55,265829,1,0,3:0:0:0:
102,37,265894,5,0,1:0:0:0:
266,27,266023,1,2,0:0:0:0:
319,183,266152,1,0,1:0:0:0:
181,273,266282,1,2,0:0:0:0:
58,163,266411,6,0,L|64:196,1,34,0|0,1:0|1:0,0:0:0:0:
181,273,266799,5,2,0:0:0:0:
319,183,266928,1,0,1:0:0:0:
266,27,267057,1,2,0:0:0:0:
102,37,267187,1,0,1:0:0:0:
102,37,267445,5,10,0:0:0:0:
389,100,267575,1,10,0:0:0:0:
192,214,267963,5,10,0:2:0:0:
468,121,268092,1,2,1:2:0:0:
207,54,268221,1,2,1:2:0:0:
197,62,268480,5,0,1:0:0:0:
256,285,268609,2,0,B|145:331|157:258|41:306,1,212.5,10|0,0:0|0:0,0:0:0:0:
192,214,268997,5,8,0:0:0:0:
108,373,269126,1,0,1:0:0:0:
0,169,269256,1,0,1:0:0:0:
256,99,269385,1,8,0:0:0:0:
275,367,269514,2,0,L|252:269,1,85,0|0,1:0|0:0,0:0:0:0:
256,99,269773,5,0,1:0:0:0:
338,293,269902,2,0,P|282:294|244:277,1,85,8|0,1:0|1:0,1:0:0:0:
240,90,270290,5,0,1:0:0:0:
407,249,270420,2,0,P|337:293|254:283,1,170,8|0,1:0|1:0,1:0:0:0:
223,80,270807,5,0,1:0:0:0:
428,168,270937,2,0,P|375:277|254:283,1,255.000009727478,8|0,1:0|1:0,1:0:0:0:
206,70,271325,5,0,1:0:0:0:
396,94,271454,2,0,P|406:249|253:282,1,340,8|0,1:0|1:0,1:0:0:0:
206,70,271842,6,0,P|366:64|423:221,1,340,8|0,1:0|1:0,1:0:0:0:
295,175,272230,6,0,L|300:210,2,31.875,2|2|2,0:0|0:0|0:0,0:0:0:0:
295,175,272982,5,4,1:0:0:0:
252,281,273122,1,0,0:0:0:0:
425,209,273262,1,8,0:0:0:0:
230,89,273402,1,0,3:0:0:0:
206,114,273472,1,0,3:0:0:0:
191,146,273542,1,0,3:0:0:0:
187,180,273612,1,0,3:0:0:0:
193,215,273682,1,0,1:0:0:0:
425,209,273823,2,0,L|427:308,1,93.5000028533936,8|0,0:0|3:0,0:0:0:0:
381,355,274033,1,0,3:0:0:0:
295,369,274103,6,0,P|342:376|384:351,1,93.5000028533936,0|0,1:0|0:0,0:0:0:0:
182,285,274383,2,0,P|135:278|93:303,1,93.5000028533936,8|0,0:0|3:0,0:0:0:0:
71,325,274594,1,0,3:0:0:0:
67,290,274664,1,0,3:0:0:0:
64,255,274734,1,0,3:0:0:0:
61,220,274804,1,0,1:0:0:0:
217,358,274944,1,8,0:0:0:0:
218,154,275084,1,0,3:0:0:0:
218,154,275154,1,0,3:0:0:0:
218,154,275224,6,0,B|265:146|265:146|310:152,1,93.5000028533936,0|0,1:0|0:0,0:0:0:0:
488,215,275505,1,8,0:0:0:0:
329,79,275645,1,0,3:0:0:0:
299,60,275715,1,0,3:0:0:0:
265,53,275785,1,0,3:0:0:0:
231,58,275855,1,0,3:0:0:0:
201,76,275925,1,0,1:0:0:0:
198,308,276066,2,0,P|174:268|187:214,1,93.5000028533936,8|0,0:0|1:0,0:0:0:0:
244,254,276276,1,0,1:0:0:0:
337,245,276346,6,0,L|223:256,1,93.5000028533936,0|0,1:0|0:0,0:0:0:0:
108,67,276626,2,0,L|222:78,1,93.5000028533936,8|0,0:0|3:0,0:0:0:0:
231,58,276837,1,0,3:0:0:0:
265,53,276907,1,0,3:0:0:0:
299,60,276977,1,0,3:0:0:0:
329,79,277047,1,0,1:0:0:0:
243,253,277187,1,8,0:0:0:0:
114,74,277327,1,0,3:0:0:0:
114,74,277397,1,0,3:0:0:0:
114,74,277467,6,0,B|103:130|103:130|127:205|127:205|119:262,1,187.000005706787,0|8,1:0|0:0,0:0:0:0:
230,298,277888,2,0,L|248:233,1,46.7500014266968,0|0,3:0|3:0,3:0:0:0:
305,191,278028,1,0,3:0:0:0:
305,191,278098,1,0,3:0:0:0:
305,191,278168,1,0,1:0:0:0:
150,338,278309,1,8,0:0:0:0:
354,335,278449,1,0,3:0:0:0:
354,335,278519,1,0,3:0:0:0:
354,335,278589,6,0,P|425:330|380:245,1,187.000005706787,0|8,1:0|0:0,0:0:0:0:
196,128,279010,1,0,3:0:0:0:
230,124,279080,1,0,3:0:0:0:
265,121,279150,1,0,3:0:0:0:
300,117,279220,1,0,3:0:0:0:
335,114,279290,1,0,1:0:0:0:
144,197,279430,2,0,P|114:150|113:109,1,93.5000028533936,8|0,0:0|3:0,0:0:0:0:
282,245,279710,6,0,B|291:337|291:337|171:320,1,187.000005706787,0|8,1:0|0:0,0:0:0:0:
380,212,280131,2,0,L|386:271,1,46.7500014266968,0|0,3:0|3:0,3:0:0:0:
456,325,280271,1,0,3:0:0:0:
456,325,280341,1,0,3:0:0:0:
456,325,280411,1,0,1:0:0:0:
492,168,280552,1,8,0:0:0:0:
406,34,280692,1,0,3:0:0:0:
406,34,280762,1,0,3:0:0:0:
406,34,280832,6,0,B|320:85|316:11|224:57,1,187.000005706787,0|8,1:0|0:0,0:0:0:0:
266,255,281253,1,0,3:0:0:0:
288,228,281323,1,0,3:0:0:0:
299,195,281393,1,0,3:0:0:0:
298,160,281463,1,0,3:0:0:0:
284,127,281533,1,0,1:0:0:0:
128,66,281673,1,8,0:0:0:0:
80,273,281813,1,0,3:0:0:0:
80,273,281883,1,0,3:0:0:0:
80,273,281953,6,0,P|92:321|196:339,1,152.999995330811,0|8,1:0|0:0,0:0:0:0:
266,255,282374,1,2,0:2:0:0:
380,297,282514,2,0,L|456:297,1,76.4999976654053,2|2,0:2|1:2,0:0:0:0:
304,181,282795,2,0,L|341:114,1,76.4999976654053,10|2,0:2|0:2,0:0:0:0:
165,188,283075,6,0,L|113:98,1,101.999996887207,2|2,1:2|0:0,0:0:0:0:
116,262,283355,1,8,0:0:0:0:
214,105,283496,1,0,3:2:0:0:
214,105,283566,1,0,3:0:0:0:
214,105,283636,2,0,L|182:46,2,50.9999984436036,0|0|0,3:2|3:0|1:0,0:0:0:0:
116,262,283916,2,0,B|107:311|107:311|124:366,1,101.999996887207,8|0,0:0|3:0,0:0:0:0:
176,306,284126,1,0,3:0:0:0:
252,297,284196,6,0,L|152:309,1,76.4999976654053,0|0,1:0|0:0,0:0:0:0:
293,216,284477,1,10,0:2:0:0:
335,351,284617,1,2,3:2:0:0:
430,231,284757,1,2,3:2:0:0:
388,96,284897,1,2,1:2:0:0:
246,94,285038,1,10,0:2:0:0:
200,228,285178,1,2,3:2:0:0:
335,351,285318,6,0,L|319:204,1,101.999996887207,2|2,1:2|0:2,0:0:0:0:
246,94,285598,1,10,0:2:0:0:
207,235,285739,1,0,3:0:0:0:
207,235,285809,1,0,3:0:0:0:
207,235,285879,2,0,L|212:297,2,50.9999984436036,0|0|0,3:0|3:0|1:0,0:0:0:0:
246,94,286159,1,8,0:0:0:0:
388,96,286299,1,0,3:0:0:0:
388,96,286369,1,0,3:0:0:0:
388,96,286439,6,0,P|316:72|244:96,1,152.999995330811,0|8,1:0|0:0,0:0:0:0:
316,195,286860,1,2,3:2:0:0:
195,213,287000,2,0,L|98:248,1,76.4999976654053,2|2,3:2|1:2,0:0:0:0:
306,296,287281,2,0,L|288:397,1,76.4999976654053,10|2,0:2|3:2,0:0:0:0:
434,242,287561,6,0,L|512:308,1,101.999996887207,2|2,1:2|0:2,0:0:0:0:
455,156,287841,1,10,0:2:0:0:
417,337,287982,1,0,3:0:0:0:
417,337,288052,1,0,3:0:0:0:
417,337,288122,2,0,L|467:381,2,50.9999984436036,0|0|0,3:0|3:0|1:0,0:0:0:0:
455,156,288402,1,8,0:0:0:0:
294,63,288542,1,0,3:0:0:0:
294,63,288612,1,0,3:0:0:0:
294,63,288682,6,0,L|309:183,1,101.999996887207,0|0,1:0|0:0,0:0:0:0:
88,111,288963,1,8,0:0:0:0:
119,270,289103,1,2,3:2:0:0:
288,58,289243,1,2,3:2:0:0:
263,222,289383,1,2,1:2:0:0:
95,102,289524,1,10,0:2:0:0:
126,261,289664,1,2,3:2:0:0:
288,58,289804,5,0,1:2:0:0:
263,222,289944,2,0,L|266:264,4,25.4999992218018,0|0|0|0|8,3:0|3:0|3:0|3:0|3:0,3:0:0:0:
430,174,290224,2,0,L|467:170,1,25.4999992218018,8|0,0:0|0:0,0:0:0:0:
426,182,290295,2,0,L|463:178,1,25.4999992218018,8|0,0:0|0:0,0:0:0:0:
417,201,290365,5,0,3:0:0:0:
417,223,290435,1,0,3:0:0:0:
418,246,290505,1,0,3:0:0:0:
418,269,290575,1,0,3:0:0:0:
407,319,290645,6,0,B|394:326|394:326|383:322|383:322|376:327|376:327|368:322|368:322|361:329|361:329|354:322|354:322|342:330|342:330|332:323|332:323|321:330|321:330|311:323|311:323|299:333|299:333|272:323|221:333,1,191.250007295609,8|0,0:0|0:0,0:0:0:0:
172,301,290925,5,6,1:2:0:0:
295,115,291066,1,0,0:0:0:0:
407,319,291206,1,10,0:2:0:0:
201,202,291346,1,2,3:2:0:0:
158,203,291416,1,0,3:0:0:0:
116,205,291486,1,2,3:2:0:0:
73,207,291556,1,0,3:0:0:0:
31,209,291626,1,0,1:0:0:0:
224,68,291767,2,0,P|262:35|311:32,1,85,8|0,0:0|3:0,0:0:0:0:
295,115,291977,1,0,3:0:0:0:
286,199,292047,6,0,L|297:85,1,85,0|2,1:0|0:0,0:0:0:0:
485,237,292327,2,0,L|477:321,1,85,10|0,0:2|3:0,0:0:0:0:
447,290,292538,1,0,3:0:0:0:
407,280,292608,1,2,3:2:0:0:
365,286,292678,1,0,3:0:0:0:
330,309,292748,1,0,1:0:0:0:
161,377,292888,1,10,0:0:0:0:
194,177,293028,2,0,L|189:155,3,21.25,0|0|0|0,3:0|3:0|3:0|3:0,3:0:0:0:
190,157,293168,6,0,L|188:42,1,85,0|0,1:0|0:0,0:0:0:0:
453,168,293449,2,0,P|413:180|338:169,1,85,10|0,0:0|3:0,0:0:0:0:
342,146,293659,1,0,3:0:0:0:
338,188,293729,1,2,3:2:0:0:
333,230,293799,1,0,3:0:0:0:
328,272,293869,1,2,1:2:0:0:
40,113,294010,2,0,P|81:125|156:114,1,85,8|0,0:0|3:0,0:0:0:0:
188,72,294220,1,0,3:0:0:0:
199,78,294290,5,0,1:0:0:0:
126,231,294430,2,0,L|109:230,8,10.625,0|0|0|0|0|0|0|0|10,3:0|3:0|3:0|3:0|3:0|3:0|3:0|3:0|3:0,3:0:0:0:
304,239,294710,6,0,L|299:270,1,31.8750012159348,0|0,3:0|3:0,3:0:0:0:
328,272,294781,2,0,L|335:323,1,31.8750012159348,0|0,3:0|3:0,3:0:0:0:
339,320,294851,6,0,P|389:324|405:312,1,42.5,2|0,3:0|0:0,0:0:0:0:
451,300,294991,2,0,P|455:250|443:234,1,42.5,2|0,3:0|0:0,0:0:0:0:
454,183,295131,6,0,B|470:142|470:142|312:162|312:162|349:205,1,255,2|0,3:0|0:0,0:0:0:0:
244,195,295411,6,0,P|240:144|267:102,2,101.999996887207,2|0|10,1:2|0:0|0:0,0:0:0:0:
355,52,295832,1,2,3:2:0:0:
319,16,295902,1,0,3:0:0:0:
270,1,295972,1,2,3:2:0:0:
221,11,296042,1,0,3:0:0:0:
182,43,296112,1,0,1:0:0:0:
346,201,296253,1,8,0:0:0:0:
85,149,296393,1,0,3:0:0:0:
85,149,296463,1,0,3:0:0:0:
85,149,296533,6,0,B|92:180|74:212|74:212|90:210|90:210|72:248|85:285,1,152.999995330811,0|0,1:0|0:0,0:0:0:0:
224,349,296813,6,0,L|161:317,1,42.5,8|0,0:0|0:0,0:0:0:0:
258,332,296953,2,0,L|253:261,1,42.5
293,352,297094,6,0,L|391:286,2,85,2|0|0,3:2|3:0|1:0,0:0:0:0:
383,107,297374,1,10,0:0:0:0:
375,105,297444,1,0,3:0:0:0:
367,104,297514,1,0,3:0:0:0:
358,103,297584,1,0,3:0:0:0:
350,101,297654,6,0,B|313:95|313:95|264:112|264:112|227:106,1,127.500004863739,2|0,1:2|0:0,0:0:0:0:
14,80,297935,1,10,0:0:0:0:
61,288,298075,1,2,3:2:0:0:
85,328,298145,1,0,3:0:0:0:
126,352,298215,1,2,3:2:0:0:
173,354,298285,1,0,3:0:0:0:
215,333,298355,1,0,1:0:0:0:
301,165,298496,2,0,L|447:174,1,127.500004863739,8|0,0:0|3:0,0:0:0:0:
493,239,298706,1,0,3:0:0:0:
436,262,298776,6,0,P|475:253|504:223,1,63.7500024318696,0|2,1:0|0:0,0:0:0:0:
301,165,299056,1,0,3:0:0:0:
301,180,299126,1,0,3:0:0:0:
300,196,299196,1,0,3:0:0:0:
299,212,299267,1,0,3:0:0:0:
298,228,299337,2,0,L|302:285,1,42.5,0|0,3:0|0:0,0:0:0:0:
105,226,299617,6,0,P|82:145|162:163,1,191.250007295609,8|0,1:0|0:0,0:0:0:0:
198,232,299897,5,10,0:0:0:0:
199,270,299967,1,8,0:0:0:0:
200,308,300038,1,10,0:0:0:0:
201,346,300108,1,8,0:0:0:0:
202,384,300178,1,10,0:0:0:0:
417,154,300318,6,0,P|362:86|251:102,1,203.999993774414,12|2,1:0|1:2,0:0:0:0:
356,266,300739,1,10,0:0:0:0:
99,279,300879,1,0,3:0:0:0:
99,279,300949,1,0,3:0:0:0:
99,279,301019,6,0,L|-17:261,1,101.999996887207,0|2,1:0|0:0,0:0:0:0:
255,98,301299,2,0,L|371:80,1,101.999996887207,10|0,0:0|0:0,0:0:0:0:
178,186,301580,1,2,3:2:0:0:
178,201,301650,1,0,3:0:0:0:
177,217,301720,1,0,3:0:0:0:
176,233,301790,1,0,3:0:0:0:
175,249,301860,2,0,B|198:312|167:363|167:363|201:338|242:354,1,191.250007295609,8|0,0:0|0:0,0:0:0:0:
321,368,302140,6,0,P|384:380|444:371,1,101.999996887207,0|0,1:0|0:0,0:0:0:0:
355,106,302421,2,0,P|292:94|232:103,1,101.999996887207,10|2,0:0|3:2,0:0:0:0:
218,116,302631,1,0,3:0:0:0:
194,149,302701,1,2,3:2:0:0:
184,188,302771,1,0,3:0:0:0:
186,229,302841,1,0,1:0:0:0:
365,207,302982,2,0,L|352:76,1,101.999996887207,8|0,0:0|0:0,0:0:0:0:
248,276,303262,5,0,1:0:0:0:
264,272,303332,1,0,3:0:0:0:
282,324,303402,5,0,3:0:0:0:
294,312,303472,1,0,3:0:0:0:
336,348,303542,5,0,3:0:0:0:
341,332,303612,1,0,3:0:0:0:
391,357,303682,5,0,3:0:0:0:
386,341,303753,1,0,3:0:0:0:
430,324,303823,6,0,L|414:211,1,101.999996887207,2|0,1:2|1:0,0:0:0:0:
248,276,304103,6,0,P|218:290|183:290,1,63.75,8|0,0:0|0:0,0:0:0:0:
104,198,304383,5,10,0:0:0:0:
63,184,304453,1,8,0:0:0:0:
63,142,304524,1,10,0:0:0:0:
104,129,304594,1,8,0:0:0:0:
128,163,304664,2,0,L|215:154,1,50.9999984436036,10|8,0:0|0:0,0:0:0:0:
257,115,304804,6,0,B|314:88|314:88|508:131,1,255.000009727478,8|0,1:0|1:0,0:0:0:0:
257,115,305224,1,8,0:0:0:0:
450,286,305365,1,0,3:0:0:0:
450,286,305435,1,0,3:0:0:0:
450,286,305505,6,0,L|310:253,1,127.500004863739,0|2,1:0|0:0,0:0:0:0:
142,256,305785,1,10,0:0:0:0:
257,115,305925,1,0,3:0:0:0:
237,68,305996,1,0,3:0:0:0:
196,39,306066,1,2,3:2:0:0:
146,37,306136,1,0,3:0:0:0:
103,62,306206,1,0,1:0:0:0:
218,274,306346,2,0,L|216:239,7,31.8750012159348,2|0|0|0|0|0|0|0,3:2|3:0|3:0|3:0|3:0|3:0|3:0|3:0,3:0:0:0:
217,243,306626,6,0,L|331:238,1,110.499994941712,4|0,1:0|0:0,0:0:0:0:
423,143,306837,1,0,3:0:0:0:
352,114,306907,2,0,L|241:118,1,110.499994941712,0|0,1:0|0:0,0:0:0:0:
93,77,307117,1,0,3:0:0:0:
66,108,307187,5,0,3:0:0:0:
54,147,307257,1,0,3:0:0:0:
60,188,307327,1,0,3:0:0:0:
81,224,307397,1,0,3:0:0:0:
111,253,307467,6,0,L|146:245,1,27.6249987354279,0|0,3:0|3:0,3:0:0:0:
114,266,307538,2,0,L|149:258,1,27.6249987354279,0|0,3:0|3:0,3:0:0:0:
104,311,307608,2,0,L|69:303,1,27.6249987354279,0|0,3:0|3:0,3:0:0:0:
95,325,307678,2,0,L|60:317,1,27.6249987354279,0|0,3:0|3:0,3:0:0:0:
256,192,307748,12,0,308869,0:0:0:0:
346,68,309220,5,6,0:0:0:0:
268,296,309783,5,6,0:0:0:0:
81,120,310624,5,6,0:0:0:0:
256,192,310694,12,0,314409,0:0:0:0:
