osu file format v14

[General]
AudioFilename: audio.mp3
AudioLeadIn: 0
PreviewTime: 85095
Countdown: 0
SampleSet: Soft
StackLeniency: 0.7
Mode: 3
LetterboxInBreaks: 0
SpecialStyle: 0
WidescreenStoryboard: 0

[Editor]
Bookmarks: 182463,213268
DistanceSpacing: 0.8
BeatDivisor: 8
GridSize: 32
TimelineZoom: 3.099999

[Metadata]
Title:Pluto -Tenderness
TitleUnicode:Pluto -Tenderness
Artist:RIN
ArtistUnicode:RIN
Creator:MEGAtive
Version:Hades Wrath
Source:DanceDanceRevolution SuperNOVA2
Tags:DDR beatmania IIDX 15 DJ TROOPERS CS Console C79 Function Phantom Ocelot D16 Diverse System DVSP-0061 Arrangement Remix
BeatmapID:1192532
BeatmapSetID:430938

[Difficulty]
HPDrainRate:8
CircleSize:4
OverallDifficulty:8.5
ApproachRate:5
SliderMultiplier:1.4
SliderTickRate:1

[Events]
//Background and Video events
0,0,"Pluto Tenderness.jpg",0,0
//Break Periods
//Storyboard Layer 0 (Background)
//Storyboard Layer 1 (Fail)
//Storyboard Layer 2 (Pass)
//Storyboard Layer 3 (Foreground)
//Storyboard Sound Samples

[TimingPoints]
45,300,4,2,1,20,1,0
57645,-100,4,2,1,40,0,0
162045,-200,4,2,1,40,0,0
162082,-133.333333333333,4,2,1,40,0,0
162120,-72.7272727272727,4,2,1,40,0,0
162195,-200,4,2,1,40,0,0
162232,-133.333333333333,4,2,1,40,0,0
162270,-72.7272727272727,4,2,1,40,0,0
162345,-200,4,2,1,40,0,0
162382,-133.333333333333,4,2,1,40,0,0
162420,-72.7272727272727,4,2,1,40,0,0
162495,-200,4,2,1,40,0,0
162532,-133.333333333333,4,2,1,40,0,0
162570,-72.7272727272727,4,2,1,40,0,0
162645,-200,4,2,1,40,0,0
162682,-133.333333333333,4,2,1,40,0,0
162720,-72.7272727272727,4,2,1,40,0,0
162795,-200,4,2,1,40,0,0
162832,-133.333333333333,4,2,1,40,0,0
162870,-72.7272727272727,4,2,1,40,0,0
162945,-200,4,2,1,40,0,0
162982,-133.333333333333,4,2,1,40,0,0
163020,-72.7272727272727,4,2,1,40,0,0
163095,-200,4,2,1,40,0,0
163132,-133.333333333333,4,2,1,40,0,0
163170,-72.7272727272727,4,2,1,40,0,0
163245,-100,4,2,1,40,0,0
182133,307.692307692308,4,2,1,40,1,0
182133,-98.0392156862745,4,2,1,40,0,0
182440,283.018867924528,6,2,1,40,1,1
182440,-106.044538706257,6,2,1,40,0,1
184138,285.714285714286,6,2,1,40,1,1
184138,-105.042016806723,6,2,1,40,0,1
188709,266.666666666667,6,2,1,40,1,1
188709,-112.511251125113,6,2,1,40,0,1
189238,266.666666666667,6,2,1,40,1,1
189238,-112.511251125113,6,2,1,40,0,1
190842,260.869565217391,6,2,1,40,1,1
190842,-115.074798619102,6,2,1,40,0,1
192407,263.736263736264,6,2,1,40,1,1
192407,-113.752701626664,6,2,1,40,0,1
193989,260.869565217391,6,2,1,40,1,1
193989,-114.942528735632,6,2,1,40,0,1
195554,550.45871559633,4,2,1,40,1,0
195554,-72.6691374173389,4,2,1,40,0,0
199957,555.555555555556,4,2,1,40,1,0
199957,-72.0004608029491,4,2,1,40,0,0
204401,550.45871559633,4,2,1,40,1,0
204401,-54.525627044711,4,2,1,40,0,0
208804,555.555555555556,4,2,1,40,1,0
208804,-54.0015120423372,4,2,1,40,0,0
212692,545.454545454546,4,2,1,40,1,0
212692,-55.0000247500111,4,2,1,40,0,0
213237,276.497695852535,4,2,1,40,1,0
213237,-108.506944444444,4,2,1,40,0,0
221117,-72.463768115942,4,2,1,40,0,0
221186,-217.391304347826,4,2,1,40,0,0
221255,-108.695652173913,4,2,1,40,0,0
221808,-72.463768115942,4,2,1,40,0,0
221831,-217.391304347826,4,2,1,40,0,0
221877,-72.463768115942,4,2,1,40,0,0
221900,-217.391304347826,4,2,1,40,0,0
221946,-72.463768115942,4,2,1,40,0,0
221969,-217.391304347826,4,2,1,40,0,0
222015,-72.463768115942,4,2,1,40,0,0
222038,-217.391304347826,4,2,1,40,0,0
222084,-108.695652173913,4,2,1,40,0,0
222914,-54.3478260869565,4,2,1,40,0,0
222948,-62.111801242236,4,2,1,40,0,0
222983,-72.463768115942,4,2,1,40,0,0
223018,-108.695652173913,4,2,1,40,0,0
223052,-144.927536231884,4,2,1,40,0,0
223190,-108.695652173913,4,2,1,40,0,0
223467,-54.3478260869565,4,2,1,40,0,0
223484,-217.391304347826,4,2,1,40,0,0
223536,-54.3478260869565,4,2,1,40,0,0
223553,-217.391304347826,4,2,1,40,0,0
223605,-54.3478260869565,4,2,1,40,0,0
223622,-217.391304347826,4,2,1,40,0,0
223674,-54.3478260869565,4,2,1,40,0,0
223692,-217.391304347826,4,2,1,40,0,0
223743,-108.695652173913,4,2,1,40,0,0
223882,-54.3478260869565,4,2,1,40,0,0
223899,-217.391304347826,4,2,1,40,0,0
223951,-54.3478260869565,4,2,1,40,0,0
223968,-217.391304347826,4,2,1,40,0,0
224020,-54.3478260869565,4,2,1,40,0,0
224037,-217.391304347826,4,2,1,40,0,0
224089,-54.3478260869565,4,2,1,40,0,0
224106,-217.391304347826,4,2,1,40,0,0
224158,-54.3478260869565,4,2,1,40,0,0
224175,-217.391304347826,4,2,1,40,0,0
224227,-54.3478260869565,4,2,1,40,0,0
224245,-217.391304347826,4,2,1,40,0,0
224296,-108.695652173913,4,2,1,40,0,0
225126,-54.3478260869565,4,2,1,40,0,0
225160,-72.463768115942,4,2,1,40,0,0
225178,-217.391304347826,4,2,1,40,0,0
225264,-54.3478260869565,4,2,1,40,0,0
225299,-163.934426229508,4,2,1,40,0,0
225402,-108.695652173913,4,2,1,40,0,0
226232,-217.391304347826,4,2,1,40,0,0
226301,-72.463768115942,4,2,1,40,0,0
226370,-54.3478260869565,4,2,1,40,0,0
226405,-163.052339801076,4,2,1,40,0,0
226508,-108.695652173913,4,2,1,40,0,0
227200,-217.391304347826,4,2,1,40,0,0
227269,-72.463768115942,4,2,1,40,0,0
227338,-163.934426229508,4,2,1,40,0,0
227442,-90.5797101449275,4,2,1,40,0,0
227614,-54.3478260869565,4,2,1,40,0,0
227649,-163.934426229508,4,2,1,40,0,0
227753,-54.3478260869565,4,2,1,40,0,0
227822,-163.934426229508,4,2,1,40,0,0
228029,-54.3478260869565,4,2,1,40,0,0
228098,-163.934426229508,4,2,1,40,0,0
228306,-108.695652173913,4,2,1,40,0,0
230379,-72.463768115942,4,2,1,40,0,0
230414,-217.391304347826,4,2,1,40,0,0
230448,-72.463768115942,4,2,1,40,0,0
230483,-217.391304347826,4,2,1,40,0,0
230518,-72.463768115942,4,2,1,40,0,0
230552,-217.391304347826,4,2,1,40,0,0
230587,-72.463768115942,4,2,1,40,0,0
230621,-217.391304347826,4,2,1,40,0,0
230656,-72.463768115942,4,2,1,40,0,0
230690,-217.391304347826,4,2,1,40,0,0
230725,-72.463768115942,4,2,1,40,0,0
230760,-217.391304347826,4,2,1,40,0,0
230794,-72.463768115942,4,2,1,40,0,0
230829,-217.391304347826,4,2,1,40,0,0
230863,-72.463768115942,4,2,1,40,0,0
230898,-217.391304347826,4,2,1,40,0,0
230932,-108.695652173913,4,2,1,40,0,1
233697,-144.927536231884,4,2,1,40,0,1
234250,-108.695652173913,4,2,1,40,0,1
237154,-144.927536231884,4,2,1,40,0,1
237568,-108.695652173913,4,2,1,40,0,1
240472,-144.927536231884,4,2,1,40,0,1
240886,-108.695652173913,4,2,1,40,0,0
259688,255.31914893617,6,2,1,40,1,1
259688,-117.508813160987,6,2,1,40,0,1
261219,260.869565217391,6,2,1,40,1,1
261219,-191.570881226054,6,2,1,40,0,1
261316,-114.942528735632,6,2,1,40,0,1
261382,-90.9090909090909,6,2,1,40,0,1
261479,-117.647058823529,6,2,1,40,0,1
262392,-192.307692307692,6,2,1,40,0,1
262490,-114.942528735632,6,2,1,40,0,1
262555,-90.9090909090909,6,2,1,40,0,1
262653,-125,6,2,1,40,0,1
262784,255.31914893617,6,2,1,40,1,1
262784,-117.508813160987,6,2,1,40,0,1
263422,-196.078431372549,6,2,1,40,0,1
263518,-117.647058823529,6,2,1,40,0,1
263581,-90.9090909090909,6,2,1,40,0,1
263677,-125,6,2,1,40,0,1
264315,260.869565217391,6,2,1,40,1,1
264315,-115.008625646924,6,2,1,40,0,1
264575,-192.307692307692,6,2,1,40,0,1
264673,-114.942528735632,6,2,1,40,0,1
264738,-90.9090909090909,6,2,1,40,0,1
264836,-125,6,2,1,40,0,1
265358,-192.307692307692,6,2,1,40,0,1
265456,-114.942528735632,6,2,1,40,0,1
265521,-90.9090909090909,6,2,1,40,0,1
265619,-250,6,2,1,40,0,1
265651,-76.9230769230769,6,2,1,40,0,1
265684,-227.272727272727,6,2,1,40,0,1
265717,-76.9230769230769,6,2,1,40,0,1
265749,-227.272727272727,6,2,1,40,0,1
265782,-76.9230769230769,6,2,1,40,0,1
265815,-227.272727272727,6,2,1,40,0,1
265847,-76.9230769230769,6,2,1,40,0,1
265880,255.31914893617,6,2,1,40,1,1
265880,-117.508813160987,6,2,1,40,0,1
266390,-196.078431372549,6,2,1,40,0,1
266486,-117.647058823529,6,2,1,40,0,1
266550,-90.9090909090909,6,2,1,40,0,1
266645,-125,6,2,1,40,0,1
267156,-196.078431372549,6,2,1,40,0,1
267252,-117.647058823529,6,2,1,40,0,1
267316,-90.9090909090909,6,2,1,40,0,1
267411,260.869565217391,6,2,1,40,1,1
267411,-114.942528735632,6,2,1,40,0,1
267541,-192.307692307692,6,2,1,40,0,1
267671,-117.647058823529,6,2,1,40,0,1
267802,-90.9090909090909,6,2,1,40,0,1
267932,-125,6,2,1,40,0,1
268193,-192.307692307692,6,2,1,40,0,1
268291,-114.942528735632,6,2,1,40,0,1
268356,-81.9672131147541,6,2,1,40,0,1
268454,-115.008625646924,6,2,1,40,0,1
268584,-192.307692307692,6,2,1,40,0,1
268682,-114.942528735632,6,2,1,40,0,1
268747,-90.9090909090909,6,2,1,40,0,1
268845,-114.942528735632,6,2,1,40,0,1
269889,-153.256704980843,6,2,1,40,0,1
270150,-114.942528735632,6,2,1,40,0,1
270280,255.31914893617,6,2,1,40,1,1
270280,-117.508813160987,6,2,1,40,0,1
270407,-168.067226890756,6,2,1,40,0,1
270662,-117.647058823529,6,2,1,40,0,1
270790,260.869565217391,6,2,1,40,1,1
270790,-115.008625646924,6,2,1,40,0,1
270920,-176.83465959328,6,2,1,40,0,1
271181,-114.942528735632,6,2,1,40,0,1
271311,260.869565217391,6,2,1,40,1,1
271311,-115.008625646924,6,2,1,40,0,1
271441,-176.83465959328,6,2,1,40,0,1
271702,-114.942528735632,6,2,1,40,0,1
271832,255.31914893617,6,2,1,40,1,1
271832,-196.078431372549,6,2,1,40,0,1
272087,-117.647058823529,6,2,1,40,0,1
272214,400,6,2,1,40,1,0
272214,-75.0000187500047,6,2,1,40,0,0
272614,352.941176470588,6,2,1,40,1,0
272614,-85.0051003060184,6,2,1,40,0,0
272966,280.373831775701,4,2,1,40,1,0
272966,-107.009095773141,4,2,1,40,0,0
290629,-76.8049155145929,4,2,1,40,0,0
290699,-107.52688172043,4,2,1,40,0,0
290839,-179.21146953405,4,2,1,40,0,0
290909,-107.52688172043,4,2,1,40,0,0
295115,-53.763440860215,4,2,1,40,0,0
295150,-71.6845878136201,4,2,1,40,0,0
295185,-107.52688172043,4,2,1,40,0,0
295255,-172.043010752688,4,2,1,40,0,0
295395,-107.52688172043,4,2,1,40,0,0
297358,-53.763440860215,4,2,1,40,0,0
297393,-86.0215053763441,4,2,1,40,0,0
297428,-107.52688172043,4,2,1,40,0,0
297498,-156.402737047898,4,2,1,40,0,0
297638,-107.52688172043,4,2,1,40,0,0
299040,-53.763440860215,4,2,1,40,0,0
299064,-212.765957446809,4,2,1,40,0,0
299110,-53.763440860215,4,2,1,40,0,0
299134,-212.765957446809,4,2,1,40,0,0
299180,-53.763440860215,4,2,1,40,0,0
299204,-212.765957446809,4,2,1,40,0,0
299251,-53.763440860215,4,2,1,40,0,0
299274,-212.765957446809,4,2,1,40,0,0
299321,-107.52688172043,4,2,1,40,0,0
299461,-122.887864823349,4,2,1,40,0,0
299601,-143.36917562724,4,2,1,40,0,0
299881,-107.52688172043,4,2,1,40,0,0
301844,-53.763440860215,4,2,1,40,0,0
301914,-161.290322580645,4,2,1,40,0,0
302124,-107.52688172043,4,2,1,40,0,0
304087,-71.6845878136201,4,2,1,40,0,0
304157,-89.6057347670251,4,2,1,40,0,0
304227,-134.408602150538,4,2,1,40,0,0
304297,-215.05376344086,4,2,1,40,0,0
304367,-107.52688172043,4,2,1,40,0,0
308853,342.857142857143,4,2,1,40,1,0
308853,-87.5043752187609,4,2,1,40,0,0
309195,571.428571428571,4,2,1,32,1,0
309195,-65.7894736842105,4,2,1,32,0,0
309766,839.160839160839,4,2,1,24,1,0
309766,-59.5238095238095,4,2,1,24,0,0
310605,952.380952380952,4,2,1,16,1,0
310605,-78.8643533123028,4,2,1,16,0,0

[HitObjects]
64,192,45,5,2,0:0:0:0:
320,192,45,1,4,0:0:0:0:
448,192,45,1,8,0:0:0:0:
64,192,1245,128,0,1545:0:0:0:0:
192,192,1245,1,8,0:0:0:0:
448,192,1545,128,0,1695:0:0:0:0:
320,192,1695,128,0,1845:0:0:0:0:
192,192,1845,128,0,1995:0:0:0:0:
64,192,1995,128,0,2445:0:0:0:0:
448,192,2295,128,0,2445:0:0:0:0:
320,192,2445,128,0,2595:0:0:0:0:
64,192,2595,128,0,3045:0:0:0:0:
320,192,2895,128,0,3045:0:0:0:0:
448,192,3045,128,0,3195:0:0:0:0:
64,192,3195,128,0,3645:0:0:0:0:
320,192,3495,128,0,3645:0:0:0:0:
192,192,3645,128,0,3795:0:0:0:0:
448,192,3645,1,8,0:0:0:0:
320,192,3795,128,0,4245:0:0:0:0:
64,192,4095,128,0,4245:0:0:0:0:
192,192,4245,128,0,4395:0:0:0:0:
320,192,4395,128,0,4845:0:0:0:0:
192,192,4695,128,0,4845:0:0:0:0:
64,192,4845,128,0,4995:0:0:0:0:
448,192,4995,128,0,5445:0:0:0:0:
64,192,5295,128,0,5445:0:0:0:0:
192,192,5445,128,0,5595:0:0:0:0:
448,192,5595,128,0,6045:0:0:0:0:
192,192,5895,128,0,6045:0:0:0:0:
320,192,6045,128,0,6195:0:0:0:0:
64,192,6045,1,8,0:0:0:0:
192,192,6195,128,0,6645:0:0:0:0:
320,192,6495,128,0,6645:0:0:0:0:
448,192,6645,128,0,6795:0:0:0:0:
192,192,6795,128,0,7245:0:0:0:0:
320,192,7095,128,0,7245:0:0:0:0:
64,192,7245,128,0,7395:0:0:0:0:
448,192,7395,128,0,7845:0:0:0:0:
192,192,7695,128,0,7845:0:0:0:0:
64,192,7845,128,0,7995:0:0:0:0:
448,192,7995,128,0,8445:0:0:0:0:
64,192,8295,128,0,8445:0:0:0:0:
320,192,8445,128,0,8595:0:0:0:0:
192,192,8445,1,8,0:0:0:0:
64,192,8595,128,0,9045:0:0:0:0:
448,192,8895,128,0,9045:0:0:0:0:
320,192,9045,128,0,9195:0:0:0:0:
64,192,9195,128,0,9645:0:0:0:0:
448,192,9495,128,0,9645:0:0:0:0:
192,192,9645,128,0,9795:0:0:0:0:
320,192,9795,128,0,10245:0:0:0:0:
64,192,10095,128,0,10245:0:0:0:0:
192,192,10245,128,0,10395:0:0:0:0:
320,192,10395,128,0,10845:0:0:0:0:
192,192,10695,128,0,10845:0:0:0:0:
448,192,10845,128,0,10995:0:0:0:0:
64,192,10845,1,8,0:0:0:0:
192,192,10995,128,0,11445:0:0:0:0:
320,192,11295,128,0,11445:0:0:0:0:
448,192,11445,128,0,11595:0:0:0:0:
192,192,11595,128,0,12045:0:0:0:0:
448,192,11895,128,0,12045:0:0:0:0:
64,192,12045,128,0,12195:0:0:0:0:
320,192,12195,128,0,12645:0:0:0:0:
192,192,12495,128,0,12645:0:0:0:0:
64,192,12645,128,0,12795:0:0:0:0:
320,192,12795,128,0,13245:0:0:0:0:
64,192,13095,128,0,13245:0:0:0:0:
448,192,13245,128,0,13395:0:0:0:0:
192,192,13245,1,8,0:0:0:0:
64,192,13395,128,0,13845:0:0:0:0:
320,192,13695,128,0,13845:0:0:0:0:
448,192,13845,128,0,13995:0:0:0:0:
64,192,13995,128,0,14445:0:0:0:0:
448,192,14295,128,0,14445:0:0:0:0:
192,192,14445,128,0,14595:0:0:0:0:
320,192,14595,128,0,15045:0:0:0:0:
64,192,14895,128,0,15045:0:0:0:0:
192,192,15045,128,0,15195:0:0:0:0:
320,192,15195,128,0,15645:0:0:0:0:
192,192,15495,128,0,15645:0:0:0:0:
448,192,15645,128,0,15795:0:0:0:0:
64,192,15645,1,8,0:0:0:0:
192,192,15795,128,0,16245:0:0:0:0:
320,192,16095,128,0,16245:0:0:0:0:
448,192,16245,128,0,16395:0:0:0:0:
192,192,16395,128,0,16845:0:0:0:0:
320,192,16695,128,0,16845:0:0:0:0:
64,192,16845,128,0,16995:0:0:0:0:
448,192,16995,128,0,17445:0:0:0:0:
64,192,17295,128,0,17445:0:0:0:0:
320,192,17445,128,0,17595:0:0:0:0:
448,192,17595,128,0,18045:0:0:0:0:
192,192,17895,128,0,18045:0:0:0:0:
320,192,18045,128,0,18195:0:0:0:0:
64,192,18045,1,8,0:0:0:0:
192,192,18195,128,0,18645:0:0:0:0:
320,192,18495,128,0,18645:0:0:0:0:
448,192,18645,128,0,18795:0:0:0:0:
192,192,18795,128,0,19095:0:0:0:0:
64,192,19095,128,0,19245:0:0:0:0:
192,192,19245,5,0,0:0:0:0:
320,192,19245,1,2,0:0:0:0:
448,192,19245,1,8,0:0:0:0:
64,192,19395,1,0,0:0:0:0:
64,192,19695,1,0,0:0:0:0:
320,192,19845,1,0,0:0:0:0:
320,192,20145,1,0,0:0:0:0:
192,192,20295,1,0,0:0:0:0:
192,192,20595,1,0,0:0:0:0:
448,192,20745,1,0,0:0:0:0:
192,192,21645,1,0,0:0:0:0:
448,192,21795,1,0,0:0:0:0:
448,192,22095,1,0,0:0:0:0:
64,192,22245,1,0,0:0:0:0:
64,192,22545,1,0,0:0:0:0:
320,192,22695,1,0,0:0:0:0:
320,192,22995,1,0,0:0:0:0:
192,192,23145,1,0,0:0:0:0:
448,192,24045,1,0,0:0:0:0:
192,192,24195,1,0,0:0:0:0:
192,192,24495,1,0,0:0:0:0:
320,192,24645,1,0,0:0:0:0:
320,192,24945,1,0,0:0:0:0:
64,192,25095,1,0,0:0:0:0:
64,192,25395,1,0,0:0:0:0:
448,192,25545,1,0,0:0:0:0:
192,192,26445,1,0,0:0:0:0:
320,192,26595,1,0,0:0:0:0:
320,192,26895,1,0,0:0:0:0:
64,192,27045,1,0,0:0:0:0:
64,192,27345,1,0,0:0:0:0:
448,192,27495,1,0,0:0:0:0:
448,192,27795,1,0,0:0:0:0:
192,192,27945,1,0,0:0:0:0:
64,192,28845,1,2,0:0:0:0:
448,192,28845,1,8,0:0:0:0:
320,192,28845,1,0,0:0:0:0:
192,192,28995,1,0,0:0:0:0:
192,192,29295,1,0,0:0:0:0:
320,192,29445,1,0,0:0:0:0:
320,192,29745,1,0,0:0:0:0:
64,192,29895,1,0,0:0:0:0:
64,192,30195,1,0,0:0:0:0:
448,192,30345,1,0,0:0:0:0:
192,192,31245,1,0,0:0:0:0:
448,192,31395,1,0,0:0:0:0:
448,192,31695,1,0,0:0:0:0:
64,192,31845,1,0,0:0:0:0:
64,192,32145,1,0,0:0:0:0:
320,192,32295,1,0,0:0:0:0:
320,192,32595,1,0,0:0:0:0:
192,192,32745,1,0,0:0:0:0:
192,192,33645,1,0,0:0:0:0:
320,192,33795,1,0,0:0:0:0:
320,192,34095,1,0,0:0:0:0:
64,192,34245,1,0,0:0:0:0:
64,192,34545,1,0,0:0:0:0:
448,192,34695,1,0,0:0:0:0:
448,192,34995,1,0,0:0:0:0:
192,192,35145,1,0,0:0:0:0:
320,192,36045,1,0,0:0:0:0:
64,192,36195,1,0,0:0:0:0:
64,192,36495,1,0,0:0:0:0:
448,192,36645,1,0,0:0:0:0:
448,192,36945,1,0,0:0:0:0:
192,192,37095,1,0,0:0:0:0:
192,192,37395,1,0,0:0:0:0:
320,192,37545,1,0,0:0:0:0:
320,192,38445,1,0,0:0:0:0:
448,192,38445,1,8,0:0:0:0:
64,192,38445,1,2,0:0:0:0:
192,192,38595,1,0,0:0:0:0:
192,192,38895,1,0,0:0:0:0:
320,192,39045,1,0,0:0:0:0:
320,192,39345,1,0,0:0:0:0:
64,192,39495,1,0,0:0:0:0:
64,192,39795,1,0,0:0:0:0:
448,192,39945,1,0,0:0:0:0:
320,192,40845,1,0,0:0:0:0:
64,192,40995,1,0,0:0:0:0:
64,192,41295,1,0,0:0:0:0:
448,192,41445,1,0,0:0:0:0:
448,192,41745,1,0,0:0:0:0:
192,192,41895,1,0,0:0:0:0:
192,192,42195,1,0,0:0:0:0:
320,192,42345,1,0,0:0:0:0:
192,192,43245,1,0,0:0:0:0:
448,192,43395,1,0,0:0:0:0:
448,192,43695,1,0,0:0:0:0:
64,192,43845,1,0,0:0:0:0:
64,192,44145,1,0,0:0:0:0:
320,192,44295,1,0,0:0:0:0:
320,192,44595,1,0,0:0:0:0:
192,192,44745,1,0,0:0:0:0:
320,192,45645,1,0,0:0:0:0:
64,192,45795,1,0,0:0:0:0:
64,192,46095,1,0,0:0:0:0:
448,192,46245,1,0,0:0:0:0:
448,192,46545,1,0,0:0:0:0:
192,192,46695,1,0,0:0:0:0:
192,192,46995,1,0,0:0:0:0:
320,192,47145,1,0,0:0:0:0:
192,192,48045,1,0,0:0:0:0:
64,192,48045,1,2,0:0:0:0:
320,192,48045,1,8,0:0:0:0:
448,192,48195,1,0,0:0:0:0:
448,192,48495,1,0,0:0:0:0:
64,192,48645,1,0,0:0:0:0:
64,192,48945,1,0,0:0:0:0:
320,192,49095,1,0,0:0:0:0:
320,192,49395,1,0,0:0:0:0:
192,192,49545,1,0,0:0:0:0:
320,192,50445,1,0,0:0:0:0:
64,192,50595,1,0,0:0:0:0:
64,192,50895,1,0,0:0:0:0:
448,192,51045,1,0,0:0:0:0:
448,192,51345,1,0,0:0:0:0:
192,192,51495,1,0,0:0:0:0:
192,192,51795,1,0,0:0:0:0:
320,192,51945,1,0,0:0:0:0:
448,192,52845,1,0,0:0:0:0:
192,192,52995,1,0,0:0:0:0:
192,192,53295,1,0,0:0:0:0:
320,192,53445,1,0,0:0:0:0:
320,192,53745,1,0,0:0:0:0:
64,192,53895,1,0,0:0:0:0:
64,192,54195,1,0,0:0:0:0:
448,192,54345,1,0,0:0:0:0:
64,192,55245,1,0,0:0:0:0:
448,192,55395,1,0,0:0:0:0:
448,192,55695,1,0,0:0:0:0:
192,192,55845,1,0,0:0:0:0:
192,192,56145,1,0,0:0:0:0:
320,192,56295,1,0,0:0:0:0:
320,192,56595,5,0,0:0:0:0:
64,192,56745,1,0,0:0:0:0:
64,192,57645,5,2,0:0:0:0:
448,192,57645,1,8,0:0:0:0:
320,192,57645,1,0,0:0:0:0:
192,192,57795,1,2,0:0:0:0:
448,192,57945,1,2,0:0:0:0:
320,192,58020,1,2,0:0:0:0:
64,192,58095,1,2,0:0:0:0:
192,192,58170,1,2,0:0:0:0:
448,192,58245,1,4,0:0:0:0:
320,192,58245,1,8,0:0:0:0:
64,192,58245,1,2,0:0:0:0:
448,192,58395,1,2,0:0:0:0:
64,192,58545,1,2,0:0:0:0:
320,192,58620,1,2,0:0:0:0:
192,192,58695,1,2,0:0:0:0:
448,192,58770,1,2,0:0:0:0:
64,192,58845,1,8,0:0:0:0:
192,192,58845,1,2,0:0:0:0:
448,192,58995,1,2,0:0:0:0:
64,192,58995,1,8,0:0:0:0:
64,192,59145,1,8,0:0:0:0:
320,192,59145,1,2,0:0:0:0:
192,192,59220,1,2,0:0:0:0:
320,192,59295,1,2,0:0:0:0:
192,192,59445,1,8,0:0:0:0:
64,192,59445,1,4,0:0:0:0:
448,192,59445,1,2,0:0:0:0:
320,192,59595,1,2,0:0:0:0:
64,192,59595,1,8,0:0:0:0:
192,192,59670,1,8,0:0:0:0:
448,192,59670,1,2,0:0:0:0:
320,192,59745,1,2,0:0:0:0:
64,192,59895,1,8,0:0:0:0:
192,192,59932,1,8,0:0:0:0:
320,192,59970,1,8,0:0:0:0:
448,192,60007,1,8,0:0:0:0:
192,192,60045,1,8,0:0:0:0:
64,192,60045,1,2,0:0:0:0:
448,192,60195,1,2,0:0:0:0:
320,192,60345,1,2,0:0:0:0:
64,192,60420,1,2,0:0:0:0:
448,192,60495,1,2,0:0:0:0:
192,192,60570,1,2,0:0:0:0:
320,192,60645,1,8,0:0:0:0:
448,192,60645,1,2,0:0:0:0:
64,192,60645,1,4,0:0:0:0:
192,192,60795,1,2,0:0:0:0:
448,192,60945,1,2,0:0:0:0:
320,192,61020,1,2,0:0:0:0:
192,192,61095,1,2,0:0:0:0:
64,192,61095,1,4,0:0:0:0:
192,192,61170,1,2,0:0:0:0:
64,192,61170,1,4,0:0:0:0:
320,192,61245,1,2,0:0:0:0:
448,192,61245,1,8,0:0:0:0:
448,192,61395,1,8,0:0:0:0:
192,192,61395,1,4,0:0:0:0:
64,192,61395,1,2,0:0:0:0:
64,192,61545,1,2,0:0:0:0:
320,192,61545,1,8,0:0:0:0:
192,192,61695,1,2,0:0:0:0:
192,192,61845,1,2,0:0:0:0:
448,192,61845,1,8,0:0:0:0:
320,192,61845,1,4,0:0:0:0:
64,192,61995,1,2,0:0:0:0:
192,192,61995,1,8,0:0:0:0:
320,192,62070,1,8,0:0:0:0:
448,192,62070,1,2,0:0:0:0:
64,192,62145,1,2,0:0:0:0:
192,192,62220,1,2,0:0:0:0:
320,192,62295,1,2,0:0:0:0:
448,192,62295,1,8,0:0:0:0:
192,192,62370,1,2,0:0:0:0:
64,192,62370,1,8,0:0:0:0:
320,192,62445,1,2,0:0:0:0:
448,192,62445,1,8,0:0:0:0:
192,192,62595,1,2,0:0:0:0:
64,192,62745,1,2,0:0:0:0:
320,192,62820,1,2,0:0:0:0:
192,192,62895,1,2,0:0:0:0:
448,192,62970,1,2,0:0:0:0:
320,192,63045,1,4,0:0:0:0:
192,192,63045,1,2,0:0:0:0:
64,192,63045,1,8,0:0:0:0:
448,192,63195,1,2,0:0:0:0:
320,192,63270,1,2,0:0:0:0:
64,192,63345,1,2,0:0:0:0:
192,192,63420,1,2,0:0:0:0:
320,192,63495,1,2,0:0:0:0:
448,192,63570,1,2,0:0:0:0:
192,192,63645,1,2,0:0:0:0:
64,192,63645,1,8,0:0:0:0:
448,192,63795,1,8,0:0:0:0:
320,192,63795,1,2,0:0:0:0:
192,192,63945,1,2,0:0:0:0:
64,192,63945,1,8,0:0:0:0:
320,192,64020,1,2,0:0:0:0:
448,192,64095,1,2,0:0:0:0:
64,192,64245,1,2,0:0:0:0:
192,192,64245,1,4,0:0:0:0:
320,192,64245,1,8,0:0:0:0:
320,192,64395,1,8,0:0:0:0:
448,192,64395,1,2,0:0:0:0:
192,192,64470,1,8,0:0:0:0:
64,192,64470,1,2,0:0:0:0:
448,192,64545,1,2,0:0:0:0:
64,192,64695,1,8,0:0:0:0:
192,192,64732,1,8,0:0:0:0:
320,192,64770,1,8,0:0:0:0:
448,192,64807,1,8,0:0:0:0:
64,192,64845,5,2,0:0:0:0:
192,192,64845,1,8,0:0:0:0:
320,192,64995,1,2,0:0:0:0:
448,192,65145,1,2,0:0:0:0:
64,192,65220,1,2,0:0:0:0:
320,192,65295,1,2,0:0:0:0:
192,192,65370,1,2,0:0:0:0:
448,192,65445,1,4,0:0:0:0:
320,192,65445,1,2,0:0:0:0:
64,192,65445,1,8,0:0:0:0:
192,192,65595,1,2,0:0:0:0:
448,192,65745,1,2,0:0:0:0:
320,192,65820,1,2,0:0:0:0:
192,192,65895,1,2,0:0:0:0:
64,192,65895,1,4,0:0:0:0:
64,192,65970,1,4,0:0:0:0:
192,192,65970,1,2,0:0:0:0:
320,192,66045,1,8,0:0:0:0:
448,192,66045,1,2,0:0:0:0:
320,192,66195,1,4,0:0:0:0:
64,192,66195,1,2,0:0:0:0:
192,192,66270,1,2,0:0:0:0:
448,192,66270,1,8,0:0:0:0:
64,192,66345,1,2,0:0:0:0:
320,192,66345,1,8,0:0:0:0:
320,192,66495,1,8,0:0:0:0:
192,192,66495,1,2,0:0:0:0:
192,192,66645,1,2,0:0:0:0:
64,192,66645,1,4,0:0:0:0:
448,192,66645,1,8,0:0:0:0:
320,192,66720,1,2,0:0:0:0:
448,192,66720,1,8,0:0:0:0:
64,192,66795,1,2,0:0:0:0:
192,192,66870,1,2,0:0:0:0:
320,192,66945,1,2,0:0:0:0:
192,192,67020,1,2,0:0:0:0:
320,192,67095,1,2,0:0:0:0:
192,192,67170,1,2,0:0:0:0:
320,192,67245,1,2,0:0:0:0:
448,192,67245,1,8,0:0:0:0:
64,192,67245,1,4,0:0:0:0:
64,192,67395,1,2,0:0:0:0:
320,192,67545,1,2,0:0:0:0:
64,192,67620,1,2,0:0:0:0:
448,192,67695,1,2,0:0:0:0:
192,192,67770,1,2,0:0:0:0:
320,192,67845,1,8,0:0:0:0:
448,192,67845,1,2,0:0:0:0:
64,192,67845,1,4,0:0:0:0:
192,192,67995,1,2,0:0:0:0:
448,192,68145,1,2,0:0:0:0:
320,192,68220,1,2,0:0:0:0:
64,192,68295,1,2,0:0:0:0:
192,192,68370,1,2,0:0:0:0:
320,192,68445,1,2,0:0:0:0:
448,192,68445,1,8,0:0:0:0:
192,192,68595,1,2,0:0:0:0:
64,192,68595,1,8,0:0:0:0:
320,192,68745,1,2,0:0:0:0:
448,192,68745,1,8,0:0:0:0:
192,192,68820,5,2,0:0:0:0:
64,192,68895,5,2,0:0:0:0:
192,192,69045,1,2,0:0:0:0:
448,192,69045,1,8,0:0:0:0:
320,192,69045,1,4,0:0:0:0:
64,192,69195,1,2,0:0:0:0:
448,192,69195,1,8,0:0:0:0:
320,192,69270,1,8,0:0:0:0:
192,192,69270,1,2,0:0:0:0:
64,192,69345,1,2,0:0:0:0:
448,192,69495,1,8,0:0:0:0:
320,192,69532,1,8,0:0:0:0:
192,192,69570,1,8,0:0:0:0:
64,192,69607,1,8,0:0:0:0:
320,192,69645,1,2,0:0:0:0:
448,192,69645,1,8,0:0:0:0:
192,192,69795,1,2,0:0:0:0:
64,192,69945,1,2,0:0:0:0:
192,192,70020,1,2,0:0:0:0:
320,192,70095,1,2,0:0:0:0:
448,192,70170,1,2,0:0:0:0:
320,192,70245,1,2,0:0:0:0:
192,192,70245,1,4,0:0:0:0:
64,192,70245,1,8,0:0:0:0:
448,192,70395,1,2,0:0:0:0:
320,192,70470,1,2,0:0:0:0:
64,192,70545,1,2,0:0:0:0:
192,192,70620,1,2,0:0:0:0:
320,192,70695,1,2,0:0:0:0:
448,192,70695,1,8,0:0:0:0:
448,192,70770,1,8,0:0:0:0:
320,192,70770,1,2,0:0:0:0:
64,192,70845,1,2,0:0:0:0:
192,192,70845,1,8,0:0:0:0:
64,192,70995,1,4,0:0:0:0:
320,192,70995,1,2,0:0:0:0:
448,192,70995,1,8,0:0:0:0:
320,192,71145,1,2,0:0:0:0:
192,192,71145,1,8,0:0:0:0:
448,192,71220,1,2,0:0:0:0:
64,192,71295,1,2,0:0:0:0:
64,192,71445,1,2,0:0:0:0:
192,192,71445,1,8,0:0:0:0:
320,192,71445,1,4,0:0:0:0:
320,192,71595,1,8,0:0:0:0:
448,192,71595,1,2,0:0:0:0:
192,192,71670,1,8,0:0:0:0:
64,192,71670,1,2,0:0:0:0:
448,192,71745,1,2,0:0:0:0:
320,192,71820,1,2,0:0:0:0:
64,192,71895,1,8,0:0:0:0:
192,192,71895,1,2,0:0:0:0:
448,192,71970,1,8,0:0:0:0:
320,192,71970,1,2,0:0:0:0:
64,192,72045,1,8,0:0:0:0:
192,192,72045,1,2,0:0:0:0:
448,192,72195,1,2,0:0:0:0:
192,192,72345,1,2,0:0:0:0:
320,192,72420,1,2,0:0:0:0:
64,192,72495,1,2,0:0:0:0:
448,192,72570,1,2,0:0:0:0:
64,192,72645,1,4,0:0:0:0:
192,192,72645,1,8,0:0:0:0:
320,192,72645,1,2,0:0:0:0:
448,192,72795,1,2,0:0:0:0:
192,192,72870,1,2,0:0:0:0:
320,192,72945,1,2,0:0:0:0:
64,192,73020,1,2,0:0:0:0:
192,192,73095,1,2,0:0:0:0:
320,192,73170,1,2,0:0:0:0:
448,192,73245,1,2,0:0:0:0:
64,192,73245,1,8,0:0:0:0:
64,192,73395,1,8,0:0:0:0:
320,192,73395,1,2,0:0:0:0:
64,192,73545,1,8,0:0:0:0:
448,192,73545,1,2,0:0:0:0:
320,192,73620,1,2,0:0:0:0:
192,192,73695,1,2,0:0:0:0:
64,192,73845,1,8,0:0:0:0:
320,192,73845,1,2,0:0:0:0:
448,192,73845,1,4,0:0:0:0:
192,192,73995,1,2,0:0:0:0:
64,192,73995,1,8,0:0:0:0:
320,192,74070,1,2,0:0:0:0:
448,192,74070,1,8,0:0:0:0:
192,192,74145,1,2,0:0:0:0:
448,192,74295,1,8,0:0:0:0:
320,192,74332,1,8,0:0:0:0:
192,192,74370,1,8,0:0:0:0:
64,192,74407,1,8,0:0:0:0:
320,192,74445,1,2,0:0:0:0:
448,192,74445,1,8,0:0:0:0:
64,192,74595,5,2,0:0:0:0:
320,192,74745,1,2,0:0:0:0:
192,192,74820,1,2,0:0:0:0:
448,192,74895,1,2,0:0:0:0:
64,192,74970,1,2,0:0:0:0:
192,192,75045,1,2,0:0:0:0:
320,192,75045,1,4,0:0:0:0:
448,192,75045,1,8,0:0:0:0:
64,192,75195,1,2,0:0:0:0:
320,192,75270,1,2,0:0:0:0:
192,192,75345,1,2,0:0:0:0:
64,192,75420,1,2,0:0:0:0:
448,192,75495,1,4,0:0:0:0:
320,192,75495,1,2,0:0:0:0:
320,192,75570,1,2,0:0:0:0:
448,192,75570,1,4,0:0:0:0:
192,192,75645,5,8,0:0:0:0:
64,192,75645,1,2,0:0:0:0:
448,192,75720,5,2,0:0:0:0:
320,192,75795,1,4,0:0:0:0:
64,192,75795,1,8,0:0:0:0:
192,192,75870,1,4,0:0:0:0:
64,192,75870,1,8,0:0:0:0:
320,192,75945,5,2,0:0:0:0:
448,192,75945,1,8,0:0:0:0:
192,192,76020,5,2,0:0:0:0:
64,192,76095,5,2,0:0:0:0:
448,192,76095,1,8,0:0:0:0:
320,192,76170,5,2,0:0:0:0:
192,192,76245,5,2,0:0:0:0:
64,192,76245,1,4,0:0:0:0:
320,192,76320,1,2,0:0:0:0:
448,192,76320,1,4,0:0:0:0:
192,192,76395,1,2,0:0:0:0:
64,192,76395,1,4,0:0:0:0:
448,192,76470,1,4,0:0:0:0:
320,192,76470,1,2,0:0:0:0:
192,192,76545,5,2,0:0:0:0:
64,192,76545,1,4,0:0:0:0:
448,192,76620,5,4,0:0:0:0:
320,192,76620,1,2,0:0:0:0:
192,192,76695,5,2,0:0:0:0:
64,192,76695,1,4,0:0:0:0:
448,192,76770,5,4,0:0:0:0:
320,192,76770,1,2,0:0:0:0:
64,192,76845,5,8,0:0:0:0:
448,192,76845,1,4,0:0:0:0:
192,192,76845,128,0,77295:0:0:0:0:
320,192,76995,128,0,77595:0:0:0:0:
64,192,77295,128,0,77895:0:0:0:0:
448,192,77595,128,0,78195:0:0:0:0:
192,192,77895,128,0,78495:0:0:0:0:
320,192,78195,128,0,78795:0:0:0:0:
64,192,78495,128,0,79095:0:0:0:0:
448,192,78795,128,0,79395:0:0:0:0:
192,192,79095,128,0,79695:0:0:0:0:
320,192,79395,128,0,79995:0:0:0:0:
64,192,79695,128,0,80295:0:0:0:0:
448,192,79995,128,0,80595:0:0:0:0:
192,192,80295,128,0,80895:0:0:0:0:
320,192,80595,128,0,81195:0:0:0:0:
64,192,80895,128,0,81495:0:0:0:0:
192,192,81195,128,0,81645:0:0:0:0:
320,192,81495,128,0,82245:0:0:0:0:
64,192,81645,128,0,81945:0:0:0:0:
448,192,81945,128,0,82545:0:0:0:0:
192,192,82245,128,0,82845:0:0:0:0:
320,192,82545,128,0,83145:0:0:0:0:
64,192,82845,128,0,83445:0:0:0:0:
192,192,83145,128,0,84045:0:0:0:0:
320,192,83445,128,0,83745:0:0:0:0:
448,192,83745,128,0,85245:0:0:0:0:
64,192,84045,128,0,84345:0:0:0:0:
320,192,84045,128,0,84645:0:0:0:0:
192,192,84345,128,0,85245:0:0:0:0:
64,192,84645,128,0,85245:0:0:0:0:
320,192,84945,128,0,85245:0:0:0:0:
320,192,86445,5,2,0:0:0:0:
64,192,86445,1,4,0:0:0:0:
448,192,86445,1,8,0:0:0:0:
320,192,86595,1,2,0:0:0:0:
64,192,86745,1,4,0:0:0:0:
448,192,86745,1,8,0:0:0:0:
192,192,86745,1,2,0:0:0:0:
64,192,86895,1,0,0:0:0:0:
448,192,86895,1,2,0:0:0:0:
320,192,86970,1,2,0:0:0:0:
192,192,87045,1,2,0:0:0:0:
64,192,87120,1,2,0:0:0:0:
320,192,87195,1,8,0:0:0:0:
448,192,87195,1,2,0:0:0:0:
448,192,87345,1,2,0:0:0:0:
64,192,87345,1,4,0:0:0:0:
320,192,87345,1,8,0:0:0:0:
192,192,87495,1,2,0:0:0:0:
320,192,87570,1,2,0:0:0:0:
448,192,87645,1,2,0:0:0:0:
64,192,87645,1,8,0:0:0:0:
192,192,87795,1,2,0:0:0:0:
320,192,87795,1,0,0:0:0:0:
192,192,87945,1,2,0:0:0:0:
320,192,87945,1,8,0:0:0:0:
448,192,87945,1,4,0:0:0:0:
64,192,88095,1,2,0:0:0:0:
192,192,88170,1,2,0:0:0:0:
320,192,88245,1,2,0:0:0:0:
448,192,88245,1,0,0:0:0:0:
192,192,88320,1,2,0:0:0:0:
448,192,88395,1,2,0:0:0:0:
64,192,88395,1,8,0:0:0:0:
320,192,88470,1,2,0:0:0:0:
64,192,88545,1,4,0:0:0:0:
448,192,88545,1,8,0:0:0:0:
192,192,88545,1,2,0:0:0:0:
320,192,88695,1,2,0:0:0:0:
192,192,88770,1,2,0:0:0:0:
448,192,88845,1,8,0:0:0:0:
64,192,88845,1,2,0:0:0:0:
192,192,88995,1,2,0:0:0:0:
64,192,89145,1,2,0:0:0:0:
448,192,89145,1,4,0:0:0:0:
320,192,89145,1,8,0:0:0:0:
64,192,89295,1,2,0:0:0:0:
448,192,89295,1,0,0:0:0:0:
192,192,89370,1,2,0:0:0:0:
320,192,89445,1,2,0:0:0:0:
448,192,89520,1,2,0:0:0:0:
192,192,89595,1,2,0:0:0:0:
64,192,89595,1,8,0:0:0:0:
192,192,89745,1,2,0:0:0:0:
448,192,89745,1,4,0:0:0:0:
64,192,89745,1,8,0:0:0:0:
320,192,89895,1,2,0:0:0:0:
448,192,89970,1,2,0:0:0:0:
192,192,90045,1,2,0:0:0:0:
64,192,90045,1,8,0:0:0:0:
448,192,90195,1,2,0:0:0:0:
320,192,90195,1,0,0:0:0:0:
64,192,90345,1,4,0:0:0:0:
320,192,90345,1,8,0:0:0:0:
448,192,90345,1,2,0:0:0:0:
192,192,90495,1,2,0:0:0:0:
320,192,90570,1,2,0:0:0:0:
64,192,90645,1,0,0:0:0:0:
448,192,90645,1,2,0:0:0:0:
320,192,90720,1,2,0:0:0:0:
192,192,90795,1,2,0:0:0:0:
448,192,90795,1,8,0:0:0:0:
64,192,90870,1,2,0:0:0:0:
448,192,90945,1,8,0:0:0:0:
192,192,90945,1,2,0:0:0:0:
320,192,90945,1,4,0:0:0:0:
64,192,91095,1,2,0:0:0:0:
192,192,91170,1,2,0:0:0:0:
448,192,91245,1,8,0:0:0:0:
320,192,91245,1,2,0:0:0:0:
64,192,91395,1,2,0:0:0:0:
192,192,91545,1,2,0:0:0:0:
448,192,91545,1,8,0:0:0:0:
320,192,91545,1,4,0:0:0:0:
192,192,91695,1,2,0:0:0:0:
448,192,91695,1,0,0:0:0:0:
64,192,91770,1,2,0:0:0:0:
320,192,91845,1,2,0:0:0:0:
448,192,91920,1,2,0:0:0:0:
192,192,91995,1,2,0:0:0:0:
64,192,91995,1,8,0:0:0:0:
192,192,92145,1,2,0:0:0:0:
64,192,92145,1,8,0:0:0:0:
448,192,92145,1,4,0:0:0:0:
320,192,92295,1,2,0:0:0:0:
192,192,92370,1,2,0:0:0:0:
64,192,92445,1,2,0:0:0:0:
448,192,92445,1,8,0:0:0:0:
320,192,92595,1,0,0:0:0:0:
192,192,92595,1,2,0:0:0:0:
320,192,92745,1,8,0:0:0:0:
192,192,92745,1,2,0:0:0:0:
448,192,92745,1,4,0:0:0:0:
64,192,92895,1,2,0:0:0:0:
192,192,92970,1,2,0:0:0:0:
320,192,93045,1,2,0:0:0:0:
448,192,93045,1,0,0:0:0:0:
192,192,93120,1,2,0:0:0:0:
64,192,93195,1,8,0:0:0:0:
448,192,93195,1,2,0:0:0:0:
320,192,93270,1,2,0:0:0:0:
448,192,93345,1,4,0:0:0:0:
64,192,93345,1,8,0:0:0:0:
192,192,93345,1,2,0:0:0:0:
320,192,93495,1,2,0:0:0:0:
448,192,93570,1,2,0:0:0:0:
64,192,93645,1,8,0:0:0:0:
192,192,93645,1,2,0:0:0:0:
320,192,93795,1,2,0:0:0:0:
64,192,93945,1,8,0:0:0:0:
192,192,93945,1,2,0:0:0:0:
448,192,93945,1,4,0:0:0:0:
192,192,94095,1,2,0:0:0:0:
448,192,94095,1,0,0:0:0:0:
320,192,94170,1,2,0:0:0:0:
64,192,94245,1,2,0:0:0:0:
192,192,94320,1,2,0:0:0:0:
320,192,94395,1,2,0:0:0:0:
448,192,94395,1,8,0:0:0:0:
448,192,94545,1,8,0:0:0:0:
320,192,94545,1,2,0:0:0:0:
64,192,94545,1,4,0:0:0:0:
192,192,94695,1,2,0:0:0:0:
320,192,94770,1,2,0:0:0:0:
448,192,94845,1,8,0:0:0:0:
64,192,94845,1,2,0:0:0:0:
192,192,94995,1,2,0:0:0:0:
320,192,94995,1,0,0:0:0:0:
192,192,95145,1,2,0:0:0:0:
320,192,95145,1,8,0:0:0:0:
64,192,95145,1,4,0:0:0:0:
448,192,95295,1,2,0:0:0:0:
192,192,95370,1,2,0:0:0:0:
448,192,95445,1,2,0:0:0:0:
320,192,95445,1,0,0:0:0:0:
192,192,95520,1,2,0:0:0:0:
64,192,95595,1,2,0:0:0:0:
448,192,95595,1,8,0:0:0:0:
320,192,95670,1,2,0:0:0:0:
192,192,95745,1,2,0:0:0:0:
448,192,95745,1,4,0:0:0:0:
64,192,95745,1,8,0:0:0:0:
320,192,95820,1,2,0:0:0:0:
64,192,95895,1,4,0:0:0:0:
192,192,95895,1,2,0:0:0:0:
320,192,95970,1,2,0:0:0:0:
448,192,95970,1,4,0:0:0:0:
64,192,96045,1,8,0:0:0:0:
192,192,96045,1,2,0:0:0:0:
448,192,96045,1,4,0:0:0:0:
192,192,96195,1,0,0:0:0:0:
320,192,96195,1,2,0:0:0:0:
320,192,96345,1,2,0:0:0:0:
448,192,96345,1,8,0:0:0:0:
64,192,96345,1,4,0:0:0:0:
64,192,96495,1,0,0:0:0:0:
448,192,96495,1,2,0:0:0:0:
192,192,96645,1,0,0:0:0:0:
320,192,96645,1,2,0:0:0:0:
64,192,96795,1,2,0:0:0:0:
448,192,96795,1,8,0:0:0:0:
192,192,96945,1,2,0:0:0:0:
448,192,96945,1,8,0:0:0:0:
320,192,96945,1,4,0:0:0:0:
320,192,97095,1,0,0:0:0:0:
64,192,97095,1,2,0:0:0:0:
192,192,97245,1,2,0:0:0:0:
448,192,97245,1,8,0:0:0:0:
320,192,97395,1,2,0:0:0:0:
448,192,97395,1,0,0:0:0:0:
64,192,97545,1,8,0:0:0:0:
320,192,97545,1,2,0:0:0:0:
192,192,97545,1,4,0:0:0:0:
64,192,97695,1,2,0:0:0:0:
192,192,97695,1,0,0:0:0:0:
320,192,97845,1,0,0:0:0:0:
448,192,97845,1,2,0:0:0:0:
320,192,97995,1,2,0:0:0:0:
192,192,97995,1,8,0:0:0:0:
64,192,98145,1,4,0:0:0:0:
448,192,98145,1,2,0:0:0:0:
192,192,98145,1,8,0:0:0:0:
64,192,98295,1,0,0:0:0:0:
320,192,98295,1,2,0:0:0:0:
448,192,98445,1,2,0:0:0:0:
192,192,98445,1,8,0:0:0:0:
192,192,98595,1,0,0:0:0:0:
320,192,98595,1,2,0:0:0:0:
64,192,98745,1,8,0:0:0:0:
320,192,98745,1,2,0:0:0:0:
448,192,98745,1,4,0:0:0:0:
192,192,98895,1,2,0:0:0:0:
448,192,98895,1,0,0:0:0:0:
320,192,99045,1,0,0:0:0:0:
192,192,99045,1,2,0:0:0:0:
64,192,99195,1,8,0:0:0:0:
320,192,99195,1,2,0:0:0:0:
64,192,99345,1,8,0:0:0:0:
192,192,99345,1,4,0:0:0:0:
448,192,99345,1,2,0:0:0:0:
192,192,99495,1,0,0:0:0:0:
320,192,99495,1,2,0:0:0:0:
64,192,99645,1,8,0:0:0:0:
448,192,99645,1,2,0:0:0:0:
192,192,99795,1,0,0:0:0:0:
320,192,99795,1,2,0:0:0:0:
64,192,99945,1,8,0:0:0:0:
320,192,99945,1,2,0:0:0:0:
448,192,99945,1,4,0:0:0:0:
64,192,100095,1,0,0:0:0:0:
192,192,100095,1,2,0:0:0:0:
320,192,100245,1,2,0:0:0:0:
448,192,100245,1,0,0:0:0:0:
320,192,100395,1,2,0:0:0:0:
192,192,100395,1,8,0:0:0:0:
192,192,100545,1,8,0:0:0:0:
64,192,100545,1,4,0:0:0:0:
448,192,100545,1,2,0:0:0:0:
320,192,100695,1,2,0:0:0:0:
448,192,100695,1,0,0:0:0:0:
64,192,100845,1,8,0:0:0:0:
192,192,100845,1,2,0:0:0:0:
192,192,100995,1,2,0:0:0:0:
320,192,100995,1,0,0:0:0:0:
320,192,101145,1,2,0:0:0:0:
448,192,101145,1,4,0:0:0:0:
64,192,101145,1,8,0:0:0:0:
64,192,101295,1,2,0:0:0:0:
448,192,101295,1,0,0:0:0:0:
192,192,101445,1,2,0:0:0:0:
320,192,101445,1,0,0:0:0:0:
64,192,101595,1,2,0:0:0:0:
448,192,101595,1,8,0:0:0:0:
192,192,101745,1,2,0:0:0:0:
448,192,101745,1,8,0:0:0:0:
320,192,101745,1,4,0:0:0:0:
320,192,101895,1,0,0:0:0:0:
64,192,101895,1,2,0:0:0:0:
192,192,102045,1,2,0:0:0:0:
448,192,102045,1,8,0:0:0:0:
320,192,102195,1,2,0:0:0:0:
448,192,102195,1,0,0:0:0:0:
64,192,102345,1,4,0:0:0:0:
320,192,102345,1,2,0:0:0:0:
192,192,102345,1,8,0:0:0:0:
64,192,102495,1,0,0:0:0:0:
192,192,102495,1,2,0:0:0:0:
320,192,102645,1,0,0:0:0:0:
448,192,102645,1,2,0:0:0:0:
320,192,102795,1,2,0:0:0:0:
192,192,102795,1,8,0:0:0:0:
64,192,102945,1,2,0:0:0:0:
448,192,102945,1,4,0:0:0:0:
192,192,102945,1,8,0:0:0:0:
64,192,103095,1,2,0:0:0:0:
320,192,103095,1,0,0:0:0:0:
448,192,103245,1,8,0:0:0:0:
192,192,103245,1,2,0:0:0:0:
192,192,103395,5,2,0:0:0:0:
320,192,103395,1,0,0:0:0:0:
64,192,103545,1,2,0:0:0:0:
320,192,103545,1,4,0:0:0:0:
448,192,103545,1,8,0:0:0:0:
192,192,103695,1,2,0:0:0:0:
448,192,103695,1,0,0:0:0:0:
320,192,103845,1,0,0:0:0:0:
192,192,103845,1,2,0:0:0:0:
64,192,103995,1,8,0:0:0:0:
320,192,103995,1,2,0:0:0:0:
64,192,104145,1,8,0:0:0:0:
192,192,104145,1,4,0:0:0:0:
448,192,104145,1,2,0:0:0:0:
192,192,104295,1,0,0:0:0:0:
320,192,104295,1,2,0:0:0:0:
320,192,104445,1,4,0:0:0:0:
64,192,104445,1,2,0:0:0:0:
448,192,104445,1,8,0:0:0:0:
320,192,104670,1,4,0:0:0:0:
64,192,104670,1,8,0:0:0:0:
448,192,104745,1,4,0:0:0:0:
192,192,104745,1,8,0:0:0:0:
64,192,104895,1,8,0:0:0:0:
448,192,104895,1,4,0:0:0:0:
64,192,105045,1,8,0:0:0:0:
320,192,105045,1,4,0:0:0:0:
192,192,105045,1,2,0:0:0:0:
448,192,105195,1,4,0:0:0:0:
320,192,105195,1,2,0:0:0:0:
320,192,105270,1,2,0:0:0:0:
448,192,105270,1,4,0:0:0:0:
64,192,105345,1,2,0:0:0:0:
192,192,105345,1,8,0:0:0:0:
320,192,105495,1,2,0:0:0:0:
448,192,105495,1,4,0:0:0:0:
448,192,105570,1,4,0:0:0:0:
320,192,105570,1,2,0:0:0:0:
64,192,105645,1,8,0:0:0:0:
448,192,105645,1,4,0:0:0:0:
192,192,105645,1,2,0:0:0:0:
320,192,105795,1,2,0:0:0:0:
320,192,105945,1,2,0:0:0:0:
448,192,105945,1,4,0:0:0:0:
64,192,105945,1,8,0:0:0:0:
64,192,106095,1,2,0:0:0:0:
448,192,106095,1,0,0:0:0:0:
192,192,106170,1,2,0:0:0:0:
64,192,106245,1,2,0:0:0:0:
320,192,106320,1,2,0:0:0:0:
64,192,106395,1,2,0:0:0:0:
448,192,106395,1,8,0:0:0:0:
64,192,106545,1,2,0:0:0:0:
320,192,106545,1,4,0:0:0:0:
448,192,106545,1,8,0:0:0:0:
192,192,106695,1,2,0:0:0:0:
64,192,106770,1,2,0:0:0:0:
320,192,106845,1,2,0:0:0:0:
448,192,106845,1,8,0:0:0:0:
192,192,106995,1,2,0:0:0:0:
64,192,107145,1,2,0:0:0:0:
192,192,107145,1,4,0:0:0:0:
448,192,107145,1,8,0:0:0:0:
64,192,107295,1,2,0:0:0:0:
320,192,107370,1,2,0:0:0:0:
448,192,107445,1,0,0:0:0:0:
64,192,107445,1,2,0:0:0:0:
192,192,107520,1,2,0:0:0:0:
448,192,107595,1,8,0:0:0:0:
320,192,107595,1,2,0:0:0:0:
64,192,107745,1,8,0:0:0:0:
192,192,107745,1,2,0:0:0:0:
448,192,107745,1,4,0:0:0:0:
320,192,107895,1,2,0:0:0:0:
448,192,107970,1,2,0:0:0:0:
192,192,108045,1,8,0:0:0:0:
64,192,108045,1,2,0:0:0:0:
320,192,108195,1,2,0:0:0:0:
64,192,108345,1,2,0:0:0:0:
192,192,108345,1,8,0:0:0:0:
448,192,108345,1,4,0:0:0:0:
192,192,108495,1,0,0:0:0:0:
448,192,108495,1,2,0:0:0:0:
320,192,108570,1,2,0:0:0:0:
448,192,108645,1,2,0:0:0:0:
64,192,108720,1,2,0:0:0:0:
192,192,108795,1,2,0:0:0:0:
448,192,108795,1,8,0:0:0:0:
448,192,108945,1,8,0:0:0:0:
192,192,108945,1,2,0:0:0:0:
64,192,108945,1,4,0:0:0:0:
320,192,109095,1,2,0:0:0:0:
448,192,109170,1,2,0:0:0:0:
192,192,109245,1,2,0:0:0:0:
64,192,109245,1,8,0:0:0:0:
320,192,109395,1,2,0:0:0:0:
320,192,109545,1,2,0:0:0:0:
448,192,109545,1,4,0:0:0:0:
64,192,109545,1,8,0:0:0:0:
448,192,109695,1,2,0:0:0:0:
64,192,109770,1,2,0:0:0:0:
448,192,109845,1,2,0:0:0:0:
192,192,109845,1,0,0:0:0:0:
320,192,109920,1,2,0:0:0:0:
448,192,109995,1,2,0:0:0:0:
64,192,109995,1,8,0:0:0:0:
192,192,110070,1,2,0:0:0:0:
448,192,110145,1,2,0:0:0:0:
64,192,110145,1,4,0:0:0:0:
320,192,110145,1,8,0:0:0:0:
192,192,110295,1,2,0:0:0:0:
320,192,110370,1,2,0:0:0:0:
448,192,110445,1,8,0:0:0:0:
64,192,110445,1,2,0:0:0:0:
192,192,110595,1,2,0:0:0:0:
64,192,110745,1,2,0:0:0:0:
320,192,110745,1,4,0:0:0:0:
448,192,110745,1,8,0:0:0:0:
64,192,110895,1,2,0:0:0:0:
448,192,110895,1,0,0:0:0:0:
320,192,110970,1,2,0:0:0:0:
64,192,111045,1,2,0:0:0:0:
192,192,111120,1,2,0:0:0:0:
64,192,111195,1,2,0:0:0:0:
448,192,111195,1,8,0:0:0:0:
64,192,111345,1,2,0:0:0:0:
192,192,111345,1,4,0:0:0:0:
448,192,111345,1,8,0:0:0:0:
320,192,111495,1,2,0:0:0:0:
192,192,111570,1,2,0:0:0:0:
64,192,111645,1,8,0:0:0:0:
448,192,111645,1,2,0:0:0:0:
320,192,111795,1,2,0:0:0:0:
64,192,111945,1,8,0:0:0:0:
320,192,111945,1,2,0:0:0:0:
448,192,111945,1,4,0:0:0:0:
64,192,112095,1,2,0:0:0:0:
448,192,112170,1,2,0:0:0:0:
192,192,112245,1,0,0:0:0:0:
64,192,112245,1,2,0:0:0:0:
320,192,112320,1,2,0:0:0:0:
64,192,112395,1,2,0:0:0:0:
448,192,112395,1,8,0:0:0:0:
192,192,112470,1,2,0:0:0:0:
64,192,112545,1,2,0:0:0:0:
320,192,112545,1,4,0:0:0:0:
448,192,112545,1,8,0:0:0:0:
192,192,112695,1,2,0:0:0:0:
320,192,112770,1,2,0:0:0:0:
448,192,112845,1,2,0:0:0:0:
64,192,112845,1,8,0:0:0:0:
320,192,112995,1,2,0:0:0:0:
192,192,113145,1,4,0:0:0:0:
64,192,113145,1,8,0:0:0:0:
448,192,113145,1,2,0:0:0:0:
448,192,113295,1,2,0:0:0:0:
64,192,113295,1,0,0:0:0:0:
192,192,113370,1,2,0:0:0:0:
448,192,113445,1,2,0:0:0:0:
64,192,113520,1,2,0:0:0:0:
448,192,113595,1,2,0:0:0:0:
192,192,113595,1,8,0:0:0:0:
448,192,113745,1,2,0:0:0:0:
64,192,113745,1,8,0:0:0:0:
192,192,113745,1,4,0:0:0:0:
320,192,113895,1,2,0:0:0:0:
192,192,113970,1,2,0:0:0:0:
64,192,114045,1,8,0:0:0:0:
448,192,114045,1,2,0:0:0:0:
320,192,114195,1,2,0:0:0:0:
64,192,114345,1,8,0:0:0:0:
320,192,114345,1,2,0:0:0:0:
448,192,114345,1,4,0:0:0:0:
448,192,114495,1,2,0:0:0:0:
64,192,114570,1,2,0:0:0:0:
448,192,114645,1,2,0:0:0:0:
192,192,114645,1,0,0:0:0:0:
320,192,114720,1,2,0:0:0:0:
448,192,114795,1,2,0:0:0:0:
64,192,114795,1,8,0:0:0:0:
448,192,114945,1,2,0:0:0:0:
64,192,114945,1,4,0:0:0:0:
192,192,114945,1,8,0:0:0:0:
320,192,115095,1,4,0:0:0:0:
448,192,115095,1,8,0:0:0:0:
192,192,115170,1,8,0:0:0:0:
64,192,115170,1,4,0:0:0:0:
64,192,115245,1,2,0:0:0:0:
320,192,115245,1,8,0:0:0:0:
448,192,115245,1,4,0:0:0:0:
192,192,115395,1,2,0:0:0:0:
64,192,115545,1,2,0:0:0:0:
320,192,115545,1,4,0:0:0:0:
448,192,115545,1,8,0:0:0:0:
192,192,115695,1,2,0:0:0:0:
320,192,115695,1,0,0:0:0:0:
192,192,115845,1,0,0:0:0:0:
64,192,115845,1,2,0:0:0:0:
320,192,115995,1,2,0:0:0:0:
448,192,115995,1,8,0:0:0:0:
64,192,116145,1,2,0:0:0:0:
192,192,116145,1,4,0:0:0:0:
448,192,116145,1,8,0:0:0:0:
320,192,116295,1,0,0:0:0:0:
192,192,116295,1,2,0:0:0:0:
320,192,116445,1,2,0:0:0:0:
448,192,116445,1,8,0:0:0:0:
192,192,116595,1,2,0:0:0:0:
448,192,116595,1,0,0:0:0:0:
320,192,116745,1,4,0:0:0:0:
64,192,116745,1,2,0:0:0:0:
448,192,116745,1,8,0:0:0:0:
64,192,116895,1,2,0:0:0:0:
192,192,116895,1,0,0:0:0:0:
320,192,117045,1,0,0:0:0:0:
192,192,117045,1,2,0:0:0:0:
320,192,117195,1,2,0:0:0:0:
448,192,117195,1,8,0:0:0:0:
192,192,117345,1,4,0:0:0:0:
64,192,117345,1,2,0:0:0:0:
448,192,117345,1,8,0:0:0:0:
192,192,117495,1,2,0:0:0:0:
320,192,117495,1,0,0:0:0:0:
64,192,117645,1,2,0:0:0:0:
448,192,117645,1,8,0:0:0:0:
192,192,117795,1,2,0:0:0:0:
64,192,117945,1,2,0:0:0:0:
320,192,117945,1,4,0:0:0:0:
448,192,117945,1,8,0:0:0:0:
192,192,118095,1,2,0:0:0:0:
320,192,118095,1,0,0:0:0:0:
192,192,118245,1,0,0:0:0:0:
64,192,118245,1,2,0:0:0:0:
320,192,118395,1,2,0:0:0:0:
448,192,118395,1,8,0:0:0:0:
64,192,118545,1,2,0:0:0:0:
192,192,118545,1,4,0:0:0:0:
448,192,118545,1,8,0:0:0:0:
320,192,118695,1,0,0:0:0:0:
192,192,118695,1,2,0:0:0:0:
320,192,118845,1,2,0:0:0:0:
448,192,118845,1,8,0:0:0:0:
192,192,118995,1,2,0:0:0:0:
448,192,118995,1,0,0:0:0:0:
320,192,119145,1,4,0:0:0:0:
64,192,119145,1,2,0:0:0:0:
448,192,119145,1,8,0:0:0:0:
64,192,119295,1,2,0:0:0:0:
192,192,119295,1,0,0:0:0:0:
320,192,119445,1,0,0:0:0:0:
192,192,119445,1,2,0:0:0:0:
320,192,119595,1,2,0:0:0:0:
448,192,119595,1,8,0:0:0:0:
192,192,119745,1,4,0:0:0:0:
64,192,119745,1,2,0:0:0:0:
448,192,119745,1,8,0:0:0:0:
192,192,119895,1,2,0:0:0:0:
320,192,119895,1,0,0:0:0:0:
448,192,120045,1,8,0:0:0:0:
320,192,120045,1,4,0:0:0:0:
64,192,120045,1,2,0:0:0:0:
192,192,120195,1,2,0:0:0:0:
448,192,120345,1,8,0:0:0:0:
320,192,120345,1,4,0:0:0:0:
64,192,120345,1,2,0:0:0:0:
320,192,120495,1,0,0:0:0:0:
192,192,120495,1,2,0:0:0:0:
64,192,120645,1,2,0:0:0:0:
192,192,120645,1,0,0:0:0:0:
448,192,120795,1,8,0:0:0:0:
320,192,120795,1,2,0:0:0:0:
448,192,120945,1,8,0:0:0:0:
192,192,120945,1,4,0:0:0:0:
64,192,120945,1,2,0:0:0:0:
192,192,121095,1,2,0:0:0:0:
320,192,121095,1,0,0:0:0:0:
448,192,121245,1,8,0:0:0:0:
320,192,121245,1,4,0:0:0:0:
64,192,121245,1,2,0:0:0:0:
448,192,121395,1,0,0:0:0:0:
192,192,121395,1,2,0:0:0:0:
448,192,121545,1,8,0:0:0:0:
64,192,121545,1,2,0:0:0:0:
320,192,121545,1,4,0:0:0:0:
192,192,121695,1,0,0:0:0:0:
64,192,121695,1,2,0:0:0:0:
192,192,121845,1,2,0:0:0:0:
320,192,121845,1,0,0:0:0:0:
448,192,121995,1,8,0:0:0:0:
320,192,121995,1,2,0:0:0:0:
448,192,122145,1,8,0:0:0:0:
64,192,122145,1,2,0:0:0:0:
192,192,122145,1,4,0:0:0:0:
320,192,122295,1,0,0:0:0:0:
192,192,122295,1,2,0:0:0:0:
64,192,122445,1,2,0:0:0:0:
320,192,122445,1,4,0:0:0:0:
448,192,122445,1,8,0:0:0:0:
192,192,122595,1,2,0:0:0:0:
64,192,122745,1,2,0:0:0:0:
320,192,122745,1,4,0:0:0:0:
448,192,122745,1,8,0:0:0:0:
192,192,122895,1,2,0:0:0:0:
320,192,122895,1,0,0:0:0:0:
64,192,123045,1,2,0:0:0:0:
448,192,123045,1,8,0:0:0:0:
192,192,123045,1,4,0:0:0:0:
320,192,123195,1,2,0:0:0:0:
448,192,123195,1,8,0:0:0:0:
64,192,123345,1,2,0:0:0:0:
192,192,123345,1,4,0:0:0:0:
320,192,123345,1,8,0:0:0:0:
192,192,123495,1,2,0:0:0:0:
448,192,123495,1,0,0:0:0:0:
320,192,123645,1,4,0:0:0:0:
448,192,123645,1,8,0:0:0:0:
64,192,123645,1,2,0:0:0:0:
192,192,123795,5,4,0:0:0:0:
64,192,123795,1,2,0:0:0:0:
448,192,123945,1,8,0:0:0:0:
64,192,123945,1,2,0:0:0:0:
192,192,123945,1,4,0:0:0:0:
320,192,124095,1,8,0:0:0:0:
448,192,124095,1,2,0:0:0:0:
64,192,124245,1,4,0:0:0:0:
192,192,124245,1,8,0:0:0:0:
448,192,124245,1,2,0:0:0:0:
192,192,124395,1,8,0:0:0:0:
320,192,124395,1,2,0:0:0:0:
448,192,124545,1,4,0:0:0:0:
320,192,124545,1,2,0:0:0:0:
192,192,124620,1,2,0:0:0:0:
64,192,124620,1,4,0:0:0:0:
320,192,124695,1,2,0:0:0:0:
448,192,124695,1,4,0:0:0:0:
192,192,124770,1,2,0:0:0:0:
64,192,124770,1,4,0:0:0:0:
320,192,124845,1,2,0:0:0:0:
448,192,124845,1,8,0:0:0:0:
64,192,124845,1,4,0:0:0:0:
192,192,124995,1,0,0:0:0:0:
192,192,125295,1,0,0:0:0:0:
448,192,125445,1,0,0:0:0:0:
448,192,125745,1,0,0:0:0:0:
192,192,125895,1,0,0:0:0:0:
192,192,126195,1,0,0:0:0:0:
448,192,126345,1,0,0:0:0:0:
64,192,126645,1,0,0:0:0:0:
192,192,126645,1,0,0:0:0:0:
448,192,127245,1,0,0:0:0:0:
320,192,127245,1,0,0:0:0:0:
192,192,127395,1,0,0:0:0:0:
192,192,127695,1,0,0:0:0:0:
320,192,127845,1,0,0:0:0:0:
320,192,128145,1,0,0:0:0:0:
192,192,128295,1,0,0:0:0:0:
192,192,128595,1,0,0:0:0:0:
320,192,128745,1,0,0:0:0:0:
64,192,129045,1,0,0:0:0:0:
448,192,129045,1,0,0:0:0:0:
192,192,129645,1,0,0:0:0:0:
320,192,129645,1,0,0:0:0:0:
64,192,129795,1,0,0:0:0:0:
320,192,130095,1,0,0:0:0:0:
64,192,130245,1,0,0:0:0:0:
64,192,130545,1,0,0:0:0:0:
320,192,130695,1,0,0:0:0:0:
320,192,130995,1,0,0:0:0:0:
64,192,131145,1,0,0:0:0:0:
192,192,131445,1,0,0:0:0:0:
320,192,131445,1,0,0:0:0:0:
64,192,132045,1,0,0:0:0:0:
448,192,132045,1,0,0:0:0:0:
320,192,132195,1,0,0:0:0:0:
320,192,132495,1,0,0:0:0:0:
64,192,132645,1,0,0:0:0:0:
64,192,132945,1,0,0:0:0:0:
320,192,133095,1,0,0:0:0:0:
320,192,133395,1,0,0:0:0:0:
64,192,133545,1,0,0:0:0:0:
320,192,133695,5,0,0:0:0:0:
192,192,133695,1,0,0:0:0:0:
320,192,133845,1,0,0:0:0:0:
192,192,133845,1,0,0:0:0:0:
64,192,134445,5,0,0:0:0:0:
448,192,134445,1,0,0:0:0:0:
192,192,134445,1,0,0:0:0:0:
320,192,134595,1,0,0:0:0:0:
448,192,134745,128,0,135195:0:0:0:0:
64,192,134895,128,0,135645:0:0:0:0:
192,192,135045,128,0,135495:0:0:0:0:
320,192,135195,128,0,135345:0:0:0:0:
448,192,135345,128,0,135795:0:0:0:0:
320,192,135495,128,0,135945:0:0:0:0:
192,192,135645,128,0,136245:0:0:0:0:
64,192,135795,128,0,136095:0:0:0:0:
448,192,135945,128,0,136545:0:0:0:0:
320,192,136095,128,0,136395:0:0:0:0:
64,192,136245,1,0,0:0:0:0:
192,192,136395,1,0,0:0:0:0:
320,192,136545,1,0,0:0:0:0:
448,192,136695,1,0,0:0:0:0:
64,192,136845,1,0,0:0:0:0:
320,192,136995,1,0,0:0:0:0:
448,192,137145,128,0,137595:0:0:0:0:
64,192,137295,128,0,138045:0:0:0:0:
192,192,137445,128,0,137895:0:0:0:0:
320,192,137595,128,0,137745:0:0:0:0:
448,192,137745,128,0,138195:0:0:0:0:
320,192,137895,128,0,138345:0:0:0:0:
192,192,138045,128,0,138645:0:0:0:0:
64,192,138195,128,0,138495:0:0:0:0:
448,192,138345,128,0,138945:0:0:0:0:
320,192,138495,128,0,138795:0:0:0:0:
64,192,138645,1,0,0:0:0:0:
192,192,138795,1,0,0:0:0:0:
320,192,138945,1,0,0:0:0:0:
448,192,139095,1,0,0:0:0:0:
64,192,139245,1,0,0:0:0:0:
320,192,139395,1,0,0:0:0:0:
448,192,139545,128,0,139995:0:0:0:0:
64,192,139695,128,0,140445:0:0:0:0:
192,192,139845,128,0,140295:0:0:0:0:
320,192,139995,128,0,140145:0:0:0:0:
448,192,140145,128,0,140595:0:0:0:0:
320,192,140295,128,0,140745:0:0:0:0:
192,192,140445,128,0,141045:0:0:0:0:
64,192,140595,128,0,140895:0:0:0:0:
448,192,140745,128,0,141345:0:0:0:0:
320,192,140895,128,0,141195:0:0:0:0:
64,192,141045,1,0,0:0:0:0:
192,192,141195,1,0,0:0:0:0:
320,192,141345,1,0,0:0:0:0:
448,192,141495,1,0,0:0:0:0:
64,192,141645,1,0,0:0:0:0:
320,192,141795,1,0,0:0:0:0:
448,192,141945,128,0,142395:0:0:0:0:
64,192,142095,128,0,142845:0:0:0:0:
192,192,142245,128,0,142695:0:0:0:0:
320,192,142395,128,0,142545:0:0:0:0:
448,192,142545,128,0,142995:0:0:0:0:
320,192,142695,128,0,143145:0:0:0:0:
192,192,142845,128,0,143445:0:0:0:0:
64,192,142995,128,0,143295:0:0:0:0:
448,192,143145,128,0,143745:0:0:0:0:
320,192,143295,128,0,143595:0:0:0:0:
64,192,143445,1,0,0:0:0:0:
192,192,143595,1,0,0:0:0:0:
320,192,143745,1,0,0:0:0:0:
448,192,143895,1,0,0:0:0:0:
192,192,144045,5,8,0:0:0:0:
320,192,144045,1,0,0:0:0:0:
64,192,144045,1,2,0:0:0:0:
448,192,144195,1,2,0:0:0:0:
64,192,144345,1,2,0:0:0:0:
320,192,144420,1,2,0:0:0:0:
192,192,144495,1,2,0:0:0:0:
448,192,144570,1,2,0:0:0:0:
64,192,144645,1,8,0:0:0:0:
320,192,144645,1,2,0:0:0:0:
192,192,144645,1,4,0:0:0:0:
448,192,144795,1,2,0:0:0:0:
192,192,144870,1,2,0:0:0:0:
320,192,144945,1,2,0:0:0:0:
64,192,145020,1,2,0:0:0:0:
192,192,145095,1,2,0:0:0:0:
320,192,145170,1,2,0:0:0:0:
64,192,145245,1,8,0:0:0:0:
448,192,145245,1,2,0:0:0:0:
320,192,145395,1,2,0:0:0:0:
64,192,145395,1,8,0:0:0:0:
448,192,145545,1,2,0:0:0:0:
64,192,145545,1,8,0:0:0:0:
320,192,145620,1,2,0:0:0:0:
192,192,145695,1,2,0:0:0:0:
320,192,145845,1,4,0:0:0:0:
64,192,145845,1,2,0:0:0:0:
448,192,145845,1,8,0:0:0:0:
448,192,145995,1,8,0:0:0:0:
192,192,145995,1,2,0:0:0:0:
320,192,146070,1,8,0:0:0:0:
64,192,146070,1,2,0:0:0:0:
192,192,146145,1,2,0:0:0:0:
448,192,146295,1,8,0:0:0:0:
320,192,146332,1,8,0:0:0:0:
192,192,146370,1,8,0:0:0:0:
64,192,146407,1,8,0:0:0:0:
448,192,146445,1,8,0:0:0:0:
320,192,146445,1,2,0:0:0:0:
192,192,146595,1,2,0:0:0:0:
448,192,146745,1,2,0:0:0:0:
64,192,146820,1,2,0:0:0:0:
320,192,146895,1,2,0:0:0:0:
192,192,146970,1,2,0:0:0:0:
320,192,147045,1,8,0:0:0:0:
448,192,147045,1,2,0:0:0:0:
64,192,147045,1,4,0:0:0:0:
192,192,147195,1,2,0:0:0:0:
320,192,147270,1,2,0:0:0:0:
448,192,147345,1,2,0:0:0:0:
64,192,147420,1,2,0:0:0:0:
448,192,147495,1,4,0:0:0:0:
320,192,147495,1,2,0:0:0:0:
320,192,147570,1,2,0:0:0:0:
448,192,147570,1,4,0:0:0:0:
64,192,147645,1,2,0:0:0:0:
192,192,147645,1,8,0:0:0:0:
320,192,147795,1,4,0:0:0:0:
64,192,147795,1,2,0:0:0:0:
448,192,147795,1,8,0:0:0:0:
320,192,147945,1,8,0:0:0:0:
192,192,147945,1,2,0:0:0:0:
64,192,148020,1,2,0:0:0:0:
448,192,148095,1,2,0:0:0:0:
448,192,148245,1,8,0:0:0:0:
320,192,148245,1,4,0:0:0:0:
64,192,148245,1,2,0:0:0:0:
192,192,148395,1,2,0:0:0:0:
64,192,148395,1,8,0:0:0:0:
320,192,148470,1,2,0:0:0:0:
448,192,148470,1,8,0:0:0:0:
192,192,148545,1,2,0:0:0:0:
64,192,148620,1,2,0:0:0:0:
448,192,148695,1,2,0:0:0:0:
320,192,148695,1,8,0:0:0:0:
192,192,148770,1,8,0:0:0:0:
64,192,148770,1,2,0:0:0:0:
448,192,148845,1,2,0:0:0:0:
320,192,148845,1,8,0:0:0:0:
192,192,148995,1,2,0:0:0:0:
448,192,149145,1,2,0:0:0:0:
64,192,149220,1,2,0:0:0:0:
320,192,149295,1,2,0:0:0:0:
192,192,149370,1,2,0:0:0:0:
448,192,149445,1,2,0:0:0:0:
64,192,149445,1,8,0:0:0:0:
320,192,149445,1,4,0:0:0:0:
192,192,149595,1,2,0:0:0:0:
448,192,149670,1,2,0:0:0:0:
64,192,149745,1,2,0:0:0:0:
320,192,149820,1,2,0:0:0:0:
192,192,149895,1,2,0:0:0:0:
448,192,149970,1,2,0:0:0:0:
64,192,150045,1,8,0:0:0:0:
192,192,150045,1,2,0:0:0:0:
64,192,150195,1,8,0:0:0:0:
448,192,150195,1,2,0:0:0:0:
320,192,150345,1,2,0:0:0:0:
64,192,150345,1,8,0:0:0:0:
192,192,150420,1,2,0:0:0:0:
448,192,150495,1,2,0:0:0:0:
64,192,150570,1,2,0:0:0:0:
192,192,150645,1,2,0:0:0:0:
320,192,150645,1,4,0:0:0:0:
448,192,150645,1,8,0:0:0:0:
64,192,150795,1,8,0:0:0:0:
192,192,150795,1,2,0:0:0:0:
448,192,150870,1,8,0:0:0:0:
320,192,150870,1,2,0:0:0:0:
192,192,150945,1,2,0:0:0:0:
448,192,151095,1,8,0:0:0:0:
320,192,151132,1,8,0:0:0:0:
192,192,151170,1,8,0:0:0:0:
64,192,151207,1,8,0:0:0:0:
448,192,151245,1,8,0:0:0:0:
320,192,151245,1,2,0:0:0:0:
192,192,151395,1,2,0:0:0:0:
64,192,151545,1,2,0:0:0:0:
448,192,151620,1,2,0:0:0:0:
192,192,151695,1,2,0:0:0:0:
320,192,151770,1,2,0:0:0:0:
192,192,151845,1,4,0:0:0:0:
64,192,151845,1,2,0:0:0:0:
448,192,151845,1,8,0:0:0:0:
320,192,151995,1,2,0:0:0:0:
192,192,152070,1,2,0:0:0:0:
448,192,152145,1,2,0:0:0:0:
320,192,152220,1,2,0:0:0:0:
192,192,152295,1,2,0:0:0:0:
64,192,152295,1,4,0:0:0:0:
64,192,152370,1,4,0:0:0:0:
192,192,152370,1,2,0:0:0:0:
448,192,152445,1,2,0:0:0:0:
320,192,152445,1,8,0:0:0:0:
192,192,152595,1,2,0:0:0:0:
448,192,152595,1,4,0:0:0:0:
64,192,152670,1,2,0:0:0:0:
320,192,152670,1,8,0:0:0:0:
192,192,152745,1,2,0:0:0:0:
448,192,152745,1,8,0:0:0:0:
64,192,152820,1,2,0:0:0:0:
448,192,152895,1,8,0:0:0:0:
320,192,152895,1,2,0:0:0:0:
192,192,153045,5,2,0:0:0:0:
448,192,153045,1,4,0:0:0:0:
320,192,153045,1,8,0:0:0:0:
64,192,153120,1,2,0:0:0:0:
192,192,153120,1,8,0:0:0:0:
448,192,153195,1,8,0:0:0:0:
320,192,153195,1,2,0:0:0:0:
64,192,153270,1,2,0:0:0:0:
192,192,153345,1,2,0:0:0:0:
320,192,153420,1,2,0:0:0:0:
192,192,153495,1,2,0:0:0:0:
320,192,153570,1,2,0:0:0:0:
64,192,153645,1,2,0:0:0:0:
448,192,153645,1,8,0:0:0:0:
320,192,153795,1,2,0:0:0:0:
448,192,153945,1,2,0:0:0:0:
64,192,153945,1,0,0:0:0:0:
192,192,154095,1,0,0:0:0:0:
320,192,154095,1,2,0:0:0:0:
192,192,154245,1,4,0:0:0:0:
448,192,154245,1,2,0:0:0:0:
64,192,154245,1,8,0:0:0:0:
448,192,154395,1,2,0:0:0:0:
320,192,154395,1,0,0:0:0:0:
320,192,154545,1,2,0:0:0:0:
192,192,154545,1,0,0:0:0:0:
64,192,154695,1,0,0:0:0:0:
192,192,154695,1,2,0:0:0:0:
320,192,154845,1,2,0:0:0:0:
448,192,154845,1,8,0:0:0:0:
192,192,154995,1,2,0:0:0:0:
448,192,154995,1,8,0:0:0:0:
64,192,155145,1,2,0:0:0:0:
448,192,155145,1,8,0:0:0:0:
192,192,155295,1,2,0:0:0:0:
320,192,155295,1,0,0:0:0:0:
448,192,155445,1,4,0:0:0:0:
64,192,155445,1,8,0:0:0:0:
192,192,155445,1,2,0:0:0:0:
320,192,155595,1,2,0:0:0:0:
448,192,155595,1,8,0:0:0:0:
192,192,155670,1,2,0:0:0:0:
64,192,155670,1,8,0:0:0:0:
320,192,155745,1,2,0:0:0:0:
448,192,155895,1,8,0:0:0:0:
320,192,155932,1,8,0:0:0:0:
192,192,155970,1,8,0:0:0:0:
64,192,156007,1,8,0:0:0:0:
320,192,156045,1,2,0:0:0:0:
448,192,156045,1,8,0:0:0:0:
192,192,156195,1,2,0:0:0:0:
448,192,156345,1,2,0:0:0:0:
64,192,156345,1,0,0:0:0:0:
192,192,156495,1,0,0:0:0:0:
320,192,156495,1,2,0:0:0:0:
192,192,156645,1,4,0:0:0:0:
448,192,156645,1,2,0:0:0:0:
64,192,156645,1,8,0:0:0:0:
448,192,156795,1,2,0:0:0:0:
320,192,156795,1,0,0:0:0:0:
320,192,156945,1,2,0:0:0:0:
192,192,156945,1,0,0:0:0:0:
64,192,157095,5,4,0:0:0:0:
192,192,157095,1,2,0:0:0:0:
192,192,157170,1,2,0:0:0:0:
64,192,157170,1,4,0:0:0:0:
448,192,157245,1,2,0:0:0:0:
320,192,157245,1,8,0:0:0:0:
448,192,157395,1,2,0:0:0:0:
320,192,157395,1,8,0:0:0:0:
64,192,157395,1,4,0:0:0:0:
192,192,157545,1,8,0:0:0:0:
320,192,157545,1,2,0:0:0:0:
192,192,157695,1,2,0:0:0:0:
64,192,157695,1,0,0:0:0:0:
448,192,157845,1,8,0:0:0:0:
64,192,157845,1,2,0:0:0:0:
320,192,157845,1,4,0:0:0:0:
320,192,157995,1,2,0:0:0:0:
448,192,157995,1,8,0:0:0:0:
192,192,158070,1,2,0:0:0:0:
64,192,158070,1,8,0:0:0:0:
320,192,158145,1,2,0:0:0:0:
192,192,158220,1,2,0:0:0:0:
320,192,158295,1,2,0:0:0:0:
448,192,158295,1,8,0:0:0:0:
64,192,158370,1,8,0:0:0:0:
192,192,158370,1,2,0:0:0:0:
320,192,158445,1,2,0:0:0:0:
448,192,158445,1,8,0:0:0:0:
192,192,158595,1,2,0:0:0:0:
64,192,158745,1,2,0:0:0:0:
448,192,158745,1,0,0:0:0:0:
320,192,158895,1,0,0:0:0:0:
192,192,158895,1,2,0:0:0:0:
64,192,159045,1,8,0:0:0:0:
448,192,159045,1,4,0:0:0:0:
192,192,159045,1,2,0:0:0:0:
448,192,159195,1,2,0:0:0:0:
320,192,159195,1,0,0:0:0:0:
192,192,159345,1,0,0:0:0:0:
320,192,159345,1,2,0:0:0:0:
192,192,159495,1,2,0:0:0:0:
64,192,159495,1,0,0:0:0:0:
448,192,159645,1,8,0:0:0:0:
320,192,159645,1,2,0:0:0:0:
448,192,159795,1,8,0:0:0:0:
192,192,159795,1,2,0:0:0:0:
448,192,159945,1,8,0:0:0:0:
64,192,159945,1,2,0:0:0:0:
320,192,160095,1,0,0:0:0:0:
192,192,160095,1,2,0:0:0:0:
192,192,160245,1,2,0:0:0:0:
64,192,160245,1,4,0:0:0:0:
448,192,160245,1,8,0:0:0:0:
448,192,160395,1,8,0:0:0:0:
320,192,160395,1,2,0:0:0:0:
64,192,160470,1,8,0:0:0:0:
192,192,160470,1,2,0:0:0:0:
320,192,160545,1,2,0:0:0:0:
448,192,160695,1,8,0:0:0:0:
320,192,160732,1,8,0:0:0:0:
192,192,160770,1,8,0:0:0:0:
64,192,160807,1,8,0:0:0:0:
320,192,160845,1,2,0:0:0:0:
448,192,160845,1,8,0:0:0:0:
192,192,160995,1,2,0:0:0:0:
448,192,161145,1,0,0:0:0:0:
64,192,161145,1,2,0:0:0:0:
320,192,161295,1,0,0:0:0:0:
192,192,161295,1,2,0:0:0:0:
192,192,161445,1,2,0:0:0:0:
448,192,161445,1,8,0:0:0:0:
64,192,161445,1,4,0:0:0:0:
320,192,161595,1,0,0:0:0:0:
448,192,161595,1,2,0:0:0:0:
320,192,161745,1,2,0:0:0:0:
192,192,161745,1,0,0:0:0:0:
192,192,161895,1,2,0:0:0:0:
64,192,161895,1,4,0:0:0:0:
192,192,161970,1,2,0:0:0:0:
64,192,161970,1,4,0:0:0:0:
448,192,162045,1,2,0:0:0:0:
320,192,162045,1,8,0:0:0:0:
64,192,162195,1,0,0:0:0:0:
448,192,162345,1,0,0:0:0:0:
320,192,162495,1,0,0:0:0:0:
64,192,162645,1,0,0:0:0:0:
192,192,162795,1,0,0:0:0:0:
320,192,162945,1,0,0:0:0:0:
448,192,163095,1,0,0:0:0:0:
192,192,163245,1,8,0:0:0:0:
64,192,163245,1,4,0:0:0:0:
320,192,163245,1,2,0:0:0:0:
320,192,163395,1,2,0:0:0:0:
64,192,163545,1,4,0:0:0:0:
192,192,163545,1,8,0:0:0:0:
448,192,163545,1,2,0:0:0:0:
64,192,163695,1,0,0:0:0:0:
448,192,163695,1,2,0:0:0:0:
320,192,163770,1,2,0:0:0:0:
192,192,163845,1,2,0:0:0:0:
64,192,163920,1,2,0:0:0:0:
320,192,163995,1,2,0:0:0:0:
448,192,163995,1,8,0:0:0:0:
192,192,164145,1,2,0:0:0:0:
64,192,164145,1,4,0:0:0:0:
448,192,164145,1,8,0:0:0:0:
320,192,164295,1,2,0:0:0:0:
192,192,164370,1,2,0:0:0:0:
448,192,164445,1,2,0:0:0:0:
64,192,164445,1,8,0:0:0:0:
320,192,164595,1,0,0:0:0:0:
192,192,164595,1,2,0:0:0:0:
320,192,164745,1,8,0:0:0:0:
64,192,164745,1,2,0:0:0:0:
192,192,164745,1,4,0:0:0:0:
448,192,164895,1,2,0:0:0:0:
320,192,164970,1,2,0:0:0:0:
64,192,165045,1,0,0:0:0:0:
192,192,165045,1,2,0:0:0:0:
448,192,165120,1,2,0:0:0:0:
64,192,165195,1,8,0:0:0:0:
320,192,165195,1,2,0:0:0:0:
192,192,165270,1,2,0:0:0:0:
64,192,165345,1,8,0:0:0:0:
320,192,165345,1,2,0:0:0:0:
448,192,165345,1,4,0:0:0:0:
192,192,165495,1,2,0:0:0:0:
64,192,165570,1,2,0:0:0:0:
192,192,165645,1,2,0:0:0:0:
448,192,165645,1,8,0:0:0:0:
320,192,165795,1,2,0:0:0:0:
64,192,165945,1,8,0:0:0:0:
192,192,165945,1,4,0:0:0:0:
448,192,165945,1,2,0:0:0:0:
192,192,166095,1,0,0:0:0:0:
448,192,166095,1,2,0:0:0:0:
320,192,166170,1,2,0:0:0:0:
64,192,166245,1,2,0:0:0:0:
192,192,166320,1,2,0:0:0:0:
320,192,166395,1,8,0:0:0:0:
448,192,166395,1,2,0:0:0:0:
64,192,166545,1,2,0:0:0:0:
192,192,166545,1,8,0:0:0:0:
448,192,166545,1,4,0:0:0:0:
320,192,166695,1,2,0:0:0:0:
448,192,166770,1,2,0:0:0:0:
64,192,166845,1,2,0:0:0:0:
192,192,166845,1,8,0:0:0:0:
448,192,166995,1,0,0:0:0:0:
320,192,166995,1,2,0:0:0:0:
448,192,167145,1,4,0:0:0:0:
320,192,167145,1,2,0:0:0:0:
64,192,167145,1,8,0:0:0:0:
192,192,167295,1,2,0:0:0:0:
320,192,167370,1,2,0:0:0:0:
448,192,167445,1,2,0:0:0:0:
64,192,167445,1,0,0:0:0:0:
192,192,167520,1,2,0:0:0:0:
320,192,167595,1,8,0:0:0:0:
448,192,167595,1,2,0:0:0:0:
64,192,167670,1,2,0:0:0:0:
320,192,167745,1,2,0:0:0:0:
448,192,167745,1,8,0:0:0:0:
192,192,167745,1,4,0:0:0:0:
64,192,167895,1,2,0:0:0:0:
192,192,167970,1,2,0:0:0:0:
448,192,168045,1,8,0:0:0:0:
320,192,168045,1,2,0:0:0:0:
192,192,168195,1,2,0:0:0:0:
320,192,168345,1,4,0:0:0:0:
448,192,168345,1,8,0:0:0:0:
64,192,168345,1,2,0:0:0:0:
64,192,168495,1,0,0:0:0:0:
320,192,168495,1,2,0:0:0:0:
192,192,168570,1,2,0:0:0:0:
448,192,168645,1,2,0:0:0:0:
320,192,168720,1,2,0:0:0:0:
192,192,168795,1,2,0:0:0:0:
64,192,168795,1,8,0:0:0:0:
320,192,168945,1,4,0:0:0:0:
448,192,168945,1,2,0:0:0:0:
64,192,168945,1,8,0:0:0:0:
192,192,169095,1,2,0:0:0:0:
64,192,169170,1,2,0:0:0:0:
448,192,169245,1,8,0:0:0:0:
320,192,169245,1,2,0:0:0:0:
192,192,169395,1,2,0:0:0:0:
64,192,169395,1,0,0:0:0:0:
192,192,169545,1,2,0:0:0:0:
448,192,169545,1,8,0:0:0:0:
64,192,169545,1,4,0:0:0:0:
320,192,169695,1,2,0:0:0:0:
192,192,169770,1,2,0:0:0:0:
448,192,169845,1,2,0:0:0:0:
64,192,169845,1,0,0:0:0:0:
320,192,169920,1,2,0:0:0:0:
192,192,169995,1,8,0:0:0:0:
64,192,169995,1,2,0:0:0:0:
448,192,170070,1,2,0:0:0:0:
320,192,170145,1,2,0:0:0:0:
192,192,170145,1,8,0:0:0:0:
64,192,170145,1,4,0:0:0:0:
448,192,170295,1,2,0:0:0:0:
320,192,170370,1,2,0:0:0:0:
192,192,170445,1,2,0:0:0:0:
64,192,170445,1,8,0:0:0:0:
320,192,170595,1,2,0:0:0:0:
64,192,170745,1,2,0:0:0:0:
448,192,170745,1,8,0:0:0:0:
192,192,170745,1,4,0:0:0:0:
64,192,170895,1,0,0:0:0:0:
448,192,170895,1,2,0:0:0:0:
192,192,170970,1,2,0:0:0:0:
320,192,171045,1,2,0:0:0:0:
448,192,171120,1,2,0:0:0:0:
192,192,171195,1,2,0:0:0:0:
64,192,171195,1,8,0:0:0:0:
64,192,171345,1,4,0:0:0:0:
320,192,171345,1,2,0:0:0:0:
448,192,171345,1,8,0:0:0:0:
192,192,171495,1,2,0:0:0:0:
320,192,171570,1,2,0:0:0:0:
64,192,171645,1,8,0:0:0:0:
448,192,171645,1,2,0:0:0:0:
320,192,171795,1,0,0:0:0:0:
192,192,171795,1,2,0:0:0:0:
320,192,171945,1,8,0:0:0:0:
448,192,171945,1,2,0:0:0:0:
192,192,171945,1,4,0:0:0:0:
64,192,172095,1,2,0:0:0:0:
192,192,172170,1,2,0:0:0:0:
448,192,172245,1,0,0:0:0:0:
320,192,172245,1,2,0:0:0:0:
64,192,172320,1,2,0:0:0:0:
448,192,172395,1,2,0:0:0:0:
192,192,172395,1,8,0:0:0:0:
320,192,172470,1,2,0:0:0:0:
64,192,172545,1,4,0:0:0:0:
192,192,172545,1,2,0:0:0:0:
448,192,172545,1,8,0:0:0:0:
320,192,172695,1,2,0:0:0:0:
192,192,172770,1,2,0:0:0:0:
448,192,172845,1,2,0:0:0:0:
64,192,172845,1,4,0:0:0:0:
320,192,172920,1,2,0:0:0:0:
192,192,172920,1,4,0:0:0:0:
448,192,172995,1,2,0:0:0:0:
64,192,172995,1,4,0:0:0:0:
192,192,173070,1,4,0:0:0:0:
320,192,173145,1,4,0:0:0:0:
448,192,173145,1,2,0:0:0:0:
64,192,173145,1,8,0:0:0:0:
192,192,173295,1,8,0:0:0:0:
64,192,173295,1,4,0:0:0:0:
320,192,173295,1,2,0:0:0:0:
448,192,173370,1,2,0:0:0:0:
64,192,173445,1,2,0:0:0:0:
192,192,173520,1,2,0:0:0:0:
448,192,173595,1,8,0:0:0:0:
320,192,173595,1,2,0:0:0:0:
192,192,173745,1,2,0:0:0:0:
448,192,173745,1,8,0:0:0:0:
64,192,173745,1,4,0:0:0:0:
192,192,173895,1,2,0:0:0:0:
448,192,173970,1,2,0:0:0:0:
320,192,174045,1,2,0:0:0:0:
64,192,174045,1,8,0:0:0:0:
192,192,174195,1,0,0:0:0:0:
448,192,174195,1,2,0:0:0:0:
64,192,174345,1,2,0:0:0:0:
192,192,174345,1,8,0:0:0:0:
448,192,174345,1,4,0:0:0:0:
320,192,174495,1,2,0:0:0:0:
448,192,174570,1,2,0:0:0:0:
64,192,174645,1,2,0:0:0:0:
192,192,174645,1,0,0:0:0:0:
320,192,174720,1,2,0:0:0:0:
448,192,174795,1,8,0:0:0:0:
64,192,174795,1,2,0:0:0:0:
192,192,174870,1,2,0:0:0:0:
320,192,174945,1,2,0:0:0:0:
448,192,174945,1,8,0:0:0:0:
64,192,174945,1,4,0:0:0:0:
192,192,175095,1,2,0:0:0:0:
64,192,175245,1,2,0:0:0:0:
448,192,175245,1,8,0:0:0:0:
320,192,175395,1,2,0:0:0:0:
192,192,175545,1,2,0:0:0:0:
64,192,175545,1,4,0:0:0:0:
448,192,175545,1,8,0:0:0:0:
64,192,175695,1,2,0:0:0:0:
448,192,175695,1,0,0:0:0:0:
320,192,175770,1,2,0:0:0:0:
192,192,175845,1,2,0:0:0:0:
64,192,175920,1,2,0:0:0:0:
448,192,175995,1,8,0:0:0:0:
320,192,175995,1,2,0:0:0:0:
192,192,176145,1,2,0:0:0:0:
448,192,176145,1,4,0:0:0:0:
64,192,176145,1,8,0:0:0:0:
320,192,176295,1,2,0:0:0:0:
64,192,176370,1,2,0:0:0:0:
448,192,176445,1,2,0:0:0:0:
192,192,176445,1,8,0:0:0:0:
320,192,176595,1,0,0:0:0:0:
64,192,176595,1,2,0:0:0:0:
448,192,176745,1,2,0:0:0:0:
64,192,176745,1,4,0:0:0:0:
320,192,176745,1,8,0:0:0:0:
192,192,176895,1,2,0:0:0:0:
64,192,176970,1,2,0:0:0:0:
320,192,177045,1,2,0:0:0:0:
448,192,177045,1,0,0:0:0:0:
192,192,177120,1,2,0:0:0:0:
64,192,177195,1,8,0:0:0:0:
448,192,177195,1,2,0:0:0:0:
320,192,177270,1,2,0:0:0:0:
192,192,177345,1,2,0:0:0:0:
64,192,177345,1,8,0:0:0:0:
448,192,177345,1,4,0:0:0:0:
320,192,177495,1,2,0:0:0:0:
448,192,177570,1,2,0:0:0:0:
64,192,177645,1,4,0:0:0:0:
192,192,177645,1,2,0:0:0:0:
320,192,177720,1,2,0:0:0:0:
448,192,177720,1,4,0:0:0:0:
192,192,177795,1,2,0:0:0:0:
64,192,177795,1,8,0:0:0:0:
448,192,177870,1,4,0:0:0:0:
64,192,177945,1,4,0:0:0:0:
320,192,177945,1,2,0:0:0:0:
192,192,177945,1,8,0:0:0:0:
192,192,178095,1,2,0:0:0:0:
64,192,178095,1,4,0:0:0:0:
448,192,178095,1,8,0:0:0:0:
320,192,178170,1,2,0:0:0:0:
448,192,178245,1,2,0:0:0:0:
64,192,178320,1,2,0:0:0:0:
192,192,178395,1,2,0:0:0:0:
448,192,178395,1,8,0:0:0:0:
320,192,178545,1,2,0:0:0:0:
64,192,178545,1,4,0:0:0:0:
448,192,178545,1,8,0:0:0:0:
192,192,178695,1,2,0:0:0:0:
320,192,178770,1,2,0:0:0:0:
64,192,178845,1,2,0:0:0:0:
448,192,178845,1,8,0:0:0:0:
192,192,178995,5,2,0:0:0:0:
320,192,178995,1,0,0:0:0:0:
192,192,179145,1,2,0:0:0:0:
320,192,179145,1,8,0:0:0:0:
448,192,179145,1,4,0:0:0:0:
64,192,179295,1,2,0:0:0:0:
192,192,179370,1,2,0:0:0:0:
448,192,179445,1,2,0:0:0:0:
320,192,179445,1,0,0:0:0:0:
64,192,179520,1,2,0:0:0:0:
448,192,179595,1,8,0:0:0:0:
192,192,179595,1,2,0:0:0:0:
320,192,179670,1,2,0:0:0:0:
64,192,179745,1,2,0:0:0:0:
448,192,179745,1,8,0:0:0:0:
192,192,179745,1,4,0:0:0:0:
64,192,179895,1,2,0:0:0:0:
448,192,179970,1,2,0:0:0:0:
64,192,180045,5,4,0:0:0:0:
192,192,180045,1,2,0:0:0:0:
320,192,180045,1,8,0:0:0:0:
192,192,180195,1,2,0:0:0:0:
64,192,180345,1,4,0:0:0:0:
320,192,180345,1,2,0:0:0:0:
448,192,180345,1,8,0:0:0:0:
192,192,180420,1,2,0:0:0:0:
64,192,180495,1,0,0:0:0:0:
448,192,180495,1,2,0:0:0:0:
320,192,180570,1,2,0:0:0:0:
192,192,180645,1,2,0:0:0:0:
64,192,180645,1,4,0:0:0:0:
448,192,180645,1,8,0:0:0:0:
320,192,180795,1,2,0:0:0:0:
320,192,180945,1,2,0:0:0:0:
448,192,180945,1,8,0:0:0:0:
192,192,180945,1,4,0:0:0:0:
64,192,181095,1,2,0:0:0:0:
448,192,181170,1,2,0:0:0:0:
320,192,181245,1,8,0:0:0:0:
192,192,181245,1,4,0:0:0:0:
64,192,181245,1,2,0:0:0:0:
320,192,181395,1,2,0:0:0:0:
448,192,181395,1,8,0:0:0:0:
64,192,181545,1,4,0:0:0:0:
448,192,181545,1,8,0:0:0:0:
320,192,181545,1,2,0:0:0:0:
192,192,181695,1,8,0:0:0:0:
64,192,181695,1,2,0:0:0:0:
448,192,181845,1,4,0:0:0:0:
320,192,181845,1,2,0:0:0:0:
192,192,181920,1,2,0:0:0:0:
64,192,181920,1,4,0:0:0:0:
448,192,181995,1,4,0:0:0:0:
320,192,181995,1,8,0:0:0:0:
192,192,182070,1,8,0:0:0:0:
64,192,182133,1,8,0:0:0:0:
448,192,182133,1,4,0:0:0:0:
192,192,182209,1,8,0:0:0:0:
320,192,182209,1,4,0:0:0:0:
64,192,182286,1,8,0:0:0:0:
448,192,182286,1,4,0:0:0:0:
320,192,182363,1,8,0:0:0:0:
448,192,182440,1,4,0:0:0:0:
192,192,182440,1,8,0:0:0:0:
64,192,182440,1,8,0:0:0:0:
64,192,182581,1,8,0:0:0:0:
320,192,182581,1,2,0:0:0:0:
448,192,182581,1,4,0:0:0:0:
320,192,182723,1,8,0:0:0:0:
192,192,182723,1,2,0:0:0:0:
320,192,182864,1,2,0:0:0:0:
448,192,182864,1,8,0:0:0:0:
448,192,183006,1,8,0:0:0:0:
64,192,183006,1,4,0:0:0:0:
192,192,183006,1,2,0:0:0:0:
192,192,183147,1,2,0:0:0:0:
320,192,183147,1,8,0:0:0:0:
320,192,183289,1,2,0:0:0:0:
448,192,183289,1,8,0:0:0:0:
64,192,183430,1,2,0:0:0:0:
192,192,183430,1,4,0:0:0:0:
448,192,183430,1,8,0:0:0:0:
320,192,183572,1,8,0:0:0:0:
192,192,183572,1,2,0:0:0:0:
320,192,183713,1,2,0:0:0:0:
448,192,183713,1,8,0:0:0:0:
192,192,183855,1,2,0:0:0:0:
64,192,183855,1,4,0:0:0:0:
448,192,183855,1,8,0:0:0:0:
320,192,183996,1,2,0:0:0:0:
448,192,183996,1,8,0:0:0:0:
64,192,183996,1,4,0:0:0:0:
192,192,184138,1,8,0:0:0:0:
64,192,184138,1,2,0:0:0:0:
320,192,184280,1,2,0:0:0:0:
448,192,184280,1,8,0:0:0:0:
192,192,184280,1,4,0:0:0:0:
192,192,184423,1,4,0:0:0:0:
320,192,184423,1,8,0:0:0:0:
64,192,184423,1,2,0:0:0:0:
64,192,184566,1,2,0:0:0:0:
448,192,184566,1,8,0:0:0:0:
192,192,184709,1,2,0:0:0:0:
320,192,184709,1,4,0:0:0:0:
448,192,184709,1,8,0:0:0:0:
64,192,184852,1,2,0:0:0:0:
192,192,184852,1,4,0:0:0:0:
320,192,184852,1,8,0:0:0:0:
64,192,184995,1,2,0:0:0:0:
448,192,184995,1,8,0:0:0:0:
192,192,185138,1,2,0:0:0:0:
320,192,185138,1,4,0:0:0:0:
448,192,185138,1,8,0:0:0:0:
64,192,185280,1,2,0:0:0:0:
192,192,185280,1,4,0:0:0:0:
320,192,185280,1,8,0:0:0:0:
64,192,185423,1,2,0:0:0:0:
448,192,185423,1,8,0:0:0:0:
320,192,185566,1,4,0:0:0:0:
448,192,185566,1,2,0:0:0:0:
64,192,185638,1,2,0:0:0:0:
192,192,185638,1,4,0:0:0:0:
320,192,185709,1,4,0:0:0:0:
448,192,185709,1,2,0:0:0:0:
64,192,185780,1,2,0:0:0:0:
192,192,185780,1,4,0:0:0:0:
192,192,185852,1,4,0:0:0:0:
448,192,185852,1,2,0:0:0:0:
320,192,185852,1,8,0:0:0:0:
64,192,185995,1,4,0:0:0:0:
448,192,185995,1,2,0:0:0:0:
320,192,185995,1,8,0:0:0:0:
64,192,186138,1,8,0:0:0:0:
192,192,186138,1,2,0:0:0:0:
320,192,186280,1,8,0:0:0:0:
448,192,186280,1,2,0:0:0:0:
64,192,186423,1,8,0:0:0:0:
448,192,186423,1,2,0:0:0:0:
192,192,186423,1,4,0:0:0:0:
320,192,186566,1,2,0:0:0:0:
448,192,186566,1,8,0:0:0:0:
64,192,186709,1,2,0:0:0:0:
192,192,186709,1,8,0:0:0:0:
64,192,186852,1,2,0:0:0:0:
448,192,186852,1,8,0:0:0:0:
320,192,186852,1,4,0:0:0:0:
64,192,186995,1,8,0:0:0:0:
192,192,186995,1,2,0:0:0:0:
320,192,187138,1,8,0:0:0:0:
448,192,187138,1,2,0:0:0:0:
64,192,187280,1,8,0:0:0:0:
192,192,187280,1,4,0:0:0:0:
448,192,187280,1,2,0:0:0:0:
320,192,187423,1,4,0:0:0:0:
64,192,187423,1,8,0:0:0:0:
448,192,187423,1,2,0:0:0:0:
192,192,187566,1,2,0:0:0:0:
320,192,187566,1,8,0:0:0:0:
64,192,187709,1,2,0:0:0:0:
192,192,187709,1,4,0:0:0:0:
448,192,187709,1,8,0:0:0:0:
64,192,187852,1,2,0:0:0:0:
320,192,187852,1,4,0:0:0:0:
448,192,187852,1,8,0:0:0:0:
192,192,187995,1,8,0:0:0:0:
320,192,187995,1,2,0:0:0:0:
64,192,188138,1,8,0:0:0:0:
192,192,188138,1,4,0:0:0:0:
448,192,188138,1,2,0:0:0:0:
64,192,188280,1,8,0:0:0:0:
320,192,188280,1,4,0:0:0:0:
448,192,188280,1,2,0:0:0:0:
192,192,188423,1,2,0:0:0:0:
320,192,188423,1,8,0:0:0:0:
64,192,188566,1,2,0:0:0:0:
192,192,188566,1,4,0:0:0:0:
448,192,188566,1,8,0:0:0:0:
64,192,188709,1,2,0:0:0:0:
320,192,188709,1,4,0:0:0:0:
448,192,188709,1,8,0:0:0:0:
192,192,188842,1,8,0:0:0:0:
320,192,188842,1,2,0:0:0:0:
64,192,188975,1,8,0:0:0:0:
192,192,188975,1,2,0:0:0:0:
320,192,189042,1,2,0:0:0:0:
448,192,189042,1,8,0:0:0:0:
192,192,189109,1,2,0:0:0:0:
64,192,189109,1,8,0:0:0:0:
320,192,189175,1,2,0:0:0:0:
448,192,189175,1,8,0:0:0:0:
192,192,189238,1,2,0:0:0:0:
448,192,189238,1,8,0:0:0:0:
64,192,189238,1,4,0:0:0:0:
320,192,189371,1,2,0:0:0:0:
64,192,189371,1,8,0:0:0:0:
448,192,189504,1,2,0:0:0:0:
64,192,189504,1,8,0:0:0:0:
320,192,189638,1,2,0:0:0:0:
64,192,189771,1,8,0:0:0:0:
192,192,189771,1,4,0:0:0:0:
448,192,189771,1,2,0:0:0:0:
320,192,189904,1,8,0:0:0:0:
192,192,189904,1,2,0:0:0:0:
64,192,190038,1,2,0:0:0:0:
320,192,190038,1,8,0:0:0:0:
448,192,190038,1,4,0:0:0:0:
64,192,190171,1,2,0:0:0:0:
192,192,190171,1,8,0:0:0:0:
448,192,190171,1,4,0:0:0:0:
192,192,190304,1,2,0:0:0:0:
320,192,190304,1,8,0:0:0:0:
64,192,190438,1,4,0:0:0:0:
320,192,190438,1,2,0:0:0:0:
448,192,190438,1,8,0:0:0:0:
64,192,190571,1,4,0:0:0:0:
192,192,190571,1,2,0:0:0:0:
448,192,190571,1,8,0:0:0:0:
192,192,190704,1,2,0:0:0:0:
320,192,190704,1,8,0:0:0:0:
64,192,190838,1,2,0:0:0:0:
320,192,190838,1,4,0:0:0:0:
448,192,190838,1,8,0:0:0:0:
192,192,190972,1,8,0:0:0:0:
64,192,190972,1,2,0:0:0:0:
320,192,191102,1,2,0:0:0:0:
448,192,191102,1,8,0:0:0:0:
192,192,191233,1,4,0:0:0:0:
64,192,191233,1,2,0:0:0:0:
448,192,191233,1,8,0:0:0:0:
320,192,191363,1,2,0:0:0:0:
192,192,191363,1,8,0:0:0:0:
64,192,191494,1,8,0:0:0:0:
448,192,191494,1,2,0:0:0:0:
192,192,191624,1,8,0:0:0:0:
320,192,191624,1,4,0:0:0:0:
448,192,191624,1,2,0:0:0:0:
64,192,191755,1,4,0:0:0:0:
192,192,191755,1,2,0:0:0:0:
320,192,191820,1,2,0:0:0:0:
448,192,191820,1,4,0:0:0:0:
64,192,191885,1,4,0:0:0:0:
192,192,191885,1,2,0:0:0:0:
64,192,192015,1,8,0:0:0:0:
448,192,192015,1,2,0:0:0:0:
320,192,192146,1,2,0:0:0:0:
448,192,192146,1,4,0:0:0:0:
64,192,192211,1,4,0:0:0:0:
192,192,192211,1,2,0:0:0:0:
320,192,192276,1,2,0:0:0:0:
448,192,192276,1,4,0:0:0:0:
64,192,192342,1,4,0:0:0:0:
192,192,192342,1,2,0:0:0:0:
320,192,192407,1,2,0:0:0:0:
448,192,192407,1,8,0:0:0:0:
64,192,192407,1,4,0:0:0:0:
192,192,192538,1,2,0:0:0:0:
320,192,192538,1,8,0:0:0:0:
64,192,192670,1,2,0:0:0:0:
448,192,192670,1,8,0:0:0:0:
192,192,192802,5,2,0:0:0:0:
448,192,192802,1,8,0:0:0:0:
64,192,192934,1,8,0:0:0:0:
320,192,192934,1,4,0:0:0:0:
192,192,193066,1,8,0:0:0:0:
64,192,193198,1,4,0:0:0:0:
448,192,193198,1,8,0:0:0:0:
192,192,193330,1,4,0:0:0:0:
320,192,193330,1,8,0:0:0:0:
448,192,193461,128,0,193593:0:0:0:0:
320,192,193593,128,0,193725:0:0:0:0:
64,192,193593,1,4,0:0:0:0:
192,192,193725,128,0,193857:0:0:0:0:
448,192,193725,1,4,0:0:0:0:
64,192,193857,128,0,193989:0:0:0:0:
320,192,193989,128,0,194249:0:0:0:0:
64,192,194119,128,0,194380:0:0:0:0:
448,192,194249,128,0,194510:0:0:0:0:
320,192,194380,128,0,194641:0:0:0:0:
64,192,194510,128,0,194771:0:0:0:0:
192,192,194641,128,0,194902:0:0:0:0:
320,192,194771,128,0,195162:0:0:0:0:
448,192,194902,128,0,195162:0:0:0:0:
192,192,195032,128,0,195293:0:0:0:0:
64,192,195162,128,0,195293:0:0:0:0:
448,192,195293,1,4,0:0:0:0:
320,192,195293,1,2,0:0:0:0:
192,192,195358,1,2,0:0:0:0:
64,192,195358,1,4,0:0:0:0:
320,192,195423,1,2,0:0:0:0:
448,192,195423,1,4,0:0:0:0:
64,192,195489,1,4,0:0:0:0:
192,192,195489,1,2,0:0:0:0:
64,192,195554,1,4,0:0:0:0:
320,192,195554,1,2,0:0:0:0:
448,192,195554,128,8,199957:0:0:0:0:
320,192,198856,128,0,199957:0:0:0:0:
192,192,199957,1,2,0:0:0:0:
64,192,199957,128,0,204401:0:0:0:0:
448,192,203290,128,0,204262:0:0:0:0:
192,192,204401,1,0,0:0:0:0:
320,192,204401,1,8,0:0:0:0:
448,192,204401,1,2,0:0:0:0:
192,192,204538,1,0,0:0:0:0:
192,192,204813,1,0,0:0:0:0:
320,192,204951,1,8,0:0:0:0:
448,192,204951,1,0,0:0:0:0:
192,192,205089,1,0,0:0:0:0:
192,192,205364,1,0,0:0:0:0:
192,192,205639,1,0,0:0:0:0:
192,192,205914,1,0,0:0:0:0:
320,192,206052,1,8,0:0:0:0:
448,192,206052,1,0,0:0:0:0:
192,192,206189,1,0,0:0:0:0:
192,192,206465,1,0,0:0:0:0:
448,192,206740,1,0,0:0:0:0:
448,192,207015,1,0,0:0:0:0:
192,192,207153,1,8,0:0:0:0:
64,192,207153,1,0,0:0:0:0:
448,192,207290,1,0,0:0:0:0:
448,192,207566,1,0,0:0:0:0:
448,192,207841,1,0,0:0:0:0:
448,192,208116,1,0,0:0:0:0:
64,192,208254,128,0,208804:0:0:0:0:
192,192,208254,1,8,0:0:0:0:
448,192,208391,1,0,0:0:0:0:
448,192,208667,1,0,0:0:0:0:
192,192,208804,1,0,0:0:0:0:
320,192,208804,1,8,0:0:0:0:
64,192,208942,1,0,0:0:0:0:
64,192,209220,1,0,0:0:0:0:
320,192,209359,1,8,0:0:0:0:
448,192,209359,1,0,0:0:0:0:
64,192,209498,1,0,0:0:0:0:
64,192,209776,1,0,0:0:0:0:
64,192,210054,1,0,0:0:0:0:
64,192,210331,1,0,0:0:0:0:
320,192,210470,1,8,0:0:0:0:
448,192,210470,1,0,0:0:0:0:
64,192,210609,1,0,0:0:0:0:
64,192,210887,1,0,0:0:0:0:
320,192,211165,1,0,0:0:0:0:
320,192,211442,1,0,0:0:0:0:
192,192,211581,1,0,0:0:0:0:
64,192,211581,1,8,0:0:0:0:
320,192,211720,1,0,0:0:0:0:
320,192,211998,1,0,0:0:0:0:
64,192,212137,1,0,0:0:0:0:
448,192,212276,128,0,212415:0:0:0:0:
448,192,212554,128,0,212692:0:0:0:0:
448,192,212828,128,0,212964:0:0:0:0:
448,192,213101,128,0,213237:0:0:0:0:
320,192,213237,1,8,0:0:0:0:
192,192,213237,1,4,0:0:0:0:
64,192,213237,1,2,0:0:0:0:
320,192,213375,1,2,0:0:0:0:
448,192,213375,1,8,0:0:0:0:
64,192,213513,1,2,0:0:0:0:
192,192,213513,1,4,0:0:0:0:
448,192,213513,1,8,0:0:0:0:
320,192,213651,1,2,0:0:0:0:
64,192,213789,1,8,0:0:0:0:
192,192,213789,1,2,0:0:0:0:
448,192,213789,1,4,0:0:0:0:
64,192,213928,1,8,0:0:0:0:
320,192,213928,1,2,0:0:0:0:
448,192,213928,1,4,0:0:0:0:
64,192,214066,1,8,0:0:0:0:
448,192,214066,1,4,0:0:0:0:
192,192,214066,1,2,0:0:0:0:
320,192,214204,1,2,0:0:0:0:
64,192,214342,1,4,0:0:0:0:
192,192,214342,1,2,0:0:0:0:
448,192,214342,1,8,0:0:0:0:
64,192,214481,1,4,0:0:0:0:
192,192,214481,1,2,0:0:0:0:
448,192,214481,1,8,0:0:0:0:
320,192,214619,1,2,0:0:0:0:
64,192,214619,1,4,0:0:0:0:
64,192,214757,1,4,0:0:0:0:
448,192,214757,1,8,0:0:0:0:
192,192,214757,1,2,0:0:0:0:
320,192,214826,1,2,0:0:0:0:
192,192,214895,1,2,0:0:0:0:
320,192,215034,1,2,0:0:0:0:
64,192,215034,1,8,0:0:0:0:
448,192,215034,1,4,0:0:0:0:
64,192,215172,1,8,0:0:0:0:
192,192,215172,1,2,0:0:0:0:
448,192,215172,1,4,0:0:0:0:
320,192,215310,1,2,0:0:0:0:
448,192,215310,1,8,0:0:0:0:
192,192,215379,1,2,0:0:0:0:
64,192,215379,1,8,0:0:0:0:
320,192,215448,1,2,0:0:0:0:
448,192,215448,1,8,0:0:0:0:
192,192,215587,1,2,0:0:0:0:
64,192,215725,1,4,0:0:0:0:
320,192,215725,1,2,0:0:0:0:
448,192,215725,1,8,0:0:0:0:
192,192,215863,1,2,0:0:0:0:
64,192,215863,1,8,0:0:0:0:
320,192,215932,1,2,0:0:0:0:
448,192,215932,1,8,0:0:0:0:
192,192,216001,1,2,0:0:0:0:
64,192,216001,1,8,0:0:0:0:
448,192,216140,1,8,0:0:0:0:
320,192,216174,1,8,0:0:0:0:
64,192,216209,1,8,0:0:0:0:
192,192,216243,1,8,0:0:0:0:
448,192,216278,1,8,0:0:0:0:
320,192,216278,1,2,0:0:0:0:
448,192,216416,1,8,0:0:0:0:
192,192,216416,1,2,0:0:0:0:
64,192,216416,1,4,0:0:0:0:
64,192,216554,1,8,0:0:0:0:
320,192,216554,1,2,0:0:0:0:
448,192,216554,1,4,0:0:0:0:
64,192,216693,1,8,0:0:0:0:
320,192,216693,1,2,0:0:0:0:
448,192,216693,1,4,0:0:0:0:
64,192,216831,1,8,0:0:0:0:
320,192,216831,1,2,0:0:0:0:
448,192,216831,1,4,0:0:0:0:
192,192,216969,1,2,0:0:0:0:
320,192,217038,1,2,0:0:0:0:
64,192,217107,1,8,0:0:0:0:
192,192,217107,1,2,0:0:0:0:
448,192,217107,1,4,0:0:0:0:
64,192,217246,1,8,0:0:0:0:
192,192,217246,1,2,0:0:0:0:
448,192,217246,1,4,0:0:0:0:
320,192,217384,1,2,0:0:0:0:
64,192,217522,1,2,0:0:0:0:
448,192,217522,1,8,0:0:0:0:
192,192,217591,1,2,0:0:0:0:
320,192,217591,1,8,0:0:0:0:
64,192,217660,1,2,0:0:0:0:
448,192,217660,1,8,0:0:0:0:
320,192,217799,1,2,0:0:0:0:
192,192,217937,1,2,0:0:0:0:
64,192,217937,1,8,0:0:0:0:
448,192,217937,1,4,0:0:0:0:
320,192,218075,1,2,0:0:0:0:
192,192,218144,1,2,0:0:0:0:
64,192,218213,1,8,0:0:0:0:
320,192,218213,1,2,0:0:0:0:
448,192,218213,1,4,0:0:0:0:
192,192,218352,1,2,0:0:0:0:
64,192,218352,1,8,0:0:0:0:
448,192,218352,1,4,0:0:0:0:
64,192,218490,1,8,0:0:0:0:
320,192,218490,1,2,0:0:0:0:
448,192,218490,1,4,0:0:0:0:
192,192,218628,1,2,0:0:0:0:
64,192,218766,1,4,0:0:0:0:
192,192,218766,1,2,0:0:0:0:
320,192,218766,1,8,0:0:0:0:
192,192,218905,1,4,0:0:0:0:
320,192,218905,1,2,0:0:0:0:
448,192,218905,1,8,0:0:0:0:
448,192,219043,1,2,0:0:0:0:
64,192,219043,1,4,0:0:0:0:
64,192,219181,1,4,0:0:0:0:
320,192,219181,1,2,0:0:0:0:
448,192,219181,1,8,0:0:0:0:
192,192,219250,1,4,0:0:0:0:
320,192,219319,1,2,0:0:0:0:
192,192,219458,1,2,0:0:0:0:
64,192,219458,1,4,0:0:0:0:
448,192,219458,1,8,0:0:0:0:
64,192,219596,1,4,0:0:0:0:
192,192,219596,1,2,0:0:0:0:
448,192,219596,1,8,0:0:0:0:
320,192,219734,1,2,0:0:0:0:
448,192,219734,1,8,0:0:0:0:
192,192,219803,1,2,0:0:0:0:
64,192,219803,1,8,0:0:0:0:
320,192,219872,1,2,0:0:0:0:
448,192,219872,1,8,0:0:0:0:
192,192,220011,1,2,0:0:0:0:
64,192,220149,1,4,0:0:0:0:
320,192,220149,1,2,0:0:0:0:
448,192,220149,1,8,0:0:0:0:
192,192,220287,1,2,0:0:0:0:
64,192,220287,1,8,0:0:0:0:
320,192,220356,1,2,0:0:0:0:
448,192,220356,1,8,0:0:0:0:
192,192,220425,1,2,0:0:0:0:
64,192,220425,1,8,0:0:0:0:
320,192,220564,1,8,0:0:0:0:
64,192,220598,1,8,0:0:0:0:
192,192,220633,1,8,0:0:0:0:
448,192,220667,1,8,0:0:0:0:
320,192,220702,1,8,0:0:0:0:
64,192,220702,1,2,0:0:0:0:
192,192,220840,1,4,0:0:0:0:
320,192,220840,1,2,0:0:0:0:
448,192,220840,1,8,0:0:0:0:
192,192,220978,1,2,0:0:0:0:
448,192,220978,1,8,0:0:0:0:
64,192,220978,1,4,0:0:0:0:
320,192,221117,1,0,0:0:0:0:
320,192,221255,1,0,0:0:0:0:
64,192,221255,128,0,221393:0:0:0:0:
448,192,221393,128,0,221531:0:0:0:0:
64,192,221531,1,4,0:0:0:0:
192,192,221531,1,2,0:0:0:0:
320,192,221531,1,8,0:0:0:0:
448,192,221670,1,8,0:0:0:0:
320,192,221670,1,2,0:0:0:0:
192,192,221670,1,4,0:0:0:0:
64,192,221808,1,0,0:0:0:0:
448,192,221877,1,0,0:0:0:0:
64,192,221946,1,0,0:0:0:0:
448,192,222015,1,0,0:0:0:0:
320,192,222084,1,4,0:0:0:0:
192,192,222084,1,2,0:0:0:0:
64,192,222084,1,8,0:0:0:0:
448,192,222223,1,2,0:0:0:0:
64,192,222361,1,8,0:0:0:0:
192,192,222361,1,4,0:0:0:0:
448,192,222361,1,2,0:0:0:0:
320,192,222499,1,2,0:0:0:0:
192,192,222637,1,2,0:0:0:0:
64,192,222637,1,4,0:0:0:0:
448,192,222637,1,8,0:0:0:0:
192,192,222776,1,4,0:0:0:0:
320,192,222776,1,2,0:0:0:0:
448,192,222776,1,8,0:0:0:0:
320,192,222914,1,8,0:0:0:0:
64,192,222914,128,4,223190:0:0:0:0:
192,192,222914,1,2,0:0:0:0:
192,192,223190,1,2,0:0:0:0:
320,192,223190,1,4,0:0:0:0:
448,192,223190,1,8,0:0:0:0:
448,192,223329,1,2,0:0:0:0:
192,192,223329,1,4,0:0:0:0:
320,192,223329,1,8,0:0:0:0:
64,192,223467,1,0,0:0:0:0:
448,192,223536,1,0,0:0:0:0:
64,192,223605,1,0,0:0:0:0:
448,192,223674,1,0,0:0:0:0:
64,192,223743,1,0,0:0:0:0:
448,192,223882,1,0,0:0:0:0:
320,192,223882,1,8,0:0:0:0:
192,192,223951,1,0,0:0:0:0:
448,192,224020,1,0,0:0:0:0:
64,192,224089,1,0,0:0:0:0:
448,192,224158,1,0,0:0:0:0:
64,192,224227,1,0,0:0:0:0:
192,192,224296,1,4,0:0:0:0:
320,192,224296,1,8,0:0:0:0:
448,192,224296,1,2,0:0:0:0:
64,192,224435,1,2,0:0:0:0:
64,192,224573,1,8,0:0:0:0:
192,192,224573,1,4,0:0:0:0:
448,192,224573,1,2,0:0:0:0:
320,192,224711,1,2,0:0:0:0:
192,192,224711,1,8,0:0:0:0:
64,192,224780,1,8,0:0:0:0:
448,192,224780,1,2,0:0:0:0:
192,192,224849,1,8,0:0:0:0:
320,192,224849,1,2,0:0:0:0:
448,192,224988,1,8,0:0:0:0:
320,192,225022,1,8,0:0:0:0:
192,192,225057,1,8,0:0:0:0:
64,192,225091,1,8,0:0:0:0:
448,192,225126,128,0,225264:0:0:0:0:
320,192,225264,128,0,225402:0:0:0:0:
64,192,225402,1,4,0:0:0:0:
192,192,225402,1,8,0:0:0:0:
448,192,225402,1,2,0:0:0:0:
320,192,225541,1,2,0:0:0:0:
192,192,225541,1,8,0:0:0:0:
64,192,225610,1,0,0:0:0:0:
448,192,225679,1,0,0:0:0:0:
320,192,225748,1,0,0:0:0:0:
448,192,225817,1,0,0:0:0:0:
320,192,225886,1,0,0:0:0:0:
192,192,225955,1,8,0:0:0:0:
64,192,225955,1,2,0:0:0:0:
448,192,225955,1,4,0:0:0:0:
64,192,226094,1,2,0:0:0:0:
192,192,226094,1,8,0:0:0:0:
320,192,226094,1,4,0:0:0:0:
448,192,226232,1,0,0:0:0:0:
64,192,226370,128,0,226508:0:0:0:0:
192,192,226508,1,2,0:0:0:0:
320,192,226508,1,4,0:0:0:0:
448,192,226508,1,8,0:0:0:0:
64,192,226647,1,2,0:0:0:0:
64,192,226785,1,2,0:0:0:0:
192,192,226785,1,4,0:0:0:0:
448,192,226785,1,8,0:0:0:0:
320,192,226923,1,2,0:0:0:0:
192,192,226992,1,2,0:0:0:0:
64,192,227061,1,4,0:0:0:0:
320,192,227061,1,2,0:0:0:0:
448,192,227061,1,8,0:0:0:0:
192,192,227200,1,0,0:0:0:0:
192,192,227338,128,0,227614:0:0:0:0:
64,192,227614,1,4,0:0:0:0:
320,192,227614,1,2,0:0:0:0:
448,192,227614,1,8,0:0:0:0:
64,192,227753,1,4,0:0:0:0:
320,192,227753,1,2,0:0:0:0:
448,192,227753,1,8,0:0:0:0:
192,192,228029,1,2,0:0:0:0:
64,192,228029,1,4,0:0:0:0:
448,192,228029,1,8,0:0:0:0:
192,192,228306,1,4,0:0:0:0:
320,192,228306,1,2,0:0:0:0:
448,192,228306,1,8,0:0:0:0:
192,192,228444,1,4,0:0:0:0:
320,192,228444,1,2,0:0:0:0:
448,192,228444,1,8,0:0:0:0:
64,192,228582,1,8,0:0:0:0:
192,192,228617,1,8,0:0:0:0:
320,192,228651,1,8,0:0:0:0:
448,192,228686,1,8,0:0:0:0:
192,192,228720,1,4,0:0:0:0:
64,192,228720,1,8,0:0:0:0:
448,192,228859,1,8,0:0:0:0:
320,192,228893,1,8,0:0:0:0:
192,192,228928,1,8,0:0:0:0:
64,192,228962,1,8,0:0:0:0:
448,192,228997,1,8,0:0:0:0:
320,192,228997,1,4,0:0:0:0:
64,192,229135,1,8,0:0:0:0:
192,192,229170,1,8,0:0:0:0:
320,192,229204,1,8,0:0:0:0:
448,192,229239,1,8,0:0:0:0:
64,192,229273,1,8,0:0:0:0:
192,192,229273,1,4,0:0:0:0:
320,192,229412,1,8,0:0:0:0:
448,192,229446,1,8,0:0:0:0:
192,192,229481,1,8,0:0:0:0:
64,192,229515,1,8,0:0:0:0:
320,192,229550,1,4,0:0:0:0:
448,192,229550,1,8,0:0:0:0:
64,192,229688,1,8,0:0:0:0:
192,192,229688,1,2,0:0:0:0:
448,192,229757,1,8,0:0:0:0:
320,192,229757,1,2,0:0:0:0:
64,192,229826,1,4,0:0:0:0:
448,192,229826,1,8,0:0:0:0:
192,192,229826,1,2,0:0:0:0:
320,192,229895,1,0,0:0:0:0:
64,192,229965,1,0,0:0:0:0:
448,192,230034,1,0,0:0:0:0:
192,192,230103,1,0,0:0:0:0:
448,192,230172,1,0,0:0:0:0:
64,192,230241,1,0,0:0:0:0:
320,192,230310,1,0,0:0:0:0:
192,192,230379,1,0,0:0:0:0:
448,192,230448,1,0,0:0:0:0:
192,192,230518,1,0,0:0:0:0:
448,192,230587,1,0,0:0:0:0:
64,192,230656,1,0,0:0:0:0:
320,192,230725,1,0,0:0:0:0:
64,192,230794,1,0,0:0:0:0:
320,192,230863,1,0,0:0:0:0:
64,192,230932,1,4,0:0:0:0:
192,192,230932,1,2,0:0:0:0:
448,192,230932,1,8,0:0:0:0:
320,192,231071,1,2,0:0:0:0:
64,192,231071,1,4,0:0:0:0:
448,192,231071,1,8,0:0:0:0:
192,192,231209,1,2,0:0:0:0:
320,192,231209,1,8,0:0:0:0:
448,192,231347,1,8,0:0:0:0:
320,192,231347,1,2,0:0:0:0:
64,192,231347,1,4,0:0:0:0:
192,192,231416,1,2,0:0:0:0:
64,192,231485,1,2,0:0:0:0:
448,192,231485,1,8,0:0:0:0:
192,192,231624,1,8,0:0:0:0:
64,192,231624,1,2,0:0:0:0:
192,192,231762,1,2,0:0:0:0:
320,192,231762,1,8,0:0:0:0:
320,192,231900,1,2,0:0:0:0:
448,192,231900,1,8,0:0:0:0:
64,192,231900,1,4,0:0:0:0:
64,192,232038,1,2,0:0:0:0:
192,192,232038,1,8,0:0:0:0:
192,192,232177,1,2,0:0:0:0:
320,192,232177,1,4,0:0:0:0:
448,192,232177,1,8,0:0:0:0:
64,192,232246,1,2,0:0:0:0:
320,192,232315,1,2,0:0:0:0:
448,192,232315,1,8,0:0:0:0:
192,192,232453,1,2,0:0:0:0:
64,192,232453,1,4,0:0:0:0:
448,192,232453,1,8,0:0:0:0:
320,192,232591,1,8,0:0:0:0:
192,192,232591,1,2,0:0:0:0:
64,192,232730,1,4,0:0:0:0:
320,192,232730,1,2,0:0:0:0:
448,192,232730,1,8,0:0:0:0:
192,192,232868,1,2,0:0:0:0:
64,192,232868,1,8,0:0:0:0:
448,192,233006,1,8,0:0:0:0:
320,192,233041,1,8,0:0:0:0:
192,192,233075,1,8,0:0:0:0:
64,192,233110,1,8,0:0:0:0:
320,192,233144,1,2,0:0:0:0:
448,192,233144,1,8,0:0:0:0:
192,192,233283,1,2,0:0:0:0:
64,192,233283,1,4,0:0:0:0:
448,192,233283,1,8,0:0:0:0:
320,192,233421,1,8,0:0:0:0:
192,192,233421,1,2,0:0:0:0:
64,192,233559,1,4,0:0:0:0:
320,192,233559,1,2,0:0:0:0:
448,192,233559,1,8,0:0:0:0:
192,192,233628,1,2,0:0:0:0:
64,192,233697,128,0,234250:0:0:0:0:
448,192,233697,128,0,234250:0:0:0:0:
192,192,234250,1,8,0:0:0:0:
320,192,234250,1,2,0:0:0:0:
64,192,234389,1,8,0:0:0:0:
192,192,234389,1,4,0:0:0:0:
448,192,234389,1,2,0:0:0:0:
320,192,234527,1,8,0:0:0:0:
448,192,234527,1,2,0:0:0:0:
64,192,234665,1,8,0:0:0:0:
192,192,234665,1,4,0:0:0:0:
320,192,234665,1,2,0:0:0:0:
448,192,234734,1,2,0:0:0:0:
64,192,234803,1,8,0:0:0:0:
192,192,234803,1,4,0:0:0:0:
320,192,234942,1,4,0:0:0:0:
448,192,234942,1,2,0:0:0:0:
64,192,234942,1,8,0:0:0:0:
320,192,235080,1,4,0:0:0:0:
192,192,235080,1,8,0:0:0:0:
448,192,235080,1,2,0:0:0:0:
64,192,235218,1,2,0:0:0:0:
192,192,235218,1,8,0:0:0:0:
320,192,235356,1,2,0:0:0:0:
448,192,235356,1,8,0:0:0:0:
64,192,235495,1,4,0:0:0:0:
192,192,235495,1,8,0:0:0:0:
448,192,235495,1,2,0:0:0:0:
320,192,235564,1,2,0:0:0:0:
64,192,235633,1,8,0:0:0:0:
448,192,235633,1,2,0:0:0:0:
64,192,235771,1,8,0:0:0:0:
192,192,235771,1,2,0:0:0:0:
320,192,235771,1,4,0:0:0:0:
64,192,235909,1,8,0:0:0:0:
192,192,235909,1,2,0:0:0:0:
448,192,235909,1,4,0:0:0:0:
320,192,236048,1,8,0:0:0:0:
192,192,236082,1,8,0:0:0:0:
64,192,236117,1,8,0:0:0:0:
448,192,236151,1,8,0:0:0:0:
320,192,236186,1,8,0:0:0:0:
192,192,236186,1,2,0:0:0:0:
448,192,236324,1,8,0:0:0:0:
192,192,236324,1,2,0:0:0:0:
64,192,236393,1,2,0:0:0:0:
320,192,236393,1,4,0:0:0:0:
192,192,236462,1,2,0:0:0:0:
448,192,236462,1,8,0:0:0:0:
64,192,236601,1,4,0:0:0:0:
320,192,236601,1,2,0:0:0:0:
448,192,236601,1,8,0:0:0:0:
64,192,236739,1,4,0:0:0:0:
192,192,236739,1,2,0:0:0:0:
448,192,236877,1,8,0:0:0:0:
192,192,236877,1,2,0:0:0:0:
320,192,236877,1,8,0:0:0:0:
64,192,236946,1,2,0:0:0:0:
448,192,237015,1,4,0:0:0:0:
320,192,237015,1,2,0:0:0:0:
448,192,237154,1,2,0:0:0:0:
64,192,237154,128,8,237568:0:0:0:0:
192,192,237154,128,4,237568:0:0:0:0:
320,192,237568,1,2,0:0:0:0:
448,192,237568,1,8,0:0:0:0:
192,192,237707,1,2,0:0:0:0:
64,192,237707,1,4,0:0:0:0:
448,192,237707,1,8,0:0:0:0:
320,192,237845,1,8,0:0:0:0:
192,192,237845,1,2,0:0:0:0:
64,192,237983,1,8,0:0:0:0:
320,192,237983,1,2,0:0:0:0:
448,192,237983,1,4,0:0:0:0:
192,192,238052,1,2,0:0:0:0:
64,192,238121,1,8,0:0:0:0:
448,192,238121,1,2,0:0:0:0:
192,192,238260,1,4,0:0:0:0:
320,192,238260,1,2,0:0:0:0:
448,192,238260,1,8,0:0:0:0:
64,192,238398,1,8,0:0:0:0:
192,192,238398,1,4,0:0:0:0:
320,192,238398,1,2,0:0:0:0:
64,192,238536,1,2,0:0:0:0:
192,192,238536,1,4,0:0:0:0:
448,192,238536,1,8,0:0:0:0:
320,192,238674,1,2,0:0:0:0:
192,192,238674,1,8,0:0:0:0:
64,192,238674,1,4,0:0:0:0:
448,192,238813,1,8,0:0:0:0:
320,192,238813,1,2,0:0:0:0:
192,192,238882,1,2,0:0:0:0:
64,192,238882,1,8,0:0:0:0:
448,192,238951,1,8,0:0:0:0:
320,192,238951,1,2,0:0:0:0:
192,192,239089,1,2,0:0:0:0:
64,192,239089,1,4,0:0:0:0:
448,192,239089,1,8,0:0:0:0:
320,192,239227,1,2,0:0:0:0:
448,192,239227,1,8,0:0:0:0:
64,192,239227,1,4,0:0:0:0:
64,192,239366,1,0,0:0:0:0:
192,192,239366,1,0,0:0:0:0:
448,192,239366,1,8,0:0:0:0:
320,192,239504,1,0,0:0:0:0:
192,192,239504,1,0,0:0:0:0:
64,192,239642,1,4,0:0:0:0:
320,192,239642,1,2,0:0:0:0:
448,192,239642,1,8,0:0:0:0:
192,192,239711,1,2,0:0:0:0:
64,192,239780,1,8,0:0:0:0:
320,192,239780,1,2,0:0:0:0:
192,192,239919,1,2,0:0:0:0:
448,192,239919,1,8,0:0:0:0:
64,192,240057,1,4,0:0:0:0:
320,192,240057,1,2,0:0:0:0:
448,192,240057,1,8,0:0:0:0:
192,192,240195,1,2,0:0:0:0:
64,192,240195,1,8,0:0:0:0:
320,192,240264,1,2,0:0:0:0:
448,192,240333,1,4,0:0:0:0:
192,192,240333,1,2,0:0:0:0:
64,192,240333,1,8,0:0:0:0:
64,192,240472,1,2,0:0:0:0:
320,192,240472,128,8,240886:0:0:0:0:
448,192,240472,128,4,240886:0:0:0:0:
192,192,240886,1,4,0:0:0:0:
64,192,240886,1,8,0:0:0:0:
448,192,241439,1,0,0:0:0:0:
320,192,241439,1,0,0:0:0:0:
192,192,241716,1,0,0:0:0:0:
448,192,241992,1,0,0:0:0:0:
320,192,242131,1,0,0:0:0:0:
64,192,242131,1,0,0:0:0:0:
320,192,242269,1,0,0:0:0:0:
64,192,242269,1,0,0:0:0:0:
448,192,242545,1,0,0:0:0:0:
64,192,242545,1,0,0:0:0:0:
64,192,242822,1,0,0:0:0:0:
448,192,242822,1,0,0:0:0:0:
448,192,243098,1,0,0:0:0:0:
320,192,243098,1,0,0:0:0:0:
192,192,243375,1,0,0:0:0:0:
64,192,243375,1,0,0:0:0:0:
64,192,243513,1,0,0:0:0:0:
192,192,243513,1,0,0:0:0:0:
448,192,243651,1,0,0:0:0:0:
64,192,243789,1,0,0:0:0:0:
320,192,243789,1,0,0:0:0:0:
64,192,243928,1,0,0:0:0:0:
320,192,243928,1,0,0:0:0:0:
448,192,244204,1,0,0:0:0:0:
64,192,244342,1,0,0:0:0:0:
192,192,244342,1,0,0:0:0:0:
64,192,244481,1,0,0:0:0:0:
192,192,244481,1,0,0:0:0:0:
448,192,244757,1,0,0:0:0:0:
64,192,244757,1,0,0:0:0:0:
448,192,245034,1,0,0:0:0:0:
64,192,245034,1,0,0:0:0:0:
64,192,245310,1,0,0:0:0:0:
320,192,245310,1,0,0:0:0:0:
192,192,245587,1,0,0:0:0:0:
448,192,245587,1,0,0:0:0:0:
192,192,245725,1,0,0:0:0:0:
448,192,245725,1,0,0:0:0:0:
64,192,245863,1,0,0:0:0:0:
320,192,246001,1,0,0:0:0:0:
448,192,246001,1,0,0:0:0:0:
448,192,246140,1,0,0:0:0:0:
320,192,246140,1,0,0:0:0:0:
448,192,246416,1,0,0:0:0:0:
320,192,246554,1,0,0:0:0:0:
64,192,246554,1,0,0:0:0:0:
320,192,246693,1,0,0:0:0:0:
64,192,246693,1,0,0:0:0:0:
448,192,246969,1,0,0:0:0:0:
192,192,246969,1,0,0:0:0:0:
448,192,247246,1,0,0:0:0:0:
192,192,247246,1,0,0:0:0:0:
64,192,247522,1,0,0:0:0:0:
192,192,247522,1,0,0:0:0:0:
448,192,247799,1,0,0:0:0:0:
192,192,247799,1,0,0:0:0:0:
448,192,247937,1,0,0:0:0:0:
192,192,247937,1,0,0:0:0:0:
64,192,248075,1,0,0:0:0:0:
448,192,248213,1,0,0:0:0:0:
320,192,248213,1,0,0:0:0:0:
448,192,248352,1,0,0:0:0:0:
320,192,248352,1,0,0:0:0:0:
64,192,248628,1,0,0:0:0:0:
320,192,248766,1,0,0:0:0:0:
448,192,248766,1,0,0:0:0:0:
320,192,248905,1,0,0:0:0:0:
448,192,248905,1,0,0:0:0:0:
64,192,249181,1,0,0:0:0:0:
320,192,249181,1,0,0:0:0:0:
64,192,249458,1,0,0:0:0:0:
320,192,249458,1,0,0:0:0:0:
64,192,249734,1,2,0:0:0:0:
192,192,249734,1,8,0:0:0:0:
448,192,249734,1,4,0:0:0:0:
320,192,249872,1,0,0:0:0:0:
448,192,250011,1,0,0:0:0:0:
64,192,250149,1,0,0:0:0:0:
192,192,250287,1,4,0:0:0:0:
448,192,250287,1,0,0:0:0:0:
320,192,250425,1,0,0:0:0:0:
192,192,250564,1,0,0:0:0:0:
320,192,250702,1,0,0:0:0:0:
448,192,250840,1,0,0:0:0:0:
64,192,250978,1,0,0:0:0:0:
192,192,251117,1,2,0:0:0:0:
320,192,251117,1,4,0:0:0:0:
448,192,251117,1,8,0:0:0:0:
64,192,251255,1,0,0:0:0:0:
448,192,251393,1,0,0:0:0:0:
320,192,251531,1,8,0:0:0:0:
192,192,251531,1,4,0:0:0:0:
64,192,251531,1,2,0:0:0:0:
448,192,251670,1,0,0:0:0:0:
192,192,251808,1,0,0:0:0:0:
64,192,251946,1,2,0:0:0:0:
192,192,251946,1,4,0:0:0:0:
448,192,251946,1,8,0:0:0:0:
320,192,252084,1,0,0:0:0:0:
448,192,252223,1,0,0:0:0:0:
64,192,252361,1,0,0:0:0:0:
192,192,252499,1,4,0:0:0:0:
448,192,252499,1,0,0:0:0:0:
320,192,252637,1,0,0:0:0:0:
192,192,252776,1,0,0:0:0:0:
448,192,252914,1,4,0:0:0:0:
448,192,252983,1,4,0:0:0:0:
320,192,253052,1,4,0:0:0:0:
64,192,253052,1,2,0:0:0:0:
192,192,253052,1,8,0:0:0:0:
64,192,253190,1,0,0:0:0:0:
448,192,253190,1,0,0:0:0:0:
192,192,253329,1,2,0:0:0:0:
320,192,253329,1,8,0:0:0:0:
448,192,253329,1,4,0:0:0:0:
64,192,253467,1,0,0:0:0:0:
448,192,253605,1,0,0:0:0:0:
320,192,253743,1,4,0:0:0:0:
192,192,253743,1,8,0:0:0:0:
64,192,253743,1,2,0:0:0:0:
448,192,253882,1,0,0:0:0:0:
192,192,254020,1,0,0:0:0:0:
448,192,254158,1,2,0:0:0:0:
192,192,254158,1,4,0:0:0:0:
64,192,254158,1,8,0:0:0:0:
320,192,254296,1,0,0:0:0:0:
448,192,254435,1,0,0:0:0:0:
64,192,254573,1,0,0:0:0:0:
192,192,254711,1,4,0:0:0:0:
320,192,254711,1,0,0:0:0:0:
448,192,254849,1,0,0:0:0:0:
64,192,254988,1,0,0:0:0:0:
320,192,255126,1,0,0:0:0:0:
448,192,255264,1,0,0:0:0:0:
64,192,255402,1,0,0:0:0:0:
448,192,255541,1,8,0:0:0:0:
320,192,255541,1,4,0:0:0:0:
192,192,255541,1,2,0:0:0:0:
64,192,255679,1,0,0:0:0:0:
448,192,255817,1,0,0:0:0:0:
64,192,255955,1,2,0:0:0:0:
192,192,255955,1,4,0:0:0:0:
320,192,255955,1,8,0:0:0:0:
448,192,256094,1,0,0:0:0:0:
192,192,256232,1,0,0:0:0:0:
64,192,256370,1,2,0:0:0:0:
192,192,256370,1,4,0:0:0:0:
448,192,256370,1,8,0:0:0:0:
320,192,256508,1,0,0:0:0:0:
448,192,256647,1,0,0:0:0:0:
64,192,256785,1,0,0:0:0:0:
192,192,256923,1,4,0:0:0:0:
448,192,256923,1,0,0:0:0:0:
320,192,257061,1,0,0:0:0:0:
192,192,257200,1,0,0:0:0:0:
64,192,257338,1,4,0:0:0:0:
64,192,257407,1,4,0:0:0:0:
448,192,257476,1,2,0:0:0:0:
192,192,257476,1,4,0:0:0:0:
320,192,257476,1,8,0:0:0:0:
320,192,257614,1,0,0:0:0:0:
448,192,257614,1,0,0:0:0:0:
192,192,257753,1,2,0:0:0:0:
448,192,257753,1,8,0:0:0:0:
64,192,257753,1,4,0:0:0:0:
192,192,257891,1,0,0:0:0:0:
448,192,258029,1,0,0:0:0:0:
192,192,258167,1,4,0:0:0:0:
64,192,258167,1,2,0:0:0:0:
320,192,258167,128,8,258582:0:0:0:0:
448,192,258306,1,0,0:0:0:0:
192,192,258444,1,0,0:0:0:0:
64,192,259688,5,4,0:0:0:0:
320,192,259688,1,2,0:0:0:0:
448,192,259688,1,8,0:0:0:0:
192,192,259815,1,8,0:0:0:0:
320,192,259815,1,2,0:0:0:0:
192,192,259943,1,2,0:0:0:0:
64,192,259943,1,4,0:0:0:0:
448,192,259943,1,8,0:0:0:0:
64,192,260070,1,8,0:0:0:0:
320,192,260070,1,2,0:0:0:0:
192,192,260134,1,2,0:0:0:0:
64,192,260198,1,8,0:0:0:0:
320,192,260198,1,2,0:0:0:0:
448,192,260198,1,4,0:0:0:0:
192,192,260326,1,2,0:0:0:0:
448,192,260326,1,8,0:0:0:0:
64,192,260453,1,4,0:0:0:0:
192,192,260453,1,2,0:0:0:0:
320,192,260453,1,8,0:0:0:0:
320,192,260581,1,2,0:0:0:0:
448,192,260581,1,8,0:0:0:0:
192,192,260645,1,2,0:0:0:0:
448,192,260709,1,8,0:0:0:0:
320,192,260709,1,2,0:0:0:0:
64,192,260709,1,4,0:0:0:0:
192,192,260836,1,2,0:0:0:0:
64,192,260836,1,8,0:0:0:0:
320,192,260900,1,2,0:0:0:0:
64,192,260964,1,8,0:0:0:0:
192,192,260964,1,2,0:0:0:0:
448,192,260964,1,4,0:0:0:0:
320,192,261092,1,2,0:0:0:0:
448,192,261092,1,8,0:0:0:0:
192,192,261156,1,2,0:0:0:0:
64,192,261219,1,4,0:0:0:0:
320,192,261219,1,2,0:0:0:0:
448,192,261219,1,8,0:0:0:0:
320,192,261479,1,2,0:0:0:0:
448,192,261479,1,8,0:0:0:0:
64,192,261479,1,4,0:0:0:0:
192,192,261610,1,4,0:0:0:0:
320,192,261610,1,2,0:0:0:0:
192,192,261740,1,2,0:0:0:0:
64,192,261740,1,4,0:0:0:0:
448,192,261740,1,8,0:0:0:0:
320,192,261871,1,2,0:0:0:0:
64,192,261871,1,8,0:0:0:0:
192,192,261936,1,2,0:0:0:0:
64,192,262001,1,8,0:0:0:0:
320,192,262001,1,2,0:0:0:0:
448,192,262001,1,4,0:0:0:0:
192,192,262132,1,2,0:0:0:0:
448,192,262132,1,8,0:0:0:0:
64,192,262197,1,2,0:0:0:0:
320,192,262262,1,2,0:0:0:0:
64,192,262392,128,0,262653:0:0:0:0:
192,192,262392,128,0,262653:0:0:0:0:
320,192,262392,128,0,262653:0:0:0:0:
448,192,262392,128,0,262653:0:0:0:0:
320,192,262784,1,4,0:0:0:0:
448,192,262784,1,8,0:0:0:0:
192,192,262784,1,2,0:0:0:0:
64,192,262911,1,2,0:0:0:0:
448,192,262911,1,8,0:0:0:0:
64,192,263039,1,2,0:0:0:0:
192,192,263039,1,4,0:0:0:0:
320,192,263039,1,8,0:0:0:0:
320,192,263166,1,2,0:0:0:0:
448,192,263166,1,8,0:0:0:0:
64,192,263230,1,2,0:0:0:0:
192,192,263294,1,2,0:0:0:0:
320,192,263294,1,4,0:0:0:0:
448,192,263294,1,8,0:0:0:0:
64,192,263422,1,2,0:0:0:0:
448,192,263422,1,8,0:0:0:0:
192,192,263422,1,4,0:0:0:0:
320,192,263677,1,2,0:0:0:0:
64,192,263677,1,4,0:0:0:0:
448,192,263677,1,8,0:0:0:0:
192,192,263805,1,2,0:0:0:0:
64,192,263805,1,4,0:0:0:0:
448,192,263805,1,8,0:0:0:0:
320,192,263932,1,2,0:0:0:0:
192,192,263932,1,8,0:0:0:0:
448,192,263996,1,2,0:0:0:0:
192,192,264060,1,8,0:0:0:0:
320,192,264060,1,2,0:0:0:0:
64,192,264060,1,4,0:0:0:0:
320,192,264188,1,2,0:0:0:0:
448,192,264188,1,8,0:0:0:0:
64,192,264188,1,4,0:0:0:0:
64,192,264315,1,4,0:0:0:0:
192,192,264315,1,2,0:0:0:0:
448,192,264315,1,8,0:0:0:0:
448,192,264445,1,8,0:0:0:0:
320,192,264445,1,2,0:0:0:0:
192,192,264510,1,2,0:0:0:0:
64,192,264575,1,4,0:0:0:0:
320,192,264575,1,2,0:0:0:0:
448,192,264575,1,8,0:0:0:0:
64,192,264836,1,4,0:0:0:0:
320,192,264836,1,2,0:0:0:0:
448,192,264836,1,8,0:0:0:0:
192,192,264967,1,2,0:0:0:0:
448,192,264967,1,8,0:0:0:0:
320,192,265032,1,2,0:0:0:0:
192,192,265097,1,2,0:0:0:0:
448,192,265097,1,8,0:0:0:0:
64,192,265097,1,4,0:0:0:0:
192,192,265228,1,2,0:0:0:0:
320,192,265228,1,8,0:0:0:0:
320,192,265358,1,2,0:0:0:0:
64,192,265358,128,4,265619:0:0:0:0:
448,192,265358,128,8,265619:0:0:0:0:
192,192,265619,1,0,0:0:0:0:
320,192,265684,1,0,0:0:0:0:
192,192,265749,1,0,0:0:0:0:
320,192,265815,1,0,0:0:0:0:
192,192,265880,1,2,0:0:0:0:
64,192,265880,1,8,0:0:0:0:
448,192,265880,1,4,0:0:0:0:
320,192,266007,1,2,0:0:0:0:
64,192,266007,1,8,0:0:0:0:
192,192,266071,1,2,0:0:0:0:
320,192,266135,1,2,0:0:0:0:
64,192,266135,1,8,0:0:0:0:
448,192,266135,1,4,0:0:0:0:
192,192,266262,1,2,0:0:0:0:
448,192,266262,1,8,0:0:0:0:
320,192,266326,1,2,0:0:0:0:
192,192,266390,1,2,0:0:0:0:
448,192,266390,1,8,0:0:0:0:
64,192,266390,1,4,0:0:0:0:
64,192,266645,1,4,0:0:0:0:
320,192,266645,1,2,0:0:0:0:
448,192,266645,1,8,0:0:0:0:
192,192,266773,1,2,0:0:0:0:
320,192,266773,1,8,0:0:0:0:
192,192,266901,1,2,0:0:0:0:
64,192,266901,1,4,0:0:0:0:
448,192,266901,1,8,0:0:0:0:
320,192,267028,1,2,0:0:0:0:
192,192,267028,1,8,0:0:0:0:
64,192,267156,1,4,0:0:0:0:
320,192,267156,1,2,0:0:0:0:
448,192,267156,1,8,0:0:0:0:
64,192,267411,1,8,0:0:0:0:
192,192,267411,1,4,0:0:0:0:
448,192,267411,1,2,0:0:0:0:
320,192,267541,1,4,0:0:0:0:
448,192,267541,1,2,0:0:0:0:
64,192,267541,1,8,0:0:0:0:
64,192,267932,1,4,0:0:0:0:
192,192,267932,1,2,0:0:0:0:
448,192,267932,1,8,0:0:0:0:
320,192,268063,1,2,0:0:0:0:
64,192,268063,1,8,0:0:0:0:
192,192,268128,1,2,0:0:0:0:
64,192,268193,1,8,0:0:0:0:
320,192,268193,1,2,0:0:0:0:
448,192,268193,1,4,0:0:0:0:
64,192,268454,1,2,0:0:0:0:
192,192,268454,1,8,0:0:0:0:
64,192,268584,128,0,268845:0:0:0:0:
192,192,268584,128,8,268845:0:0:0:0:
320,192,268584,128,4,268845:0:0:0:0:
448,192,268584,128,2,268845:0:0:0:0:
192,192,268976,1,8,0:0:0:0:
320,192,268976,1,2,0:0:0:0:
448,192,268976,1,4,0:0:0:0:
192,192,269106,1,8,0:0:0:0:
64,192,269106,1,2,0:0:0:0:
64,192,269237,1,2,0:0:0:0:
192,192,269237,1,8,0:0:0:0:
64,192,269367,1,2,0:0:0:0:
320,192,269367,1,8,0:0:0:0:
448,192,269367,1,4,0:0:0:0:
192,192,269497,1,2,0:0:0:0:
448,192,269497,1,8,0:0:0:0:
192,192,269628,1,2,0:0:0:0:
448,192,269628,1,8,0:0:0:0:
64,192,269758,5,2,0:0:0:0:
320,192,269758,1,8,0:0:0:0:
448,192,269889,128,4,270150:0:0:0:0:
320,192,269889,128,8,270150:0:0:0:0:
192,192,269889,128,0,270150:0:0:0:0:
64,192,269889,128,2,270150:0:0:0:0:
192,192,270280,1,2,0:0:0:0:
448,192,270280,1,8,0:0:0:0:
448,192,270407,128,8,270662:0:0:0:0:
320,192,270407,128,4,270662:0:0:0:0:
192,192,270407,128,2,270662:0:0:0:0:
64,192,270407,128,0,270662:0:0:0:0:
64,192,270790,1,2,0:0:0:0:
448,192,270790,1,8,0:0:0:0:
448,192,270920,128,8,271181:0:0:0:0:
320,192,270920,128,4,271181:0:0:0:0:
192,192,270920,128,0,271181:0:0:0:0:
64,192,270920,128,2,271181:0:0:0:0:
320,192,271311,1,2,0:0:0:0:
448,192,271311,1,8,0:0:0:0:
448,192,271441,128,8,271702:0:0:0:0:
320,192,271441,128,2,271702:0:0:0:0:
192,192,271441,128,4,271702:0:0:0:0:
64,192,271441,128,0,271702:0:0:0:0:
64,192,271832,128,2,272087:0:0:0:0:
192,192,271832,128,4,272087:0:0:0:0:
320,192,271832,128,8,272087:0:0:0:0:
448,192,271832,128,0,272087:0:0:0:0:
64,192,272214,1,0,0:0:0:0:
192,192,272414,1,0,0:0:0:0:
448,192,272614,1,0,0:0:0:0:
320,192,272614,128,0,272878:0:0:0:0:
192,192,272966,1,2,0:0:0:0:
64,192,272966,1,4,0:0:0:0:
448,192,272966,1,8,0:0:0:0:
320,192,273106,1,2,0:0:0:0:
320,192,273246,1,2,0:0:0:0:
448,192,273246,1,8,0:0:0:0:
64,192,273246,1,4,0:0:0:0:
64,192,273386,1,2,0:0:0:0:
448,192,273386,1,0,0:0:0:0:
192,192,273456,1,2,0:0:0:0:
448,192,273526,1,2,0:0:0:0:
64,192,273596,1,2,0:0:0:0:
192,192,273666,1,2,0:0:0:0:
320,192,273666,1,8,0:0:0:0:
64,192,273807,1,8,0:0:0:0:
448,192,273807,1,4,0:0:0:0:
320,192,273807,1,2,0:0:0:0:
192,192,273947,1,2,0:0:0:0:
320,192,274017,1,2,0:0:0:0:
448,192,274087,1,2,0:0:0:0:
64,192,274087,1,8,0:0:0:0:
192,192,274227,1,0,0:0:0:0:
320,192,274227,1,2,0:0:0:0:
192,192,274367,1,4,0:0:0:0:
320,192,274367,1,2,0:0:0:0:
448,192,274367,1,8,0:0:0:0:
448,192,274508,1,2,0:0:0:0:
64,192,274578,1,2,0:0:0:0:
320,192,274648,1,2,0:0:0:0:
192,192,274648,1,0,0:0:0:0:
448,192,274718,1,2,0:0:0:0:
192,192,274788,1,2,0:0:0:0:
64,192,274788,1,8,0:0:0:0:
320,192,274858,1,2,0:0:0:0:
448,192,274928,1,2,0:0:0:0:
64,192,274928,1,4,0:0:0:0:
192,192,274928,1,8,0:0:0:0:
320,192,275068,1,2,0:0:0:0:
448,192,275138,1,2,0:0:0:0:
192,192,275208,1,2,0:0:0:0:
64,192,275208,1,8,0:0:0:0:
448,192,275349,1,2,0:0:0:0:
320,192,275489,1,2,0:0:0:0:
192,192,275489,1,4,0:0:0:0:
64,192,275489,1,8,0:0:0:0:
64,192,275629,1,0,0:0:0:0:
448,192,275629,1,2,0:0:0:0:
320,192,275699,1,2,0:0:0:0:
192,192,275769,1,2,0:0:0:0:
64,192,275839,1,2,0:0:0:0:
320,192,275909,1,2,0:0:0:0:
448,192,275909,1,8,0:0:0:0:
192,192,276050,1,2,0:0:0:0:
64,192,276050,1,4,0:0:0:0:
448,192,276050,1,8,0:0:0:0:
320,192,276190,1,2,0:0:0:0:
64,192,276260,1,2,0:0:0:0:
192,192,276330,1,2,0:0:0:0:
448,192,276330,1,8,0:0:0:0:
64,192,276470,1,0,0:0:0:0:
320,192,276470,1,2,0:0:0:0:
64,192,276610,1,4,0:0:0:0:
320,192,276610,1,2,0:0:0:0:
448,192,276610,1,8,0:0:0:0:
448,192,276751,1,2,0:0:0:0:
192,192,276821,1,2,0:0:0:0:
448,192,276891,1,0,0:0:0:0:
64,192,276891,1,2,0:0:0:0:
320,192,276961,1,2,0:0:0:0:
64,192,277031,1,2,0:0:0:0:
192,192,277031,1,8,0:0:0:0:
320,192,277101,1,2,0:0:0:0:
192,192,277171,1,4,0:0:0:0:
64,192,277171,1,2,0:0:0:0:
448,192,277171,1,8,0:0:0:0:
320,192,277311,1,2,0:0:0:0:
192,192,277381,1,2,0:0:0:0:
64,192,277451,1,2,0:0:0:0:
448,192,277451,1,8,0:0:0:0:
192,192,277592,1,2,0:0:0:0:
64,192,277732,1,4,0:0:0:0:
320,192,277732,1,2,0:0:0:0:
448,192,277732,1,8,0:0:0:0:
192,192,277872,1,0,0:0:0:0:
448,192,277872,1,2,0:0:0:0:
320,192,277942,1,2,0:0:0:0:
64,192,278012,1,2,0:0:0:0:
192,192,278082,1,2,0:0:0:0:
320,192,278152,1,2,0:0:0:0:
448,192,278152,1,8,0:0:0:0:
192,192,278293,1,4,0:0:0:0:
320,192,278293,1,2,0:0:0:0:
64,192,278293,1,8,0:0:0:0:
192,192,278433,1,2,0:0:0:0:
320,192,278503,1,2,0:0:0:0:
448,192,278573,1,2,0:0:0:0:
64,192,278573,1,8,0:0:0:0:
320,192,278713,1,0,0:0:0:0:
192,192,278713,1,2,0:0:0:0:
320,192,278853,1,8,0:0:0:0:
192,192,278853,1,2,0:0:0:0:
448,192,278853,1,4,0:0:0:0:
64,192,278994,1,2,0:0:0:0:
192,192,279064,1,2,0:0:0:0:
320,192,279134,1,2,0:0:0:0:
448,192,279134,1,0,0:0:0:0:
64,192,279204,1,2,0:0:0:0:
192,192,279274,1,2,0:0:0:0:
448,192,279274,1,8,0:0:0:0:
320,192,279344,1,2,0:0:0:0:
192,192,279414,1,2,0:0:0:0:
64,192,279414,1,4,0:0:0:0:
448,192,279414,1,8,0:0:0:0:
320,192,279554,1,2,0:0:0:0:
448,192,279624,1,2,0:0:0:0:
64,192,279694,1,2,0:0:0:0:
192,192,279694,1,8,0:0:0:0:
320,192,279835,1,2,0:0:0:0:
192,192,279975,1,2,0:0:0:0:
64,192,279975,1,4,0:0:0:0:
448,192,279975,1,8,0:0:0:0:
192,192,280115,1,2,0:0:0:0:
448,192,280115,1,0,0:0:0:0:
64,192,280185,1,2,0:0:0:0:
320,192,280255,1,2,0:0:0:0:
192,192,280325,1,2,0:0:0:0:
64,192,280395,1,2,0:0:0:0:
448,192,280395,1,8,0:0:0:0:
64,192,280536,1,4,0:0:0:0:
320,192,280536,1,2,0:0:0:0:
448,192,280536,1,8,0:0:0:0:
192,192,280676,1,2,0:0:0:0:
64,192,280746,1,2,0:0:0:0:
320,192,280816,1,2,0:0:0:0:
448,192,280816,1,8,0:0:0:0:
192,192,280956,1,0,0:0:0:0:
64,192,280956,1,2,0:0:0:0:
64,192,281096,1,2,0:0:0:0:
192,192,281096,1,8,0:0:0:0:
448,192,281096,1,4,0:0:0:0:
320,192,281237,1,2,0:0:0:0:
192,192,281307,1,2,0:0:0:0:
64,192,281377,1,2,0:0:0:0:
448,192,281377,1,0,0:0:0:0:
320,192,281447,1,2,0:0:0:0:
64,192,281517,1,8,0:0:0:0:
192,192,281517,1,2,0:0:0:0:
320,192,281587,1,2,0:0:0:0:
192,192,281657,1,2,0:0:0:0:
448,192,281657,1,4,0:0:0:0:
64,192,281657,1,8,0:0:0:0:
192,192,281797,1,2,0:0:0:0:
64,192,281797,1,8,0:0:0:0:
320,192,281867,1,8,0:0:0:0:
448,192,281867,1,2,0:0:0:0:
192,192,281937,1,2,0:0:0:0:
320,192,281937,1,4,0:0:0:0:
64,192,281937,1,8,0:0:0:0:
448,192,282078,1,2,0:0:0:0:
64,192,282218,1,8,0:0:0:0:
192,192,282218,1,4,0:0:0:0:
448,192,282218,1,2,0:0:0:0:
320,192,282358,1,2,0:0:0:0:
192,192,282358,1,0,0:0:0:0:
320,192,282498,1,0,0:0:0:0:
448,192,282498,1,2,0:0:0:0:
192,192,282638,1,2,0:0:0:0:
64,192,282638,1,8,0:0:0:0:
320,192,282779,1,2,0:0:0:0:
448,192,282779,1,4,0:0:0:0:
64,192,282779,1,8,0:0:0:0:
192,192,282919,1,2,0:0:0:0:
320,192,282919,1,0,0:0:0:0:
192,192,283059,1,2,0:0:0:0:
64,192,283059,1,8,0:0:0:0:
448,192,283199,1,8,0:0:0:0:
320,192,283199,1,2,0:0:0:0:
192,192,283339,1,2,0:0:0:0:
64,192,283339,1,4,0:0:0:0:
448,192,283339,1,8,0:0:0:0:
320,192,283480,1,2,0:0:0:0:
192,192,283480,1,2,0:0:0:0:
64,192,283620,1,0,0:0:0:0:
320,192,283620,1,2,0:0:0:0:
64,192,283760,1,2,0:0:0:0:
192,192,283760,1,8,0:0:0:0:
448,192,283900,1,4,0:0:0:0:
192,192,283900,1,8,0:0:0:0:
320,192,283900,1,2,0:0:0:0:
64,192,284040,1,2,0:0:0:0:
448,192,284040,1,0,0:0:0:0:
192,192,284180,1,2,0:0:0:0:
320,192,284180,1,8,0:0:0:0:
448,192,284321,1,2,0:0:0:0:
64,192,284461,1,8,0:0:0:0:
192,192,284461,1,4,0:0:0:0:
448,192,284461,1,2,0:0:0:0:
320,192,284601,1,2,0:0:0:0:
192,192,284601,1,0,0:0:0:0:
320,192,284741,1,2,0:0:0:0:
448,192,284741,1,0,0:0:0:0:
192,192,284881,1,2,0:0:0:0:
64,192,284881,1,8,0:0:0:0:
320,192,285022,1,2,0:0:0:0:
448,192,285022,1,4,0:0:0:0:
64,192,285022,1,8,0:0:0:0:
192,192,285162,1,2,0:0:0:0:
320,192,285162,1,0,0:0:0:0:
192,192,285302,1,2,0:0:0:0:
64,192,285302,1,8,0:0:0:0:
448,192,285442,1,8,0:0:0:0:
320,192,285442,1,2,0:0:0:0:
192,192,285582,1,2,0:0:0:0:
64,192,285582,1,4,0:0:0:0:
448,192,285582,1,8,0:0:0:0:
320,192,285723,1,2,0:0:0:0:
192,192,285723,1,0,0:0:0:0:
64,192,285863,1,0,0:0:0:0:
320,192,285863,1,2,0:0:0:0:
64,192,286003,1,2,0:0:0:0:
192,192,286003,1,8,0:0:0:0:
448,192,286143,1,4,0:0:0:0:
192,192,286143,1,8,0:0:0:0:
320,192,286143,1,2,0:0:0:0:
64,192,286283,1,0,0:0:0:0:
448,192,286283,1,2,0:0:0:0:
320,192,286423,1,2,0:0:0:0:
192,192,286423,1,8,0:0:0:0:
448,192,286564,1,2,0:0:0:0:
448,192,286704,1,2,0:0:0:0:
192,192,286704,1,4,0:0:0:0:
64,192,286704,1,8,0:0:0:0:
192,192,286844,1,0,0:0:0:0:
320,192,286844,1,2,0:0:0:0:
448,192,286984,1,0,0:0:0:0:
320,192,286984,1,2,0:0:0:0:
64,192,287124,1,8,0:0:0:0:
192,192,287124,1,2,0:0:0:0:
64,192,287265,1,8,0:0:0:0:
448,192,287265,1,4,0:0:0:0:
320,192,287265,1,2,0:0:0:0:
320,192,287405,1,0,0:0:0:0:
192,192,287405,1,2,0:0:0:0:
64,192,287545,1,8,0:0:0:0:
192,192,287545,1,2,0:0:0:0:
320,192,287685,1,2,0:0:0:0:
448,192,287685,1,0,0:0:0:0:
448,192,287825,1,8,0:0:0:0:
64,192,287825,1,4,0:0:0:0:
192,192,287825,1,2,0:0:0:0:
192,192,287966,1,0,0:0:0:0:
320,192,287966,1,2,0:0:0:0:
320,192,288106,1,2,0:0:0:0:
64,192,288106,1,0,0:0:0:0:
192,192,288246,1,8,0:0:0:0:
64,192,288246,1,2,0:0:0:0:
320,192,288386,1,4,0:0:0:0:
192,192,288386,1,8,0:0:0:0:
448,192,288386,1,8,0:0:0:0:
448,192,288526,1,2,0:0:0:0:
64,192,288526,1,0,0:0:0:0:
192,192,288666,1,8,0:0:0:0:
320,192,288666,1,2,0:0:0:0:
448,192,288807,1,2,0:0:0:0:
64,192,288947,1,8,0:0:0:0:
192,192,288947,1,4,0:0:0:0:
448,192,288947,1,2,0:0:0:0:
320,192,289087,1,2,0:0:0:0:
192,192,289087,1,0,0:0:0:0:
320,192,289227,1,2,0:0:0:0:
448,192,289227,1,8,0:0:0:0:
192,192,289367,1,2,0:0:0:0:
64,192,289367,1,8,0:0:0:0:
320,192,289508,1,2,0:0:0:0:
448,192,289508,1,4,0:0:0:0:
64,192,289508,1,8,0:0:0:0:
192,192,289648,1,2,0:0:0:0:
320,192,289648,1,0,0:0:0:0:
192,192,289788,1,2,0:0:0:0:
64,192,289788,1,4,0:0:0:0:
448,192,289788,1,8,0:0:0:0:
320,192,289928,1,8,0:0:0:0:
192,192,289963,1,8,0:0:0:0:
64,192,289998,1,8,0:0:0:0:
448,192,290033,1,8,0:0:0:0:
192,192,290068,1,2,0:0:0:0:
320,192,290068,1,8,0:0:0:0:
192,192,290208,1,2,0:0:0:0:
448,192,290208,1,8,0:0:0:0:
64,192,290279,1,8,0:0:0:0:
320,192,290279,1,2,0:0:0:0:
448,192,290349,128,0,290629:0:0:0:0:
320,192,290489,128,0,290629:0:0:0:0:
64,192,290629,128,0,290909:0:0:0:0:
192,192,290629,1,4,0:0:0:0:
320,192,290909,1,8,0:0:0:0:
448,192,290909,1,2,0:0:0:0:
192,192,290909,1,4,0:0:0:0:
64,192,291050,1,2,0:0:0:0:
320,192,291190,1,8,0:0:0:0:
448,192,291190,1,4,0:0:0:0:
192,192,291190,1,2,0:0:0:0:
192,192,291330,1,0,0:0:0:0:
320,192,291330,1,2,0:0:0:0:
448,192,291400,1,2,0:0:0:0:
64,192,291470,1,2,0:0:0:0:
192,192,291540,1,2,0:0:0:0:
448,192,291610,1,2,0:0:0:0:
320,192,291610,1,8,0:0:0:0:
320,192,291751,1,2,0:0:0:0:
448,192,291751,1,4,0:0:0:0:
64,192,291751,1,8,0:0:0:0:
192,192,291891,1,2,0:0:0:0:
448,192,291961,1,2,0:0:0:0:
320,192,292031,1,2,0:0:0:0:
64,192,292031,1,8,0:0:0:0:
192,192,292171,1,2,0:0:0:0:
448,192,292171,1,8,0:0:0:0:
192,192,292311,1,2,0:0:0:0:
448,192,292311,1,8,0:0:0:0:
64,192,292311,1,4,0:0:0:0:
320,192,292451,1,2,0:0:0:0:
448,192,292522,1,2,0:0:0:0:
64,192,292592,1,2,0:0:0:0:
192,192,292592,1,0,0:0:0:0:
320,192,292662,1,2,0:0:0:0:
64,192,292732,1,2,0:0:0:0:
448,192,292732,1,8,0:0:0:0:
192,192,292802,1,2,0:0:0:0:
64,192,292872,1,4,0:0:0:0:
320,192,292872,1,2,0:0:0:0:
448,192,292872,1,8,0:0:0:0:
192,192,293012,1,8,0:0:0:0:
320,192,293047,1,8,0:0:0:0:
448,192,293082,1,8,0:0:0:0:
64,192,293117,1,8,0:0:0:0:
320,192,293152,1,2,0:0:0:0:
192,192,293152,1,8,0:0:0:0:
448,192,293293,1,2,0:0:0:0:
64,192,293433,1,2,0:0:0:0:
192,192,293433,1,8,0:0:0:0:
448,192,293433,1,4,0:0:0:0:
64,192,293573,1,2,0:0:0:0:
448,192,293573,1,0,0:0:0:0:
320,192,293643,1,2,0:0:0:0:
192,192,293713,1,2,0:0:0:0:
64,192,293783,1,2,0:0:0:0:
448,192,293853,1,8,0:0:0:0:
320,192,293853,1,2,0:0:0:0:
64,192,293994,1,4,0:0:0:0:
320,192,293994,1,2,0:0:0:0:
448,192,293994,1,8,0:0:0:0:
192,192,294134,1,2,0:0:0:0:
448,192,294204,1,2,0:0:0:0:
320,192,294274,1,2,0:0:0:0:
64,192,294274,1,8,0:0:0:0:
448,192,294414,1,8,0:0:0:0:
320,192,294449,1,8,0:0:0:0:
192,192,294484,1,8,0:0:0:0:
64,192,294519,1,8,0:0:0:0:
448,192,294554,1,2,0:0:0:0:
320,192,294554,1,8,0:0:0:0:
448,192,294694,1,2,0:0:0:0:
64,192,294694,1,8,0:0:0:0:
192,192,294765,1,2,0:0:0:0:
320,192,294835,1,2,0:0:0:0:
64,192,294975,1,2,0:0:0:0:
448,192,294975,1,8,0:0:0:0:
320,192,295115,128,0,295395:0:0:0:0:
192,192,295395,1,8,0:0:0:0:
64,192,295395,1,2,0:0:0:0:
320,192,295536,1,2,0:0:0:0:
64,192,295676,1,8,0:0:0:0:
192,192,295676,1,2,0:0:0:0:
448,192,295676,1,4,0:0:0:0:
64,192,295816,1,2,0:0:0:0:
320,192,295816,1,0,0:0:0:0:
448,192,295886,1,2,0:0:0:0:
64,192,295956,1,2,0:0:0:0:
192,192,296026,1,2,0:0:0:0:
320,192,296096,1,2,0:0:0:0:
448,192,296096,1,8,0:0:0:0:
64,192,296237,1,4,0:0:0:0:
192,192,296237,1,2,0:0:0:0:
448,192,296237,1,8,0:0:0:0:
64,192,296377,1,2,0:0:0:0:
320,192,296447,1,2,0:0:0:0:
192,192,296517,1,2,0:0:0:0:
448,192,296517,1,8,0:0:0:0:
64,192,296657,1,2,0:0:0:0:
192,192,296680,1,2,0:0:0:0:
320,192,296704,1,2,0:0:0:0:
448,192,296727,1,2,0:0:0:0:
192,192,296797,1,2,0:0:0:0:
64,192,296797,1,8,0:0:0:0:
320,192,296821,1,2,0:0:0:0:
448,192,296844,1,2,0:0:0:0:
64,192,296867,1,2,0:0:0:0:
320,192,296937,1,2,0:0:0:0:
192,192,296961,1,2,0:0:0:0:
64,192,296984,1,2,0:0:0:0:
448,192,297008,1,2,0:0:0:0:
320,192,297078,1,2,0:0:0:0:
192,192,297078,1,0,0:0:0:0:
448,192,297218,1,8,0:0:0:0:
64,192,297218,1,2,0:0:0:0:
192,192,297358,128,0,297638:0:0:0:0:
320,192,297358,128,0,297638:0:0:0:0:
64,192,297638,1,2,0:0:0:0:
448,192,297638,1,8,0:0:0:0:
320,192,297779,1,2,0:0:0:0:
448,192,297919,1,8,0:0:0:0:
320,192,297919,1,2,0:0:0:0:
192,192,297919,1,4,0:0:0:0:
448,192,298059,1,0,0:0:0:0:
192,192,298059,1,2,0:0:0:0:
64,192,298129,1,2,0:0:0:0:
448,192,298199,1,2,0:0:0:0:
320,192,298269,1,2,0:0:0:0:
192,192,298339,1,2,0:0:0:0:
64,192,298339,1,8,0:0:0:0:
320,192,298480,1,2,0:0:0:0:
448,192,298480,1,4,0:0:0:0:
64,192,298480,1,8,0:0:0:0:
192,192,298620,1,2,0:0:0:0:
448,192,298690,1,2,0:0:0:0:
64,192,298760,1,2,0:0:0:0:
320,192,298760,128,0,298900:0:0:0:0:
448,192,298900,1,0,0:0:0:0:
192,192,298900,128,0,299040:0:0:0:0:
320,192,299040,1,0,0:0:0:0:
64,192,299110,1,0,0:0:0:0:
320,192,299180,1,0,0:0:0:0:
64,192,299251,1,0,0:0:0:0:
448,192,299321,128,0,299881:0:0:0:0:
192,192,299321,128,0,299461:0:0:0:0:
64,192,299461,128,0,299601:0:0:0:0:
320,192,299601,128,0,299881:0:0:0:0:
64,192,299881,1,4,0:0:0:0:
192,192,299881,1,2,0:0:0:0:
320,192,299951,1,4,0:0:0:0:
448,192,299951,1,2,0:0:0:0:
64,192,300022,1,4,0:0:0:0:
192,192,300022,1,2,0:0:0:0:
320,192,300092,1,4,0:0:0:0:
448,192,300092,1,2,0:0:0:0:
192,192,300162,1,2,0:0:0:0:
448,192,300162,1,8,0:0:0:0:
64,192,300162,1,4,0:0:0:0:
64,192,300302,1,4,0:0:0:0:
192,192,300302,1,2,0:0:0:0:
320,192,300302,1,8,0:0:0:0:
448,192,300442,1,2,0:0:0:0:
192,192,300582,1,2,0:0:0:0:
64,192,300582,1,8,0:0:0:0:
320,192,300723,1,2,0:0:0:0:
448,192,300723,1,4,0:0:0:0:
64,192,300723,1,8,0:0:0:0:
320,192,300863,1,2,0:0:0:0:
64,192,300933,1,2,0:0:0:0:
192,192,301003,1,2,0:0:0:0:
448,192,301003,1,8,0:0:0:0:
320,192,301143,1,2,0:0:0:0:
64,192,301143,1,0,0:0:0:0:
64,192,301283,1,4,0:0:0:0:
320,192,301283,1,2,0:0:0:0:
448,192,301283,1,8,0:0:0:0:
192,192,301423,1,2,0:0:0:0:
320,192,301494,1,2,0:0:0:0:
64,192,301564,1,0,0:0:0:0:
448,192,301564,1,2,0:0:0:0:
320,192,301634,1,0,0:0:0:0:
192,192,301634,1,0,0:0:0:0:
64,192,301704,1,0,0:0:0:0:
448,192,301704,1,0,0:0:0:0:
192,192,301774,1,0,0:0:0:0:
320,192,301774,1,0,0:0:0:0:
64,192,301844,128,0,302124:0:0:0:0:
448,192,301844,1,0,0:0:0:0:
320,192,302124,1,2,0:0:0:0:
448,192,302124,1,8,0:0:0:0:
192,192,302265,1,2,0:0:0:0:
64,192,302405,1,4,0:0:0:0:
320,192,302405,1,2,0:0:0:0:
448,192,302405,1,8,0:0:0:0:
64,192,302545,1,0,0:0:0:0:
320,192,302545,1,2,0:0:0:0:
448,192,302615,1,2,0:0:0:0:
64,192,302685,1,2,0:0:0:0:
192,192,302755,1,2,0:0:0:0:
320,192,302825,1,2,0:0:0:0:
448,192,302825,1,8,0:0:0:0:
64,192,302966,1,4,0:0:0:0:
192,192,302966,1,2,0:0:0:0:
448,192,302966,1,8,0:0:0:0:
320,192,303106,1,2,0:0:0:0:
64,192,303176,1,2,0:0:0:0:
448,192,303246,1,8,0:0:0:0:
192,192,303246,1,2,0:0:0:0:
320,192,303386,1,8,0:0:0:0:
64,192,303386,1,0,0:0:0:0:
192,192,303456,1,0,0:0:0:0:
320,192,303526,1,8,0:0:0:0:
448,192,303526,1,0,0:0:0:0:
192,192,303596,1,0,0:0:0:0:
320,192,303666,1,8,0:0:0:0:
64,192,303666,1,0,0:0:0:0:
192,192,303737,1,0,0:0:0:0:
448,192,303807,1,2,0:0:0:0:
64,192,303807,1,8,0:0:0:0:
320,192,303947,1,2,0:0:0:0:
192,192,303947,1,8,0:0:0:0:
448,192,304087,1,2,0:0:0:0:
64,192,304087,128,4,304367:0:0:0:0:
192,192,304087,128,8,304367:0:0:0:0:
320,192,304367,1,4,0:0:0:0:
448,192,304367,1,2,0:0:0:0:
192,192,304437,1,4,0:0:0:0:
64,192,304437,1,2,0:0:0:0:
448,192,304508,1,2,0:0:0:0:
320,192,304508,1,4,0:0:0:0:
192,192,304578,1,4,0:0:0:0:
64,192,304578,1,2,0:0:0:0:
64,192,304648,1,2,0:0:0:0:
320,192,304648,1,4,0:0:0:0:
448,192,304648,1,8,0:0:0:0:
192,192,304788,1,4,0:0:0:0:
64,192,304788,1,2,0:0:0:0:
448,192,304788,1,8,0:0:0:0:
320,192,304928,1,2,0:0:0:0:
192,192,304998,1,2,0:0:0:0:
64,192,305068,1,2,0:0:0:0:
448,192,305068,1,8,0:0:0:0:
64,192,305208,1,4,0:0:0:0:
320,192,305208,1,2,0:0:0:0:
448,192,305208,1,8,0:0:0:0:
192,192,305349,1,2,0:0:0:0:
64,192,305419,1,2,0:0:0:0:
448,192,305489,1,8,0:0:0:0:
320,192,305489,1,2,0:0:0:0:
192,192,305629,1,2,0:0:0:0:
64,192,305629,1,0,0:0:0:0:
192,192,305769,1,2,0:0:0:0:
320,192,305769,1,8,0:0:0:0:
64,192,305769,1,4,0:0:0:0:
448,192,305909,1,2,0:0:0:0:
320,192,305980,1,2,0:0:0:0:
64,192,306050,1,0,0:0:0:0:
192,192,306050,1,2,0:0:0:0:
320,192,306120,1,2,0:0:0:0:
448,192,306190,1,2,0:0:0:0:
192,192,306190,1,8,0:0:0:0:
64,192,306260,1,2,0:0:0:0:
448,192,306330,1,0,0:0:0:0:
320,192,306330,1,4,0:0:0:0:
192,192,306365,1,4,0:0:0:0:
64,192,306400,1,4,0:0:0:0:
448,192,306435,1,4,0:0:0:0:
320,192,306470,1,4,0:0:0:0:
192,192,306505,1,4,0:0:0:0:
64,192,306540,1,4,0:0:0:0:
448,192,306575,1,4,0:0:0:0:
64,192,306610,1,8,0:0:0:0:
320,192,306610,1,4,0:0:0:0:
192,192,306610,1,2,0:0:0:0:
320,192,306751,1,2,0:0:0:0:
192,192,306821,1,2,0:0:0:0:
320,192,306891,1,2,0:0:0:0:
448,192,306891,1,8,0:0:0:0:
64,192,306891,1,4,0:0:0:0:
192,192,307031,1,2,0:0:0:0:
320,192,307101,1,2,0:0:0:0:
448,192,307171,1,8,0:0:0:0:
64,192,307171,1,2,0:0:0:0:
192,192,307241,1,2,0:0:0:0:
320,192,307311,1,2,0:0:0:0:
192,192,307381,1,2,0:0:0:0:
448,192,307451,1,8,0:0:0:0:
64,192,307487,1,8,0:0:0:0:
320,192,307522,1,8,0:0:0:0:
192,192,307557,1,8,0:0:0:0:
448,192,307592,1,8,0:0:0:0:
64,192,307627,1,8,0:0:0:0:
320,192,307662,1,8,0:0:0:0:
192,192,307697,1,8,0:0:0:0:
448,192,307732,128,0,308853:0:0:0:0:
64,192,307732,1,8,0:0:0:0:
320,192,307872,128,0,308012:0:0:0:0:
192,192,308012,128,0,308152:0:0:0:0:
64,192,308152,128,0,308293:0:0:0:0:
320,192,308293,128,0,308433:0:0:0:0:
64,192,308433,128,0,308573:0:0:0:0:
192,192,308573,128,0,308713:0:0:0:0:
320,192,308713,128,0,308853:0:0:0:0:
64,192,309195,5,2,0:0:0:0:
448,192,309195,1,8,0:0:0:0:
320,192,309195,128,4,309766:0:0:0:0:
448,192,309766,1,8,0:0:0:0:
64,192,309766,1,2,0:0:0:0:
192,192,309766,128,4,310605:0:0:0:0:
448,192,310605,1,8,0:0:0:0:
64,192,310605,128,4,314414:0:0:0:0:
320,192,310605,1,2,0:0:0:0:
448,192,312509,128,0,314414:0:0:0:0:
