osu file format v14

[General]
AudioFilename: audio.mp3
AudioLeadIn: 0
PreviewTime: 686
Countdown: 0
SampleSet: Soft
StackLeniency: 0.2
Mode: 0
LetterboxInBreaks: 0
WidescreenStoryboard: 1

[Editor]
Bookmarks: 16295,47515,86539,102149,133368,154832
DistanceSpacing: 1.6
BeatDivisor: 4
GridSize: 32
TimelineZoom: 1

[Metadata]
Title:Carnivorous Plant
TitleUnicode:食虫植物
Artist:RIM
ArtistUnicode:理芽
Creator:Mocaotic
Version:hard
Source:
Tags:笹川真生 Sasagawa Mao NEW ROMANCER single album 南石聡巳 duskline recording kamitsubaki studio 神椿スタジオ thinkr vtuber virtual youtuber japanese jpop pop j-pop
BeatmapID:4072848
BeatmapSetID:1955591

[Difficulty]
HPDrainRate:4
CircleSize:4
OverallDifficulty:4
ApproachRate:4
SliderMultiplier:1.4
SliderTickRate:1

[Events]
//Background and Video events
0,0,"rim.jpg",0,0
//Break Periods
//Storyboard Layer 0 (Background)
//Storyboard Layer 1 (Fail)
//Storyboard Layer 2 (Pass)
//Storyboard Layer 3 (Foreground)
//Storyboard Layer 4 (Overlay)
//Storyboard Sound Samples

[TimingPoints]
686,487.80487804878,4,2,2,25,1,0
686,-200,4,2,2,25,0,0
3856,-212.765957446809,4,2,2,25,0,0
4588,-200,4,2,2,25,0,0
7759,-95.2380952380952,4,2,2,40,0,0
7881,-95.2380952380952,4,2,2,5,0,0
8003,-95.2380952380952,4,2,2,40,0,0
8125,-95.2380952380952,4,2,2,5,0,0
8490,-153.846153846153,4,2,2,40,0,0
23368,-95.2380952380952,4,2,2,40,0,0
23490,-95.2380952380952,4,2,2,5,0,0
23612,-95.2380952380952,4,2,2,40,0,0
23734,-95.2380952380952,4,2,2,5,0,0
24100,-153.846153846153,4,2,2,40,0,0
31173,-95.2380952380952,4,2,2,40,0,0
31295,-95.2380952380952,4,2,2,5,0,0
31417,-95.2380952380952,4,2,2,40,0,0
31539,-95.2380952380952,4,2,2,5,0,0
31905,-153.846153846153,4,2,2,40,0,0
38978,-95.2380952380952,4,2,2,40,0,0
39100,-95.2380952380952,4,2,2,5,0,0
39222,-95.2380952380952,4,2,2,40,0,0
39344,-95.2380952380952,4,2,2,5,0,0
39710,-153.846153846153,4,2,2,40,0,0
47515,-111.111111111111,4,2,2,60,0,0
50685,-95.2380952380952,4,2,2,60,0,0
50807,-95.2380952380952,4,2,2,5,0,0
50929,-95.2380952380952,4,2,2,60,0,0
51051,-95.2380952380952,4,2,2,5,0,0
51417,-111.111111111111,4,2,2,60,0,0
54588,-95.2380952380952,4,2,2,60,0,0
54710,-95.2380952380952,4,2,2,5,0,0
54832,-95.2380952380952,4,2,2,60,0,0
54954,-95.2380952380952,4,2,2,5,0,0
55320,-111.111111111111,4,2,2,60,0,0
58490,-95.2380952380952,4,2,2,60,0,0
58612,-95.2380952380952,4,2,2,5,0,0
58734,-95.2380952380952,4,2,2,60,0,0
58856,-95.2380952380952,4,2,2,5,0,0
59222,-111.111111111111,4,2,2,60,0,0
62393,-95.2380952380952,4,2,2,60,0,0
62515,-95.2380952380952,4,2,2,5,0,0
62637,-95.2380952380952,4,2,2,60,0,0
62759,-95.2380952380952,4,2,2,5,0,0
63125,-111.111111111111,4,2,2,40,0,0
63246,-111.111111111111,4,2,2,20,0,0
67027,-95.2380952380952,4,2,2,40,0,0
70929,-153.846153846153,4,2,2,40,0,0
78734,-153.846153846153,4,2,2,50,0,0
85807,-95.2380952380952,4,2,2,50,0,0
85929,-95.2380952380952,4,2,2,5,0,0
86051,-95.2380952380952,4,2,2,50,0,0
86173,-95.2380952380952,4,2,2,5,0,0
86539,-153.846153846154,4,2,2,40,0,0
93612,-95.2380952380952,4,2,2,40,0,0
93734,-95.2380952380952,4,2,2,5,0,0
93856,-95.2380952380952,4,2,2,40,0,0
93978,-95.2380952380952,4,2,2,5,0,0
94344,-153.846153846154,4,2,2,40,0,0
101417,-95.2380952380952,4,2,2,40,0,0
101539,-95.2380952380952,4,2,2,5,0,0
101661,-95.2380952380952,4,2,2,40,0,0
102149,-111.111111111111,4,2,2,60,0,0
105320,-95.2380952380952,4,2,2,60,0,0
105442,-95.2380952380952,4,2,2,5,0,0
105564,-95.2380952380952,4,2,2,60,0,0
105685,-95.2380952380952,4,2,2,5,0,0
106051,-111.111111111111,4,2,2,60,0,0
109222,-95.2380952380952,4,2,2,60,0,0
109344,-95.2380952380952,4,2,2,5,0,0
109466,-95.2380952380952,4,2,2,60,0,0
109588,-95.2380952380952,4,2,2,5,0,0
109954,-111.111111111111,4,2,2,60,0,0
113125,-95.2380952380952,4,2,2,60,0,0
113246,-95.2380952380952,4,2,2,5,0,0
113368,-95.2380952380952,4,2,2,60,0,0
113490,-95.2380952380952,4,2,2,5,0,0
113856,-111.111111111111,4,2,2,60,0,0
117027,-95.2380952380952,4,2,2,60,0,0
117149,-95.2380952380952,4,2,2,5,0,0
117271,-95.2380952380952,4,2,2,60,0,0
117393,-95.2380952380952,4,2,2,5,0,0
117759,-100,4,2,2,68,0,1
132881,-111.111111111111,4,2,2,68,0,1
133368,-111.111111111111,4,2,2,60,0,0
136539,-95.2380952380952,4,2,2,60,0,0
136661,-95.2380952380952,4,2,2,5,0,0
136783,-95.2380952380952,4,2,2,60,0,0
136905,-95.2380952380952,4,2,2,5,0,0
137271,-111.111111111111,4,2,2,60,0,0
140442,-95.2380952380952,4,2,2,60,0,0
140564,-95.2380952380952,4,2,2,5,0,0
140685,-95.2380952380952,4,2,2,60,0,0
140807,-95.2380952380952,4,2,2,5,0,0
141173,-111.111111111111,4,2,2,60,0,0
144344,-95.2380952380952,4,2,2,60,0,0
144466,-95.2380952380952,4,2,2,5,0,0
144588,-95.2380952380952,4,2,2,60,0,0
144710,-95.2380952380952,4,2,2,5,0,0
145076,-111.111111111111,4,2,2,60,0,0
148246,-95.2380952380952,4,2,2,60,0,0
148368,-95.2380952380952,4,2,2,5,0,0
148490,-95.2380952380952,4,2,2,60,0,0
148612,-95.2380952380952,4,2,2,5,0,0
148978,-111.111111111111,4,2,2,25,0,0

[Colours]
Combo1 : 170,251,255
Combo2 : 255,170,170
Combo3 : 170,189,255
Combo4 : 230,170,255

[HitObjects]
501,366,686,6,0,L|419:379,1,70,2|0,0:0|0:0,0:0:0:0:
431,376,1905,2,0,B|421:366|421:366|435:303,1,70,2|0,0:0|0:0,0:0:0:0:
451,241,2637,2,0,L|497:234,1,35,2|0,0:0|0:0,0:0:0:0:
485,235,3856,2,0,B|495:245|495:245|483:307,1,65.7999989959717,2|0,0:0|0:0,0:0:0:0:
501,366,4588,2,0,L|419:379,1,70,2|0,0:0|0:0,0:0:0:0:
431,376,5807,2,0,B|421:366|421:366|435:303,1,70,2|0,0:0|0:0,0:0:0:0:
451,241,6539,2,0,L|497:234,1,35,2|0,0:0|0:0,0:0:0:0:
236,181,7759,6,0,L|287:197,1,36.749998878479,8|0,0:1|0:0,0:0:0:0:
276,199,8003,2,0,L|225:183,1,36.749998878479,8|0,0:1|0:0,0:0:0:0:
246,384,8490,6,0,P|258:352|279:325,1,68.2499968757631,6|0,3:2|0:0,0:0:0:0:
258,330,8978,2,0,P|245:298|224:271,1,68.2499968757631,8|0,0:0|0:0,0:0:0:0:
248,279,9466,2,0,P|260:247|281:220,1,68.2499968757631
288,210,9954,1,8,0:0:0:0:
239,155,10198,1,0,0:0:0:0:
172,184,10442,2,0,P|144:174|118:163,2,45.4999979171754,2|0|8,3:2|3:0|0:0,0:0:0:0:
199,252,11173,2,0,P|227:262|253:273,2,45.4999979171754,0|0|0,0:0|0:0|3:0,0:0:0:0:
134,286,11905,1,8,0:0:0:0:
260,160,12393,6,0,B|252:123|252:123|260:110|260:110|250:62,1,90.9999958343508,10|8,3:0|3:0,0:0:0:0:
259,72,13612,2,0,B|266:109|266:109|258:122|258:122|266:159,1,90.9999958343508,0|0,3:0|0:0,0:0:0:0:
228,222,14344,2,0,P|261:237|284:251,1,45.4999979171754,2|0,3:2|3:0,0:0:0:0:
329,281,14832,1,8,0:0:0:0:
329,281,15564,1,0,3:0:0:0:
269,241,15807,1,8,0:0:0:0:
357,351,16295,6,0,P|401:353|436:325,1,90.9999958343508,6|8,3:2|0:0,0:0:0:0:
436,324,17515,1,0,3:0:0:0:
372,277,17759,2,0,P|352:302|350:339,1,68.2499968757631,8|0,0:0|0:0,0:0:0:0:
357,351,18246,2,0,P|401:353|436:325,1,90.9999958343508,2|8,3:2|0:0,0:0:0:0:
436,324,19466,1,0,3:0:0:0:
372,277,19710,2,0,P|352:302|350:339,1,68.2499968757631,8|0,0:0|0:0,0:0:0:0:
342,351,20198,2,0,B|299:362|299:362|294:369|294:369|246:381,1,90.9999958343508,10|8,3:0|3:0,0:0:0:0:
257,378,21417,1,0,3:0:0:0:
181,384,21661,2,0,P|152:366|141:328,1,68.2499968757631,8|0,0:0|0:0,0:0:0:0:
132,319,22149,2,0,P|100:286|56:286,1,90.9999958343508,2|8,3:2|0:0,0:0:0:0:
236,181,23368,6,0,L|287:197,1,36.749998878479,8|0,3:1|0:0,0:0:0:0:
276,199,23612,2,0,L|225:183,1,36.749998878479,8|0,0:1|0:0,0:0:0:0:
354,102,24100,6,0,P|394:100|443:140,1,90.9999958343508,6|8,3:2|0:0,0:0:0:0:
435,127,25320,1,0,3:0:0:0:
376,171,25564,2,0,P|348:137|345:108,1,68.2499968757631,8|0,0:0|0:0,0:0:0:0:
354,102,26051,2,0,P|394:100|443:140,1,90.9999958343508,2|8,3:2|0:0,0:0:0:0:
435,127,27271,1,0,3:0:0:0:
376,171,27515,2,0,P|348:137|345:108,1,68.2499968757631,8|0,0:0|0:0,0:0:0:0:
354,102,28003,2,0,P|361:72|369:45,1,45.4999979171754,10|0,3:0|3:0,0:0:0:0:
313,0,28490,1,8,3:0:0:0:
313,0,29222,1,0,3:0:0:0:
364,57,29466,2,0,P|355:101|344:156,1,90.9999958343508,8|2,0:0|3:2,0:0:0:0:
400,194,30198,1,0,3:0:0:0:
390,265,30442,1,8,0:0:0:0:
324,297,30685,1,0,3:0:0:0:
236,181,31173,6,0,L|287:197,1,36.749998878479,8|0,3:1|0:0,0:0:0:0:
276,199,31417,2,0,L|225:183,1,36.749998878479,8|0,0:1|0:0,0:0:0:0:
153,82,31905,6,0,B|101:82|116:108|61:113,1,90.9999958343508,6|8,3:2|0:0,0:0:0:0:
68,112,33125,1,0,3:0:0:0:
6,69,33368,2,0,P|50:85|63:103,1,68.2499968757631,8|0,0:0|0:0,0:0:0:0:
68,112,33856,2,0,B|116:108|101:82|153:82,1,90.9999958343508,2|8,3:2|0:0,0:0:0:0:
151,82,35076,1,0,3:0:0:0:
201,136,35320,2,0,P|190:173|186:213,1,68.2499968757631,8|0,0:0|0:0,0:0:0:0:
192,215,35807,2,0,B|211:231|220:209|247:238,2,45.4999979171754,10|0|8,3:0|3:0|3:0,0:0:0:0:
192,215,37027,1,0,3:0:0:0:
132,257,37271,2,0,P|85:238|38:230,1,90.9999958343508,8|2,0:0|3:2,0:0:0:0:
83,115,38246,2,0,P|130:134|177:142,1,90.9999958343508,8|0,0:0|0:0,0:0:0:0:
236,181,38978,6,0,L|287:197,1,36.749998878479,8|0,3:1|0:0,0:0:0:0:
276,199,39222,2,0,L|225:183,1,36.749998878479,8|0,0:1|0:0,0:0:0:0:
332,262,39710,6,0,P|377:234|421:247,1,90.9999958343508,6|8,3:2|0:0,0:0:0:0:
411,241,40929,1,0,3:0:0:0:
474,276,41173,2,0,P|461:300|452:339,1,68.2499968757631,8|0,0:0|0:0,0:0:0:0:
443,350,41661,2,0,P|398:378|354:365,1,90.9999958343508,2|8,3:2|0:0,0:0:0:0:
363,370,42881,1,0,3:0:0:0:
295,345,43125,2,0,P|287:318|250:256,1,90.9999958343508,8|10,0:0|3:0,0:0:0:0:
187,243,43856,2,0,B|190:217|190:217|225:201,1,45.4999979171754,0|8,3:0|3:0,0:0:0:0:
207,208,44832,1,0,3:0:0:0:
279,194,45076,2,0,P|311:206|362:222,1,68.2499968757631,8|0,0:0|0:0,0:0:0:0:
355,227,45564,5,2,3:2:0:0:
421,200,45807,1,0,3:0:0:0:
411,129,46051,1,8,0:0:0:0:
340,109,46295,1,2,0:0:0:0:
355,227,46783,1,0,3:0:0:0:
421,200,47027,2,0,P|447:212|463:241,1,45.4999979171754,8|0,0:0|0:0,0:0:0:0:
408,282,47515,6,0,B|433:307|435:337|435:337|451:305|490:297,1,125.999996154785,6|8,3:2|0:0,0:0:0:0:
293,351,48490,2,0,P|323:342|354:336,1,62.9999980773926,2|0,0:0|3:0,0:0:0:0:
354,335,48978,1,8,0:0:0:0:
335,263,49222,1,0,0:0:0:0:
408,282,49466,2,0,B|433:307|435:337|435:337|451:305|490:297,1,125.999996154785,2|8,3:2|0:0,0:0:0:0:
458,226,50198,1,2,0:0:0:0:
236,181,50685,6,0,L|287:197,1,36.749998878479,8|0,3:1|0:0,0:0:0:0:
276,199,50929,2,0,L|225:183,1,36.749998878479,8|0,0:1|0:0,0:0:0:0:
408,282,51417,6,0,B|433:307|435:337|435:337|451:305|490:297,1,125.999996154785,10|8,3:0|3:0,0:0:0:0:
482,298,52637,1,0,3:0:0:0:
458,226,52881,1,8,0:0:0:0:
408,282,53125,2,0,P|357:295|333:303,1,62.9999980773926,0|2,0:0|3:2,0:0:0:0:
346,298,53612,1,0,3:0:0:0:
276,298,53856,1,8,0:0:0:0:
249,367,54100,1,8,0:0:0:0:
236,181,54588,6,0,L|287:197,1,36.749998878479,8|0,3:1|0:0,0:0:0:0:
276,199,54832,2,0,L|225:183,1,36.749998878479,8|0,0:1|0:0,0:0:0:0:
179,82,55320,6,0,B|103:86|135:128|55:137,1,125.999996154785,6|8,3:2|0:0,0:0:0:0:
24,1,56295,2,0,P|47:53|53:74,1,62.9999980773926,2|0,0:0|3:0,0:0:0:0:
49,58,56783,1,8,0:0:0:0:
121,37,57027,1,0,0:0:0:0:
179,82,57271,2,0,B|103:86|135:128|55:137,1,125.999996154785,2|8,3:2|0:0,0:0:0:0:
12,184,58003,1,2,0:0:0:0:
236,181,58490,6,0,L|287:197,1,36.749998878479,8|0,3:1|0:0,0:0:0:0:
276,199,58734,2,0,L|225:183,1,36.749998878479,8|0,0:1|0:0,0:0:0:0:
179,82,59222,6,0,B|103:86|135:128|55:137,1,125.999996154785,10|8,3:0|3:0,0:0:0:0:
68,134,60442,1,0,3:0:0:0:
7,92,60685,2,0,P|9:60|47:27,1,62.9999980773926,8|0,0:0|0:0,0:0:0:0:
91,0,61173,1,2,3:2:0:0:
150,41,61417,1,0,3:0:0:0:
137,112,61661,1,8,0:0:0:0:
68,134,61905,1,8,0:0:0:0:
236,181,62393,6,0,L|287:197,1,36.749998878479,8|0,3:1|0:0,0:0:0:0:
276,199,62637,2,0,L|225:183,1,36.749998878479,8|0,0:1|0:0,0:0:0:0:
256,192,63125,12,0,66539,0:0:0:0:
256,192,67027,5,2,3:2:0:0:
256,192,67515,1,2,3:2:0:0:
256,192,68003,1,2,0:0:0:0:
256,192,68490,1,10,0:0:0:0:
256,192,68978,1,2,3:2:0:0:
256,192,69466,1,10,0:0:0:0:
256,192,69954,1,2,0:0:0:0:
256,192,70441,1,10,0:0:0:0:
338,69,70929,6,0,P|375:93|421:91,1,90.9999958343508,6|8,3:2|0:0,0:0:0:0:
420,91,72149,1,0,3:0:0:0:
391,21,72393,2,0,P|358:28|335:61,1,68.2499968757631,8|0,0:0|0:0,0:0:0:0:
338,69,72881,2,0,P|375:93|421:91,1,90.9999958343508,2|8,3:2|0:0,0:0:0:0:
420,91,74100,1,0,3:0:0:0:
391,21,74344,2,0,P|358:28|335:61,1,68.2499968757631,8|0,0:0|0:0,0:0:0:0:
338,69,74832,2,0,B|349:116|349:116|345:119|345:119|358:171,1,90.9999958343508,10|8,3:0|3:0,0:0:0:0:
354,155,76051,1,0,3:0:0:0:
327,223,76295,2,0,P|305:248|272:255,1,68.2499968757631,8|0,0:0|0:0,0:0:0:0:
260,264,76783,2,0,P|222:246|164:235,1,90.9999958343508,2|8,3:2|0:0,0:0:0:0:
174,235,78003,1,0,3:0:0:0:
111,200,78246,2,0,P|82:214|68:244,1,45.4999979171754,8|0,0:0|0:0,0:0:0:0:
25,298,78734,6,0,P|76:301|107:330,1,90.9999958343508,6|8,3:2|0:0,0:0:0:0:
104,326,79954,1,0,3:0:0:0:
43,369,80198,2,0,P|23:348|17:310,1,68.2499968757631,8|0,0:0|0:0,0:0:0:0:
25,298,80685,2,0,P|76:301|107:330,1,90.9999958343508,2|8,3:2|0:0,0:0:0:0:
104,326,81905,1,0,3:0:0:0:
43,369,82149,2,0,P|23:348|17:310,1,68.2499968757631,8|0,0:0|0:0,0:0:0:0:
25,298,82637,2,0,P|19:267|15:244,1,45.4999979171754,10|0,3:0|3:0,0:0:0:0:
73,202,83125,1,8,3:0:0:0:
73,202,83856,1,0,3:0:0:0:
16,253,84100,2,0,P|21:275|30:349,1,90.9999958343508,8|2,0:0|3:2,0:0:0:0:
90,384,84832,1,0,3:0:0:0:
163,378,85076,1,8,0:0:0:0:
211,323,85320,1,0,3:0:0:0:
236,181,85807,6,0,L|287:197,1,36.749998878479,8|0,3:1|0:0,0:0:0:0:
276,199,86051,2,0,L|225:183,1,36.749998878479,8|0,0:1|0:0,0:0:0:0:
340,292,86539,6,0,B|379:268|394:304|438:271,1,90.9999958343508,6|8,3:2|0:0,0:0:0:0:
427,277,87759,1,0,3:0:0:0:
486,235,88003,2,0,P|449:243|427:269,1,68.2499968757631,8|0,0:0|0:0,0:0:0:0:
427,277,88490,2,0,B|394:304|379:268|340:292,1,90.9999958343508,2|8,3:0|0:0,0:0:0:0:
296,346,89222,1,2,0:0:0:0:
296,346,89466,2,0,P|268:335|237:333,1,45.4999979171754,2|0,0:0|3:0,0:0:0:0:
191,369,89954,2,0,P|163:358|132:356,1,45.4999979171754,10|0,0:0|0:0,0:0:0:0:
77,332,90442,2,0,B|76:362|63:352|64:391,2,45.4999979171754,10|0|8,3:0|3:0|3:0,0:0:0:0:
77,332,91661,1,0,3:0:0:0:
14,290,91905,2,0,P|28:249|36:197,1,90.9999958343508,8|2,0:0|3:2,0:0:0:0:
152,321,92881,2,0,P|159:276|173:233,1,90.9999958343508,8|0,0:0|0:0,0:0:0:0:
236,181,93612,6,0,L|287:197,1,36.749998878479,8|0,3:1|0:0,0:0:0:0:
276,199,93856,2,0,L|225:183,1,36.749998878479,8|0,0:1|0:0,0:0:0:0:
169,89,94344,6,0,P|144:109|74:106,1,90.9999958343508,6|8,3:2|0:0,0:0:0:0:
86,112,95564,1,0,3:0:0:0:
19,139,95807,2,0,P|11:109|-4:65,1,68.2499968757631,8|0,0:0|0:0,0:0:0:0:
5,59,96295,2,0,P|30:39|100:42,1,90.9999958343508,2|8,3:2|0:0,0:0:0:0:
88,36,97515,1,0,3:0:0:0:
147,78,97759,2,0,P|130:120|117:164,1,90.9999958343508,8|10,0:0|3:0,0:0:0:0:
118,235,98490,2,0,B|143:237|143:237|173:209,1,45.4999979171754,0|8,3:0|3:0,0:0:0:0:
157,223,99466,1,0,3:0:0:0:
117,164,99710,2,0,P|87:172|25:196,1,90.9999958343508,8|2,0:0|3:2,0:0:0:0:
0,258,100442,1,0,3:0:0:0:
58,303,100685,1,8,0:0:0:0:
122,269,100929,1,2,0:0:0:0:
236,181,101417,6,0,L|287:197,1,36.749998878479,8|0,3:1|0:0,0:0:0:0:
316,182,101661,1,8,0:0:0:0:
316,182,101783,1,8,0:0:0:0:
316,182,101905,2,0,P|323:152|331:131,1,36.749998878479,8|8,0:0|0:0,0:0:0:0:
354,111,102149,6,0,B|379:91|380:57|380:57|398:85|441:98,1,125.999996154785,6|8,3:2|0:0,0:0:0:0:
236,66,103125,2,0,P|266:60|297:53,1,62.9999980773926,2|0,0:0|3:0,0:0:0:0:
296,52,103612,1,8,0:0:0:0:
284,132,103856,1,0,0:0:0:0:
354,111,104100,2,0,B|379:93|380:57|380:57|398:85|437:99,1,125.999996154785,2|8,3:2|0:0,0:0:0:0:
408,169,104832,1,2,0:0:0:0:
236,181,105320,6,0,L|287:197,1,36.749998878479,8|0,3:1|0:0,0:0:0:0:
276,199,105564,2,0,L|225:183,1,36.749998878479,8|0,0:1|0:0,0:0:0:0:
354,111,106051,6,0,B|379:93|380:57|380:57|398:85|437:99,1,125.999996154785,10|8,3:0|3:0,0:0:0:0:
429,97,107271,1,0,3:0:0:0:
407,167,107515,1,8,0:0:0:0:
354,111,107759,2,0,P|323:103|292:97,1,62.9999980773926,0|2,0:0|3:2,0:0:0:0:
222,108,108246,1,0,3:0:0:0:
176,46,108490,1,8,0:0:0:0:
234,0,108734,1,8,0:0:0:0:
236,181,109222,6,0,L|287:197,1,36.749998878479,8|0,3:1|0:0,0:0:0:0:
276,199,109466,2,0,L|225:183,1,36.749998878479,8|0,0:1|0:0,0:0:0:0:
165,293,109954,6,0,B|95:287|120:241|39:247,1,125.999996154785,6|8,3:2|0:0,0:0:0:0:
31,381,110929,2,0,P|43:352|51:321,1,62.9999980773926,2|0,0:0|3:0,0:0:0:0:
51,321,111417,1,8,0:0:0:0:
123,359,111661,1,0,0:0:0:0:
165,293,111905,2,0,B|95:287|120:241|39:247,1,125.999996154785,2|8,3:2|0:0,0:0:0:0:
0,195,112637,1,2,0:0:0:0:
236,181,113125,6,0,L|287:197,1,36.749998878479,8|0,3:1|0:0,0:0:0:0:
276,199,113369,2,0,L|225:183,1,36.749998878479,8|0,0:1|0:0,0:0:0:0:
165,293,113856,6,0,B|95:287|120:241|39:247,1,125.999996154785,10|8,3:0|3:0,0:0:0:0:
51,246,115076,1,0,3:0:0:0:
6,308,115320,2,0,P|9:344|42:376,1,62.9999980773926,8|0,0:0|0:0,0:0:0:0:
97,384,115807,1,2,3:2:0:0:
147,329,116051,1,0,3:0:0:0:
125,258,116295,1,8,0:0:0:0:
51,246,116539,1,8,0:0:0:0:
236,181,117027,6,0,L|287:197,1,36.749998878479,8|0,3:1|0:0,0:0:0:0:
276,199,117271,2,0,L|225:183,1,36.749998878479,8|0,0:1|0:0,0:0:0:0:
364,102,117759,6,0,B|383:43|468:54|463:70|464:114|430:78,1,140,6|8,3:2|0:0,0:0:0:0:
262,30,118734,1,2,0:0:0:0:
262,30,118856,2,0,P|289:96|298:124,1,70,2|2,0:0|0:0,0:0:0:0:
277,121,119222,2,0,P|302:186|322:262,1,140,8|2,0:0|3:2,0:0:0:0:
387,293,119954,5,0,3:0:0:0:
331,349,120198,1,8,0:0:0:0:
331,349,120320,1,2,0:0:0:0:
409,383,120564,1,2,0:0:0:0:
409,383,120685,2,0,P|453:369|501:366,1,70,2|0,0:0|3:0,0:0:0:0:
503,369,121051,1,2,0:0:0:0:
458,284,121295,2,0,P|414:298|366:301,1,70,2|2,0:0|0:0,0:0:0:0:
364,298,121661,1,6,3:2:0:0:
294,339,121905,6,0,P|288:368|289:388,2,35,0|2|8,3:0|0:0|3:0,0:0:0:0:
250,273,122393,2,0,P|256:244|256:223,2,35,2|2|2,0:0|0:0|0:0,0:0:0:0:
191,327,122881,1,2,3:2:0:0:
132,371,123125,1,10,0:0:0:0:
60,358,123369,1,2,0:0:0:0:
5,307,123612,2,0,P|9:267|35:218,1,70,2|0,3:2|3:0,0:0:0:0:
60,178,124100,1,10,0:0:0:0:
133,173,124344,1,10,0:0:0:0:
254,278,124832,2,0,P|252:296|248:313,1,35,2|0,3:2|0:0,0:0:0:0:
228,338,125076,2,0,B|166:362|104:339|129:281|151:309,1,140,10|6,0:0|3:2,0:0:0:0:
71,267,125807,5,0,0:0:0:0:
135,226,126051,1,8,0:0:0:0:
135,226,126173,2,0,P|141:181|154:137,1,70,2|2,0:0|0:0,0:0:0:0:
181,161,126539,2,0,P|175:206|162:250,1,70,2|0,0:0|3:0,0:0:0:0:
245,251,127027,5,8,0:0:0:0:
245,251,127149,2,0,P|251:206|264:162,1,70,2|2,0:0|0:0,0:0:0:0:
291,186,127515,2,0,P|285:231|272:275,1,70,2|0,3:2|3:0,0:0:0:0:
355,276,128003,5,8,0:0:0:0:
355,276,128125,2,0,P|361:231|374:187,1,70,2|2,0:0|0:0,0:0:0:0:
401,211,128491,2,0,P|395:256|382:300,1,70,2|0,0:0|3:0,0:0:0:0:
466,300,128978,5,8,0:0:0:0:
466,300,129100,2,0,P|472:255|485:211,1,70,2|2,0:0|0:0,0:0:0:0:
512,235,129466,2,0,P|506:280|493:324,1,70,10|0,3:0|3:0,0:0:0:0:
466,373,129954,1,8,3:0:0:0:
466,373,130685,6,0,B|392:384|416:317|323:329,1,140,0|0,3:0|0:0,0:0:0:0:
273,361,131417,1,2,3:2:0:0:
201,342,131661,1,0,3:0:0:0:
164,273,131905,1,8,0:0:0:0:
190,203,132149,1,8,0:0:0:0:
273,361,132637,1,0,3:0:0:0:
201,342,132881,2,0,P|163:348|137:364,1,62.9999980773926,8|0,0:0|0:0,0:0:0:0:
88,306,133368,6,0,B|123:297|137:269|137:269|136:308|176:341,1,125.999996154785,6|8,3:2|0:0,0:0:0:0:
8,210,134344,2,0,P|38:218|67:230,1,62.9999980773926,2|0,0:0|3:0,0:0:0:0:
67,230,134832,1,8,0:0:0:0:
15,291,135076,1,0,0:0:0:0:
88,306,135320,2,0,B|123:297|137:269|137:269|136:308|176:341,1,125.999996154785,2|8,3:2|0:0,0:0:0:0:
107,379,136051,1,2,0:0:0:0:
236,181,136539,6,0,L|287:197,1,36.749998878479,8|0,3:1|0:0,0:0:0:0:
276,199,136783,2,0,L|225:183,1,36.749998878479,8|0,0:1|0:0,0:0:0:0:
88,306,137271,6,0,B|123:297|137:269|137:269|136:308|176:341,1,125.999996154785,2|8,3:2|0:0,0:0:0:0:
159,325,138490,1,0,3:0:0:0:
107,379,138734,1,8,0:0:0:0:
88,306,138978,2,0,P|75:267|58:232,1,62.9999980773926,0|2,0:0|3:2,0:0:0:0:
0,211,139466,1,0,3:0:0:0:
9,138,139710,1,8,0:0:0:0:
73,100,139954,1,8,0:0:0:0:
236,181,140442,6,0,L|287:197,1,36.749998878479,8|0,3:1|0:0,0:0:0:0:
276,199,140686,2,0,L|225:183,1,36.749998878479,8|0,0:1|0:0,0:0:0:0:
333,82,141173,6,0,B|409:86|377:128|457:137,1,125.999996154785,6|8,3:2|0:0,0:0:0:0:
484,4,142148,2,0,P|456:53|448:74,1,62.9999980773926,2|0,0:0|3:0,0:0:0:0:
454,58,142636,1,8,0:0:0:0:
390,18,142880,1,0,0:0:0:0:
333,82,143124,2,0,B|409:86|377:128|457:137,1,125.999996154785,2|8,3:2|0:0,0:0:0:0:
503,184,143856,1,2,0:0:0:0:
236,181,144344,6,0,L|287:197,1,36.749998878479,8|0,3:1|0:0,0:0:0:0:
276,199,144588,2,0,L|225:183,1,36.749998878479,8|0,0:1|0:0,0:0:0:0:
333,82,145076,6,0,B|409:86|377:128|457:137,1,125.999996154785,10|8,3:0|3:0,0:0:0:0:
444,134,146295,1,0,3:0:0:0:
505,92,146538,2,0,P|503:60|465:27,1,62.9999980773926,8|0,0:0|0:0,0:0:0:0:
421,0,147026,1,2,3:2:0:0:
356,39,147270,1,0,3:0:0:0:
371,112,147514,1,8,0:0:0:0:
444,134,147758,1,8,0:0:0:0:
236,181,148246,6,0,L|287:197,1,36.749998878479,8|0,3:1|0:0,0:0:0:0:
276,199,148490,2,0,L|225:183,1,36.749998878479,8|0,0:1|0:0,0:0:0:0:
256,192,148978,12,2,150929,0:0:0:0:
