osu file format v14

[General]
AudioFilename: audio.mp3
AudioLeadIn: 0
PreviewTime: 137063
Countdown: 0
SampleSet: Soft
StackLeniency: 0.5
Mode: 0
LetterboxInBreaks: 0
WidescreenStoryboard: 0

[Editor]
Bookmarks: 8163,14563,20963,46563,59363,84563,86563,99363,112163,124963,137763,165363,179363,192163,206563,235363,260963
DistanceSpacing: 2.2
BeatDivisor: 4
GridSize: 4
TimelineZoom: 1.9

[Metadata]
Title:YoiYoi Kokon
TitleUnicode:宵々古今
Artist:REOL
ArtistUnicode:REOL
Creator:erodra
Version:Twist
Source:
Tags:
BeatmapID:1555787
BeatmapSetID:737225

[Difficulty]
HPDrainRate:6
CircleSize:2.7
OverallDifficulty:8.7
ApproachRate:9.4
SliderMultiplier:2.4
SliderTickRate:1

[Events]
//Background and Video events
0,0,"iopo.jpg",0,0
//Break Periods
//Storyboard Layer 0 (Background)
//Storyboard Layer 1 (Fail)
//Storyboard Layer 2 (Pass)
//Storyboard Layer 3 (Foreground)
//Storyboard Sound Samples

[TimingPoints]
8163,400,4,2,1,50,1,0
10563,-166.666666666667,4,2,1,50,0,0
11363,-100,4,2,1,50,0,0
32163,-1000,4,2,1,50,0,0
33363,-66.6666666666667,4,2,1,50,0,0
33763,-100,4,2,1,50,0,0
38813,-100,4,2,1,20,0,0
38863,-100,4,2,1,50,0,0
46563,-100,4,3,0,50,0,0
51763,-100,4,3,0,30,0,0
52563,-74.0740740740741,4,3,0,50,0,0
52863,-100,4,3,0,5,0,0
52963,-100,4,3,0,50,0,0
56563,-83.3333333333333,4,3,0,50,0,0
56963,-71.4285714285714,4,3,0,50,0,0
57363,-62.5,4,3,0,50,0,0
57763,-55.5555555555556,4,3,0,50,0,0
57963,-100,4,3,0,50,0,0
58763,-200,4,2,1,60,0,0
59363,-58.8235294117647,4,2,0,60,0,1
60163,-90.9090909090909,4,2,0,60,0,1
60363,-58.8235294117647,4,2,0,60,0,1
60963,-90.9090909090909,4,2,0,60,0,1
61163,-58.8235294117647,4,2,0,60,0,1
68963,-58.8235294117647,4,2,0,60,0,0
70563,-58.8235294117647,4,2,0,60,0,1
70763,-58.8235294117647,4,2,0,60,0,0
70963,-55.5555555555556,4,2,0,60,0,1
71163,-58.8235294117647,4,2,0,60,0,0
71363,-52.6315789473684,4,2,0,60,0,1
71563,-58.8235294117647,4,2,0,60,0,0
71763,-50,4,2,0,60,0,1
72163,-58.8235294117647,4,2,0,60,0,1
84563,-200,4,2,0,60,0,0
86163,-200,4,2,0,60,0,1
86188,-200,4,2,0,5,0,0
86563,-100,4,3,2,60,0,1
91363,-200,4,3,2,60,0,0
91763,-100,4,3,2,60,0,0
92163,-200,4,3,2,60,0,1
92263,-200,4,3,2,5,0,1
92463,-200,4,3,0,60,0,1
92563,-133.333333333333,4,3,0,60,0,0
92763,-133.333333333333,4,3,2,60,0,0
92963,-100,4,3,2,60,0,1
95163,-100,4,3,2,20,0,1
95263,-100,4,3,2,60,0,1
98163,-100,4,3,0,60,0,1
98563,-83.3333333333333,4,3,1,60,0,1
98963,-71.4285714285714,4,3,0,60,0,1
99363,-100,4,2,1,60,0,0
100788,-100,4,2,1,20,0,0
100963,-100,4,2,1,60,0,0
101188,-100,4,2,1,20,0,0
101363,-100,4,2,1,60,0,0
105763,-90.9090909090909,4,2,1,60,0,0
111763,-66.6666666666667,4,2,1,60,0,0
112163,-90.9090909090909,4,2,0,60,0,0
117763,-90.9090909090909,4,2,0,60,0,0
117963,-76.9230769230769,4,2,0,60,0,0
118163,-66.6666666666667,4,2,0,60,0,0
118363,-58.8235294117647,4,2,0,60,0,0
118563,-52.6315789473684,4,2,0,60,0,0
118963,-90.9090909090909,4,2,0,60,0,0
124388,-90.9090909090909,4,2,0,20,0,0
124463,-90.9090909090909,4,2,0,60,0,0
124788,-90.9090909090909,4,2,0,20,0,0
124863,-90.9090909090909,4,2,0,60,0,0
124963,-142.857142857143,4,3,0,50,0,0
130163,-142.857142857143,4,3,0,30,0,0
130963,-74.0740740740741,4,3,0,50,0,0
131263,-74.0740740740741,4,3,0,5,0,0
131363,-142.857142857143,4,3,0,50,0,0
134563,-100,4,3,0,50,0,0
134963,-83.3333333333333,4,3,0,50,0,0
135363,-71.4285714285714,4,3,0,50,0,0
135763,-62.5,4,3,0,50,0,0
136363,-100,4,2,1,60,0,0
137163,-200,4,2,1,60,0,0
137763,-58.8235294117647,4,2,0,60,0,1
147363,-58.8235294117647,4,2,0,60,0,0
148963,-58.8235294117647,4,2,0,60,0,1
149163,-58.8235294117647,4,2,0,60,0,0
149363,-58.8235294117647,4,2,0,60,0,1
149563,-58.8235294117647,4,2,0,60,0,0
149763,-58.8235294117647,4,2,0,60,0,1
149963,-58.8235294117647,4,2,0,60,0,0
150163,-52.6315789473684,4,2,0,60,0,1
150563,-58.8235294117647,4,2,0,60,0,1
162963,-200,4,2,1,60,0,0
164963,-200,4,2,1,60,0,0
165363,-100,4,2,1,60,0,0
166163,-142.857142857143,4,2,1,60,0,0
166563,-71.4285714285714,4,2,1,60,0,0
179363,-100,4,2,1,60,0,0
192163,-142.857142857143,4,3,0,50,0,0
198163,-74.0740740740741,4,3,0,50,0,0
198463,-142.857142857143,4,3,0,5,0,0
198563,-200,4,3,0,50,0,0
201763,-133.333333333333,4,3,0,50,0,0
202163,-100,4,3,0,50,0,0
202563,-80,4,3,0,50,0,0
202963,-66.6666666666667,4,3,0,50,0,0
203363,-125,4,3,0,30,0,0
203563,-100,4,3,0,35,0,0
203763,-83.3333333333333,4,3,0,40,0,0
203963,-71.4285714285714,4,3,0,45,0,0
204163,-62.5,4,3,0,50,0,0
204363,-55.5555555555556,4,3,0,55,0,0
204563,-50,4,3,0,60,0,0
204763,-50,4,3,0,65,0,0
204963,-200,4,3,0,50,0,0
205163,-100,4,2,1,60,0,0
205763,-100,4,3,1,60,0,0
205963,-200,4,2,1,50,0,0
206563,-55.5555555555556,4,2,0,65,0,1
208163,-90.9090909090909,4,2,0,65,0,1
208363,-55.5555555555556,4,2,0,65,0,1
216163,-55.5555555555556,4,2,0,65,0,0
217763,-55.5555555555556,4,2,0,65,0,0
217963,-55.5555555555556,4,2,0,65,0,0
218163,-55.5555555555556,4,2,0,65,0,1
218363,-55.5555555555556,4,2,0,65,0,0
218563,-55.5555555555556,4,2,0,65,0,1
218763,-55.5555555555556,4,2,0,65,0,0
218963,-50,4,2,0,65,0,1
219363,-55.5555555555556,4,2,0,65,0,1
231363,-66.6666666666667,4,2,0,65,0,1
231763,-200,4,2,0,65,0,0
232563,-200,4,2,0,35,0,0
233763,-125,4,2,0,65,0,0
234963,-76.9230769230769,4,2,0,65,0,1
235263,-76.9230769230769,4,2,0,5,0,0
235363,-90.9090909090909,4,3,2,65,0,1
240163,-181.818181818182,4,3,2,65,0,0
240563,-90.9090909090909,4,3,2,65,0,0
240963,-181.818181818182,4,3,2,65,0,1
241063,-181.818181818182,4,3,2,5,0,1
241263,-117.647058823529,4,3,0,65,0,0
241563,-90.9090909090909,4,3,2,65,0,0
241763,-90.9090909090909,4,3,2,65,0,1
243963,-90.9090909090909,4,3,2,25,0,1
244063,-90.9090909090909,4,3,2,65,0,1
246963,-90.9090909090909,4,3,0,65,0,1
247363,-76.9230769230769,4,3,1,65,0,1
247763,-66.6666666666667,4,3,0,65,0,1
248163,-100,4,2,1,65,0,0
249588,-100,4,2,1,25,0,0
249763,-100,4,2,1,65,0,0
249988,-100,4,2,1,25,0,0
250163,-100,4,2,1,65,0,0
260388,-100,4,2,1,25,0,0
260563,-200,4,2,1,65,0,0
261013,-200,4,2,1,5,0,0

[Colours]
Combo1 : 140,198,255
Combo2 : 251,191,217

[HitObjects]
136,292,6963,21,0,0:0:0:0:
112,100,7063,1,0,0:0:0:0:
112,100,8163,6,0,P|168:80|240:84,1,120
244,92,8429,1,0,0:0:0:0:
256,104,8496,1,0,0:0:0:0:
268,116,8563,2,0,P|327:117|383:97,1,120
460,40,8963,1,0,0:0:0:0:
408,192,9163,1,0,0:0:0:0:
316,24,9363,1,0,0:0:0:0:
500,144,9563,1,0,0:0:0:0:
276,216,9763,5,0,0:0:0:0:
264,200,9963,1,0,0:0:0:0:
260,180,10163,1,0,0:0:0:0:
472,272,10363,21,0,0:0:0:0:
484,256,10463,1,0,0:0:0:0:
488,236,10563,2,0,P|488:216|472:164,1,71.9999978027344
316,148,10963,1,0,0:0:0:0:
400,220,11163,1,0,0:0:0:0:
332,48,11363,6,0,P|272:54|209:89,1,120
214,98,11629,1,0,0:0:0:0:
209,114,11696,1,0,0:0:0:0:
203,130,11763,2,0,P|149:157|90:163,1,120
196,240,12163,1,0,0:0:0:0:
116,80,12363,1,0,0:0:0:0:
104,296,12563,1,0,0:0:0:0:
308,140,12763,1,0,0:0:0:0:
212,276,12963,21,0,0:0:0:0:
200,260,13163,1,0,0:0:0:0:
196,240,13363,1,0,0:0:0:0:
408,332,13563,5,0,0:0:0:0:
420,316,13663,1,0,0:0:0:0:
424,296,13763,2,0,L|416:228,1,60
308,140,13963,22,0,L|300:208,1,60
464,0,14163,2,0,L|472:68,1,60
200,32,14363,5,0,0:0:0:0:
292,20,14463,1,0,0:0:0:0:
380,44,14563,1,0,0:0:0:0:
128,252,15363,21,0,0:0:0:0:
444,216,16163,5,0,0:0:0:0:
200,144,16363,1,0,0:0:0:0:
256,280,16963,1,0,0:0:0:0:
346,164,17563,1,0,0:0:0:0:
176,368,17763,22,0,P|145:316|141:257,1,120
336,16,18163,2,0,P|366:67|370:126,1,120
52,276,18563,6,0,P|66:218|105:173,1,120
460,108,18963,2,0,P|445:165|406:210,1,120
180,132,19363,22,0,P|252:140|280:164,1,60
332,252,19563,2,0,P|260:244|232:220,1,60
280,60,19763,6,0,P|325:116|328:153,1,60
232,324,19963,2,0,P|186:267|183:230,1,60
192,40,20163,21,0,0:0:0:0:
320,344,20363,5,0,0:0:0:0:
320,344,20463,1,0,0:0:0:0:
320,344,20563,1,0,0:0:0:0:
406,210,20763,1,0,0:0:0:0:
88,216,20963,6,0,L|216:208,1,120
264,128,21263,1,0,0:0:0:0:
264,128,21363,2,0,L|392:120,1,120
480,116,21763,1,0,0:0:0:0:
344,20,21963,1,0,0:0:0:0:
296,244,22163,1,0,0:0:0:0:
432,24,22363,1,0,0:0:0:0:
384,248,22563,1,0,0:0:0:0:
256,16,22763,1,0,0:0:0:0:
392,112,22963,1,0,0:0:0:0:
352,0,23163,5,0,0:0:0:0:
352,0,23263,1,0,0:0:0:0:
352,0,23363,1,0,0:0:0:0:
208,240,23563,1,0,0:0:0:0:
256,16,23763,1,0,0:0:0:0:
296,244,23963,1,0,0:0:0:0:
256,16,24163,1,0,0:0:0:0:
228,144,24363,1,0,0:0:0:0:
353,105,24563,1,0,0:0:0:0:
144,64,24763,5,0,0:0:0:0:
144,64,24863,1,0,0:0:0:0:
144,64,24963,1,0,0:0:0:0:
213,266,25163,1,0,0:0:0:0:
228,144,25363,1,0,0:0:0:0:
84,312,25563,1,0,0:0:0:0:
60,144,25763,5,0,0:0:0:0:
326,217,25963,1,0,0:0:0:0:
219,383,26163,2,0,P|222:301|187:223,1,120
164,176,26563,1,0,0:0:0:0:
396,56,26763,5,0,0:0:0:0:
398,339,26963,1,0,0:0:0:0:
326,217,27163,1,0,0:0:0:0:
468,178,27363,6,0,L|336:176,1,120
184,96,27763,2,0,L|316:94,1,120
144,328,28163,1,0,0:0:0:0:
168,216,28363,1,0,0:0:0:0:
400,329,28563,1,0,0:0:0:0:
375,216,28763,1,0,0:0:0:0:
244,329,28963,1,0,0:0:0:0:
496,220,29163,1,0,0:0:0:0:
300,76,29363,1,0,0:0:0:0:
251,291,29563,5,0,0:0:0:0:
251,291,29663,1,0,0:0:0:0:
251,291,29763,1,0,0:0:0:0:
72,184,29963,1,0,0:0:0:0:
120,344,30163,1,0,0:0:0:0:
211,157,30363,1,0,0:0:0:0:
251,291,30563,5,0,0:0:0:0:
77,74,30763,2,0,P|53:138|152:272,1,240
370,269,31363,5,0,0:0:0:0:
435,74,31563,2,0,P|459:138|407:208,1,120
256,20,31963,1,0,0:0:0:0:
136,352,32163,6,0,B|132:328|132:328,2,24
136,352,33363,6,0,P|144:264|196:160,1,180.000006866455,4|0,0:0|0:0,0:0:0:0:
192,160,33763,6,0,P|172:84|212:8,1,120
240,244,34163,2,0,P|181:254|125:234,1,120,8|0,0:0|0:0,0:0:0:0:
52,168,34563,1,0,0:0:0:0:
288,168,34763,1,0,0:0:0:0:
172,96,34963,1,8,0:0:0:0:
124,336,35163,1,0,0:0:0:0:
260,76,35363,1,0,0:0:0:0:
392,288,35563,5,0,0:0:0:0:
408,284,35663,1,0,0:0:0:0:
424,280,35763,1,8,0:0:0:0:
288,296,35963,5,0,0:0:0:0:
304,292,36063,1,0,0:0:0:0:
320,288,36163,1,0,0:0:0:0:
220,300,36363,5,0,0:0:0:0:
204,304,36463,1,0,0:0:0:0:
188,308,36563,1,8,0:0:0:0:
276,140,36763,1,0,0:0:0:0:
476,200,36963,6,0,L|336:196,1,120
172,52,37363,2,0,L|312:48,1,120,8|0,0:0|0:0,0:0:0:0:
396,48,37763,1,0,0:0:0:0:
328,228,37963,1,0,0:0:0:0:
291,48,38163,1,8,0:0:0:0:
433,228,38363,1,0,0:0:0:0:
501,48,38563,1,0,0:0:0:0:
264,144,38763,6,0,L|240:144,4,15
512,148,38963,1,8,0:0:0:0:
380,320,39163,1,0,0:0:0:0:
424,112,39363,1,0,0:0:0:0:
452,264,39563,6,0,P|428:244|356:228,1,60
216,220,39763,1,8,0:0:0:0:
512,148,39963,1,0,0:0:0:0:
292,368,40163,6,0,P|288:324|304:236,1,120
424,112,40563,2,0,P|428:156|412:244,1,120,8|0,0:0|0:0,0:0:0:0:
336,84,40963,1,0,0:0:0:0:
512,148,41163,1,0,0:0:0:0:
460,0,41363,1,8,0:0:0:0:
416,230,41563,1,0,0:0:0:0:
372,0,41763,5,0,0:0:0:0:
508,244,41963,1,0,0:0:0:0:
300,168,42163,1,8,0:0:0:0:
460,0,42363,1,0,0:0:0:0:
416,230,42563,1,0,0:0:0:0:
276,56,42763,1,0,0:0:0:0:
276,56,42863,1,0,0:0:0:0:
276,56,42963,1,8,0:0:0:0:
232,286,43163,1,0,0:0:0:0:
184,140,43363,5,0,0:0:0:0:
360,312,43563,1,0,0:0:0:0:
394,47,43763,1,8,0:0:0:0:
176,244,43963,2,0,P|235:246|294:235,1,120
480,164,44363,2,0,P|420:166|361:155,1,120,0|8,0:0|0:0,0:0:0:0:
148,68,44763,6,0,P|196:132|104:92,1,240
284,128,45263,1,0,0:0:0:0:
284,128,45363,2,0,P|268:184|236:216,1,60,8|0,0:0|0:0,0:0:0:0:
140,256,45563,2,0,P|169:253|197:242,1,60
372,128,45763,2,0,P|364:184|324:256,1,120
276,308,46063,1,0,0:0:0:0:
298,280,46163,1,8,0:0:0:0:
330,263,46263,1,0,0:0:0:0:
365,259,46363,1,0,0:0:0:0:
400,269,46463,1,0,0:0:0:0:
428,291,46563,5,0,0:0:0:0:
168,64,47363,5,0,0:0:0:0:
188,300,48163,5,0,0:0:0:0:
332,144,48363,1,0,0:0:0:0:
208,280,48563,1,0,0:0:0:0:
412,64,48963,5,0,0:0:0:0:
88,176,49563,5,0,0:0:0:0:
348,268,49763,1,0,0:0:0:0:
220,36,50563,5,0,0:0:0:0:
284,324,51363,5,0,0:0:0:0:
164,160,51563,1,0,0:0:0:0:
288,176,51763,5,0,0:0:0:0:
307,181,51863,1,0,0:0:0:0:
326,183,51963,1,0,0:0:0:0:
346,180,52063,1,0,0:0:0:0:
388,160,52163,5,0,0:0:0:0:
407,158,52263,1,0,0:0:0:0:
427,159,52363,1,0,0:0:0:0:
446,165,52463,1,0,0:0:0:0:
484,184,52563,6,4,B|368:240|368:108|252:184,1,243.000000926971
152,268,52963,5,4,0:0:0:0:
376,48,53763,5,0,0:0:0:0:
324,352,54563,5,0,0:0:0:0:
176,144,54763,1,0,0:0:0:0:
448,280,55363,5,0,0:0:0:0:
84,312,55963,5,0,0:0:0:0:
324,272,56163,6,0,P|344:316|324:396,1,120,8|0,0:0|0:0,0:0:0:0:
212,319,56563,6,0,P|197:250|224:184,1,143.999995605469
404,192,56963,6,0,P|430:250|401:360,1,167.999994873047,8|0,0:0|0:0,0:0:0:0:
108,236,57363,6,0,P|86:144|121:56,1,192
423,128,57763,6,0,P|363:112|279:124,1,107.999996704102,8|0,0:0|0:0,0:0:0:0:
183,221,57963,6,0,P|177:232|161:246,1,30
139,251,58063,2,0,P|128:258|107:262,1,30
87,243,58163,2,0,P|74:243|54:237,1,30
55,201,58263,2,0,P|43:195|29:179,1,30
62,148,58363,2,0,P|54:137|50:116,1,30
102,115,58463,2,0,P|101:102|107:82,1,30
155,119,58563,1,0,0:0:0:0:
156,120,58763,6,0,P|172:128|260:80,1,120
300,32,59363,6,0,P|252:136|328:236,1,204.000003890991
352,276,59663,1,0,0:0:0:0:
436,316,59763,2,0,P|464:324|544:300,1,102.000001945496,8|0,0:0|0:0,0:0:0:0:
260,347,59963,2,0,P|210:356|162:340,1,102.000001945496
112,272,60163,2,0,P|134:317|175:346,1,66.0000020141602
224,268,60363,5,0,0:0:0:0:
287,192,60463,1,0,0:0:0:0:
304,100,60563,2,0,P|302:50|276:7,1,102.000001945496,8|0,0:0|0:0,0:0:0:0:
200,184,60763,2,0,P|150:192|102:176,1,102.000001945496
52,108,60963,2,0,P|74:153|115:182,1,66.0000020141602
287,193,61163,6,0,P|328:222|350:267,1,102.000001945496
40,252,61363,2,0,P|62:206|103:177,1,102.000001945496,8|0,0:0|0:0,0:0:0:0:
340,112,61563,2,0,P|291:97|242:109,1,102.000001945496
147,343,61763,6,0,P|171:251|47:175,1,204.000003890991
4,152,62063,1,0,0:0:0:0:
4,152,62163,2,0,P|56:100|108:88,1,102.000001945496,8|0,0:0|0:0,0:0:0:0:
96,0,62363,2,0,P|141:21|173:61,1,102.000001945496
232,168,62563,6,0,B|296:176|296:176|328:128|328:128|420:176,1,204.000003890991
472,220,62863,1,0,0:0:0:0:
400,278,62963,2,0,B|328:316|328:316|296:268|296:268|232:276,1,204.000003890991,8|0,0:0|0:0,0:0:0:0:
140,288,63263,1,0,0:0:0:0:
40,304,63363,6,0,L|56:164,2,102.000001945496
144,176,63663,1,0,0:0:0:0:
144,176,63763,2,0,L|128:36,1,102.000001945496,8|0,0:0|0:0,0:0:0:0:
232,276,63963,2,0,L|248:136,1,102.000001945496
44,140,64163,6,0,P|28:74|28:0,1,102.000001945496
144,176,64363,2,0,P|140:107|160:36,1,102.000001945496
232,276,64563,2,0,P|246:209|280:148,1,102.000001945496
300,376,64763,2,0,P|332:317|380:272,1,102.000001945496
447,250,64963,6,0,P|375:278|290:419,1,204.000003890991
344,192,65263,1,0,0:0:0:0:
344,192,65363,2,0,P|344:148|280:64,1,102.000001945496,8|0,0:0|0:0,0:0:0:0:
208,180,65563,2,0,P|209:230|231:275,1,102.000001945496
216,68,65763,6,0,L|76:64,1,102.000001945496
12,152,65963,1,0,0:0:0:0:
12,152,66063,1,0,0:0:0:0:
12,152,66163,2,0,L|152:156,1,102.000001945496,8|0,0:0|0:0,0:0:0:0:
272,160,66363,1,0,0:0:0:0:
272,160,66463,1,0,0:0:0:0:
272,160,66563,6,0,P|256:208|259:259,2,102.000001945496
396,328,66863,1,0,0:0:0:0:
396,328,66963,2,0,P|411:279|408:228,1,102.000001945496,8|0,0:0|0:0,0:0:0:0:
328,48,67163,2,0,P|365:81|389:126,1,102.000001945496
128,244,67363,6,0,P|79:259|28:256,1,102.000001945496
224,228,67563,2,0,P|274:230|323:215,1,102.000001945496
48,324,67763,2,0,P|85:289|132:270,1,102.000001945496,8|0,0:0|0:0,0:0:0:0:
332,280,67963,2,0,P|285:260|234:257,1,102.000001945496
164,156,68163,6,0,P|144:109|141:58,2,102.000001945496
340,112,68463,1,0,0:0:0:0:
340,112,68563,2,0,P|293:92|242:89,1,102.000001945496,8|0,0:0|0:0,0:0:0:0:
48,192,68763,2,0,P|77:150|120:122,1,102.000001945496
152,220,68963,5,0,0:0:0:0:
112,312,69063,2,0,L|252:308,2,102.000001945496
332,292,69363,1,8,0:0:0:0:
372,384,69463,2,0,L|232:380,1,102.000001945496
432,280,69663,1,0,0:0:0:0:
372,200,69763,6,0,P|368:116|380:76,2,102.000001945496
272,176,70063,1,0,0:0:0:0:
180,228,70163,2,0,P|173:177|179:127,1,102.000001945496,8|0,0:0|0:0,0:0:0:0:
80,136,70363,2,0,P|90:86|114:41,1,102.000001945496
128,323,70563,6,0,P|84:259|84:123,1,204.000003890991,8|0,0:0|0:0,0:0:0:0:
432,135,70963,2,0,P|435:246|379:341,1,215.999993408203,8|0,0:0|0:0,0:0:0:0:
4,288,71363,2,0,P|32:144|120:88,1,227.999993911743,8|0,0:0|0:0,0:0:0:0:
442,109,71763,6,0,B|510:195|510:195|514:324,1,240,12|0,0:0|0:0,0:0:0:0:
108,32,72163,6,0,P|161:25|248:48,1,102.000001945496
164,136,72363,1,0,0:0:0:0:
264,144,72463,1,0,0:0:0:0:
336,204,72563,2,0,P|368:264|368:336,1,102.000001945496,8|0,0:0|0:0,0:0:0:0:
184,248,72763,2,0,P|249:267|299:318,1,102.000001945496
468,276,72963,6,0,P|448:341|397:391,2,102.000001945496
428,88,73263,1,0,0:0:0:0:
428,88,73363,2,0,P|456:130|467:179,1,102.000001945496,8|0,0:0|0:0,0:0:0:0:
372,296,73563,2,0,P|329:324|280:335,1,102.000001945496
138,295,73763,6,0,P|182:323|350:311,1,204.000003890991
428,88,74163,2,0,P|443:187|401:279,1,204.000003890991,8|0,0:0|0:0,0:0:0:0:
196,216,74463,1,0,0:0:0:0:
196,216,74563,6,0,P|128:200|48:224,2,102.000001945496
212,124,74863,1,0,0:0:0:0:
212,124,74963,2,0,P|175:64|101:25,1,102.000001945496,8|0,0:0|0:0,0:0:0:0:
276,280,75163,2,0,P|292:212|268:132,1,102.000001945496
56,344,75363,6,0,L|192:336,1,102.000001945496
390,175,75563,2,0,L|288:180,1,102.000001945496
340,360,75763,2,0,L|476:352,1,102.000001945496,8|0,0:0|0:0,0:0:0:0:
356,48,75963,6,0,P|236:36|200:56,1,102.000001945496
68,116,76163,2,0,P|171:54|212:57,2,102.000001945496
288,120,76463,1,0,0:0:0:0:
288,120,76563,2,0,P|174:159|149:193,1,102.000001945496,8|0,0:0|0:0,0:0:0:0:
55,303,76763,2,0,P|122:203|161:188,1,102.000001945496
396,136,76963,6,0,P|444:151|483:184,1,102.000001945496
314,360,77163,1,0,0:0:0:0:
302,348,77263,1,0,0:0:0:0:
294,324,77363,1,8,0:0:0:0:
302,292,77463,1,0,0:0:0:0:
342,264,77563,5,0,0:0:0:0:
424,296,77663,1,0,0:0:0:0:
510,280,77763,2,0,P|505:229|482:184,1,102.000001945496,8|0,0:0|0:0,0:0:0:0:
320,72,77963,2,0,P|369:83|410:112,1,102.000001945496
132,120,78163,2,0,P|173:91|222:79,1,102.000001945496,8|0,0:0|0:0,0:0:0:0:
45,294,78363,2,0,P|49:243|72:198,1,102.000001945496
140,24,78563,6,0,P|228:100|132:212,1,204.000003890991,8|0,0:0|0:0,0:0:0:0:
160,256,78863,1,0,0:0:0:0:
160,256,78963,2,0,P|256:246|310:326,1,204.000003890991
220,332,79263,1,0,0:0:0:0:
220,332,79363,2,0,P|248:276|244:216,2,102.000001945496,8|0|0,0:0|0:0|0:0,0:0:0:0:
340,240,79663,1,0,0:0:0:0:
340,240,79763,2,0,P|320:180|274:141,1,102.000001945496
92,96,79963,2,0,P|141:87|190:100,1,102.000001945496
293,152,80163,6,0,P|405:176|420:80,1,204.000003890991,8|0,0:0|0:0,0:0:0:0:
436,16,80463,1,0,0:0:0:0:
436,16,80563,1,0,0:0:0:0:
436,284,80763,1,0,0:0:0:0:
80,292,80963,6,0,L|196:288,2,102.000001945496,8|0|0,0:0|0:0|0:0,0:0:0:0:
32,212,81263,1,0,0:0:0:0:
133,208,81363,2,0,L|249:204,1,102.000001945496
356,344,81563,2,0,L|240:348,1,102.000001945496
360,120,81763,6,0,L|476:116,1,102.000001945496,8|0,0:0|0:0,0:0:0:0:
264,120,81963,1,0,0:0:0:0:
264,120,82063,1,0,0:0:0:0:
264,120,82163,2,0,P|288:56|336:24,1,102.000001945496
180,164,82363,1,0,0:0:0:0:
180,164,82463,1,0,0:0:0:0:
180,164,82563,2,0,P|168:96|194:44,2,102.000001945496,8|0|0,0:0|0:0|0:0,0:0:0:0:
204,252,82863,1,0,0:0:0:0:
204,252,82963,2,0,P|153:250|109:225,1,102.000001945496,8|0,0:0|0:0,0:0:0:0:
36,56,83163,2,0,P|31:106|52:152,1,102.000001945496
192,116,83363,5,8,0:0:0:0:
216,112,83463,1,0,0:0:0:0:
248,112,83563,1,0,0:0:0:0:
284,120,83663,1,0,0:0:0:0:
348,184,83763,5,8,0:0:0:0:
372,188,83863,1,0,0:0:0:0:
404,188,83963,1,0,0:0:0:0:
440,180,84063,1,0,0:0:0:0:
492,104,84163,6,0,P|416:204|536:208,1,204.000003890991
380,44,84563,6,0,B|328:16|328:16|292:48|292:48|236:35|236:35|168:48,1,210,8|0,0:0|0:0,0:0:0:0:
164,60,85363,6,0,L|136:60,4,15
80,124,85663,1,0,0:0:0:0:
104,136,85763,2,0,L|104:196,1,60
328,248,86163,6,0,L|316:248,1,7.5
328,248,86563,6,0,B|392:256|392:256|452:240|452:240|516:248,1,180,4|0,0:0|0:0,0:0:0:0:
388,164,86963,6,0,L|153:140,1,180
108,132,87363,6,0,B|120:156|120:156|108:224,1,60,8|0,0:0|0:0,0:0:0:0:
152,336,87563,2,0,B|140:312|140:312|152:244,1,60
227,59,87763,6,0,B|216:142|216:142|237:220|237:220|227:303,2,240
304,136,88763,1,0,0:0:0:0:
152,224,88963,6,0,L|84:220,1,60,8|0,0:0|0:0,0:0:0:0:
152,336,89163,2,0,L|92:332,1,60
304,248,89363,2,0,L|490:237,1,180
363,132,89763,6,0,L|277:137,1,60
183,143,89963,2,0,L|345:132,2,120
122,146,90463,1,0,0:0:0:0:
63,150,90563,6,0,L|71:210,1,60,8|0,0:0|0:0,0:0:0:0:
152,304,90763,2,0,L|144:244,1,60
237,90,90963,2,0,B|245:154|245:154|229:214|229:214|235:266,1,180
316,224,91363,6,0,L|336:152,1,60
308,320,91763,6,0,B|332:308|332:308|400:320,1,60
512,276,91963,2,0,B|488:288|488:288|420:276,1,60
444,70,92163,6,0,L|424:-2,1,60,8|0,0:0|0:0,0:0:0:0:
472,158,92463,5,0,0:0:0:0:
332,166,92563,6,0,L|404:162,1,45.0000017166138
236,171,92763,5,0,0:0:0:0:
472,158,92963,6,0,B|448:202|448:202|456:340,1,180,4|0,0:0|0:0,0:0:0:0:
315,339,93363,6,0,B|339:295|339:295|331:165,1,180
248,272,93763,6,0,L|180:268,1,60,8|0,0:0|0:0,0:0:0:0:
236,171,93963,2,0,L|176:167,1,60
224,70,94163,2,0,L|492:85,2,240
368,168,95163,1,0,0:0:0:0:
368,196,95263,1,0,0:0:0:0:
368,224,95363,6,0,L|436:220,1,60,8|0,0:0|0:0,0:0:0:0:
255,335,95563,2,0,L|315:339,1,60
193,212,95763,2,0,L|253:209,1,60
139,327,95963,2,0,L|80:324,1,60
96,40,96163,6,0,B|102:88|102:88|90:133|90:133|94:172,1,120
247,91,96563,2,0,L|243:31,1,60
193,212,96763,1,0,0:0:0:0:
252,208,96863,1,0,0:0:0:0:
312,204,96963,2,0,L|388:200,1,60,8|0,0:0|0:0,0:0:0:0:
312,300,97163,2,0,L|236:304,1,60
464,196,97363,2,0,L|457:317,1,120
340,120,97763,6,0,L|336:59,1,60
250,150,97963,1,0,0:0:0:0:
248,120,98063,1,0,0:0:0:0:
247,91,98163,2,0,L|243:31,1,60
156,76,98363,2,0,L|159:135,1,60
84,304,98563,6,0,L|79:232,1,71.9999978027344,8|0,0:0|0:0,0:0:0:0:
260,344,98763,2,0,L|264:272,1,71.9999978027344
156,76,98963,6,0,B|183:117|183:117|168:344,1,251.999992309571,4|0,0:0|0:0,0:0:0:0:
272,136,99363,6,0,P|352:120|404:156,1,120,4|0,0:0|0:0,0:0:0:0:
400,152,99663,1,0,0:0:0:0:
411,172,99763,1,0,0:0:0:0:
418,195,99863,1,0,0:0:0:0:
418,219,99963,1,0,0:0:0:0:
412,242,100063,1,0,0:0:0:0:
400,263,100163,1,2,0:0:0:0:
324,324,100363,1,0,0:0:0:0:
472,348,100563,5,0,0:0:0:0:
320,208,100763,2,0,L|292:212,4,15,2|0|0|0|0,0:0|0:0|0:0|0:0|0:0,0:0:0:0:
512,188,100963,1,0,0:0:0:0:
281,112,101163,2,0,L|264:89,4,15,2|0|0|0|0,0:0|0:0|0:0|0:0|0:0,0:0:0:0:
400,263,101363,2,0,P|412:200|376:128,1,120
464,56,101763,5,2,0:0:0:0:
320,208,101963,1,0,0:0:0:0:
344,28,102163,1,0,0:0:0:0:
400,263,102363,1,0,0:0:0:0:
464,56,102563,1,0,0:0:0:0:
253,105,102763,5,0,0:0:0:0:
253,105,102863,1,0,0:0:0:0:
253,105,102963,1,0,0:0:0:0:
352,120,103163,1,0,0:0:0:0:
196,184,103363,1,2,0:0:0:0:
310,26,103563,1,0,0:0:0:0:
154,90,103763,1,0,0:0:0:0:
440,80,103963,1,0,0:0:0:0:
92,20,104163,5,0,0:0:0:0:
76,36,104263,1,0,0:0:0:0:
66,56,104363,1,0,0:0:0:0:
60,77,104463,1,0,0:0:0:0:
59,100,104563,1,0,0:0:0:0:
64,122,104663,1,0,0:0:0:0:
74,142,104763,1,0,0:0:0:0:
88,159,104863,1,0,0:0:0:0:
108,172,104963,6,0,P|140:184|180:184,2,60,2|0|2,0:0|0:0|0:0,0:0:0:0:
264,192,105263,1,0,0:0:0:0:
264,192,105363,2,0,P|293:189|321:178,1,60
420,64,105563,2,0,P|408:91|389:114,1,60
165,185,105763,5,4,0:0:0:0:
88,40,105963,6,0,P|92:76|112:120,1,66.0000020141602
310,262,106163,2,0,P|274:258|230:238,1,66.0000020141602
173,59,106363,1,0,0:0:0:0:
187,29,106463,1,0,0:0:0:0:
207,4,106563,1,2,0:0:0:0:
160,280,106763,1,0,0:0:0:0:
80,232,106963,5,0,0:0:0:0:
160,280,107163,1,0,0:0:0:0:
88,136,107363,1,0,0:0:0:0:
72,328,107563,5,0,0:0:0:0:
304,152,107763,1,0,0:0:0:0:
0,176,107963,1,0,0:0:0:0:
344,240,108163,1,2,0:0:0:0:
72,328,108363,1,0,0:0:0:0:
80,232,108563,5,0,0:0:0:0:
72,328,108763,1,0,0:0:0:0:
4,84,108963,1,0,0:0:0:0:
192,308,109163,5,0,0:0:0:0:
260,64,109363,1,0,0:0:0:0:
0,184,109563,1,0,0:0:0:0:
0,184,109663,1,0,0:0:0:0:
0,184,109763,1,2,0:0:0:0:
172,192,109963,1,0,0:0:0:0:
8,12,110163,5,0,0:0:0:0:
88,236,110363,1,0,0:0:0:0:
188,24,110563,1,0,0:0:0:0:
196,24,110663,1,0,0:0:0:0:
204,25,110763,1,0,0:0:0:0:
212,27,110863,1,0,0:0:0:0:
220,30,110963,1,0,0:0:0:0:
227,33,111063,1,0,0:0:0:0:
235,37,111163,1,0,0:0:0:0:
242,42,111263,1,0,0:0:0:0:
248,46,111363,5,0,0:0:0:0:
300,256,111563,1,0,0:0:0:0:
396,24,111763,2,0,B|368:68|368:68|404:300,1,270.000010299683,4|0,0:0|0:0,0:0:0:0:
431,263,112163,6,0,L|291:255,1,132.00000402832
44,184,112563,2,0,P|120:160|192:184,1,132.00000402832,8|0,0:0|0:0,0:0:0:0:
128,384,112963,2,0,P|104:308|128:236,1,132.00000402832
272,120,113363,2,0,P|282:184|258:245,1,132.00000402832,8|0,0:0|0:0,0:0:0:0:
201,32,113763,2,0,P|265:21|326:45,1,132.00000402832
316,328,114163,2,0,P|251:338|190:314,1,132.00000402832,8|0,0:0|0:0,0:0:0:0:
164,296,114463,1,0,0:0:0:0:
144,272,114563,2,0,L|4:276,1,132.00000402832
192,176,114963,2,0,L|332:180,1,132.00000402832,8|0,0:0|0:0,0:0:0:0:
436,184,115363,1,0,0:0:0:0:
132,88,115563,2,0,P|92:160|104:236,1,132.00000402832,0|8,0:0|0:0,0:0:0:0:
116,304,115963,5,0,0:0:0:0:
16,96,116163,1,0,0:0:0:0:
192,176,116363,1,0,0:0:0:0:
144,0,116563,1,8,0:0:0:0:
48,208,116763,1,0,0:0:0:0:
280,76,116963,5,0,0:0:0:0:
299,93,117063,1,0,0:0:0:0:
308,117,117163,1,0,0:0:0:0:
303,143,117263,1,0,0:0:0:0:
286,163,117363,1,8,0:0:0:0:
261,171,117463,1,0,0:0:0:0:
168,180,117563,1,0,0:0:0:0:
92,132,117663,1,0,0:0:0:0:
104,55,117763,6,0,P|80:48|104:40,1,66.0000020141602
98,150,117963,6,0,P|68:150|92:132,1,77.9999964294435
126,244,118163,6,0,P|91:250|112:222,1,90.0000034332277,8|0,0:0|0:0,0:0:0:0:
186,325,118363,6,0,P|147:337|161:299,1,102.000001945496
296,320,118563,6,0,P|292:376|272:304,1,227.999993911743
376,160,118963,6,0,P|440:148|532:188,1,132.00000402832,8|0,0:0|0:0,0:0:0:0:
386,309,119363,2,0,P|322:321|230:281,1,132.00000402832
468,104,119763,2,0,P|479:168|461:231,1,132.00000402832,8|0,0:0|0:0,0:0:0:0:
294,365,120163,2,0,P|282:300|300:237,1,132.00000402832
372,112,120563,2,0,L|204:104,1,132.00000402832,8|0,0:0|0:0,0:0:0:0:
208,128,120863,1,0,0:0:0:0:
175,150,120963,2,0,L|7:142,1,132.00000402832
260,204,121363,5,8,0:0:0:0:
156,48,121563,1,0,0:0:0:0:
184,280,121763,1,0,0:0:0:0:
288,24,121963,1,0,0:0:0:0:
175,150,122163,1,8,0:0:0:0:
360,152,122363,5,0,0:0:0:0:
376,168,122463,1,0,0:0:0:0:
392,184,122563,2,0,L|532:180,1,132.00000402832
292,220,122963,1,8,0:0:0:0:
472,280,123163,1,0,0:0:0:0:
428,48,123363,5,0,0:0:0:0:
388,29,123463,1,0,0:0:0:0:
344,26,123563,1,0,0:0:0:0:
302,39,123663,1,0,0:0:0:0:
236,100,123763,5,8,0:0:0:0:
194,112,123863,1,0,0:0:0:0:
150,109,123963,1,0,0:0:0:0:
110,91,124063,1,0,0:0:0:0:
40,32,124163,5,0,0:0:0:0:
56,200,124363,2,0,L|48:224,4,16.5000005035401
176,24,124563,5,0,0:0:0:0:
240,268,124763,2,0,L|232:292,4,16.5000005035401
312,16,124963,6,0,B|324:72|324:72|308:136|308:136|316:192,2,167.999994873047,0|0|8,0:0|0:0|0:0,0:0:0:0:
424,336,126163,1,0,0:0:0:0:
396,140,126563,5,0,0:0:0:0:
80,328,126763,1,8,0:0:0:0:
372,156,126963,1,0,0:0:0:0:
261,336,127363,6,0,B|345:364|337:300|425:336,1,167.999994873047
232,52,127963,1,0,0:0:0:0:
172,340,128163,6,0,B|160:284|160:284|176:220|176:220|168:164,2,167.999994873047,0|0|8,0:0|0:0|0:0,0:0:0:0:
428,188,129363,1,0,0:0:0:0:
296,28,129763,5,0,0:0:0:0:
316,336,129963,1,0,0:0:0:0:
344,128,130163,5,0,0:0:0:0:
325,123,130263,1,0,0:0:0:0:
306,121,130363,1,0,0:0:0:0:
286,124,130463,1,0,0:0:0:0:
244,144,130563,5,0,0:0:0:0:
225,146,130663,1,0,0:0:0:0:
205,145,130763,1,0,0:0:0:0:
186,139,130863,1,0,0:0:0:0:
148,120,130963,6,0,B|264:64|264:196|380:120,1,243.000000926971
448,64,131363,6,0,B|404:24|352:28|316:56|316:56|296:44|268:32,2,167.999994873047,0|0|8,0:0|0:0|0:0,0:0:0:0:
92,176,132563,1,0,0:0:0:0:
368,320,132963,5,0,0:0:0:0:
228,40,133163,1,8,0:0:0:0:
356,296,133363,1,0,0:0:0:0:
92,176,133763,2,0,P|156:204|220:136,1,167.999994873047
228,40,134363,1,0,0:0:0:0:
196,188,134563,6,0,P|188:240|224:308,1,120,8|0,0:0|0:0,0:0:0:0:
296,72,134963,6,0,P|238:63|164:102,1,143.999995605469
416,204,135363,6,0,P|426:135|379:45,1,167.999994873047,8|0,0:0|0:0,0:0:0:0:
276,316,135763,6,0,P|358:328|466:271,1,192
176,192,136163,6,0,P|184:292|160:332,1,96
0,92,136363,6,0,P|4:74|4:61,1,30
61,74,136463,2,0,P|65:56|65:43,1,30
124,78,136563,2,0,P|128:60|128:47,1,30
183,103,136663,2,0,P|187:85|187:72,1,30
243,126,136763,2,0,P|247:108|247:95,1,30
306,126,136863,2,0,P|310:108|310:95,1,30
366,105,136963,1,0,0:0:0:0:
366,105,137163,6,0,P|388:152|360:236,1,120
340,300,137663,1,0,0:0:0:0:
340,300,137763,6,0,L|200:272,1,102.000001945496,4|0,0:0|0:0,0:0:0:0:
36,300,137963,2,0,P|92:272|176:272,1,102.000001945496
424,252,138163,2,0,P|377:210|296:188,1,102.000001945496,8|0,0:0|0:0,0:0:0:0:
131,169,138363,2,0,L|273:178,1,102.000001945496
512,228,138563,6,0,P|477:175|404:133,2,102.000001945496
250,71,138863,1,0,0:0:0:0:
250,71,138963,2,0,P|312:74|385:116,1,102.000001945496,8|0,0:0|0:0,0:0:0:0:
132,84,139163,2,0,P|83:97|40:125,1,102.000001945496
200,260,139363,6,0,P|248:245|290:216,1,102.000001945496
392,184,139563,2,0,P|382:233|358:278,1,102.000001945496
112,320,139763,2,0,P|156:344|206:353,1,102.000001945496,8|0,0:0|0:0,0:0:0:0:
436,332,139963,2,0,P|394:360|345:375,1,102.000001945496
0,180,140163,6,0,L|8:300,2,102.000001945496
188,152,140463,1,0,0:0:0:0:
188,152,140563,2,0,L|180:272,1,102.000001945496,8|0,0:0|0:0,0:0:0:0:
84,60,140763,2,0,L|92:180,1,102.000001945496
464,88,140963,6,0,P|422:59|373:44,1,102.000001945496
174,60,141163,2,0,P|219:36|269:27,1,102.000001945496
380,136,141363,6,0,P|330:124|279:129,1,102.000001945496,8|0,0:0|0:0,0:0:0:0:
52,256,141564,2,0,P|84:216|127:189,1,102.000001945496
319,211,141763,6,0,P|268:219|223:242,2,102.000001945496
504,264,142063,1,0,0:0:0:0:
504,264,142163,2,0,P|462:234|414:219,1,102.000001945496,8|0,0:0|0:0,0:0:0:0:
148,292,142363,2,0,P|118:333|103:381,1,102.000001945496
204,148,142563,6,0,P|188:99|159:58,1,102.000001945496
276,224,142763,2,0,P|299:179|307:128,1,102.000001945496
99,145,142963,2,0,P|55:122|5:113,1,102.000001945496
273,328,143163,2,0,P|321:312|362:283,1,102.000001945496
436,216,143363,1,0,0:0:0:0:
180,332,143563,5,0,0:0:0:0:
84,300,143663,1,0,0:0:0:0:
32,216,143763,2,0,P|8:171|0:120,1,102.000001945496,8|0,0:0|0:0,0:0:0:0:
273,328,143963,2,0,P|322:311|363:282,1,102.000001945496
216,200,144163,6,0,P|167:184|126:155,1,102.000001945496
404,172,144363,1,0,0:0:0:0:
404,172,144463,1,0,0:0:0:0:
404,172,144563,2,0,P|359:195|308:203,1,102.000001945496,8|0,0:0|0:0,0:0:0:0:
180,332,144763,1,0,0:0:0:0:
180,332,144863,1,0,0:0:0:0:
180,332,144963,6,0,P|188:281|211:236,2,102.000001945496
268,164,145263,1,0,0:0:0:0:
268,164,145363,2,0,P|309:134|357:119,1,102.000001945496,8|0,0:0|0:0,0:0:0:0:
456,236,145563,2,0,P|411:212|360:204,1,102.000001945496
180,332,145763,6,0,P|224:308|275:300,1,102.000001945496
452,360,145963,2,0,P|410:330|362:315,1,102.000001945496
172,240,146163,2,0,P|222:245|267:268,1,102.000001945496,8|0,0:0|0:0,0:0:0:0:
480,264,146363,2,0,P|428:263|380:278,1,102.000001945496
221,162,146563,6,0,P|258:195|282:240,2,102.000001945496
412,160,146863,1,0,0:0:0:0:
412,160,146963,2,0,P|381:200|366:249,1,102.000001945496,8|0,0:0|0:0,0:0:0:0:
300,64,147163,2,0,P|311:113|305:163,1,102.000001945496
272,256,147363,5,0,0:0:0:0:
196,184,147463,2,0,L|84:180,2,102.000001945496
348,192,147763,1,8,0:0:0:0:
296,112,147863,2,0,L|397:108,1,102.000001945496
496,108,148063,1,0,0:0:0:0:
448,192,148163,6,0,P|440:232|464:312,2,102.000001945496
348,192,148463,1,0,0:0:0:0:
272,256,148563,2,0,P|278:296|328:363,1,102.000001945496,8|0,0:0|0:0,0:0:0:0:
168,208,148763,2,0,P|159:248|184:327,1,102.000001945496
104,88,148963,6,0,P|67:147|59:290,1,204.000003890991,8|0,0:0|0:0,0:0:0:0:
456,278,149363,2,0,P|455:177|408:88,1,204.000003890991,8|0,0:0|0:0,0:0:0:0:
8,120,149763,2,0,P|8:221|56:310,1,204.000003890991,8|0,0:0|0:0,0:0:0:0:
455,310,150163,6,0,B|502:220|502:220|498:88,1,227.999993911743,12|0,0:0|0:0,0:0:0:0:
248,328,150563,6,0,L|368:324,1,102.000001945496
416,188,150763,1,0,0:0:0:0:
316,188,150863,1,0,0:0:0:0:
220,190,150963,2,0,P|169:197|125:222,1,102.000001945496,8|0,0:0|0:0,0:0:0:0:
8,384,151163,2,0,P|22:335|52:294,1,102.000001945496
296,312,151363,6,0,P|251:287|201:279,2,102.000001945496
396,320,151663,1,0,0:0:0:0:
396,320,151763,2,0,P|381:271|351:230,1,102.000001945496,8|0,0:0|0:0,0:0:0:0:
177,143,151963,2,0,P|227:151|272:176,1,102.000001945496
511,103,152163,6,0,P|417:70|323:103,1,204.000003890991
81,174,152564,2,0,P|170:143|272:176,1,204.000003890991,8|0,0:0|0:0,0:0:0:0:
208,240,152863,1,0,0:0:0:0:
208,240,152963,6,0,P|222:288|252:329,2,102.000001945496
208,136,153263,1,0,0:0:0:0:
208,136,153363,2,0,P|222:87|252:46,1,102.000001945496,8|0,0:0|0:0,0:0:0:0:
128,184,153563,2,0,P|103:139|95:89,1,102.000001945496
316,132,153763,6,0,L|440:128,1,102.000001945496
208,240,153963,2,0,L|84:236,1,102.000001945496
150,49,154163,2,0,L|274:45,1,102.000001945496,8|0,0:0|0:0,0:0:0:0:
350,310,154363,6,0,P|230:322|194:302,1,102.000001945496
62,242,154563,2,0,P|165:304|206:301,2,102.000001945496
282,238,154863,1,0,0:0:0:0:
282,238,154963,2,0,P|168:199|143:165,1,102.000001945496,8|0,0:0|0:0,0:0:0:0:
49,55,155163,2,0,P|116:155|155:170,1,102.000001945496
390,222,155363,6,0,P|438:207|477:174,1,102.000001945496
384,48,155563,1,0,0:0:0:0:
380,68,155663,1,0,0:0:0:0:
380,96,155763,1,8,0:0:0:0:
388,124,155863,1,0,0:0:0:0:
308,180,155963,5,0,0:0:0:0:
216,193,156063,1,0,0:0:0:0:
124,180,156163,2,0,L|8:176,1,102.000001945496
256,288,156363,2,0,L|154:291,1,102.000001945496
280,84,156563,2,0,L|164:88,1,102.000001945496
416,204,156763,2,0,L|314:207,1,102.000001945496
124,180,156963,6,0,P|76:165|8:36,1,204.000003890991
44,248,157263,1,0,0:0:0:0:
44,248,157363,2,0,B|96:272|96:272|268:252,1,204.000003890991,8|0,0:0|0:0,0:0:0:0:
332,240,157663,1,0,0:0:0:0:
332,240,157763,2,0,L|464:244,2,102.000001945496
240,144,158063,1,0,0:0:0:0:
240,144,158163,2,0,L|108:140,1,102.000001945496,8|0,0:0|0:0,0:0:0:0:
296,332,158363,2,0,L|397:335,1,102.000001945496
289,58,158563,6,0,P|194:57|140:173,1,204.000003890991
116,228,158863,1,0,0:0:0:0:
116,228,158963,1,8,0:0:0:0:
60,48,159163,1,0,0:0:0:0:
72,320,159363,6,0,P|121:329|171:319,2,102.000001945496
240,248,159663,1,0,0:0:0:0:
240,248,159763,2,0,P|289:238|339:248,1,102.000001945496,8|0,0:0|0:0,0:0:0:0:
116,228,159963,2,0,P|144:185|186:157,1,102.000001945496
352,132,160163,6,0,P|394:159|422:202,1,102.000001945496
452,384,160363,2,0,P|461:334|451:284,1,102.000001945496
116,228,160563,6,0,P|165:217|215:227,1,102.000001945496,8|0,0:0|0:0,0:0:0:0:
364,335,160763,2,0,P|335:292|293:264,1,102.000001945496
32,192,160963,6,0,P|59:149|102:121,2,102.000001945496
283,92,161263,1,0,0:0:0:0:
283,92,161363,2,0,P|233:82|183:92,1,102.000001945496,8|0,0:0|0:0,0:0:0:0:
434,198,161563,2,0,P|406:155|364:128,1,102.000001945496
84,108,161763,5,0,0:0:0:0:
108,104,161863,1,0,0:0:0:0:
140,104,161963,1,0,0:0:0:0:
176,112,162063,1,0,0:0:0:0:
240,176,162163,5,8,0:0:0:0:
264,180,162263,1,0,0:0:0:0:
296,180,162363,1,0,0:0:0:0:
332,172,162463,1,0,0:0:0:0:
384,96,162563,6,0,P|308:196|428:200,1,204.000003890991
83,382,162963,6,0,B|108:324|152:304|152:304|200:340|268:304|268:304|208:256|225:197|225:197|272:180|320:196|352:240,1,480
408,156,164963,6,0,P|436:224|432:256,1,90
456,64,165363,5,0,0:0:0:0:
368,52,165496,5,0,0:0:0:0:
308,120,165629,5,0,0:0:0:0:
320,208,165763,6,0,P|332:220|268:224,1,160
172,116,166163,2,0,P|164:128|196:112,1,111.999996582031
244,34,166563,6,0,P|300:122|233:254,1,223.999993164063
144,316,166963,2,0,P|232:260|364:327,1,223.999993164063,8|0,0:0|0:0,0:0:0:0:
392,368,167363,1,0,0:0:0:0:
416,224,167496,1,0,0:0:0:0:
252,360,167629,1,0,0:0:0:0:
298,106,167763,2,0,L|276:216,2,111.999996582031,8|0|0,0:0|0:0|0:0,0:0:0:0:
184,280,168163,6,0,P|128:296|40:276,1,111.999996582031
0,248,168429,1,0,0:0:0:0:
160,24,168563,2,0,P|176:80|156:168,1,111.999996582031,8|0,0:0|0:0,0:0:0:0:
128,208,168829,1,0,0:0:0:0:
272,73,168963,5,0,0:0:0:0:
88,88,169096,1,0,0:0:0:0:
312,192,169229,1,0,0:0:0:0:
140,296,169363,2,0,B|97:299|97:299|33:251,1,111.999996582031,8|0,0:0|0:0,0:0:0:0:
216,160,169629,1,0,0:0:0:0:
353,296,169763,6,0,P|414:207|375:107,1,223.999993164063
140,296,170163,2,0,P|79:207|119:107,1,223.999993164063,8|0,0:0|0:0,0:0:0:0:
424,228,170563,6,0,P|403:122|304:79,1,223.999993164063
69,228,170963,2,0,P|90:122|189:79,1,223.999993164063,8|0,0:0|0:0,0:0:0:0:
311,333,171363,6,0,P|290:227|191:184,1,223.999993164063
54,344,171763,1,8,0:0:0:0:
69,228,171896,1,0,0:0:0:0:
174,184,172029,1,0,0:0:0:0:
189,68,172163,5,0,0:0:0:0:
162,292,172296,1,2,0:0:0:0:
274,108,172429,5,0,0:0:0:0:
54,52,172563,2,0,B|38:108|38:108|66:224,1,111.999996582031,8|0,0:0|0:0,0:0:0:0:
142,4,172829,1,0,0:0:0:0:
144,112,172963,6,0,B|208:84|208:84|360:128,1,223.999993164063
228,384,173363,2,0,B|256:320|256:320|213:171,1,223.999993164063,8|0,0:0|0:0,0:0:0:0:
328,88,173763,6,0,B|300:152|300:152|342:300,1,223.999993164063
213,171,174163,2,0,B|277:143|277:143|425:185,1,223.999993164063,8|0,0:0|0:0,0:0:0:0:
340,56,174563,6,0,P|200:60|128:150,1,223.999993164063
352,324,174963,2,0,P|419:201|376:94,1,223.999993164063,8|0,0:0|0:0,0:0:0:0:
113,200,175363,2,0,P|186:319|300:335,1,223.999993164063
312,92,175763,1,8,0:0:0:0:
212,196,175896,1,0,0:0:0:0:
129,88,176029,5,0,0:0:0:0:
117,96,176163,1,0,0:0:0:0:
213,56,176296,1,0,0:0:0:0:
28,132,176429,1,0,0:0:0:0:
261,164,176563,1,8,0:0:0:0:
272,172,176829,5,0,0:0:0:0:
284,180,176963,1,0,0:0:0:0:
188,140,177096,1,0,0:0:0:0:
368,220,177229,1,0,0:0:0:0:
140,248,177363,1,8,0:0:0:0:
128,256,177629,5,0,0:0:0:0:
312,296,177763,1,0,0:0:0:0:
324,304,178029,5,0,0:0:0:0:
456,132,178163,1,8,0:0:0:0:
467,139,178296,1,0,0:0:0:0:
480,148,178429,1,0,0:0:0:0:
284,180,178563,1,0,0:0:0:0:
272,188,178829,5,0,0:0:0:0:
424,252,178963,1,0,0:0:0:0:
436,260,179229,5,0,0:0:0:0:
216,292,179363,6,0,L|56:295,1,160,6|0,0:0|0:0,0:0:0:0:
6,174,179763,6,0,B|50:202|50:202|210:198,1,160
244,32,180163,6,0,L|252:244,1,160,8|0,0:0|0:0,0:0:0:0:
164,360,180563,2,0,L|156:148,1,160
344,128,180963,2,0,L|337:287,1,160,2|0,0:0|0:0,0:0:0:0:
272,68,181363,6,0,B|316:40|316:40|476:44,1,160
256,152,181763,6,0,L|96:145,1,160,8|0,0:0|0:0,0:0:0:0:
0,245,182163,2,0,L|212:237,1,160
328,325,182563,2,0,L|116:333,1,160,6|0,0:0|0:0,0:0:0:0:
408,372,182963,6,0,B|422:321|422:321|374:169,1,160
320,36,183363,6,0,P|332:72|244:140,1,160,8|0,0:0|0:0,0:0:0:0:
126,136,183763,2,0,P|151:107|254:149,1,160
309,253,184163,2,0,P|271:245|256:135,1,160,2|0,0:0|0:0,0:0:0:0:
408,116,184563,2,0,L|400:280,1,160
396,364,184896,1,0,0:0:0:0:
396,364,184963,2,0,B|344:340|344:340|216:348,1,160,8|0,0:0|0:0,0:0:0:0:
152,348,185363,5,0,0:0:0:0:
224,268,185496,1,0,0:0:0:0:
72,236,185629,1,0,0:0:0:0:
296,188,185763,6,0,L|488:180,1,160,6|0,0:0|0:0,0:0:0:0:
244,112,186163,2,0,P|212:148|204:196,2,80
383,274,186563,6,0,L|191:266,1,160,8|0,0:0|0:0,0:0:0:0:
43,184,186963,2,0,L|235:176,1,160
460,112,187363,2,0,L|268:104,1,160,2|0,0:0|0:0,0:0:0:0:
434,255,187763,6,0,P|474:191|454:103,1,160
492,332,188163,6,0,P|415:346|348:300,1,160,8|0,0:0|0:0,0:0:0:0:
220,108,188563,2,0,P|296:93|364:140,1,160
208,268,188963,2,0,P|131:282|64:236,1,160,2|0,0:0|0:0,0:0:0:0:
220,108,189363,6,0,L|207:267,1,160
56,72,189763,6,0,P|92:52|160:56,2,80,8|0|0,0:0|0:0|0:0,0:0:0:0:
294,131,190163,2,0,P|258:111|190:115,2,80
56,190,190563,2,0,P|92:170|160:174,1,80,2|0,0:0|0:0,0:0:0:0:
56,72,190829,1,0,0:0:0:0:
120,252,190963,2,0,L|292:248,1,160
456,208,191363,6,0,P|420:188|352:192,1,80,8|0,0:0|0:0,0:0:0:0:
472,112,191629,1,0,0:0:0:0:
296,198,191763,2,0,P|300:158|320:124,2,80
300,360,192163,5,0,0:0:0:0:
72,144,192963,5,8,0:0:0:0:
348,108,193763,5,0,0:0:0:0:
72,144,193963,1,8,0:0:0:0:
420,232,194563,5,0,0:0:0:0:
256,56,195163,5,0,0:0:0:0:
420,232,195363,1,8,0:0:0:0:
52,316,196163,5,0,0:0:0:0:
160,96,196963,5,0,0:0:0:0:
52,316,197163,1,8,0:0:0:0:
44,89,197563,5,0,0:0:0:0:
180,292,197763,1,8,0:0:0:0:
344,148,198163,6,0,B|228:92|228:224|112:148,1,243.000000926971
44,89,198563,6,0,P|96:128|96:196,1,120
208,208,199363,2,0,P|156:247|156:315,1,120
176,384,200163,5,0,0:0:0:0:
188,120,200363,1,8,0:0:0:0:
44,288,200563,1,0,0:0:0:0:
29,302,200963,6,0,L|157:298,1,120
236,296,201563,1,0,0:0:0:0:
240,96,201763,6,0,P|240:148|292:196,1,90.0000034332277,8|0,0:0|0:0,0:0:0:0:
320,244,202163,6,0,P|342:205|328:128,1,120
98,290,202563,6,0,P|155:317|240:292,1,150,8|0,0:0|0:0,0:0:0:0:
316,48,202963,6,0,P|234:13|151:41,1,180.000006866455
232,328,203363,6,0,L|296:324,1,48
368,316,203563,6,0,L|272:308,1,60
208,304,203763,6,0,L|296:296,1,71.9999978027344
392,292,203963,6,0,L|288:280,1,83.9999974365235
192,280,204163,6,0,L|304:264,1,96
412,252,204363,6,0,L|272:232,1,107.999996704102
176,220,204563,6,0,L|324:196,1,120
448,196,204763,6,0,B|248:164,1,120
144,104,204963,6,0,L|184:100,1,30
352,304,205163,6,0,P|324:284|304:276,1,30
372,264,205263,2,0,P|338:254|317:254,1,30
377,219,205363,2,0,P|342:221|322:228,1,30
366,175,205463,2,0,P|334:189|317:202,1,30
340,137,205563,2,0,P|315:161|304:179,1,30
302,110,205663,2,0,P|287:141|282:162,1,30
259,97,205763,1,0,0:0:0:0:
259,97,205963,6,0,B|200:112|200:80|140:96,1,120
140,95,206563,6,0,P|228:152|196:264,1,215.999993408203,4|0,0:0|0:0,0:0:0:0:
156,328,206863,1,0,0:0:0:0:
113,242,206963,2,0,P|141:234|221:258,1,102.000001945496,8|0,0:0|0:0,0:0:0:0:
344,148,207163,2,0,P|316:140|236:164,1,107.999996704102
488,264,207363,6,0,P|467:214|424:183,2,107.999996704102
448,348,207663,1,0,0:0:0:0:
396,268,207763,2,0,P|346:248|293:256,1,107.999996704102,8|0,0:0|0:0,0:0:0:0:
152,380,207963,2,0,P|173:330|216:299,1,107.999996704102
304,284,208163,2,0,P|253:284|209:308,1,66.0000020141602
58,239,208363,6,0,P|107:258|160:250,1,107.999996704102
182,87,208563,2,0,P|139:119|120:169,1,107.999996704102,8|0,0:0|0:0,0:0:0:0:
251,270,208763,2,0,P|243:217|210:175,1,107.999996704102
80,316,208963,6,0,P|111:272|160:251,2,107.999996704102
169,344,209263,1,0,0:0:0:0:
169,344,209363,2,0,P|221:335|271:355,1,107.999996704102,8|0,0:0|0:0,0:0:0:0:
0,359,209563,2,0,P|-8:306|11:256,1,107.999996704102
448,144,209763,6,0,L|452:280,1,107.999996704102
279,88,209963,2,0,L|275:224,1,107.999996704102
72,116,210163,2,0,L|68:252,1,107.999996704102,8|0,0:0|0:0,0:0:0:0:
241,60,210363,2,0,L|245:196,1,107.999996704102
448,88,210563,6,0,L|452:224,2,107.999996704102
279,32,210863,1,0,0:0:0:0:
279,32,210963,2,0,L|275:168,1,107.999996704102,8|0,0:0|0:0,0:0:0:0:
340,348,211163,2,0,L|343:240,1,107.999996704102
156,276,211363,6,0,P|187:319|236:340,1,107.999996704102
216,152,211563,2,0,P|184:108|135:87,1,107.999996704102
248,244,211763,2,0,P|291:212|312:163,1,107.999996704102
112,0,211963,2,0,P|68:31|47:80,1,107.999996704102
64,240,212163,1,0,0:0:0:0:
339,25,212363,5,0,0:0:0:0:
340,132,212463,1,0,0:0:0:0:
342,240,212563,2,0,L|336:384,1,107.999996704102,8|0,0:0|0:0,0:0:0:0:
243,136,212763,2,0,L|249:280,1,107.999996704102
444,48,212963,6,0,L|438:192,1,107.999996704102
160,296,213163,2,0,L|155:188,1,107.999996704102
440,327,213363,2,0,P|396:347|312:339,1,107.999996704102,8|0,0:0|0:0,0:0:0:0:
172,60,213563,2,0,P|216:40|300:48,1,107.999996704102
247,243,213763,6,0,L|242:135,2,107.999996704102
352,92,214063,1,0,0:0:0:0:
352,92,214163,2,0,L|347:199,1,107.999996704102,8|0,0:0|0:0,0:0:0:0:
160,296,214363,2,0,L|155:188,1,107.999996704102
316,304,214563,6,0,P|369:304|418:283,1,107.999996704102
188,92,214763,2,0,P|134:91|85:112,1,107.999996704102
347,199,214963,2,0,L|342:91,1,107.999996704102,8|0,0:0|0:0,0:0:0:0:
155,188,215163,2,0,L|160:296,1,107.999996704102
252,168,215363,6,0,L|247:60,2,107.999996704102
152,88,215663,1,0,0:0:0:0:
152,88,215763,2,0,P|98:87|49:108,1,107.999996704102,8|0,0:0|0:0,0:0:0:0:
349,79,215963,2,0,P|300:58|247:60,1,107.999996704102
440,64,216163,5,0,0:0:0:0:
408,152,216263,2,0,P|429:201|427:254,2,107.999996704102
246,60,216563,1,8,0:0:0:0:
278,148,216663,2,0,P|257:197|259:250,1,107.999996704102
180,132,216863,1,0,0:0:0:0:
148,220,216963,6,0,P|169:269|167:322,2,107.999996704102
77,150,217263,1,0,0:0:0:0:
180,132,217363,2,0,P|177:78|198:29,1,107.999996704102,8|0,0:0|0:0,0:0:0:0:
296,250,217563,2,0,P|298:196|277:147,1,107.999996704102
408,360,217763,6,0,P|464:236|432:156,1,215.999993408203,8|0,0:0|0:0,0:0:0:0:
72,166,218163,2,0,P|49:269|104:360,1,215.999993408203,8|0,0:0|0:0,0:0:0:0:
468,248,218563,2,0,P|490:144|436:54,1,215.999993408203,8|0,0:0|0:0,0:0:0:0:
76,56,218963,6,0,B|21:146|21:146|52:281,1,240,12|0,0:0|0:0,0:0:0:0:
220,168,219363,6,0,P|128:160|80:212,1,107.999996704102
168,240,219563,1,0,0:0:0:0:
260,252,219663,1,0,0:0:0:0:
312,180,219763,2,0,P|362:163|414:177,1,107.999996704102,8|0,0:0|0:0,0:0:0:0:
312,328,219963,2,0,P|261:344|209:330,1,107.999996704102
212,60,220163,6,0,L|220:176,1,107.999996704102
319,72,220363,2,0,L|311:188,1,107.999996704102
118,165,220563,6,0,L|126:281,1,107.999996704102,8|0,0:0|0:0,0:0:0:0:
272,20,220763,2,0,L|272:172,1,107.999996704102
480,156,220963,2,0,B|471:281|471:281|428:251|366:279,1,215.999993408203
48,324,221363,2,0,P|104:364|216:280,1,215.999993408203,8|0,0:0|0:0,0:0:0:0:
220,104,221663,1,0,0:0:0:0:
220,104,221763,6,0,P|204:152|220:236,2,107.999996704102
83,176,222063,1,0,0:0:0:0:
83,176,222163,2,0,P|93:225|149:290,1,107.999996704102,8|0,0:0|0:0,0:0:0:0:
164,0,222363,2,0,P|124:36|101:84,1,107.999996704102
360,256,222563,6,0,P|320:219|297:171,1,107.999996704102
228,360,222763,2,0,P|211:308|216:255,1,107.999996704102
20,91,222963,6,0,P|59:127|82:175,1,107.999996704102,8|0,0:0|0:0,0:0:0:0:
212,15,223163,2,0,P|228:66|223:119,1,107.999996704102
112,268,223363,6,0,P|60:284|7:279,2,107.999996704102
203,220,223663,1,0,0:0:0:0:
203,220,223763,2,0,P|254:203|307:208,1,107.999996704102,8|0,0:0|0:0,0:0:0:0:
460,332,223963,2,0,P|435:283|394:249,1,107.999996704102
301,100,224163,6,0,L|309:260,1,107.999996704102
456,148,224363,1,0,0:0:0:0:
462,121,224463,1,0,0:0:0:0:
455,95,224563,1,8,0:0:0:0:
438,75,224663,1,0,0:0:0:0:
396,48,224763,5,0,0:0:0:0:
300,32,224863,1,0,0:0:0:0:
208,88,224963,2,0,P|136:92|68:60,1,107.999996704102
19,117,225163,2,0,P|58:154|108:176,1,107.999996704102
278,216,225363,6,0,P|342:183|385:121,1,107.999996704102,8|0,0:0|0:0,0:0:0:0:
455,147,225563,2,0,P|440:198|408:242,1,107.999996704102
260,336,225763,6,0,B|172:280|172:280|68:344,1,215.999993408203
80,232,226063,1,0,0:0:0:0:
80,232,226163,2,0,B|167:175|167:175|153:54,1,215.999993408203,8|0,0:0|0:0,0:0:0:0:
72,128,226463,1,0,0:0:0:0:
72,128,226563,2,0,L|56:8,2,107.999996704102
76,338,226863,1,0,0:0:0:0:
76,338,226963,2,0,L|61:230,1,107.999996704102,8|0,0:0|0:0,0:0:0:0:
155,64,227163,2,0,L|169:171,1,107.999996704102
220,344,227363,6,0,P|240:280|396:312,1,215.999993408203
312,340,227663,1,0,0:0:0:0:
312,340,227763,1,8,0:0:0:0:
400,120,227963,1,0,0:0:0:0:
169,171,228163,6,0,P|108:168|57:139,2,107.999996704102
136,80,228463,1,0,0:0:0:0:
136,80,228563,2,0,P|85:47|55:-3,1,107.999996704102,8|0,0:0|0:0,0:0:0:0:
332,63,228763,2,0,P|284:89|231:94,1,107.999996704102
408,232,228963,6,0,L|524:228,1,102.000001945496
312,232,229163,1,0,0:0:0:0:
312,232,229263,1,0,0:0:0:0:
312,232,229363,2,0,P|336:168|384:136,1,102.000001945496,8|0,0:0|0:0,0:0:0:0:
228,276,229563,1,0,0:0:0:0:
228,276,229663,1,0,0:0:0:0:
228,276,229763,2,0,P|216:208|242:156,2,102.000001945496
252,364,230063,1,0,0:0:0:0:
252,364,230163,2,0,P|201:362|157:337,1,102.000001945496,8|0,0:0|0:0,0:0:0:0:
100,264,230363,2,0,P|79:218|84:168,1,102.000001945496
104,72,230563,5,0,0:0:0:0:
158,26,230663,1,0,0:0:0:0:
228,12,230763,1,0,0:0:0:0:
296,32,230863,1,0,0:0:0:0:
388,68,230963,5,8,0:0:0:0:
364,104,231063,1,0,0:0:0:0:
352,144,231163,1,0,0:0:0:0:
348,184,231263,1,0,0:0:0:0:
280,248,231363,6,0,P|248:232|164:240,1,90.0000034332277
124,169,231563,2,0,P|163:148|208:144,1,90.0000034332277
444,208,231763,6,0,B|452:256|452:256|436:332,1,120,8|0,0:0|0:0,0:0:0:0:
400,128,232563,6,0,B|392:80|392:80|408:4,2,120
96,56,233763,5,0,0:0:0:0:
96,56,234163,2,0,L|100:82,4,24
112,180,234463,1,0,0:0:0:0:
80,168,234563,2,0,L|76:256,1,48
192,120,234763,2,0,L|196:208,1,48
320,356,234963,6,0,P|360:264|296:340,1,233.999989288331,4|0,0:0|0:0,0:0:0:0:
228,356,235363,6,0,L|28:348,1,198.000006042481,4|0,0:0|0:0,0:0:0:0:
192,264,235763,6,0,B|264:268|264:268|308:304|308:304|376:308,1,198.000006042481
344,220,236163,6,0,L|340:148,1,66.0000020141602,8|0,0:0|0:0,0:0:0:0:
228,40,236363,2,0,L|224:112,1,66.0000020141602
376,308,236563,6,0,L|360:22,2,264.000008056641
464,180,237563,1,0,0:0:0:0:
272,192,237763,6,0,L|200:196,1,66.0000020141602,8|0,0:0|0:0,0:0:0:0:
276,312,237963,2,0,L|204:316,1,66.0000020141602
92,152,238163,2,0,L|102:349,1,198.000006042481
272,192,238563,6,0,L|200:196,1,66.0000020141602
340,128,238763,2,0,B|368:192|368:192|332:292,2,132.00000402832
304,76,239263,1,0,0:0:0:0:
268,24,239363,6,0,B|188:24,1,66.0000020141602,8|0,0:0|0:0,0:0:0:0:
116,120,239563,2,0,B|196:120,1,66.0000020141602
36,60,239763,2,0,B|16:124|16:124|40:192|40:192|12:276,1,198.000006042481
124,228,240163,6,0,L|204:204,1,66.0000020141602
348,160,240563,6,0,B|352:184|352:184|336:256,1,66.0000020141602
248,336,240763,2,0,B|244:312|244:312|260:240,1,66.0000020141602
324,72,240963,6,0,L|244:48,1,66.0000020141602,8|0,0:0|0:0,0:0:0:0:
412,32,241263,5,0,0:0:0:0:
440,180,241363,6,0,L|428:112,1,51.0000009727478
459,277,241563,5,8,0:0:0:0:
132,180,241763,6,0,B|202:188|202:188|264:172|264:172|338:180,1,198.000006042481,4|0,0:0|0:0,0:0:0:0:
196,100,242163,6,0,L|0:72,1,198.000006042481
128,332,242563,6,0,L|132:256,1,66.0000020141602,8|0,0:0|0:0,0:0:0:0:
228,352,242763,2,0,L|232:276,1,66.0000020141602
341,108,242963,2,0,L|327:371,2,264.000008056641
172,144,243963,1,0,0:0:0:0:
172,120,244063,1,0,0:0:0:0:
172,96,244163,6,0,L|176:28,1,66.0000020141602,8|0,0:0|0:0,0:0:0:0:
61,209,244363,2,0,L|56:143,1,66.0000020141602
248,248,244563,2,0,L|251:182,1,66.0000020141602
36,304,244763,2,0,L|39:375,1,66.0000020141602
256,116,244963,6,0,L|247:247,1,132.00000402832
372,124,245363,2,0,L|369:58,1,66.0000020141602
336,224,245563,1,0,0:0:0:0:
368,222,245663,1,0,0:0:0:0:
401,220,245763,2,0,L|466:217,1,66.0000020141602,8|0,0:0|0:0,0:0:0:0:
352,316,245963,2,0,L|286:318,1,66.0000020141602
410,88,246163,2,0,L|401:219,1,132.00000402832
212,46,246563,6,0,L|284:34,1,66.0000020141602
285,168,246763,1,0,0:0:0:0:
252,162,246863,1,0,0:0:0:0:
219,157,246963,2,0,L|147:145,1,66.0000020141602
344,98,247163,2,0,L|416:86,1,66.0000020141602
108,308,247363,6,0,P|102:253|84:220,1,77.9999964294435,8|0,0:0|0:0,0:0:0:0:
340,352,247563,2,0,P|345:297|364:264,1,77.9999964294435
200,68,247763,6,0,L|204:364,1,270.000010299683,4|0,0:0|0:0,0:0:0:0:
296,100,248163,6,0,P|376:84|428:120,1,120,4|0,0:0|0:0,0:0:0:0:
424,116,248463,1,0,0:0:0:0:
435,136,248563,1,0,0:0:0:0:
442,159,248663,1,0,0:0:0:0:
442,183,248763,1,0,0:0:0:0:
436,206,248863,1,0,0:0:0:0:
424,227,248963,1,2,0:0:0:0:
324,324,249163,1,0,0:0:0:0:
512,300,249363,5,0,0:0:0:0:
240,272,249563,2,0,L|224:284,4,15,2|0|0|0|0,0:0|0:0|0:0|0:0|0:0,0:0:0:0:
424,112,249763,1,0,0:0:0:0:
156,164,249963,2,0,L|136:144,4,15,2|0|0|0|0,0:0|0:0|0:0|0:0|0:0,0:0:0:0:
324,324,250163,2,0,B|336:268|336:268|308:176,1,120
264,44,250563,5,2,0:0:0:0:
432,188,250763,1,0,0:0:0:0:
356,28,250963,1,0,0:0:0:0:
324,324,251163,1,0,0:0:0:0:
448,68,251363,1,0,0:0:0:0:
196,184,251563,5,0,0:0:0:0:
196,184,251663,1,0,0:0:0:0:
196,184,251763,1,0,0:0:0:0:
464,168,251963,1,0,0:0:0:0:
240,272,252163,1,2,0:0:0:0:
310,26,252363,1,0,0:0:0:0:
196,184,252563,1,0,0:0:0:0:
354,128,252763,1,0,0:0:0:0:
92,20,252963,5,0,0:0:0:0:
76,36,253063,1,0,0:0:0:0:
66,56,253163,1,0,0:0:0:0:
60,77,253263,1,0,0:0:0:0:
59,100,253363,1,0,0:0:0:0:
64,122,253463,1,0,0:0:0:0:
74,142,253563,1,0,0:0:0:0:
88,159,253663,1,0,0:0:0:0:
108,172,253763,6,0,P|140:184|180:184,2,60,2|0|2,0:0|0:0|0:0,0:0:0:0:
264,192,254063,1,0,0:0:0:0:
264,192,254163,2,0,P|293:195|321:206,1,60
420,320,254363,2,0,P|408:293|389:270,1,60
72,264,254563,5,4,0:0:0:0:
244,48,254763,5,0,0:0:0:0:
244,48,254863,1,0,0:0:0:0:
244,48,254963,2,0,P|284:56|332:40,1,60
332,132,255163,2,0,P|365:109|388:64,1,60
376,8,255363,1,2,0:0:0:0:
468,236,255563,1,0,0:0:0:0:
380,264,255763,5,0,0:0:0:0:
468,236,255963,1,0,0:0:0:0:
232,196,256163,1,0,0:0:0:0:
456,112,256363,5,0,0:0:0:0:
192,80,256563,1,0,0:0:0:0:
276,336,256763,1,0,0:0:0:0:
320,4,256963,1,2,0:0:0:0:
380,264,257163,1,0,0:0:0:0:
400,172,257363,5,0,0:0:0:0:
380,264,257563,1,0,0:0:0:0:
512,184,257763,1,0,0:0:0:0:
232,196,257963,5,0,0:0:0:0:
232,196,258063,1,0,0:0:0:0:
232,196,258163,1,0,0:0:0:0:
344,80,258363,1,0,0:0:0:0:
252,320,258563,1,2,0:0:0:0:
212,72,258763,1,0,0:0:0:0:
232,196,258963,1,0,0:0:0:0:
284,0,259163,1,0,0:0:0:0:
64,308,259363,5,0,0:0:0:0:
83,296,259463,1,0,0:0:0:0:
104,288,259563,1,0,0:0:0:0:
126,284,259663,1,0,0:0:0:0:
148,282,259763,1,0,0:0:0:0:
171,285,259863,1,0,0:0:0:0:
193,290,259963,1,0,0:0:0:0:
213,299,260063,1,0,0:0:0:0:
232,312,260163,2,0,P|280:332|328:328,1,60
376,344,260363,2,0,L|400:340,4,15
484,240,260563,6,0,P|477:269|463:295,1,60
424,44,260963,6,0,B|372:68|360:148|392:200|392:200|432:140|492:148|492:148|432:116|400:124,1,390
