osu file format v14

[General]
AudioFilename: audio.mp3
AudioLeadIn: 0
PreviewTime: -1
Countdown: 1
SampleSet: Soft
StackLeniency: 0.7
Mode: 0
LetterboxInBreaks: 0
WidescreenStoryboard: 0

[Editor]
DistanceSpacing: 0.9
BeatDivisor: 4
GridSize: 4
TimelineZoom: 2.599999

[Metadata]
Title:YoiYoi Kokon
TitleUnicode:宵々古今
Artist:REOL
ArtistUnicode:REOL
Creator:Vietz
Version:overmapped xdd
Source:
Tags:
BeatmapID:1082799
BeatmapSetID:509137

[Difficulty]
HPDrainRate:6
CircleSize:4
OverallDifficulty:8
ApproachRate:9.3
SliderMultiplier:1.7
SliderTickRate:1

[Events]
//Background and Video events
0,0,"CsTrdtnUIAAdh77.jpg",0,0
//Break Periods
//Storyboard Layer 0 (Background)
//Storyboard Layer 1 (Fail)
//Storyboard Layer 2 (Pass)
//Storyboard Layer 3 (Foreground)
//Storyboard Sound Samples

[TimingPoints]
8085,400,4,2,0,100,1,0
26685,-100,4,2,0,5,0,0
26987,-100,4,2,0,100,0,0
33085,-50,4,2,0,5,0,0
33285,-100,4,2,0,100,0,0
36885,-66.6666666666667,4,2,0,100,0,0
37087,-100,4,2,0,100,0,0
58685,-200,4,2,0,100,0,0
58985,-100,4,2,0,100,0,0
70885,-66.6666666666667,4,2,0,100,0,0
70985,-50,4,2,0,100,0,0
72067,-100,4,2,0,100,0,0
88085,-66.6666666666667,4,2,0,100,0,0
88385,-100,4,2,0,100,0,0
91285,-66.6666666666667,4,2,0,100,0,0
91485,-100,4,2,0,100,0,0
92885,-50,4,2,0,100,0,0
92985,-100,4,2,0,100,0,0
94885,-66.6666666666667,4,2,0,100,0,0
95085,-100,4,2,0,100,0,0
98885,-50,4,2,0,100,0,0
99485,-66.6666666666667,4,2,0,35,0,0
99785,-66.6666666666667,4,2,0,100,0,0
100685,-66.6666666666667,4,2,0,35,0,0
100785,-66.6666666666667,4,2,0,100,0,0
101085,-66.6666666666667,4,2,0,35,0,0
101185,-66.6666666666667,4,2,0,100,0,0
105085,-66.6666666666667,4,2,0,35,0,0
105185,-66.6666666666667,4,2,0,100,0,0
105485,-66.6666666666667,4,2,0,35,0,0
105585,-66.6666666666667,4,2,0,100,0,0
107085,-66.6666666666667,4,2,0,35,0,0
107285,-66.6666666666667,4,2,0,100,0,0
107485,-66.6666666666667,4,2,0,35,0,0
107585,-66.6666666666667,4,2,0,100,0,0
112085,-100,4,2,0,100,0,0
113485,-100,4,2,0,35,0,0
113685,-100,4,2,0,100,0,0
125085,-100,4,2,0,50,0,0
130085,-66.6666666666667,4,2,0,60,0,0
130485,-100,4,2,0,60,0,0
131185,-100,4,2,0,100,0,0
131385,-100,4,2,0,70,0,0

[HitObjects]
256,212,6885,6,0,L|264:276,1,42.5
52,236,8085,6,0,P|96:160|132:132,1,127.5
148,116,8485,1,0,0:0:0:0:
244,80,8685,1,0,0:0:0:0:
228,200,8885,1,0,0:0:0:0:
332,256,9085,1,0,0:0:0:0:
176,308,9285,1,0,0:0:0:0:
344,184,9485,2,0,L|424:248,1,85
252,228,9885,5,0,0:0:0:0:
144,112,10085,1,0,0:0:0:0:
336,136,10285,1,0,0:0:0:0:
336,136,10385,1,0,0:0:0:0:
336,136,10485,1,0,0:0:0:0:
200,148,10685,1,0,0:0:0:0:
144,44,10885,1,0,0:0:0:0:
112,216,11085,1,0,0:0:0:0:
292,272,11285,2,0,P|376:236|392:200,1,127.5
404,184,11685,5,0,0:0:0:0:
304,104,11885,1,0,0:0:0:0:
236,292,12085,1,0,0:0:0:0:
192,176,12285,1,0,0:0:0:0:
112,336,12485,1,0,0:0:0:0:
104,152,12685,2,0,L|56:36,1,85
260,84,13085,1,0,0:0:0:0:
176,248,13285,1,0,0:0:0:0:
336,136,13485,1,0,0:0:0:0:
336,136,13585,1,0,0:0:0:0:
336,136,13685,1,0,0:0:0:0:
232,228,13885,5,0,0:0:0:0:
312,336,14085,1,0,0:0:0:0:
336,136,14285,1,0,0:0:0:0:
336,136,14385,1,8,0:0:0:0:
336,136,14485,1,0,0:0:0:0:
76,100,14685,5,0,0:0:0:0:
144,228,14885,1,0,0:0:0:0:
292,260,15085,1,0,0:0:0:0:
52,328,15285,5,8,0:0:0:0:
352,116,15485,1,0,0:0:0:0:
388,252,15685,1,0,0:0:0:0:
272,336,15885,1,0,0:0:0:0:
36,80,16085,5,8,0:0:0:0:
68,324,16285,1,0,0:0:0:0:
184,264,16485,1,0,0:0:0:0:
196,144,16685,1,0,0:0:0:0:
396,308,16885,5,8,0:0:0:0:
236,84,17085,1,0,0:0:0:0:
348,144,17285,1,0,0:0:0:0:
352,272,17485,1,0,0:0:0:0:
44,40,17685,5,8,0:0:0:0:
148,244,17885,1,0,0:0:0:0:
320,192,18085,1,0,0:0:0:0:
192,180,18285,1,0,0:0:0:0:
312,256,18485,5,8,0:0:0:0:
192,144,18685,1,0,0:0:0:0:
264,280,18885,1,0,0:0:0:0:
240,120,19085,1,0,0:0:0:0:
252,296,19285,5,8,0:0:0:0:
252,80,19485,1,0,0:0:0:0:
144,256,19685,1,8,0:0:0:0:
304,56,19885,1,0,0:0:0:0:
372,280,20085,1,8,0:0:0:0:
188,64,20285,1,0,0:0:0:0:
312,336,20485,2,0,B|264:320|264:320|272:272|192:244,1,127.5
248,208,20885,6,0,B|272:188|272:188|248:108,1,85
328,44,21285,2,0,B|320:96|320:96|332:148,1,85
388,168,21585,1,0,0:0:0:0:
456,192,21685,2,0,B|488:248|488:248|428:236,1,85
324,340,22085,2,0,L|276:244,1,85
220,68,22485,2,0,L|168:160,1,85
76,320,22885,2,0,B|56:280|56:280|96:216,1,85
148,224,23185,1,0,0:0:0:0:
216,188,23285,2,0,P|240:148|216:84,1,85
336,156,23685,5,0,0:0:0:0:
388,300,23885,1,0,0:0:0:0:
236,304,24085,2,0,P|188:276|164:248,1,85
280,220,24485,2,0,P|292:176|256:136,1,85
312,80,24785,1,0,0:0:0:0:
388,60,24885,2,0,P|392:136|368:176,1,85
216,280,25285,2,0,P|256:212|252:176,1,85
148,144,25685,5,0,0:0:0:0:
284,184,25885,1,0,0:0:0:0:
328,304,26085,1,0,0:0:0:0:
112,324,26285,1,0,0:0:0:0:
216,200,26485,1,0,0:0:0:0:
396,296,26685,1,0,0:0:0:0:
396,296,26885,1,0,0:0:0:0:
104,244,27285,6,0,P|164:244|240:216,1,127.5
204,152,27685,2,0,P|264:160|312:200,1,85
308,240,27985,1,0,0:0:0:0:
368,284,28085,2,0,P|344:308|264:296,1,85
112,200,28485,1,0,0:0:0:0:
184,296,28685,1,0,0:0:0:0:
60,148,28885,2,0,P|124:108|164:108,1,85
204,240,29285,5,0,0:0:0:0:
396,228,29485,1,0,0:0:0:0:
396,228,29585,1,0,0:0:0:0:
396,228,29685,2,0,L|324:284,1,85
80,176,30085,2,0,L|152:120,1,85
416,176,30485,2,0,B|380:188|392:236|392:236|352:268,1,85
382,243,30785,1,0,0:0:0:0:
382,243,30885,1,0,0:0:0:0:
136,160,31085,5,0,0:0:0:0:
352,300,31285,1,0,0:0:0:0:
80,104,31485,2,0,B|96:100|96:100|112:96|112:96|104:128|104:128|84:120|84:120,1,85
172,280,31885,2,0,B|216:188|216:188|264:200,1,127.5
296,232,32285,1,0,0:0:0:0:
324,292,32385,1,0,0:0:0:0:
388,312,32485,2,0,B|388:252|432:232|432:232|448:216,1,85
396,156,32885,1,0,0:0:0:0:
108,124,33085,6,0,B|120:148|120:148|88:144|88:144|96:100|96:100|132:104|132:104|108:124|108:124,1,170
160,236,33685,5,0,0:0:0:0:
340,160,33885,1,0,0:0:0:0:
340,160,33985,1,0,0:0:0:0:
340,160,34085,2,0,P|320:224|340:264,1,85
124,304,34485,2,0,P|156:252|148:200,1,85
312,120,34885,1,0,0:0:0:0:
228,264,35085,1,0,0:0:0:0:
128,84,35285,6,0,P|188:136|228:128,1,85
188,208,35585,1,0,0:0:0:0:
140,264,35685,2,0,P|196:296|224:332,1,85
280,300,35985,1,0,0:0:0:0:
336,248,36085,2,0,P|288:196|284:156,1,85
224,144,36385,1,0,0:0:0:0:
248,76,36485,1,0,0:0:0:0:
112,164,36685,1,0,0:0:0:0:
216,296,36885,6,0,P|256:264|208:276,1,127.500004863739
200,184,37285,2,0,P|252:180|296:200,1,85
316,256,37585,1,0,0:0:0:0:
352,320,37685,2,0,P|384:288|392:240,1,85
380,104,38085,2,0,P|332:144|316:200,1,85
256,292,38485,1,0,0:0:0:0:
116,204,38685,6,0,L|76:192,2,28.3333333333333
148,188,38885,2,0,B|160:136|160:136|220:108,1,85
252,152,39285,2,0,B|280:204|280:204|340:196,1,85
372,228,39585,1,0,0:0:0:0:
432,192,39685,2,0,P|436:260|416:284,1,85
176,320,40085,6,0,P|176:272|224:224,1,85
260,204,40385,1,0,0:0:0:0:
268,132,40485,2,0,P|320:164|332:220,1,85
308,252,40785,1,0,0:0:0:0:
252,300,40885,2,0,P|200:280|176:228,1,85
168,188,41185,1,0,0:0:0:0:
116,136,41285,2,0,P|160:104|180:72,1,85
264,132,41685,5,0,0:0:0:0:
84,252,41885,1,0,0:0:0:0:
336,256,42085,1,0,0:0:0:0:
168,308,42285,1,0,0:0:0:0:
372,168,42485,1,0,0:0:0:0:
132,176,42685,2,0,L|76:116,1,42.5
176,112,42885,2,0,L|244:180,1,85
288,220,43185,1,0,0:0:0:0:
316,284,43285,6,0,P|348:260|352:196,1,85
284,144,43685,1,0,0:0:0:0:
460,124,43885,2,0,B|420:156|376:140|376:140|344:172,1,127.5
312,224,44285,2,0,L|344:268,2,42.5
236,316,44685,1,0,0:0:0:0:
144,252,44885,2,0,B|120:200|120:200|144:168|132:128,1,127.5
184,84,45285,2,0,P|248:84|280:92,1,85
312,144,45585,1,0,0:0:0:0:
380,164,45685,2,0,B|380:196|356:224|356:224|368:292,1,127.5
308,328,46085,6,0,L|240:328,2,42.5
420,332,46485,1,12,0:0:0:0:
112,200,46885,6,0,P|112:152|136:208,1,170,8|0,0:0|0:0,0:0:0:0:
344,304,47685,1,0,0:0:0:0:
448,152,48085,2,0,P|396:92|292:72,2,170,8|0|0,0:0|0:0|0:0,0:0:0:0:
152,72,49285,1,0,0:0:0:0:
168,288,49685,1,12,0:0:0:0:
384,264,50085,6,0,B|408:224|388:176|388:176|428:96,2,170
136,108,51285,1,8,0:0:0:0:
212,312,51685,2,0,P|252:284|216:328,1,170
368,184,52485,2,0,L|380:160,9,14.1666666666667
180,108,52885,1,12,0:0:0:0:
200,280,53285,6,0,B|224:244|252:272|292:320|292:320|352:316,2,170
336,136,54485,1,8,0:0:0:0:
152,60,54885,1,0,0:0:0:0:
84,236,55285,2,0,B|164:248|168:300|168:300|228:328,1,170
136,80,56085,2,0,P|148:164|200:196,1,127.5
204,120,56485,2,0,P|156:160|160:240,1,127.5
220,192,56885,2,0,P|140:192|108:228,1,127.5
176,248,57285,2,0,P|184:160|244:136,1,127.5
236,208,57685,2,0,L|264:216,16,21.25
188,80,58685,6,0,L|256:104,1,63.75
292,168,59085,2,0,B|292:192|292:192|332:200,1,42.5
400,196,59285,2,0,B|440:248|440:248|432:288,1,85,12|0,0:0|0:0,0:0:0:0:
352,280,59585,1,0,0:0:0:0:
300,348,59685,2,0,P|256:320|240:276,1,85
212,148,60085,5,0,0:0:0:0:
368,200,60285,1,0,0:0:0:0:
104,108,60485,1,0,0:0:0:0:
200,300,60685,5,0,0:0:0:0:
228,228,60785,1,0,0:0:0:0:
304,192,60885,2,0,P|324:256|368:292,1,85
252,280,61185,1,0,0:0:0:0:
188,340,61285,2,0,P|180:288|164:256,1,85
196,88,61685,1,0,0:0:0:0:
380,164,61885,1,0,0:0:0:0:
256,336,62085,1,0,0:0:0:0:
256,336,62285,6,0,P|264:260|256:232,1,85
244,168,62585,1,0,0:0:0:0:
156,136,62685,2,0,P|180:204|188:240,1,85
152,292,62985,1,0,0:0:0:0:
80,340,63085,2,0,P|72:276|92:228,1,85
140,184,63385,1,0,0:0:0:0:
232,168,63485,2,0,P|268:204|312:204,1,85
376,156,63785,1,0,0:0:0:0:
448,208,63885,1,0,0:0:0:0:
292,336,64085,5,0,0:0:0:0:
108,308,64285,1,0,0:0:0:0:
28,140,64485,1,0,0:0:0:0:
216,248,64685,1,0,0:0:0:0:
440,156,64885,2,0,P|384:132|356:76,1,85
336,96,65185,1,0,0:0:0:0:
294,85,65285,1,0,0:0:0:0:
252,84,65385,1,0,0:0:0:0:
210,91,65485,1,0,0:0:0:0:
132,196,65685,5,0,0:0:0:0:
372,280,65885,1,0,0:0:0:0:
140,116,66085,1,0,0:0:0:0:
320,336,66285,2,0,P|268:312|224:324,1,85
156,304,66585,1,0,0:0:0:0:
104,232,66685,2,0,P|160:208|188:160,1,85
324,256,67085,5,0,0:0:0:0:
436,192,67285,1,0,0:0:0:0:
268,48,67485,1,0,0:0:0:0:
288,256,67685,2,0,P|296:308|304:364,1,85
96,156,68085,1,0,0:0:0:0:
332,64,68285,2,0,P|396:120|392:172,1,127.5
316,168,68685,6,0,P|316:216|280:260,1,85
216,232,68985,1,0,0:0:0:0:
136,260,69085,2,0,P|164:316|188:332,1,85
256,288,69385,1,0,0:0:0:0:
340,284,69485,2,0,P|356:240|408:204,1,85
376,136,69785,1,0,0:0:0:0:
296,116,69885,2,0,P|212:128|192:104,1,85
144,160,70185,1,0,0:0:0:0:
136,240,70285,1,0,0:0:0:0:
196,292,70385,1,0,0:0:0:0:
276,288,70485,6,0,L|304:200,1,85
160,332,70885,2,0,L|124:196,1,127.500004863739
368,288,71285,2,0,L|388:112,1,170
252,120,71685,2,0,B|208:96|208:96|232:64|232:64|268:88|268:88|256:116|256:116|228:140,1,170
256,340,72085,5,12,0:0:0:0:
152,104,72285,1,0,0:0:0:0:
128,139,72385,1,0,0:0:0:0:
119,180,72485,1,0,0:0:0:0:
240,104,72685,1,0,0:0:0:0:
172,244,72885,2,0,P|200:208|248:200,1,85
320,224,73185,1,0,0:0:0:0:
396,268,73285,2,0,P|372:304|332:318,1,85
256,300,73585,1,0,0:0:0:0:
172,300,73685,6,0,P|128:280|100:224,1,85
80,112,74085,2,0,P|128:128|212:116,1,127.5
276,96,74485,1,0,0:0:0:0:
300,232,74685,1,0,0:0:0:0:
460,332,74885,6,0,P|420:352|356:332,1,85
264,248,75285,1,0,0:0:0:0:
84,240,75485,1,0,0:0:0:0:
376,120,75685,1,0,0:0:0:0:
68,48,75885,5,0,0:0:0:0:
256,176,76085,1,0,0:0:0:0:
468,204,76285,1,0,0:0:0:0:
256,244,76485,1,0,0:0:0:0:
56,344,76685,1,0,0:0:0:0:
240,184,76885,1,0,0:0:0:0:
432,56,77085,1,0,0:0:0:0:
292,192,77285,1,0,0:0:0:0:
268,288,77485,2,0,L|252:336,1,42.5
192,356,77685,6,0,P|168:324|144:264,1,85,8|0,0:0|0:0,0:0:0:0:
168,204,77985,1,0,0:0:0:0:
228,144,78085,2,0,P|280:184|336:188,1,85,8|0,0:0|0:0,0:0:0:0:
384,180,78385,1,0,0:0:0:0:
452,232,78485,2,0,P|412:260|368:260,1,85
300,248,78785,1,0,0:0:0:0:
232,288,78885,1,0,0:0:0:0:
140,92,79085,5,0,0:0:0:0:
128,156,79185,1,0,0:0:0:0:
136,220,79285,1,0,0:0:0:0:
268,152,79485,1,0,0:0:0:0:
276,216,79585,1,0,0:0:0:0:
272,280,79685,1,0,0:0:0:0:
400,104,79885,1,0,0:0:0:0:
388,168,79985,1,0,0:0:0:0:
408,232,80085,6,0,P|424:280|384:336,1,85
352,352,80385,1,0,0:0:0:0:
284,328,80485,1,0,0:0:0:0:
176,260,80685,1,0,0:0:0:0:
352,208,80885,1,0,0:0:0:0:
148,344,81085,1,0,0:0:0:0:
276,140,81285,1,0,0:0:0:0:
232,320,81485,1,0,0:0:0:0:
176,64,81685,6,0,P|144:120|144:144,1,85
168,212,81985,1,0,0:0:0:0:
228,272,82085,2,0,P|280:244|340:248,1,85
392,256,82385,1,0,0:0:0:0:
448,192,82485,2,0,P|400:160|372:112,1,85
200,112,82885,1,0,0:0:0:0:
128,256,83085,1,0,0:0:0:0:
324,208,83285,2,0,P|408:268|432:332,2,170
40,108,84485,6,0,B|120:152|64:240|64:240|128:296|172:244,1,255
180,244,85185,1,0,0:0:0:0:
208,224,85285,2,0,L|184:188,3,28.3333333333333
244,224,85585,1,0,0:0:0:0:
276,232,85685,1,0,0:0:0:0:
372,264,85885,2,0,P|420:276|472:264,1,85,0|12,0:0|0:0,0:0:0:0:
100,104,86485,5,12,0:0:0:0:
168,216,86685,1,0,0:0:0:0:
168,216,86785,1,0,0:0:0:0:
168,216,86885,2,0,P|232:276|240:320,1,127.5
308,336,87285,1,8,0:0:0:0:
340,208,87485,2,0,P|284:188|252:140,1,85
320,76,87885,2,0,L|392:88,1,42.5
372,176,88085,2,0,P|328:232|348:176,1,191.250007295609
220,140,88485,2,0,P|200:88|176:68,1,85
88,160,88885,5,8,0:0:0:0:
140,200,88985,1,0,0:0:0:0:
144,264,89085,1,0,0:0:0:0:
276,296,89285,2,0,P|256:248|272:248,1,85
328,224,89585,1,0,0:0:0:0:
420,196,89685,2,0,L|352:156,1,42.5
404,96,89885,2,0,L|464:132,1,42.5
472,248,90085,6,0,L|376:184,1,85
320,208,90385,1,0,0:0:0:0:
248,240,90485,1,8,0:0:0:0:
104,128,90685,1,0,0:0:0:0:
156,276,90885,2,0,L|164:228,1,42.5
240,136,91085,2,0,L|232:188,1,42.5
276,312,91285,2,0,B|308:336|308:336|352:248,1,127.500004863739
404,168,91685,5,0,0:0:0:0:
144,96,91885,1,0,0:0:0:0:
176,152,91985,1,0,0:0:0:0:
180,216,92085,2,0,P|212:244|236:328,1,127.5,8|0,0:0|0:0,0:0:0:0:
312,296,92485,2,0,L|296:248,1,42.5
356,140,92685,2,0,L|372:204,1,42.5
444,308,92885,6,0,B|368:284|420:252|452:304|404:320|392:268|424:292,1,85,12|0,0:0|0:0,0:0:0:0:
298,255,93085,1,0,0:0:0:0:
132,120,93285,2,0,P|192:128|220:120,1,85
288,92,93585,1,0,0:0:0:0:
364,104,93685,1,8,0:0:0:0:
288,216,93885,1,0,0:0:0:0:
384,312,94085,1,0,0:0:0:0:
144,228,94285,5,0,0:0:0:0:
152,292,94385,1,0,0:0:0:0:
208,324,94485,1,0,0:0:0:0:
256,120,94685,1,0,0:0:0:0:
400,336,94885,2,0,B|408:272|360:236|360:236|384:192,1,127.500004863739
408,156,95185,1,0,0:0:0:0:
452,96,95285,1,8,0:0:0:0:
324,264,95485,1,0,0:0:0:0:
248,112,95685,1,0,0:0:0:0:
104,148,95885,5,0,0:0:0:0:
64,200,95985,1,0,0:0:0:0:
76,264,96085,2,0,P|92:308|104:288,1,85
252,216,96485,1,0,0:0:0:0:
420,244,96685,2,0,L|396:200,1,42.5
436,104,96885,2,0,L|468:168,1,42.5
443,279,97085,2,0,L|395:199,1,85
348,144,97385,1,0,0:0:0:0:
272,128,97485,1,0,0:0:0:0:
192,324,97685,6,0,P|144:264|136:232,1,85
172,188,97985,1,0,0:0:0:0:
152,116,98085,2,0,P|188:72|220:48,1,85
340,112,98485,2,0,L|316:176,1,42.5
364,272,98685,2,0,L|384:224,1,42.5
216,240,98885,2,0,P|212:136|236:248,1,340
328,296,99385,5,0,0:0:0:0:
392,268,99485,2,0,L|364:224,6,31.8750012159348
444,220,99885,1,0,0:0:0:0:
304,144,100085,1,0,0:0:0:0:
140,128,100285,1,0,0:0:0:0:
120,268,100485,6,0,L|164:320,1,63.7500024318696
240,300,100685,2,0,L|208:264,2,31.8750012159348
232,188,100885,2,0,L|284:240,1,63.7500024318696
356,212,101085,2,0,L|328:184,2,31.8750012159348
356,120,101285,1,0,0:0:0:0:
432,280,101485,1,0,0:0:0:0:
228,232,101685,1,0,0:0:0:0:
456,168,101885,1,0,0:0:0:0:
284,104,102085,2,0,P|348:48|340:40,1,127.500004863739
276,316,102485,6,0,P|224:336|204:280,1,127.500004863739
248,224,102785,1,0,0:0:0:0:
240,152,102885,1,0,0:0:0:0:
400,212,103085,1,0,0:0:0:0:
136,120,103285,1,0,0:0:0:0:
312,80,103485,1,0,0:0:0:0:
184,284,103685,1,0,0:0:0:0:
400,236,103885,1,0,0:0:0:0:
320,120,104085,5,0,0:0:0:0:
280,92,104185,1,0,0:0:0:0:
232,80,104285,1,0,0:0:0:0:
188,100,104385,1,0,0:0:0:0:
160,136,104485,2,0,L|76:140,1,63.7500024318696
48,224,104685,6,0,L|116:220,1,63.7500024318696
152,248,104885,1,0,0:0:0:0:
176,292,104985,1,0,0:0:0:0:
176,340,105085,2,0,L|224:360,2,31.8750012159348
296,288,105285,2,0,L|364:316,1,63.7500024318696
424,240,105485,2,0,L|472:260,2,31.8750012159348
272,196,105685,1,0,0:0:0:0:
96,96,105885,6,0,P|164:76|236:96,1,127.500004863739
400,156,106285,1,0,0:0:0:0:
360,216,106385,1,0,0:0:0:0:
384,284,106485,2,0,P|328:300|272:340,1,127.500004863739
144,252,106885,2,0,P|200:196|208:172,1,63.7500024318696
240,144,107085,2,0,L|208:116,4,31.8750012159348
312,168,107385,1,0,0:0:0:0:
384,148,107485,2,0,L|400:120,2,31.8750012159348
336,220,107685,6,0,P|412:232|444:268,1,127.500004863739
392,324,107985,1,0,0:0:0:0:
312,332,108085,2,0,P|224:308|184:256,1,127.500004863739
412,208,108485,1,0,0:0:0:0:
304,64,108685,1,0,0:0:0:0:
160,164,108885,1,0,0:0:0:0:
80,340,109085,6,0,P|112:272|164:252,1,127.500004863739
232,284,109385,1,0,0:0:0:0:
312,272,109485,2,0,L|396:288,1,63.7500024318696
432,216,109685,2,0,L|348:200,1,63.7500024318696
288,188,109885,1,0,0:0:0:0:
104,168,110085,1,0,0:0:0:0:
224,312,110285,1,0,0:0:0:0:
396,176,110485,6,0,L|352:112,1,63.7500024318696
304,88,110685,1,0,0:0:0:0:
240,100,110785,1,0,0:0:0:0:
208,156,110885,1,0,0:0:0:0:
251,199,110985,1,0,0:0:0:0:
244,260,111085,1,0,0:0:0:0:
192,291,111185,1,0,0:0:0:0:
132,272,111285,2,0,P|128:200|68:224,1,127.500004863739
212,96,111685,6,0,B|284:216|344:248|344:248|368:192,1,255.000009727478
112,208,112485,2,0,P|168:252|180:276,1,85
360,324,112885,2,0,P|316:264|308:244,1,85
372,80,113285,1,0,0:0:0:0:
140,120,113485,2,0,L|140:80,3,21.25
144,156,113685,6,0,P|168:196|204:228,1,85
272,200,113985,1,0,0:0:0:0:
344,240,114085,2,0,P|388:244|420:284,1,85
364,332,114385,1,0,0:0:0:0:
284,348,114485,2,0,P|228:320|220:272,1,85
208,224,114785,1,0,0:0:0:0:
228,148,114885,2,0,P|280:108|288:68,1,85
420,60,115285,2,0,P|368:104|360:128,1,85
308,236,115685,5,0,0:0:0:0:
216,320,115885,1,0,0:0:0:0:
128,224,116085,1,0,0:0:0:0:
200,120,116285,1,0,0:0:0:0:
304,184,116485,2,0,P|376:200|420:184,1,85
476,308,116885,2,0,P|424:288|380:292,1,85
236,344,117285,6,0,P|268:276|268:240,1,85
160,156,117685,1,0,0:0:0:0:
284,56,117885,1,0,0:0:0:0:
396,168,118085,1,0,0:0:0:0:
384,312,118285,1,0,0:0:0:0:
224,276,118485,2,0,B|168:260|168:260|132:208,1,85
208,64,118885,6,0,P|228:108|264:140,1,85
312,188,119185,1,0,0:0:0:0:
296,264,119285,2,0,P|256:236|216:216,1,85
148,200,119585,1,0,0:0:0:0:
84,152,119685,2,0,P|136:104|180:100,1,85
228,96,119985,1,0,0:0:0:0:
296,140,120085,2,0,P|288:184|300:232,1,85
328,292,120385,1,0,0:0:0:0:
396,336,120485,6,0,P|424:284|424:220,1,85
360,124,120885,2,0,P|372:176|372:212,1,85
264,328,121285,1,0,0:0:0:0:
144,220,121485,1,0,0:0:0:0:
256,108,121685,1,0,0:0:0:0:
372,208,121885,2,0,P|384:264|396:288,1,85
264,160,122285,5,0,0:0:0:0:
288,220,122385,1,0,0:0:0:0:
292,284,122485,1,0,0:0:0:0:
348,64,122685,1,0,0:0:0:0:
348,64,122885,1,0,0:0:0:0:
144,112,123085,2,0,P|192:160|200:228,1,127.5
140,256,123485,2,0,P|188:292|236:280,1,85,0|8,0:0|0:0,0:0:0:0:
272,252,123785,1,0,0:0:0:0:
316,188,123885,2,0,P|320:128|296:88,1,85
210,291,124285,5,0,0:0:0:0:
152,88,124485,2,0,B|120:152|112:216|112:216|144:252,1,170,8|12,0:0|0:0,0:0:0:0:
428,336,125285,5,0,0:0:0:0:
136,244,125685,1,0,0:0:0:0:
388,276,126085,2,0,B|368:228|368:228|384:192|384:192|352:116,2,170
116,68,127285,1,0,0:0:0:0:
432,184,127685,1,0,0:0:0:0:
68,228,128085,2,0,B|84:308|84:308|172:328,1,170
352,72,128885,1,0,0:0:0:0:
232,324,129285,6,0,B|176:240|320:236|204:120,1,212.5
264,80,129885,2,0,L|308:136,1,42.5
336,168,130085,2,0,P|428:188|340:188,1,255
432,280,130885,1,0,0:0:0:0:
104,80,131285,5,12,0:0:0:0:
360,296,131685,2,0,B|344:236|344:236|384:180|344:116,2,170
112,288,132885,1,0,0:0:0:0:
404,116,133285,1,0,0:0:0:0:
128,72,133685,1,0,0:0:0:0:
356,320,134085,1,0,0:0:0:0:
108,232,134485,6,0,P|188:208|204:164,1,127.5
132,164,134885,2,0,P|196:196|208:252,1,127.5
136,236,135285,2,0,P|224:220|244:180,1,127.5
172,172,135685,2,0,P|212:240|280:244,1,127.5
248,176,136085,2,0,L|276:156,16,21.25
404,76,137085,6,0,B|360:116|424:196|424:196|380:256,1,170
352,276,137585,1,0,0:0:0:0:
280,280,137685,1,0,0:0:0:0:
92,188,137885,1,0,0:0:0:0:
312,128,138085,1,0,0:0:0:0:
264,320,138285,2,0,P|320:312|372:332,1,85
412,144,138685,5,0,0:0:0:0:
272,308,138885,1,0,0:0:0:0:
188,136,139085,1,0,0:0:0:0:
396,172,139285,2,0,P|416:104|440:72,1,85
164,244,139685,2,0,P|144:312|120:344,1,85
312,60,140085,1,0,0:0:0:0:
376,240,140285,1,0,0:0:0:0:
376,240,140385,1,0,0:0:0:0:
376,240,140485,6,0,P|332:184|316:112,1,127.5
384,108,140885,2,0,P|328:60|296:64,1,85
244,76,141185,1,0,0:0:0:0:
216,148,141285,2,0,P|260:200|264:220,1,85
264,292,141585,1,0,0:0:0:0:
216,352,141685,2,0,P|148:328|100:344,1,85
88,268,141985,1,0,0:0:0:0:
92,192,142085,2,0,P|120:144|172:120,1,85
256,260,142485,5,0,0:0:0:0:
396,160,142685,1,0,0:0:0:0:
264,56,142885,1,0,0:0:0:0:
120,152,143085,2,0,P|156:216|152:248,1,85
316,204,143485,1,0,0:0:0:0:
300,268,143585,1,0,0:0:0:0:
324,328,143685,2,0,P|376:320|412:328,1,85
204,128,144085,6,0,P|152:136|116:128,1,85,0|0,0:0|0:0,0:3:0:0:
312,248,144485,1,0,0:0:0:0:
376,80,144685,2,0,P|428:72|464:80,1,85
216,148,145085,1,0,0:0:0:0:
376,228,145285,1,0,0:0:0:0:
232,324,145485,1,0,0:0:0:0:
304,92,145685,2,0,P|356:76|404:92,1,85
172,276,146085,2,0,P|120:292|72:276,1,85
312,88,146485,5,0,0:0:0:0:
408,248,146685,1,0,0:0:0:0:
232,308,146885,1,0,0:0:0:0:
