osu file format v14

[General]
AudioFilename: audio.mp3
AudioLeadIn: 0
PreviewTime: 58755
Countdown: 0
SampleSet: Soft
StackLeniency: 0.4
Mode: 0
LetterboxInBreaks: 0
WidescreenStoryboard: 1

[Editor]
Bookmarks: 20955,27355,32155,46555,52955,56155,59355
DistanceSpacing: 0.7
BeatDivisor: 8
GridSize: 32
TimelineZoom: 8

[Metadata]
Title:YoiYoi Kokon
TitleUnicode:宵々古今
Artist:REOL
ArtistUnicode:REOL
Creator:Ongaku
Version:Sore wa
Source:
Tags:jbhyperion mrsergio mir sigma giga
BeatmapID:1179849
BeatmapSetID:552854

[Difficulty]
HPDrainRate:6
CircleSize:3.8
OverallDifficulty:7.5
ApproachRate:9.3
SliderMultiplier:3.1
SliderTickRate:2

[Events]
//Background and Video events
0,0,"yoiyoi2.jpg",0,0
//Break Periods
//Storyboard Layer 0 (Background)
//Storyboard Layer 1 (Fail)
//Storyboard Layer 2 (Pass)
//Storyboard Layer 3 (Foreground)
//Storyboard Sound Samples

[TimingPoints]
6946,431.654676258993,4,2,1,50,1,0
8155,400,4,2,1,50,1,0
8155,-133.333333333333,4,2,1,50,0,0
14555,-133.333333333333,4,2,2,70,0,0
20555,-66.6666666666667,4,2,3,70,0,0
20855,-66.6666666666667,4,2,3,5,0,0
20955,-100,4,2,2,70,0,0
26755,-66.6666666666667,4,2,2,70,0,0
26955,-80,4,2,2,70,0,0
27255,-66.6666666666667,4,2,2,5,0,0
27355,-100,4,2,2,70,0,0
33155,-200,4,2,2,70,0,0
33255,-200,4,2,2,5,0,0
33355,-66.6666666666667,4,2,3,70,0,0
33655,-66.6666666666667,4,2,3,5,0,0
33755,-100,4,2,4,70,0,0
46555,-133.333333333333,4,2,5,70,0,0
47255,-133.333333333333,4,2,5,5,0,0
47355,-133.333333333333,4,2,5,70,0,0
48055,-133.333333333333,4,2,5,5,0,0
48155,-133.333333333333,4,2,5,70,0,0
48855,-133.333333333333,4,2,5,5,0,0
48955,-133.333333333333,4,2,5,70,0,0
50455,-133.333333333333,4,2,5,5,0,0
50555,-133.333333333333,4,2,5,70,0,0
51255,-133.333333333333,4,2,5,5,0,0
51355,-133.333333333333,4,2,5,70,0,0
52155,-100,4,2,5,70,0,0
52555,-66.6666666666667,4,2,2,70,0,0
52955,-133.333333333333,4,2,5,70,0,0
53655,-133.333333333333,4,2,2,5,0,0
53755,-133.333333333333,4,2,2,70,0,0
54455,-133.333333333333,4,2,2,5,0,0
54555,-133.333333333333,4,2,2,70,0,0
55255,-133.333333333333,4,2,2,5,0,0
55355,-133.333333333333,4,2,2,70,0,0
57755,-100,4,2,2,70,0,0
57955,-100,4,2,6,70,0,0
58555,-100,4,2,2,70,0,0
58755,-100,4,2,4,70,0,0
59355,-100,4,2,7,70,0,1
70355,-100,4,2,7,70,0,0
70555,-80,4,2,7,70,0,1
70655,-80,4,2,7,5,0,1
70755,-100,4,2,7,70,0,0
70955,-66.6666666666667,4,2,7,70,0,1
71055,-66.6666666666667,4,2,7,5,0,1
71155,-100,4,2,7,70,0,0
71355,-57.1428571428571,4,2,7,70,0,1
71455,-57.1428571428571,4,2,7,5,0,1
71555,-100,4,2,7,70,0,0
71755,-50,4,2,7,70,0,1
71855,-50,4,2,7,5,0,1
71955,-100,4,2,7,70,0,0
72155,-100,4,2,7,70,0,1
84555,-100,4,2,7,70,0,0
86155,-100,4,2,8,70,0,0
86555,-100,4,2,7,70,0,1
86605,-100,4,2,7,70,0,0

[Colours]
Combo1 : 255,128,192
Combo2 : 255,128,0
Combo3 : 128,0,255
Combo4 : 64,128,128

[HitObjects]
256,192,6945,5,0,0:0:0:0:
256,192,7053,1,0,0:0:0:0:
448,96,8155,5,8,0:0:0:0:
401,176,8421,1,0,0:0:0:0:
401,176,8488,1,0,0:0:0:0:
401,176,8555,1,8,0:0:0:0:
344,250,8755,1,0,0:0:0:0:
262,129,8955,5,8,0:0:0:0:
148,261,9155,1,0,0:0:0:0:
253,153,9355,1,8,0:0:0:0:
246,327,9555,1,0,0:0:0:0:
244,176,9755,5,8,0:0:0:0:
134,384,9955,1,0,0:0:0:0:
27,245,10155,1,8,0:0:0:0:
141,328,10355,1,0,0:0:0:0:
138,356,10455,1,0,0:0:0:0:
134,384,10555,5,8,0:0:0:0:
27,245,10755,1,0,0:0:0:0:
169,195,10955,1,8,0:0:0:0:
313,149,11155,1,0,0:0:0:0:
461,96,11355,5,8,0:0:0:0:
480,186,11605,2,0,L|488:225,3,29.0625011086464
504,303,11955,1,0,0:0:0:0:
299,351,12155,5,8,0:0:0:0:
259,179,12355,1,0,0:0:0:0:
198,342,12555,1,8,0:0:0:0:
231,168,12755,1,0,0:0:0:0:
223,9,12955,5,8,0:0:0:0:
259,179,13155,1,0,0:0:0:0:
324,18,13355,1,8,0:0:0:0:
287,190,13555,1,0,0:0:0:0:
259,179,13655,1,0,0:0:0:0:
231,168,13755,1,8,0:0:0:0:
27,245,13955,1,0,0:0:0:0:
66,105,14155,2,0,P|73:133|70:162,1,58.1250022172929,8|0,0:0|0:0,0:0:0:0:
46,12,14355,5,0,0:0:0:0:
63,19,14421,1,0,0:0:0:0:
82,22,14488,1,0,0:0:0:0:
101,23,14555,5,12,0:0:0:0:
181,203,14755,1,0,0:0:0:0:
242,65,14955,1,0,0:0:0:0:
242,65,15155,1,0,0:0:0:0:
142,114,15355,5,12,0:0:0:0:
222,294,15555,1,0,0:0:0:0:
283,156,15755,1,0,0:0:0:0:
283,156,15955,1,0,0:0:0:0:
181,203,16155,5,12,0:0:0:0:
405,294,16355,1,8,0:0:0:0:
490,169,16555,1,0,0:0:0:0:
490,169,16755,1,0,0:0:0:0:
366,15,16955,5,12,0:0:0:0:
313,205,17155,1,0,0:0:0:0:
216,88,17355,1,0,0:0:0:0:
322,216,17555,1,8,0:0:0:0:
206,76,17755,5,12,0:0:0:0:
162,158,17955,1,0,0:0:0:0:
173,77,18155,5,4,0:0:0:0:
175,169,18355,1,0,0:0:0:0:
141,94,18555,5,12,0:0:0:0:
198,188,18755,1,0,0:0:0:0:
121,121,18955,5,4,0:0:0:0:
237,185,19155,1,0,0:0:0:0:
206,76,19355,5,12,0:0:0:0:
141,310,19555,1,8,0:0:0:0:
222,43,19755,5,0,0:0:0:0:
283,356,19955,1,8,0:0:0:0:
72,142,20155,5,8,0:0:0:0:
400,200,20355,1,0,0:0:0:0:
464,141,20455,1,0,0:0:0:0:
380,116,20555,2,0,P|334:257|483:226,1,348.750013303757,4|0,0:0|0:0,0:0:0:0:
378,123,20955,6,0,P|334:248|436:271,1,232.5,6|0,0:0|0:0,0:0:0:0:
477,239,21355,2,0,B|451:202|405:189|363:206|363:206|304:233|234:180,1,232.5,6|0,0:0|0:0,0:0:0:0:
299,57,21755,6,0,P|318:95|315:156,1,77.5,6|0,0:0|0:0,0:0:0:0:
263,198,21955,2,0,P|239:233|185:261,1,77.5,2|0,0:0|0:0,0:0:0:0:
260,40,22155,6,0,P|257:82|224:133,1,77.5,6|0,0:0|0:0,0:0:0:0:
159,145,22355,2,0,P|121:163|60:160,1,77.5,2|0,0:0|0:0,0:0:0:0:
237,3,22555,6,0,P|213:38|159:66,1,77.5,6|0,0:0|0:0,0:0:0:0:
97,43,22755,2,0,P|54:40|3:7,1,77.5,2|0,0:0|0:0,0:0:0:0:
95,336,22955,6,0,P|137:273|211:253,1,155,4|0,0:0|0:0,0:0:0:0:
388,352,23255,1,2,0:0:0:0:
463,354,23355,6,0,P|426:360|371:342,1,77.5,6|0,0:0|0:0,0:0:0:0:
322,307,23555,2,0,P|298:277|286:221,1,77.5,2|0,0:0|0:0,0:0:0:0:
363,29,23755,6,0,L|361:113,1,77.5,6|0,0:0|0:0,0:0:0:0:
428,201,23955,2,0,L|430:279,1,77.5,2|0,0:0|0:0,0:0:0:0:
361,106,24155,6,0,P|327:89|279:89,1,77.5,6|0,0:0|0:0,0:0:0:0:
214,114,24355,2,0,P|182:134|158:176,1,77.5,2|0,0:0|0:0,0:0:0:0:
251,352,24555,2,0,B|260:298|260:298|248:272|248:272|265:182,1,155,4|2,0:0|0:0,0:0:0:0:
288,87,24855,1,2,0:0:0:0:
341,34,24955,6,0,P|309:54|285:96,1,77.5,6|0,0:0|0:0,0:0:0:0:
443,78,25155,2,0,P|405:83|366:111,1,77.5,2|0,0:0|0:0,0:0:0:0:
452,384,25355,6,0,P|465:344|452:288,1,77.5,6|0,0:0|0:0,0:0:0:0:
441,166,25555,2,0,P|428:206|441:262,1,77.5,2|0,0:0|0:0,0:0:0:0:
385,334,25755,6,0,P|349:325|287:337,1,77.5,6|0,0:0|0:0,0:0:0:0:
224,379,25955,2,0,P|185:382|147:372,1,77.5,2|0,0:0|0:0,0:0:0:0:
305,318,26155,6,0,P|343:314|381:324,1,77.5,6|0,0:0|0:0,0:0:0:0:
195,279,26355,1,0,0:0:0:0:
190,256,26455,1,0,0:0:0:0:
186,233,26555,2,0,P|183:187|189:152,1,77.5,6|0,0:0|0:0,0:0:0:0:
300,134,26755,6,0,B|237:136|237:136|156:169,1,116.250004434586,2|0,0:1|0:0,0:0:0:0:
379,60,26955,2,0,P|410:174|300:134,1,290.625,10|0,0:1|0:0,0:0:0:0:
399,56,27355,6,0,P|443:142|330:193,1,232.5,6|0,0:0|0:0,0:0:0:0:
299,132,27755,2,0,B|251:175|277:241|277:241|308:306|255:377,1,232.5,6|0,0:0|0:0,0:0:0:0:
166,375,28155,6,0,L|169:276,1,77.5,6|0,0:0|0:0,0:0:0:0:
171,220,28355,2,0,L|174:121,1,77.5,2|0,0:0|0:0,0:0:0:0:
189,372,28555,6,0,L|233:283,1,77.5,6|0,0:0|0:0,0:0:0:0:
259,234,28755,2,0,L|303:145,1,77.5,2|0,0:0|0:0,0:0:0:0:
212,368,28955,6,0,L|289:306,1,77.5,6|0,0:0|0:0,0:0:0:0:
333,272,29155,2,0,L|410:210,1,77.5,2|0,0:0|0:0,0:0:0:0:
494,114,29355,2,0,B|463:139|463:139|453:175|453:175|385:229,1,155,4|2,0:0|0:0,0:0:0:0:
272,319,29655,1,2,0:0:0:0:
211,367,29755,6,0,L|288:305,1,77.5,6|0,0:0|0:0,0:0:0:0:
385,130,29955,2,0,L|324:177,1,77.5,2|0,0:0|0:0,0:0:0:0:
168,297,30155,6,0,L|245:235,1,77.5,6|0,0:0|0:0,0:0:0:0:
308,87,30355,2,0,L|247:134,1,77.5,2|0,0:0|0:0,0:0:0:0:
113,239,30555,6,0,P|123:200|115:159,1,77.5,6|0,0:0|0:0,0:0:0:0:
195,277,30755,2,0,P|223:305|263:318,1,77.5,2|0,0:0|0:0,0:0:0:0:
87,241,30955,2,0,P|97:204|92:166,1,77.5,4|0,0:0|0:0,0:0:0:0:
119,328,31155,2,0,P|80:338|48:366,1,77.5,2|0,0:0|0:0,0:0:0:0:
34,41,31355,6,0,P|62:69|102:82,1,77.5,6|0,0:0|0:0,0:0:0:0:
250,73,31555,2,0,P|211:83|179:111,1,77.5,2|0,0:0|0:0,0:0:0:0:
112,239,31755,2,0,P|122:201|116:163,1,77.5,6|0,0:0|0:0,0:0:0:0:
103,2,31955,1,6,0:0:0:0:
371,176,33155,6,0,P|391:176|416:189,1,38.75
449,259,33355,6,0,P|320:209|388:330,1,348.750013303757,4|0,0:0|0:0,0:0:0:0:
376,257,33755,6,0,B|347:238|304:252|304:252|251:273|199:237,1,155,4|0,0:0|0:0,0:0:0:0:
160,294,34055,1,0,0:0:0:0:
160,294,34155,2,0,P|192:220|143:137,1,155,12|0,0:0|0:0,0:0:0:0:
98,114,34455,1,0,0:0:0:0:
98,114,34555,2,0,B|132:111|157:122|157:122|189:111|189:111|258:140|339:110,1,232.5,4|0,0:0|0:0,0:0:0:0:
398,88,34955,2,0,P|440:81|481:88,1,77.5,12|0,0:0|0:0,0:0:0:0:
302,40,35155,2,0,P|260:47|219:40,1,77.5,0|0,0:0|0:0,0:0:0:0:
440,170,35355,6,0,L|433:247,1,77.5,4|0,0:0|0:0,0:0:0:0:
424,324,35555,1,2,0:0:0:0:
411,247,35655,1,2,0:0:0:0:
397,171,35755,1,14,0:0:0:0:
262,323,35955,5,2,0:0:0:0:
278,263,36055,1,2,0:0:0:0:
294,202,36155,1,6,0:0:0:0:
126,274,36355,5,2,0:0:0:0:
157,235,36455,1,2,0:0:0:0:
190,196,36555,1,14,0:0:0:0:
82,166,36755,1,2,0:0:0:0:
424,324,36955,6,0,L|394:153,1,155,4|0,0:0|0:0,0:0:0:0:
450,115,37255,1,0,0:0:0:0:
450,115,37355,2,0,P|375:139|290:115,1,155,12|0,0:0|0:0,0:0:0:0:
250,63,37655,1,0,0:0:0:0:
250,63,37755,2,0,P|281:47|336:54,1,77.5,4|0,0:0|0:0,0:0:0:0:
274,198,37955,2,0,P|244:179|223:128,1,77.5,0|0,0:0|0:0,0:0:0:0:
381,111,38155,6,0,P|379:145|345:189,1,77.5,12|0,0:0|0:0,0:0:0:0:
244,42,38355,2,0,P|275:26|330:33,1,77.5,0|0,0:0|0:0,0:0:0:0:
256,210,38555,6,0,P|226:191|205:140,1,77.5,4|0,0:0|0:0,0:0:0:0:
408,119,38755,2,0,P|405:147|395:166,3,38.75,2|0|2|0,0:0|0:0|0:0|0:0,0:0:0:0:
384,192,38955,1,14,0:0:0:0:
241,25,39155,1,2,0:0:0:0:
302,122,39355,6,0,B|297:184|297:184|285:201|285:201|278:281,1,155,4|2,0:0|0:0,0:0:0:0:
367,371,39655,1,2,0:0:0:0:
387,359,39755,2,0,P|340:347|291:357,1,77.5,12|0,0:0|0:0,0:0:0:0:
201,382,39955,2,0,P|162:384|125:372,1,77.5,2|0,0:0|0:0,0:0:0:0:
85,151,40155,6,0,B|71:182|83:214|83:214|52:254|76:319,1,155,4|0,0:0|0:0,0:0:0:0:
172,183,40455,1,0,0:0:0:0:
172,183,40555,2,0,P|169:109|87:56,1,155,12|0,0:0|0:0,0:0:0:0:
153,267,40855,1,0,0:0:0:0:
153,267,40955,2,0,B|185:273|212:260|212:260|237:275|237:275|310:264,1,155,4|0,0:0|0:0,0:0:0:0:
460,245,41255,1,0,0:0:0:0:
479,256,41355,2,0,L|473:350,1,77.5,12|0,0:0|0:0,0:0:0:0:
387,215,41555,2,0,L|392:138,1,77.5
340,68,41755,6,0,P|311:96|302:141,1,77.5,4|0,0:0|0:0,0:0:0:0:
106,181,41955,2,0,P|145:192|188:177,1,77.5,2|2,0:0|0:0,0:0:0:0:
321,326,42155,2,0,P|311:287|277:257,1,77.5,14|0,0:0|0:0,0:0:0:0:
145,115,42355,1,2,0:0:0:0:
123,107,42455,1,0,0:0:0:0:
99,105,42555,6,0,P|59:120|36:154,1,77.5,4|0,0:0|0:0,0:0:0:0:
42,226,42755,2,0,P|74:253|115:256,1,77.5,2|0,0:0|0:0,0:0:0:0:
176,211,42955,6,0,P|183:168|165:131,1,77.5,14|0,0:0|0:0,0:0:0:0:
31,245,43155,2,0,P|63:272|104:275,1,77.5,0|0,0:0|0:0,0:0:0:0:
199,211,43355,6,0,P|206:168|188:131,1,77.5,4|0,0:0|0:0,0:0:0:0:
207,22,43555,2,0,P|239:49|280:52,1,77.5,2|2,0:0|0:0,0:0:0:0:
371,132,43755,2,0,P|331:146|308:181,1,77.5,14|0,0:0|0:0,0:0:0:0:
297,292,43955,1,2,0:0:0:0:
307,271,44055,1,0,0:0:0:0:
317,250,44155,6,0,L|309:157,1,77.5,4|0,0:0|0:0,0:0:0:0:
337,9,44355,2,0,L|260:62,1,77.5,2|0,0:0|0:0,0:0:0:0:
122,104,44555,2,0,L|206:143,1,77.5,14|0,0:0|0:0,0:0:0:0:
391,205,44755,1,0,0:0:0:0:
404,224,44855,1,0,0:0:0:0:
417,242,44955,6,0,P|447:216|460:153,1,77.5,4|0,0:0|0:0,0:0:0:0:
467,103,45155,2,0,P|459:64|411:21,1,77.5,2|0,0:0|0:0,0:0:0:0:
404,224,45355,6,0,P|396:185|348:142,1,77.5,14|0,0:0|0:0,0:0:0:0:
308,111,45555,2,0,P|270:98|209:118,1,77.5,2|0,0:0|0:0,0:0:0:0:
391,205,45755,6,0,P|353:192|292:212,1,77.5,4|0,0:0|0:0,0:0:0:0:
245,231,45955,2,0,P|214:257|201:320,1,77.5,2|2,0:0|0:0,0:0:0:0:
304,384,46155,6,0,L|293:299,1,77.5,14|0,0:0|0:0,0:0:0:0:
69,221,46355,2,0,P|68:178|81:141,1,77.5,2|0,0:0|0:0,0:0:0:0:
152,77,46555,1,14,0:0:0:0:
68,71,46955,6,0,B|71:107|51:132|51:132|79:146|79:146|56:188|75:239,1,174.375006651879
162,267,47355,5,8,0:0:0:0:
316,200,47755,2,0,B|276:217|236:192|236:192|204:202|204:202|179:185|150:192,1,174.375006651879
287,126,48155,5,12,0:0:0:0:
162,267,48355,1,8,0:0:0:0:
287,126,48555,2,0,P|360:130|396:228,1,174.375006651879,0|0,0:0|0:0,0:0:0:0:
370,367,48955,5,8,0:0:0:0:
370,367,49355,2,0,B|327:363|327:363|301:372|301:372|250:366,1,116.250004434586,0|8,0:0|0:0,0:0:0:0:
60,335,49755,5,12,0:0:0:0:
60,335,50155,2,0,B|77:286|77:286|64:156,1,174.375006651879,0|0,0:0|0:0,0:0:0:0:
50,77,50555,5,8,0:0:0:0:
50,77,50955,2,0,B|78:94|114:84|114:84|143:92|143:92|189:73|230:96,1,174.375006651879,0|0,0:0|0:0,0:0:0:0:
185,169,51355,5,12,0:0:0:0:
89,9,51555,1,8,0:0:0:0:
185,169,51755,2,0,L|179:237,1,58.1250022172929,0|0,0:0|0:0,0:0:0:0:
288,137,51955,1,8,0:0:0:0:
287,154,52055,1,0,0:0:0:0:
285,171,52155,6,0,L|276:261,1,77.5,8|0,0:0|0:0,0:0:0:0:
427,117,52355,1,0,0:0:0:0:
424,155,52455,1,0,0:0:0:0:
422,191,52555,6,0,B|418:232|418:232|430:239|442:255|442:255|509:242|536:146|447:72|365:110|345:185,1,348.750013303757,2|0,0:0|0:0,0:0:0:0:
361,306,52955,5,14,0:0:0:0:
361,306,53355,2,0,B|329:311|314:335|314:335|253:308|181:348,1,174.375006651879
99,384,53755,5,12,0:0:0:0:
99,384,54155,2,0,B|108:318|108:318|94:297|94:297|108:198,1,174.375006651879,0|0,0:0|0:0,0:0:0:0:
120,128,54555,5,12,0:0:0:0:
23,339,54755,1,8,0:0:0:0:
120,128,54955,2,0,B|155:132|177:158|177:158|241:139|299:167,1,174.375006651879,0|0,0:0|0:0,0:0:0:0:
395,222,55355,5,12,0:0:0:0:
395,222,55755,2,0,B|383:281|383:281|394:335,1,116.250004434586,0|0,0:0|0:0,0:0:0:0:
472,169,56155,5,12,0:0:0:0:
406,51,56355,1,0,0:0:0:0:
395,222,56555,5,4,0:0:0:0:
384,61,56755,1,0,0:0:0:0:
296,251,56955,5,12,0:0:0:0:
366,69,57155,1,0,0:0:0:0:
467,212,57355,5,4,0:0:0:0:
194,107,57555,1,0,0:0:0:0:
512,26,57755,5,8,0:0:0:0:
256,192,57805,12,8,58555,0:0:0:0:
468,87,58755,6,0,L|386:84,1,77.5,2|0,0:0|0:0,0:0:0:0:
467,105,59155,5,2,0:0:0:0:
390,102,59255,1,2,0:0:0:0:
313,100,59355,6,0,B|308:139|308:139|327:201,1,77.5,6|0,0:0|0:0,0:0:0:0:
462,245,59555,2,0,B|430:221|430:221|367:206,1,77.5,2|0,0:0|0:0,0:0:0:0:
259,301,59755,2,0,B|295:285|295:285|339:238,1,77.5,14|0,0:0|0:0,0:0:0:0:
313,100,59955,6,0,B|307:138|307:138|327:201,1,77.5,2|0,0:0|0:0,0:0:0:0:
411,336,60155,1,4,0:0:0:0:
411,336,60255,1,0,0:0:0:0:
411,336,60355,6,0,P|372:331|336:342,1,77.5,2|0,0:0|0:0,0:0:0:0:
321,256,60556,2,0,P|285:272|259:300,1,77.5,14|0,0:0|0:0,0:0:0:0:
200,233,60755,2,0,P|176:264|168:302,1,77.5,2|0,0:0|0:0,0:0:0:0:
85,270,60955,6,0,P|81:308|93:345,1,77.5,4|0,0:0|0:0,0:0:0:0:
113,175,61155,2,0,P|137:147|190:130,1,77.5,2|0,0:0|0:0,0:0:0:0:
342,153,61355,2,0,P|311:130|274:122,1,77.5,14|0,0:0|0:0,0:0:0:0:
392,239,61555,2,0,P|402:274|392:328,1,77.5,2|0,0:0|0:0,0:0:0:0:
240,286,61755,1,4,0:0:0:0:
240,286,61855,1,0,0:0:0:0:
240,286,61955,6,0,P|278:276|328:287,1,77.5,2|0,0:0|0:0,0:0:0:0:
177,212,62155,2,0,P|166:249|132:287,1,77.5,14|0,0:0|0:0,0:0:0:0:
271,197,62355,2,0,P|243:169|227:120,1,77.5,2|0,0:0|0:0,0:0:0:0:
326,46,62555,6,0,B|334:83|334:83|325:133,1,77.5,6|0,0:0|0:0,0:0:0:0:
387,177,62755,2,0,B|424:165|424:165|453:139,1,77.5,2|0,0:0|0:0,0:0:0:0:
458,296,62955,2,0,B|421:284|421:284|383:251,1,77.5,14|0,0:0|0:0,0:0:0:0:
315,281,63155,2,0,B|307:318|307:318|315:356,1,77.5,2|0,0:0|0:0,0:0:0:0:
234,264,63355,6,0,P|249:229|280:206,1,77.5,6|0,0:0|0:0,0:0:0:0:
137,264,63555,2,0,P|161:295|166:333,1,77.5,2|0,0:0|0:0,0:0:0:0:
191,183,63755,2,0,P|153:189|118:174,1,77.5,14|0,0:0|0:0,0:0:0:0:
215,48,63955,2,0,P|183:73|169:119,1,77.5,2|0,0:0|0:0,0:0:0:0:
285,192,64155,6,0,P|280:154|257:124,1,77.5,6|0,0:0|0:0,0:0:0:0:
235,271,64355,2,0,P|204:294|191:330,1,77.5,2|0,0:0|0:0,0:0:0:0:
331,275,64555,2,0,P|366:290|405:286,1,77.5,14|0,0:0|0:0,0:0:0:0:
211,181,64755,2,0,P|241:159|256:124,1,77.5,2|0,0:0|0:0,0:0:0:0:
376,217,64955,2,0,P|381:255|404:285,1,77.5,4|0,0:0|0:0,0:0:0:0:
327,384,65155,5,2,0:0:0:0:
264,340,65255,1,2,0:0:0:0:
191,330,65355,2,0,P|229:325|264:340,1,77.5,14|0,0:0|0:0,0:0:0:0:
105,365,65555,2,0,P|67:370|32:355,1,77.5,2|0,0:0|0:0,0:0:0:0:
41,96,65755,6,0,B|74:117|74:117|93:175,1,77.5,6|0,0:0|0:0,0:0:0:0:
80,293,65955,2,0,B|81:253|81:253|122:208,1,77.5,2|0,0:0|0:0,0:0:0:0:
235,162,66155,2,0,B|200:180|200:180|140:167,1,77.5,14|0,0:0|0:0,0:0:0:0:
317,141,66355,2,0,B|351:122|351:122|411:135,1,77.5,2|0,0:0|0:0,0:0:0:0:
245,90,66555,1,4,0:0:0:0:
245,90,66655,1,0,0:0:0:0:
245,90,66755,6,0,B|226:124|226:124|235:162,1,77.5,2|0,0:0|0:0,0:0:0:0:
363,201,66955,2,0,B|381:235|381:235|368:295,1,77.5,14|0,0:0|0:0,0:0:0:0:
242,304,67155,2,0,B|223:338|223:338|236:398,1,77.5,2|0,0:0|0:0,0:0:0:0:
373,273,67355,6,0,P|380:236|350:190,1,77.5,6|0,0:0|0:0,0:0:0:0:
426,148,67555,2,0,P|398:124|360:120,1,77.5,2|0,0:0|0:0,0:0:0:0:
342,43,67755,2,0,P|306:55|281:104,1,77.5,14|0,0:0|0:0,0:0:0:0:
206,57,67955,2,0,P|200:94|216:129,1,77.5,2|0,0:0|0:0,0:0:0:0:
253,238,68155,1,4,0:0:0:0:
253,238,68255,1,0,0:0:0:0:
253,238,68355,6,0,L|296:160,1,77.5,2|0,0:0|0:0,0:0:0:0:
218,314,68555,2,0,L|296:357,1,77.5,14|0,0:0|0:0,0:0:0:0:
143,278,68755,2,0,L|100:356,1,77.5,2|0,0:0|0:0,0:0:0:0:
109,164,68955,5,6,0:0:0:0:
109,164,69055,2,0,L|176:201,2,77.5,2|0|2,0:0|0:0|0:0,0:0:0:0:
263,73,69355,1,14,0:0:0:0:
263,73,69455,2,0,L|195:110,2,77.5,2|0|2,0:0|0:0|0:0,0:0:0:0:
348,104,69755,6,0,P|357:69|335:18,1,77.5,6|0,0:0|0:0,0:0:0:0:
409,176,69955,2,0,P|444:185|495:163,1,77.5,2|0,0:0|0:0,0:0:0:0:
330,224,70155,2,0,P|321:259|343:310,1,77.5,14|0,0:0|0:0,0:0:0:0:
269,154,70355,2,0,P|234:145|182:167,1,77.5,2|0,0:0|0:0,0:0:0:0:
85,311,70555,6,0,L|69:185,1,96.875,6|0,0:0|0:0,0:0:0:0:
63,139,70755,2,0,L|73:216,1,77.5,2|0,0:0|0:0,0:0:0:0:
173,300,70955,6,0,L|157:176,1,116.250004434586,14|0,0:0|0:0,0:0:0:0:
150,108,71155,2,0,L|164:239,1,77.5,2|0,0:0|0:0,0:0:0:0:
269,288,71355,6,0,L|251:148,1,135.625001293421,6|0,0:0|0:0,0:0:0:0:
243,76,71555,2,0,L|254:183,1,77.5,2|0,0:0|0:0,0:0:0:0:
380,274,71755,6,0,P|352:205|368:112,1,155,14|0,0:0|0:0,0:0:0:0:
413,72,71955,2,0,P|380:95|360:128,1,77.5,2|0,0:0|0:0,0:0:0:0:
441,215,72155,6,0,P|433:177|447:142,1,77.5,4|0,0:0|0:0,0:0:0:0:
464,301,72355,1,2,0:0:0:0:
409,355,72455,1,2,0:0:0:0:
331,346,72555,2,0,P|293:340|254:349,1,77.5,14|0,0:0|0:0,0:0:0:0:
145,363,72755,2,0,P|169:333|180:294,1,77.5,2|0,0:0|0:0,0:0:0:0:
331,346,72955,6,0,P|293:354|255:348,1,77.5,6|0,0:0|0:0,0:0:0:0:
90,289,73155,2,0,P|96:251|87:212,1,77.5,2|0,0:0|0:0,0:0:0:0:
331,346,73355,2,0,P|293:340|254:349,1,77.5,14|0,0:0|0:0,0:0:0:0:
7,251,73555,2,0,P|1:213|10:174,1,77.5,2|0,0:0|0:0,0:0:0:0:
331,346,73755,6,0,P|347:264|318:174,1,155,6|0,0:0|0:0,0:0:0:0:
264,134,74055,1,0,0:0:0:0:
242,125,74155,2,0,L|325:120,1,77.5,14|0,0:0|0:0,0:0:0:0:
222,118,74355,2,0,L|144:122,1,77.5,2|0,0:0|0:0,0:0:0:0:
319,120,74555,2,0,L|402:115,1,77.5,6|0,0:0|0:0,0:0:0:0:
144,122,74755,5,2,0:0:0:0:
74,155,74855,1,0,0:0:0:0:
37,223,74955,2,0,P|27:262|38:313,1,77.5,14|0,0:0|0:0,0:0:0:0:
30,381,75155,2,0,P|68:370|98:347,1,77.5,2|0,0:0|0:0,0:0:0:0:
177,303,75355,6,0,P|149:275|114:260,1,77.5,6|0,0:0|0:0,0:0:0:0:
253,345,75555,2,0,P|262:307|258:269,1,77.5,2|0,0:0|0:0,0:0:0:0:
199,68,75755,2,0,P|236:58|267:34,1,77.5,14|0,0:0|0:0,0:0:0:0:
124,112,75955,2,0,P|152:140|187:155,1,77.5,2|0,0:0|0:0,0:0:0:0:
391,204,76155,2,0,P|381:242|386:280,1,77.5,6|0,0:0|0:0,0:0:0:0:
390,118,76355,2,0,P|352:128|322:151,1,77.5,2|0,0:0|0:0,0:0:0:0:
258,269,76555,2,0,P|248:306|252:344,1,77.5,14|0,0:0|0:0,0:0:0:0:
321,151,76755,2,0,P|358:141|389:118,1,77.5,2|0,0:0|0:0,0:0:0:0:
188,155,76955,6,0,P|161:128|125:113,1,77.5,6|0,0:0|0:0,0:0:0:0:
34,241,77155,1,2,0:0:0:0:
36,256,77255,1,0,0:0:0:0:
38,271,77355,2,0,L|131:262,1,77.5,12|0,0:0|0:0,0:0:0:0:
271,246,77555,1,2,0:0:0:0:
347,235,77655,1,2,0:0:0:0:
423,225,77755,6,0,L|434:135,1,77.5,6|0,0:0|0:0,0:0:0:0:
246,51,77955,2,0,L|256:128,1,77.5,2|0,0:0|0:0,0:0:0:0:
439,234,78155,2,0,L|448:157,1,77.5,14|0,0:0|0:0,0:0:0:0:
229,41,78355,2,0,L|239:118,1,77.5,2|0,0:0|0:0,0:0:0:0:
463,165,78555,6,0,L|440:338,1,155,6|0,0:0|0:0,0:0:0:0:
378,361,78855,1,0,0:0:0:0:
359,346,78955,2,0,L|371:250,1,77.5,12|0,0:0|0:0,0:0:0:0:
473,88,79155,6,0,L|462:164,1,77.5,2|0,0:0|0:0,0:0:0:0:
279,177,79355,2,0,L|290:101,1,77.5,6|0,0:0|0:0,0:0:0:0:
451,91,79555,2,0,L|440:167,1,77.5,2|0,0:0|0:0,0:0:0:0:
257,180,79755,2,0,L|268:104,1,77.5,14|0,0:0|0:0,0:0:0:0:
431,94,79955,2,0,L|420:170,1,77.5,2|0,0:0|0:0,0:0:0:0:
89,186,80155,6,0,L|106:31,1,155,6|0,0:0|0:0,0:0:0:0:
193,9,80455,1,0,0:0:0:0:
206,28,80555,2,0,L|195:104,1,77.5,12|0,0:0|0:0,0:0:0:0:
185,181,80755,6,0,L|174:257,1,77.5,2|0,0:0|0:0,0:0:0:0:
6,261,80955,2,0,P|47:245|104:249,1,77.5,6|0,0:0|0:0,0:0:0:0:
174,257,81155,2,0,P|212:278|246:324,1,77.5,2|0,0:0|0:0,0:0:0:0:
395,378,81355,2,0,P|374:344|369:284,1,77.5,14|0,0:0|0:0,0:0:0:0:
360,134,81555,2,0,P|372:96|415:53,1,77.5,2|0,0:0|0:0,0:0:0:0:
399,212,81755,6,0,P|359:220|301:204,1,77.5,6|0,0:0|0:0,0:0:0:0:
195,140,81955,1,2,0:0:0:0:
121,116,82055,1,2,0:0:0:0:
47,140,82155,2,0,L|40:237,1,77.5,14|0,0:0|0:0,0:0:0:0:
36,294,82355,2,0,L|30:371,1,77.5,2|0,0:0|0:0,0:0:0:0:
256,352,82555,6,0,L|256:272,1,77.5,6|0,0:0|0:0,0:0:0:0:
256,197,82755,2,0,L|256:119,1,77.5,2|0,0:0|0:0,0:0:0:0:
465,140,82955,2,0,L|472:237,1,77.5,14|0,0:0|0:0,0:0:0:0:
476,294,83155,2,0,L|483:391,1,77.5,2|0,0:0|0:0,0:0:0:0:
355,303,83355,6,0,B|351:243|351:243|369:220|369:220|362:139,1,155,6|0,0:0|0:0,0:0:0:0:
342,17,83655,1,0,0:0:0:0:
360,30,83755,2,0,B|289:48|289:48|119:28,1,232.5,14|0,0:0|0:0,0:0:0:0:
54,14,84155,2,0,B|58:75|58:75|99:102|99:102|106:229,1,232.5,6|0,0:0|0:0,0:0:0:0:
110,302,84555,1,14,0:0:0:0:
256,192,84655,12,2,86155,0:0:0:0:
256,192,86555,5,4,0:0:0:0:
