osu file format v14

[General]
AudioFilename: audio.mp3
AudioLeadIn: 0
PreviewTime: 58755
Countdown: 0
SampleSet: Soft
StackLeniency: 0.4
Mode: 0
LetterboxInBreaks: 0
WidescreenStoryboard: 1

[Editor]
DistanceSpacing: 1
BeatDivisor: 6
GridSize: 32
TimelineZoom: 8

[Metadata]
Title:YoiYoi Kokon
TitleUnicode:宵々古今
Artist:REOL
ArtistUnicode:REOL
Creator:Ongaku
Version:MrSergio's Insane
Source:
Tags:jbhyperion mrsergio mir sigma giga
BeatmapID:1181521
BeatmapSetID:552854

[Difficulty]
HPDrainRate:5.5
CircleSize:4.2
OverallDifficulty:7
ApproachRate:8.8
SliderMultiplier:2.4
SliderTickRate:2

[Events]
//Background and Video events
0,0,"yoiyoi2.jpg",0,0
//Break Periods
//Storyboard Layer 0 (Background)
//Storyboard Layer 1 (Fail)
//Storyboard Layer 2 (Pass)
//Storyboard Layer 3 (Foreground)
//Storyboard Sound Samples

[TimingPoints]
6946,431.654676258993,4,2,1,50,1,0
8155,400,4,2,1,50,1,0
8155,-133.333333333333,4,2,1,50,0,0
8355,-133.333333333333,4,2,1,50,0,0
8405,-133.333333333333,4,2,1,50,0,0
11555,-133.333333333333,4,2,1,50,0,0
11605,-133.333333333333,4,2,1,50,0,0
14555,-133.333333333333,4,2,2,70,0,0
17755,-200,4,2,2,70,0,0
20155,-133.333333333333,4,2,2,70,0,0
20555,-66.6666666666667,4,2,3,70,0,0
20755,-133.333333333333,4,2,3,70,0,0
20855,-133.333333333333,4,2,3,5,0,0
20955,-100,4,2,2,70,0,0
27255,-100,4,2,2,5,0,0
27355,-100,4,2,2,70,0,0
32155,-200,4,2,2,70,0,0
33355,-76.9230769230769,4,2,3,70,0,0
33655,-100,4,2,3,5,0,0
33755,-100,4,2,4,70,0,0
46555,-200,4,2,5,70,0,0
47255,-200,4,2,5,5,0,0
47355,-200,4,2,5,70,0,0
48055,-200,4,2,5,5,0,0
48155,-200,4,2,5,70,0,0
48855,-200,4,2,5,5,0,0
48955,-200,4,2,5,70,0,0
50455,-200,4,2,5,5,0,0
50555,-200,4,2,5,70,0,0
51255,-200,4,2,5,5,0,0
51355,-200,4,2,5,70,0,0
52555,-200,4,2,2,70,0,0
52855,-200,4,2,2,70,0,0
52955,-200,4,2,5,70,0,0
53655,-200,4,2,2,5,0,0
53755,-200,4,2,2,70,0,0
54455,-200,4,2,2,5,0,0
54555,-200,4,2,2,70,0,0
55255,-200,4,2,2,5,0,0
55355,-200,4,2,2,70,0,0
56155,-133.333333333333,4,2,2,70,0,0
57955,-133.333333333333,4,2,6,70,0,0
58555,-133.333333333333,4,2,2,70,0,0
58755,-133.333333333333,4,2,4,70,0,0
59355,-100,4,2,7,70,0,1
70655,-100,4,2,7,5,0,1
70755,-100,4,2,7,70,0,1
71055,-100,4,2,7,5,0,1
71155,-100,4,2,7,70,0,1
71455,-100,4,2,7,5,0,1
71555,-100,4,2,7,70,0,1
71855,-100,4,2,7,5,0,1
71955,-100,4,2,7,70,0,1
84555,-100,4,2,7,70,0,0
86155,-100,4,2,8,70,0,0
86555,-100,4,2,7,70,0,1
86655,-100,4,2,7,70,0,0

[Colours]
Combo1 : 159,145,221
Combo2 : 138,21,39
Combo3 : 226,69,92
Combo4 : 89,58,124

[HitObjects]
326,109,6945,6,0,L|324:201,1,60
121,306,8155,6,0,P|140:264|124:207,1,90.0000034332277,8|0,0:0|0:0,0:0:0:0:
71,162,8421,2,0,L|32:160,1,30.0000011444092
71,162,8555,2,0,L|89:61,1,90.0000034332277,8|0,0:0|0:0,0:0:0:0:
336,110,8955,5,8,0:0:0:0:
242,146,9155,1,0,0:0:0:0:
388,241,9355,1,8,0:0:0:0:
288,224,9555,1,0,0:0:0:0:
473,149,9755,5,8,0:0:0:0:
458,57,9955,1,0,0:0:0:0:
497,162,10155,1,8,0:0:0:0:
359,92,10355,1,0,0:0:0:0:
351,98,10455,1,0,0:0:0:0:
343,104,10555,2,0,P|325:63|347:6,1,90.0000034332277,8|0,0:0|0:0,0:0:0:0:
295,260,10955,1,8,0:0:0:0:
342,127,11155,1,0,0:0:0:0:
403,285,11355,6,0,P|363:275|309:294,1,90.0000034332277,8|0,0:0|0:0,0:0:0:0:
246,348,11605,2,0,L|242:385,1,22.5000008583069
246,348,11755,2,0,L|145:345,1,90.0000034332277,8|0,0:0|0:0,0:0:0:0:
217,119,12155,5,8,0:0:0:0:
235,215,12355,1,0,0:0:0:0:
122,85,12555,1,8,0:0:0:0:
106,184,12755,1,0,0:0:0:0:
278,17,12955,5,8,0:0:0:0:
176,3,13155,1,0,0:0:0:0:
299,41,13355,1,8,0:0:0:0:
138,124,13555,1,0,0:0:0:0:
140,132,13655,1,0,0:0:0:0:
143,139,13755,2,0,P|189:152|228:137,1,90.0000034332277,8|0,0:0|0:0,0:0:0:0:
211,319,14155,2,0,B|188:299|188:299|159:299|159:299|134:317,1,90.0000034332277,8|0,0:0|0:0,0:0:0:0:
47,359,14421,2,0,L|5:356,1,30.0000011444092
47,359,14555,6,0,L|40:308,3,30.0000011444092,12|0|0|0,0:0|0:0|0:0|0:0,0:0:0:0:
299,353,14955,2,0,L|310:256,1,90.0000034332277,0|0,0:0|0:0,0:0:0:0:
27,210,15355,1,12,0:0:0:0:
233,185,15555,1,0,0:0:0:0:
126,242,15755,1,0,0:0:0:0:
133,147,15955,1,0,0:0:0:0:
119,339,16155,5,12,0:0:0:0:
133,147,16355,1,8,0:0:0:0:
22,239,16555,1,0,0:0:0:0:
239,248,16755,1,0,0:0:0:0:
230,249,16855,1,0,0:0:0:0:
221,250,16955,2,0,P|201:217|212:162,1,90.0000034332277,12|0,0:0|0:0,0:0:0:0:
417,246,17355,1,0,0:0:0:0:
298,201,17555,1,8,0:0:0:0:
356,378,17755,6,0,L|349:296,1,60,12|0,0:0|0:0,0:0:0:0:
127,346,18155,2,0,L|134:264,1,60,4|0,0:0|0:0,0:0:0:0:
250,293,18555,2,0,L|243:211,1,60,12|0,0:0|0:0,0:0:0:0:
25,248,18955,2,0,L|32:166,1,60,4|0,0:0|0:0,0:0:0:0:
309,152,19355,5,12,0:0:0:0:
250,293,19555,1,8,0:0:0:0:
250,293,19955,1,8,0:0:0:0:
223,95,20155,2,0,P|203:47|163:30,1,90.0000034332277,8|0,0:0|0:0,0:0:0:0:
78,112,20455,1,0,0:0:0:0:
63,136,20555,6,0,B|84:120|84:120|113:121|113:121|134:105|134:105|170:98,1,90.0000034332277,4|0,0:0|0:0,0:0:0:0:
61,237,20755,1,0,0:0:0:0:
61,237,20955,6,0,L|37:106,1,120,6|0,0:0|0:0,0:0:0:0:
150,186,21255,1,0,0:0:0:0:
150,186,21355,2,0,L|126:317,1,120,6|0,0:0|0:0,0:0:0:0:
234,384,21655,1,0,0:0:0:0:
234,384,21755,2,0,L|210:253,1,120,6|2,0:0|0:0,0:0:0:0:
312,183,22055,1,0,0:0:0:0:
312,183,22155,2,0,P|316:215|296:259,1,60,6|0,0:0|0:0,0:0:0:0:
174,170,22355,2,0,P|170:138|190:94,1,60,2|0,0:0|0:0,0:0:0:0:
335,163,22555,5,6,0:0:0:0:
142,256,22755,2,0,L|73:266,1,60,2|0,0:0|0:0,0:0:0:0:
160,274,22955,2,0,P|164:208|126:158,1,120,4|2,0:0|0:0,0:0:0:0:
21,104,23255,1,2,0:0:0:0:
21,104,23355,2,0,L|90:94,1,60,6|0,0:0|0:0,0:0:0:0:
146,11,23555,2,0,L|210:37,1,60,2|0,0:0|0:0,0:0:0:0:
247,188,23755,6,0,L|252:129,1,60,6|0,0:0|0:0,0:0:0:0:
387,94,23955,2,0,L|393:171,1,60,2|0,0:0|0:0,0:0:0:0:
270,220,24155,2,0,L|274:160,1,60,6|0,0:0|0:0,0:0:0:0:
422,172,24355,1,2,0:0:0:0:
183,347,24555,1,4,0:0:0:0:
144,196,24755,2,0,L|136:266,1,60,2|2,0:0|0:0,0:0:0:0:
166,175,24955,6,0,P|138:167|79:186,1,60,6|0,0:0|0:0,0:0:0:0:
235,234,25155,1,2,0:0:0:0:
45,238,25355,1,6,0:0:0:0:
137,85,25555,1,2,0:0:0:0:
223,324,25755,2,0,P|170:347|94:333,1,120,6|2,0:0|0:0,0:0:0:0:
264,220,26155,2,0,P|262:195|229:156,2,60,6|0|0,0:0|0:0|0:0,0:0:0:0:
416,298,26555,1,6,0:0:0:0:
473,117,26755,5,2,0:1:0:0:
416,298,26955,2,0,P|423:243|378:190,1,120,10|0,0:1|0:0,0:0:0:0:
79,180,27355,6,0,L|207:183,1,120,6|0,0:0|0:0,0:0:0:0:
125,103,27655,1,0,0:0:0:0:
125,103,27755,2,0,B|46:104|46:104|3:135,1,120,6|0,0:0|0:0,0:0:0:0:
19,234,28055,1,0,0:0:0:0:
19,234,28155,2,0,B|52:257|52:257|131:258,1,120,6|2,0:0|0:0,0:0:0:0:
198,182,28455,1,0,0:0:0:0:
198,182,28555,2,0,P|233:181|275:206,1,60,6|0,0:0|0:0,0:0:0:0:
308,111,28755,2,0,P|333:135|345:182,1,60,2|0,0:0|0:0,0:0:0:0:
439,199,28955,6,0,P|448:170|415:83,1,120,6|2,0:0|0:0,0:0:0:0:
420,88,29255,1,0,0:0:0:0:
420,88,29355,1,4,0:0:0:0:
260,166,29555,1,2,0:0:0:0:
260,166,29655,1,2,0:0:0:0:
260,166,29755,2,0,P|232:113|236:76,1,60,6|0,0:0|0:0,0:0:0:0:
324,91,29955,2,0,P|341:34|370:10,1,60,2|0,0:0|0:0,0:0:0:0:
420,88,30155,1,6,0:0:0:0:
170,50,30355,1,2,0:0:0:0:
342,238,30555,5,6,0:0:0:0:
342,238,30755,2,0,L|347:160,1,60,2|0,0:0|0:0,0:0:0:0:
436,254,30955,2,0,L|295:262,1,120,4|2,0:0|0:0,0:0:0:0:
256,344,31255,1,0,0:0:0:0:
256,344,31355,2,0,L|375:350,1,120,6|2,0:0|0:0,0:0:0:0:
132,133,31755,1,4,0:0:0:0:
69,253,31955,1,6,0:0:0:0:
69,253,32155,6,0,B|101:262|101:262|156:244|156:244|185:249,2,120
69,253,33355,6,0,P|126:266|60:221,1,233.999989288331,4|0,0:0|0:0,0:0:0:0:
63,112,33755,6,0,P|127:105|187:135,1,120,6|0,0:0|0:0,0:0:0:0:
282,185,34055,1,0,0:0:0:0:
302,200,34155,2,0,P|238:193|178:223,1,120,12|0,0:0|0:0,0:0:0:0:
104,275,34455,1,0,0:0:0:0:
84,290,34555,2,0,P|148:283|208:313,1,120,4|0,0:0|0:0,0:0:0:0:
311,349,34855,1,0,0:0:0:0:
337,368,34955,2,0,P|345:321|324:269,1,60,12|0,0:0|0:0,0:0:0:0:
197,304,35155,2,0,P|189:351|210:403,1,60,0|0,0:0|0:0,0:0:0:0:
273,230,35355,5,4,0:0:0:0:
38,197,35555,1,2,0:0:0:0:
47,211,35655,1,2,0:0:0:0:
56,226,35755,1,14,0:0:0:0:
131,97,35955,1,0,0:0:0:0:
135,121,36055,1,0,0:0:0:0:
139,146,36155,1,4,0:0:0:0:
263,26,36355,1,2,0:0:0:0:
251,61,36455,1,2,0:0:0:0:
238,97,36555,2,0,P|267:97|296:107,1,60,14|0,0:0|0:0,0:0:0:0:
400,171,36755,2,0,P|421:191|435:217,1,60,0|0,0:0|0:0,0:0:0:0:
465,339,36955,6,0,B|428:328|428:328|318:338,1,120,4|0,0:0|0:0,0:0:0:0:
226,351,37255,1,0,0:0:0:0:
226,351,37355,2,0,B|144:358|144:358|107:347,1,120,12|0,0:0|0:0,0:0:0:0:
173,267,37655,1,0,0:0:0:0:
173,267,37755,2,0,L|179:186,1,60,4|0,0:0|0:0,0:0:0:0:
31,238,37955,2,0,L|37:319,1,60,0|0,0:0|0:0,0:0:0:0:
154,191,38155,2,0,B|188:164|188:164|199:138,1,60,12|0,0:0|0:0,0:0:0:0:
295,170,38355,2,0,B|308:128|308:128|303:101,1,60,0|0,0:0|0:0,0:0:0:0:
426,136,38555,6,0,B|401:55|401:55|366:17,1,120,4|2,0:0|0:0,0:0:0:0:
360,32,38855,1,2,0:0:0:0:
342,35,38955,1,14,0:0:0:0:
481,56,39155,1,2,0:0:0:0:
295,170,39355,2,0,L|417:157,1,120,4|2,0:0|0:0,0:0:0:0:
453,248,39655,1,2,0:0:0:0:
453,248,39755,2,0,L|376:244,1,60,14|0,0:0|0:0,0:0:0:0:
414,157,39955,1,0,0:0:0:0:
210,345,40155,6,0,P|221:282|190:228,1,120,4|0,0:0|0:0,0:0:0:0:
299,278,40455,1,0,0:0:0:0:
325,293,40555,2,0,P|314:230|345:176,1,120,12|0,0:0|0:0,0:0:0:0:
260,99,40855,1,0,0:0:0:0:
239,122,40955,2,0,L|113:124,1,120,4|0,0:0|0:0,0:0:0:0:
45,382,41355,2,0,P|74:369|101:321,1,60,12|0,0:0|0:0,0:0:0:0:
140,268,41555,2,0,P|151:238|136:185,1,60,0|0,0:0|0:0,0:0:0:0:
119,123,41755,6,0,L|38:123,1,60,4|0,0:0|0:0,0:0:0:0:
149,210,41955,2,0,L|230:210,1,60,2|2,0:0|0:0,0:0:0:0:
296,158,42155,1,14,0:0:0:0:
455,379,42355,2,0,P|476:326|451:263,2,120,0|4|2,0:0|0:0|0:0,0:0:0:0:
389,320,42855,1,2,0:0:0:0:
366,307,42955,2,0,L|262:317,1,60,14|0,0:0|0:0,0:0:0:0:
249,204,43155,2,0,L|353:214,1,60,0|0,0:0|0:0,0:0:0:0:
178,300,43355,6,0,P|169:244|113:196,1,120,4|2,0:0|0:0,0:0:0:0:
31,250,43655,1,2,0:0:0:0:
31,250,43755,2,0,P|40:306|87:337,1,60,14|0,0:0|0:0,0:0:0:0:
125,201,43955,2,0,P|132:133|100:81,2,120,0|4|2,0:0|0:0|0:0,0:0:0:0:
348,59,44555,1,14,0:0:0:0:
291,200,44755,2,0,B|286:121,1,60,0|0,0:0|0:0,0:0:0:0:
264,223,44955,6,0,L|416:235,1,120,4|2,0:0|0:0,0:0:0:0:
154,318,45355,2,0,L|306:306,1,120,14|0,0:0|0:0,0:0:0:0:
31,384,45755,1,4,0:0:0:0:
41,196,45955,1,2,0:0:0:0:
48,224,46055,1,2,0:0:0:0:
56,252,46155,1,14,0:0:0:0:
168,157,46355,1,0,0:0:0:0:
354,357,46555,5,14,0:0:0:0:
354,357,46955,2,0,P|360:301|338:265,1,90,0|0,0:0|0:0,0:0:0:0:
292,320,47355,2,0,L|438:306,1,120,8|0,0:0|0:0,0:0:0:0:
411,308,48155,5,12,0:0:0:0:
232,257,48355,1,8,0:0:0:0:
232,257,48555,2,0,P|216:214|232:141,2,120,0|8|0,0:0|0:0|0:0,0:0:0:0:
303,198,49555,1,8,0:0:0:0:
351,339,49755,6,0,L|484:342,1,120,12|0,0:0|0:0,0:0:0:0:
441,174,50555,2,0,L|299:180,1,120,8|0,0:0|0:0,0:0:0:0:
88,358,51355,1,12,0:0:0:0:
0,209,51555,1,8,0:0:0:0:
99,224,51755,6,0,P|102:206|96:191,3,30,0|0|8|0,0:0|0:0|0:0|0:0,0:0:0:0:
183,162,52155,2,0,P|175:145|162:135,3,30,8|0|0|0,0:0|0:0|0:0|0:0,0:0:0:0:
85,110,52555,2,0,P|77:74|104:14,1,90,2|0,0:0|0:0,0:0:0:0:
150,72,52955,6,0,L|25:66,1,120,14|0,0:0|0:0,0:0:0:0:
323,73,53755,2,0,L|442:67,1,120,12|0,0:0|0:0,0:0:0:0:
241,270,54555,1,12,0:0:0:0:
236,119,54755,1,8,0:0:0:0:
236,119,55355,2,0,L|264:247,1,120,12|0,0:0|0:0,0:0:0:0:
261,236,56155,6,0,L|163:244,1,90.0000034332277,12|0,0:0|0:0,0:0:0:0:
101,308,56555,2,0,L|3:316,1,90.0000034332277,4|0,0:0|0:0,0:0:0:0:
242,211,56955,2,0,L|331:218,1,90.0000034332277,8|0,0:0|0:0,0:0:0:0:
402,283,57355,2,0,L|491:290,1,90.0000034332277,4|0,0:0|0:0,0:0:0:0:
246,363,57755,6,0,B|311:192|173:193|264:5,1,360.000013732911,8|8,0:0|0:0,0:0:0:0:
259,13,58755,1,2,0:0:0:0:
266,22,59155,1,2,0:0:0:0:
281,43,59255,1,2,0:0:0:0:
298,64,59355,6,0,L|422:59,1,120,6|2,0:0|0:0,0:0:0:0:
361,152,59655,1,0,0:0:0:0:
335,172,59755,2,0,L|231:165,1,60,14|0,0:0|0:0,0:0:0:0:
158,112,59955,1,2,0:0:0:0:
158,112,60155,2,0,P|138:174|168:232,1,120,4|2,0:0|0:0,0:0:0:0:
226,303,60455,1,0,0:0:0:0:
256,322,60555,2,0,P|285:309|332:319,1,60,14|0,0:0|0:0,0:0:0:0:
416,350,60755,1,2,0:0:0:0:
416,350,60955,6,0,P|434:319|422:259,1,60,4|0,0:0|0:0,0:0:0:0:
437,192,61155,2,0,P|427:157|376:123,1,60,2|0,0:0|0:0,0:0:0:0:
331,51,61355,2,0,L|391:48,1,60,14|0,0:0|0:0,0:0:0:0:
224,24,61555,1,2,0:0:0:0:
224,24,61755,2,0,L|243:162,1,120,4|2,0:0|0:0,0:0:0:0:
176,234,62055,1,0,0:0:0:0:
144,250,62155,2,0,L|150:175,1,60,14|0,0:0|0:0,0:0:0:0:
269,309,62355,2,0,L|263:234,1,60,2|0,0:0|0:0,0:0:0:0:
138,351,62555,6,0,L|63:360,1,60,6|0,0:0|0:0,0:0:0:0:
246,333,62755,1,2,0:0:0:0:
99,324,62955,2,0,L|41:372,1,60,14|0,0:0|0:0,0:0:0:0:
179,250,63155,1,2,0:0:0:0:
51,317,63355,2,0,L|28:389,1,60,6|0,0:0|0:0,0:0:0:0:
77,211,63555,1,2,0:0:0:0:
258,106,63755,6,0,P|245:72|216:50,1,60,14|0,0:0|0:0,0:0:0:0:
344,61,63955,1,2,0:0:0:0:
339,156,64155,2,0,P|316:183|311:220,1,60,6|0,0:0|0:0,0:0:0:0:
360,296,64355,2,0,P|380:274|388:245,1,60,2|0,0:0|0:0,0:0:0:0:
306,161,64555,2,0,P|289:192|293:229,1,60,14|0,0:0|0:0,0:0:0:0:
392,291,64755,1,2,0:0:0:0:
392,291,64955,6,0,P|406:265|400:159,1,120,4|2,0:0|0:0,0:0:0:0:
351,83,65255,1,2,0:0:0:0:
315,75,65355,2,0,L|244:97,1,60,14|0,0:0|0:0,0:0:0:0:
246,186,65555,2,0,L|172:172,1,60,2|0,0:0|0:0,0:0:0:0:
150,267,65755,6,0,L|37:205,1,120,6|2,0:0|0:0,0:0:0:0:
69,318,66055,1,0,0:0:0:0:
69,318,66155,2,0,P|74:347|65:375,1,60,14|0,0:0|0:0,0:0:0:0:
150,267,66355,1,2,0:0:0:0:
328,356,66555,1,4,0:0:0:0:
238,170,66755,1,2,0:0:0:0:
264,194,66855,1,0,0:0:0:0:
292,215,66955,2,0,P|293:178|311:147,1,60,14|0,0:0|0:0,0:0:0:0:
383,206,67155,1,2,0:0:0:0:
128,60,67355,6,0,L|47:45,1,60,6|0,0:0|0:0,0:0:0:0:
60,171,67555,2,0,L|120:162,1,60,2|0,0:0|0:0,0:0:0:0:
216,54,67755,2,0,L|157:47,1,60,14|0,0:0|0:0,0:0:0:0:
153,172,67955,1,2,0:0:0:0:
283,279,68155,6,0,P|316:221|300:161,1,120,4|2,0:0|0:0,0:0:0:0:
403,253,68455,1,0,0:0:0:0:
433,272,68555,2,0,P|469:279|511:260,1,60,14|0,0:0|0:0,0:0:0:0:
465,183,68755,2,0,P|497:165|517:123,1,60,2|0,0:0|0:0,0:0:0:0:
436,87,68955,5,6,0:0:0:0:
436,87,69055,2,0,P|369:67|319:93,1,120,2|2,0:0|0:0,0:0:0:0:
228,142,69355,2,0,P|197:151|153:140,2,60,14|2|2,0:0|0:0|0:0,0:0:0:0:
323,187,69655,1,0,0:0:0:0:
323,187,69755,2,0,P|348:223|333:288,1,60,6|0,0:0|0:0,0:0:0:0:
362,326,69955,2,0,P|358:369|304:409,1,60,2|0,0:0|0:0,0:0:0:0:
240,297,70155,1,14,0:0:0:0:
439,265,70355,1,2,0:0:0:0:
160,334,70555,6,0,L|81:329,1,60,6|0,0:0|0:0,0:0:0:0:
27,283,70755,1,2,0:0:0:0:
269,278,70955,2,0,L|348:273,1,60,14|0,0:0|0:0,0:0:0:0:
402,227,71155,1,2,0:0:0:0:
128,197,71355,2,0,B|98:191|98:191|56:164,1,60,6|0,0:0|0:0,0:0:0:0:
22,101,71555,1,2,0:0:0:0:
297,170,71755,2,0,B|325:158|325:158|346:139,1,60,14|0,0:0|0:0,0:0:0:0:
384,58,71955,1,2,0:0:0:0:
208,160,72155,5,4,0:0:0:0:
119,77,72355,2,0,L|114:151,1,60,2|2,0:0|0:0,0:0:0:0:
149,62,72555,2,0,P|90:45|22:71,1,120,14|2,0:0|0:0,0:0:0:0:
227,198,72955,1,6,0:0:0:0:
262,90,73155,1,2,0:0:0:0:
148,259,73355,2,0,L|68:256,1,60,14|0,0:0|0:0,0:0:0:0:
227,198,73555,2,0,L|286:200,1,60,2|0,0:0|0:0,0:0:0:0:
135,281,73755,6,0,L|2:274,1,120,6|0,0:0|0:0,0:0:0:0:
323,333,74155,2,0,L|191:351,1,120,14|2,0:0|0:0,0:0:0:0:
503,264,74555,2,0,L|458:317,1,60,6|0,0:0|0:0,0:0:0:0:
489,165,74755,1,2,0:0:0:0:
323,333,74955,2,0,P|311:301|320:259,1,60,14|0,0:0|0:0,0:0:0:0:
339,183,75155,2,0,P|350:155|349:125,1,60,2|0,0:0|0:0,0:0:0:0:
302,45,75355,6,0,L|219:48,1,60,6|0,0:0|0:0,0:0:0:0:
349,125,75555,2,0,L|432:122,1,60,2|0,0:0|0:0,0:0:0:0:
494,43,75755,1,14,0:0:0:0:
494,43,75955,2,0,P|502:74|489:121,1,60,2|0,0:0|0:0,0:0:0:0:
464,192,76155,2,0,P|461:247|500:299,1,120,6|2,0:0|0:0,0:0:0:0:
382,267,76455,1,0,0:0:0:0:
348,279,76555,2,0,P|358:256|353:214,1,60,14|0,0:0|0:0,0:0:0:0:
258,156,76755,2,0,P|247:178|253:221,1,60,2|0,0:0|0:0,0:0:0:0:
376,198,76955,5,6,0:0:0:0:
197,326,77155,1,2,0:0:0:0:
170,329,77255,1,0,0:0:0:0:
150,344,77355,2,0,P|165:275|139:198,1,120,12|2,0:0|0:0,0:0:0:0:
144,127,77655,1,2,0:0:0:0:
120,154,77755,2,0,L|56:159,1,60,6|0,0:0|0:0,0:0:0:0:
179,248,77955,2,0,L|243:253,1,60,2|0,0:0|0:0,0:0:0:0:
351,270,78155,2,0,P|358:241|353:212,1,60,14|0,0:0|0:0,0:0:0:0:
253,180,78355,2,0,P|248:209|256:238,1,60,2|0,0:0|0:0,0:0:0:0:
369,296,78555,6,0,P|384:236|358:161,1,120,6|0,0:0|0:0,0:0:0:0:
399,201,78855,1,0,0:0:0:0:
434,201,78955,1,12,0:0:0:0:
232,150,79155,2,0,P|204:142|153:154,1,60,2|0,0:0|0:0,0:0:0:0:
80,277,79355,6,0,P|97:247|85:197,1,60,6|0,0:0|0:0,0:0:0:0:
82,311,79555,2,0,P|110:291|122:241,1,60,2|0,0:0|0:0,0:0:0:0:
246,250,79755,2,0,P|260:224|286:208,1,60,14|0,0:0|0:0,0:0:0:0:
271,297,79956,2,0,P|272:267|288:242,1,60,2|0,0:0|0:0,0:0:0:0:
420,339,80155,6,0,P|441:274|414:201,1,120,6|0,0:0|0:0,0:0:0:0:
384,140,80455,1,0,0:0:0:0:
384,140,80555,2,0,P|363:75|390:2,1,120,12|2,0:0|0:0,0:0:0:0:
349,275,80955,5,6,0:0:0:0:
194,211,81155,2,0,L|200:133,1,60,2|0,0:0|0:0,0:0:0:0:
214,240,81355,2,0,P|155:249|89:204,1,120,14|2,0:0|0:0,0:0:0:0:
283,314,81755,6,0,P|342:305|408:350,1,120,6|2,0:0|0:0,0:0:0:0:
349,263,82055,1,2,0:0:0:0:
349,263,82155,2,0,P|311:216|317:136,1,120,14|2,0:0|0:0,0:0:0:0:
268,238,82455,1,0,0:0:0:0:
268,238,82555,2,0,P|246:293|207:317,1,60,6|0,0:0|0:0,0:0:0:0:
172,350,82755,2,0,P|114:366|72:348,1,60,2|0,0:0|0:0,0:0:0:0:
25,350,82955,1,14,0:0:0:0:
181,236,83155,1,2,0:0:0:0:
387,355,83355,6,0,P|369:286|394:222,1,120,6|0,0:0|0:0,0:0:0:0:
347,155,83655,1,0,0:0:0:0:
347,155,83755,2,0,P|365:224|340:288,1,120,14|0,0:0|0:0,0:0:0:0:
280,76,84155,1,6,0:0:0:0:
253,352,84555,5,14,0:0:0:0:
256,192,84655,12,2,86155,0:0:0:0:
406,114,86555,5,4,0:0:0:0:
