osu file format v14

[General]
AudioFilename: audio.mp3
AudioLeadIn: 0
PreviewTime: 58755
Countdown: 0
SampleSet: Soft
StackLeniency: 0.4
Mode: 2
LetterboxInBreaks: 0
WidescreenStoryboard: 1

[Editor]
Bookmarks: 20955,27355,32155,46555,52955,56155,59355
DistanceSpacing: 1
BeatDivisor: 4
GridSize: 4
TimelineZoom: 5.500002

[Metadata]
Title:YoiYoi Kokon
TitleUnicode:宵々古今
Artist:REOL
ArtistUnicode:REOL
Creator:Ongaku
Version:Hyperion's Rain
Source:
Tags:jbhyperion mrsergio mir sigma giga
BeatmapID:1179144
BeatmapSetID:552854

[Difficulty]
HPDrainRate:5
CircleSize:4
OverallDifficulty:9
ApproachRate:9
SliderMultiplier:2
SliderTickRate:2

[Events]
//Background and Video events
0,0,"yoiyoi2.jpg",0,0
//Break Periods
//Storyboard Layer 0 (Background)
//Storyboard Layer 1 (Fail)
//Storyboard Layer 2 (Pass)
//Storyboard Layer 3 (Foreground)
//Storyboard Sound Samples

[TimingPoints]
6946,431.654676258993,4,2,1,50,1,0
8155,400,4,2,1,50,1,0
14555,-100,4,2,2,70,0,0
20555,-100,4,2,3,70,0,0
20955,-100,4,2,2,70,0,0
26755,-100,4,2,2,70,0,0
32955,-66.6666666666667,4,2,2,70,0,0
33355,-100,4,2,3,70,0,0
33755,-100,4,2,4,70,0,0
46555,-133.333333333333,4,2,5,70,0,0
47355,-100,4,2,5,70,0,0
47755,-133.333333333333,4,2,5,70,0,0
48555,-100,4,2,5,70,0,0
49355,-133.333333333333,4,2,5,70,0,0
50555,-100,4,2,5,70,0,0
50955,-133.333333333333,4,2,5,70,0,0
52555,-100,4,2,2,70,0,0
52955,-133.333333333333,4,2,5,70,0,0
56155,-100,4,2,5,70,0,0
57955,-100,4,2,6,70,0,0
58555,-100,4,2,2,70,0,0
58755,-100,4,2,4,70,0,0
59355,-80,4,2,7,70,0,1
70355,-100,4,2,7,70,0,0
70555,-100,4,2,7,70,0,1
70755,-100,4,2,7,70,0,0
70955,-100,4,2,7,70,0,1
71155,-100,4,2,7,70,0,0
71355,-100,4,2,7,70,0,1
71555,-100,4,2,7,70,0,0
71755,-100,4,2,7,70,0,1
71955,-100,4,2,7,70,0,0
72155,-80,4,2,7,70,0,1
84555,-100,4,2,7,70,0,0
86155,-100,4,2,8,70,0,0
86555,-100,4,2,7,70,0,1
86605,-100,4,2,7,70,0,0

[Colours]
Combo1 : 128,0,128
Combo2 : 255,128,0
Combo3 : 128,0,255
Combo4 : 255,128,64

[HitObjects]
244,200,6945,5,0,0:0:0:0:
164,200,7053,1,0,0:0:0:0:
428,224,8155,6,0,P|452:160|424:96,1,133.333333333333,8|0,0:0|0:0,0:0:0:0:
396,84,8488,1,0,0:0:0:0:
344,84,8555,1,8,0:0:0:0:
232,84,8755,1,0,0:0:0:0:
432,84,8955,1,8,0:0:0:0:
332,84,9155,1,0,0:0:0:0:
152,84,9355,2,0,L|128:184,1,100,8|0,0:0|0:0,0:0:0:0:
348,184,9755,6,0,L|448:200,2,100,8|0|8,0:0|0:0|0:0,0:0:0:0:
158,182,10355,1,0,0:0:0:0:
102,182,10455,1,0,0:0:0:0:
46,182,10555,1,8,0:0:0:0:
268,184,10755,1,0,0:0:0:0:
76,180,10955,1,8,0:0:0:0:
156,100,11155,1,0,0:0:0:0:
428,180,11355,6,0,P|464:228|436:296,1,125,8|0,0:0|0:0,0:0:0:0:
428,308,11655,1,0,0:0:0:0:
396,320,11705,1,0,0:0:0:0:
356,320,11755,1,8,0:0:0:0:
236,320,11955,1,0,0:0:0:0:
436,284,12155,2,0,L|344:240,1,100,8|0,0:0|0:0,0:0:0:0:
224,240,12555,1,8,0:0:0:0:
324,240,12755,1,0,0:0:0:0:
96,240,12955,6,0,L|8:192,2,100,8|0|8,0:0|0:0|0:0,0:0:0:0:
296,240,13555,2,0,L|352:240,2,50,0|0|8,0:0|0:0|0:0,0:0:0:0:
176,240,13955,1,0,0:0:0:0:
376,240,14155,1,8,0:0:0:0:
256,240,14355,2,0,L|236:192,1,50,0|0,0:0|0:0,0:0:0:0:
428,192,14555,6,0,P|504:148|480:44,1,200,12|0,0:0|0:0,0:0:0:0:
388,52,15155,1,0,0:0:0:0:
120,44,15355,1,12,0:0:0:0:
160,168,15555,1,0,0:0:0:0:
280,216,15755,1,0,0:0:0:0:
400,216,15955,1,0,0:0:0:0:
100,216,16155,5,12,0:0:0:0:
400,216,16355,2,0,L|500:216,1,100,8|0,0:0|0:0,0:0:0:0:
380,216,16755,1,0,0:0:0:0:
100,216,16955,2,0,L|124:320,1,100,12|0,0:0|0:0,0:0:0:0:
320,312,17355,1,0,0:0:0:0:
140,312,17555,1,8,0:0:0:0:
440,312,17755,6,0,P|444:272|416:220,1,100,12|0,0:0|0:0,0:0:0:0:
216,220,18155,2,0,L|120:192,1,100,4|0,0:0|0:0,0:0:0:0:
380,176,18555,2,0,L|284:148,1,100,12|0,0:0|0:0,0:0:0:0:
84,152,18955,1,4,0:0:0:0:
204,152,19155,1,0,0:0:0:0:
484,152,19355,5,12,0:0:0:0:
384,152,19555,2,0,L|292:108,1,100,8|0,0:0|0:0,0:0:0:0:
404,112,19955,1,8,0:0:0:0:
142,108,20155,1,8,0:0:0:0:
304,108,20355,2,0,L|360:108,1,50
168,108,20555,6,0,L|64:108,1,100,4|0,0:0|0:0,0:0:0:0:
372,104,20955,6,0,P|440:136|448:224,1,150,6|0,0:0|0:0,0:0:0:0:
384,204,21355,2,0,L|280:196,1,100,6|0,0:0|0:0,0:0:0:0:
484,280,21755,1,6,0:0:0:0:
384,280,21955,1,2,0:0:0:0:
184,364,22155,1,6,0:0:0:0:
364,364,22355,1,2,0:0:0:0:
64,364,22555,6,0,L|52:260,1,100,6|2,0:0|0:0,0:0:0:0:
104,264,22855,1,0,0:0:0:0:
172,264,22955,1,4,0:0:0:0:
60,176,23155,2,0,L|120:176,1,50,2|2,0:0|0:0,0:0:0:0:
292,176,23355,1,6,0:0:0:0:
200,108,23555,2,0,L|152:144,1,50,2|0,0:0|0:0,0:0:0:0:
220,108,23755,1,6,0:0:0:0:
257,160,23855,1,0,0:0:0:0:
240,220,23955,1,2,0:0:0:0:
184,244,24055,1,0,0:0:0:0:
364,240,24155,6,0,L|464:240,1,100,6|2,0:0|0:0,0:0:0:0:
268,320,24555,2,0,P|224:312|184:268,1,100,4|2,0:0|0:0,0:0:0:0:
244,240,24855,1,2,0:0:0:0:
316,240,24955,2,0,L|408:192,1,100,6|2,0:0|0:0,0:0:0:0:
184,192,25355,1,6,0:0:0:0:
360,192,25555,1,2,0:0:0:0:
60,192,25755,6,0,B|80:136|80:136|120:136,1,100,6|2,0:0|0:0,0:0:0:0:
192,136,26055,1,0,0:0:0:0:
264,136,26155,2,0,L|364:136,1,100,6|0,0:0|0:0,0:0:0:0:
144,88,26555,1,6,0:0:0:0:
444,84,26755,1,2,0:1:0:0:
144,88,26955,2,0,L|124:188,1,100,10|0,0:1|0:0,0:0:0:0:
428,188,27355,6,0,L|320:188,1,100,6|0,0:0|0:0,0:0:0:0:
128,264,27755,2,0,L|240:264,1,100,6|0,0:0|0:0,0:0:0:0:
260,304,28055,1,0,0:0:0:0:
68,308,28155,2,0,P|56:250|96:196,1,100,6|2,0:0|0:0,0:0:0:0:
272,216,28555,1,6,0:0:0:0:
100,216,28755,1,2,0:0:0:0:
400,216,28955,6,0,L|500:192,1,100,6|2,0:0|0:0,0:0:0:0:
448,192,29255,1,0,0:0:0:0:
376,192,29355,1,4,0:0:0:0:
258,192,29555,2,0,L|318:192,1,50,2|2,0:0|0:0,0:0:0:0:
488,192,29755,1,6,0:0:0:0:
352,120,29955,2,0,L|308:144,1,50
396,120,30155,2,0,L|446:120,1,50,6|0,0:0|0:0,0:0:0:0:
358,192,30355,2,0,L|312:216,1,50,2|0,0:0|0:0,0:0:0:0:
492,236,30555,6,0,L|392:236,1,100,6|2,0:0|0:0,0:0:0:0:
329,236,30855,1,0,0:0:0:0:
266,236,30955,2,0,L|358:192,1,100,4|2,0:0|0:0,0:0:0:0:
96,192,31355,1,6,0:0:0:0:
296,192,31555,1,2,0:0:0:0:
156,192,31755,1,4,0:0:0:0:
468,192,31955,6,0,P|464:112|372:40,1,200,6|0,0:0|0:0,0:0:0:0:
156,40,32555,1,0,0:0:0:0:
396,40,32955,2,0,P|392:116|276:192,1,225.000008583069,0|0,0:0|0:0,0:0:0:0:
56,192,33355,6,0,L|148:264,1,100,4|0,0:0|0:0,0:0:0:0:
436,252,33755,6,0,L|448:360,1,100,6|0,0:0|0:0,0:0:0:0:
184,252,34155,2,0,L|76:252,1,100,12|0,0:0|0:0,0:0:0:0:
284,156,34555,1,4,0:0:0:0:
384,156,34755,1,0,0:0:0:0:
124,156,34955,1,12,0:0:0:0:
296,156,35155,1,0,0:0:0:0:
36,156,35355,5,4,0:0:0:0:
216,64,35555,1,2,0:0:0:0:
160,40,35655,1,2,0:0:0:0:
104,16,35755,1,14,0:0:0:0:
304,192,35955,1,2,0:0:0:0:
248,168,36055,1,2,0:0:0:0:
192,144,36155,1,4,0:0:0:0:
392,192,36355,2,0,L|324:192,1,50,2|2,0:0|0:0,0:0:0:0:
160,192,36555,2,0,L|104:192,2,50,14|0|0,0:0|0:0|0:0,0:0:0:0:
480,184,36955,6,0,P|460:236|416:252,1,100,4|0,0:0|0:0,0:0:0:0:
364,252,37255,1,0,0:0:0:0:
172,252,37355,2,0,L|60:252,1,100,12|0,0:0|0:0,0:0:0:0:
272,252,37755,1,4,0:0:0:0:
112,252,37955,1,0,0:0:0:0:
372,252,38155,1,12,0:0:0:0:
432,192,38355,1,0,0:0:0:0:
112,192,38555,6,0,P|84:236|96:296,1,100,4|2,0:0|0:0,0:0:0:0:
102,303,38805,1,2,0:0:0:0:
125,318,38855,1,2,0:0:0:0:
316,320,38955,1,14,0:0:0:0:
216,320,39155,1,2,0:0:0:0:
416,320,39355,2,0,P|448:280|448:216,1,100,4|2,0:0|0:0,0:0:0:0:
404,232,39655,1,2,0:0:0:0:
212,232,39755,1,14,0:0:0:0:
332,232,39955,1,0,0:0:0:0:
32,232,40155,6,0,P|24:176|48:120,1,100,4|0,0:0|0:0,0:0:0:0:
96,136,40455,1,0,0:0:0:0:
288,136,40555,2,0,L|392:112,1,100,12|0,0:0|0:0,0:0:0:0:
184,48,40955,1,4,0:0:0:0:
364,48,41155,1,0,0:0:0:0:
104,48,41355,1,12,0:0:0:0:
284,48,41555,1,0,0:0:0:0:
24,120,41755,6,0,L|116:64,2,100,4|2|14,0:0|0:0|0:0,0:0:0:0:
284,120,42355,2,0,P|340:168|284:264,1,200,0|2,0:0|0:0,0:0:0:0:
88,264,42955,2,0,L|80:160,1,100,14|0,0:0|0:0,0:0:0:0:
352,288,43355,6,0,L|256:260,2,100,4|2|14,0:0|0:0|0:0,0:0:0:0:
92,336,43955,2,0,P|68:296|100:260,1,100,0|4,0:0|0:0,0:0:0:0:
216,260,44355,1,2,0:0:0:0:
476,292,44555,2,0,L|388:244,1,100,14|0,0:0|0:0,0:0:0:0:
128,192,44955,6,0,L|100:96,1,100,4|2,0:0|0:0,0:0:0:0:
360,192,45355,2,0,L|332:96,1,100,14|0,0:0|0:0,0:0:0:0:
112,192,45755,2,0,L|12:192,1,100,4|2,0:0|0:0,0:0:0:0:
64,192,46055,1,2,0:0:0:0:
236,192,46155,1,14,0:0:0:0:
88,192,46355,1,0,0:0:0:0:
376,192,46555,5,14,0:0:0:0:
152,192,46955,2,0,L|148:112,1,75.0000028610231,0|0,0:0|0:0,0:0:0:0:
368,120,47355,2,0,P|424:184|348:268,1,200,8|0,0:0|0:0,0:0:0:0:
64,268,48155,5,12,0:0:0:0:
264,268,48355,1,8,0:0:0:0:
384,268,48555,2,0,L|184:244,2,200,0|8|0,0:0|0:0|0:0,0:0:0:0:
264,268,49555,1,8,0:0:0:0:
56,268,49755,5,12,0:0:0:0:
252,348,50155,2,0,L|316:308,1,75.0000028610231
96,348,50555,2,0,P|96:288|204:212,1,200,8|0,0:0|0:0,0:0:0:0:
500,212,51355,5,12,0:0:0:0:
300,212,51555,1,8,0:0:0:0:
412,212,51755,2,0,L|432:124,1,75.0000028610231,0|8,0:0|0:0,0:0:0:0:
228,140,52155,1,8,0:0:0:0:
488,84,52555,2,0,P|508:136|448:216,1,150,2|0,0:0|0:0,0:0:0:0:
232,212,52955,5,14,0:0:0:0:
408,212,53355,1,0,0:0:0:0:
108,212,53755,1,12,0:0:0:0:
332,212,54155,1,0,0:0:0:0:
32,212,54555,6,0,L|44:128,1,75.0000028610231,12|8,0:0|0:0,0:0:0:0:
152,136,54955,1,0,0:0:0:0:
400,136,55355,1,12,0:0:0:0:
132,136,55755,1,0,0:0:0:0:
496,136,56155,6,0,L|436:216,1,100,12|0,0:0|0:0,0:0:0:0:
236,216,56555,2,0,L|336:216,1,100,4|0,0:0|0:0,0:0:0:0:
76,220,56955,2,0,L|15:140,1,100,8|0,0:0|0:0,0:0:0:0:
276,136,57355,2,0,L|176:136,1,100,4|0,0:0|0:0,0:0:0:0:
456,136,57755,6,0,P|456:208|388:260,1,150,8|0,0:0|0:0,0:0:0:0:
372,256,58105,1,0,0:0:0:0:
353,278,58155,1,0,0:0:0:0:
348,308,58205,1,0,0:0:0:0:
361,336,58255,1,0,0:0:0:0:
386,352,58305,1,0,0:0:0:0:
416,352,58355,1,0,0:0:0:0:
441,336,58405,1,0,0:0:0:0:
454,309,58455,1,0,0:0:0:0:
451,279,58505,1,0,0:0:0:0:
431,256,58555,1,0,0:0:0:0:
140,152,58755,6,0,P|68:208|132:264,1,200,2|2,0:0|0:0,0:0:0:0:
432,260,59355,6,0,P|462:200|440:152,1,125,6|2,0:0|0:0,0:0:0:0:
376,152,59655,1,0,0:0:0:0:
216,156,59755,2,0,L|88:116,1,125,14|2,0:0|0:0,0:0:0:0:
296,40,60155,2,0,L|424:80,1,125,4|2,0:0|0:0,0:0:0:0:
352,76,60455,1,0,0:0:0:0:
152,76,60555,1,14,0:0:0:0:
276,76,60755,1,2,0:0:0:0:
16,76,60955,6,0,L|128:144,2,125,4|2|14,0:0|0:0|0:0,0:0:0:0:
228,76,61555,1,2,0:0:0:0:
352,76,61755,1,4,0:0:0:0:
228,76,61955,2,0,L|292:76,1,62.5,2|0,0:0|0:0,0:0:0:0:
456,76,62155,2,0,L|464:200,1,125,14|2,0:0|0:0,0:0:0:0:
204,200,62555,6,0,P|136:216|100:260,1,125,6|2,0:0|0:0,0:0:0:0:
100,292,62821,1,0,0:0:0:0:
124,332,62888,1,0,0:0:0:0:
167,347,62955,1,14,0:0:0:0:
292,348,63155,1,2,0:0:0:0:
32,256,63355,2,0,L|140:192,1,125,6|2,0:0|0:0,0:0:0:0:
408,192,63755,2,0,L|332:88,1,125,14|2,0:0|0:0,0:0:0:0:
132,92,64155,6,0,L|240:168,1,125,6|2,0:0|0:0,0:0:0:0:
32,92,64555,1,14,0:0:0:0:
320,92,64755,1,2,0:0:0:0:
444,92,64955,1,4,0:0:0:0:
320,92,65155,1,2,0:0:0:0:
60,88,65355,1,14,0:0:0:0:
336,92,65555,1,2,0:0:0:0:
12,88,65755,6,0,L|120:160,2,125,6|2|14,0:0|0:0|0:0,0:0:0:0:
212,92,66355,1,2,0:0:0:0:
336,88,66555,2,0,P|298:136|239:151,1,125,4|2,0:0|0:0,0:0:0:0:
176,152,66855,1,0,0:0:0:0:
372,152,66955,2,0,P|416:188|424:252,1,125,14|2,0:0|0:0,0:0:0:0:
132,228,67355,6,0,P|148:288|200:320,1,125,6|2,0:0|0:0,0:0:0:0:
496,320,67755,2,0,L|352:320,1,125,14|2,0:0|0:0,0:0:0:0:
172,320,68155,1,4,0:0:0:0:
296,320,68355,2,0,L|352:280,1,62.5,2|0,0:0|0:0,0:0:0:0:
284,320,68555,1,14,0:0:0:0:
230,296,68655,1,0,0:0:0:0:
222,237,68755,1,2,0:0:0:0:
269,199,68855,1,0,0:0:0:0:
468,200,68955,5,6,0:0:0:0:
500,168,69055,2,0,P|496:104|448:64,1,125,2|2,0:0|0:0,0:0:0:0:
264,64,69355,2,0,P|192:88|168:188,1,187.5,14|0,0:0|0:0,0:0:0:0:
356,192,69755,1,6,0:0:0:0:
220,192,69955,1,2,0:0:0:0:
448,192,70155,1,14,0:0:0:0:
340,192,70355,1,2,0:0:0:0:
68,192,70555,6,0,L|64:84,1,100,6|2,0:0|0:0,0:0:0:0:
344,192,70955,2,0,L|380:288,1,100,14|2,0:0|0:0,0:0:0:0:
80,192,71355,2,0,L|4:124,1,100,6|2,0:0|0:0,0:0:0:0:
324,192,71755,2,0,L|424:180,1,100,14|2,0:0|0:0,0:0:0:0:
100,192,72155,5,4,0:0:0:0:
224,192,72355,1,2,0:0:0:0:
276,192,72455,1,2,0:0:0:0:
324,192,72555,2,0,L|432:256,1,125,14|2,0:0|0:0,0:0:0:0:
169,278,72955,2,0,P|109:242|101:186,1,125,6|2,0:0|0:0,0:0:0:0:
284,188,73355,1,14,0:0:0:0:
184,188,73555,1,2,0:0:0:0:
460,188,73755,6,0,P|480:124|444:68,1,125,6|0,0:0|0:0,0:0:0:0:
192,72,74155,2,0,L|72:132,1,125,14|2,0:0|0:0,0:0:0:0:
340,132,74555,1,6,0:0:0:0:
240,192,74755,2,0,L|224:120,1,62.5,2|2,0:0|0:0,0:0:0:0:
456,188,74955,2,0,P|484:148|468:72,1,125,14|2,0:0|0:0,0:0:0:0:
192,76,75355,6,0,L|72:108,2,125,6|2|14,0:0|0:0|0:0,0:0:0:0:
392,72,75955,1,2,0:0:0:0:
76,188,76155,2,0,P|40:236|76:280,1,125,6|2,0:0|0:0,0:0:0:0:
336,192,76555,2,0,P|295:145|236:131,1,125,14|2,0:0|0:0,0:0:0:0:
496,192,76955,5,6,0:0:0:0:
236,192,77155,1,2,0:0:0:0:
112,192,77355,1,12,0:0:0:0:
300,192,77555,2,0,L|344:240,1,62.5,2|2,0:0|0:0,0:0:0:0:
152,320,77755,1,6,0:0:0:0:
288,320,77955,1,2,0:0:0:0:
28,320,78155,1,14,0:0:0:0:
152,320,78355,1,2,0:0:0:0:
440,320,78555,6,0,P|428:260|388:212,1,125,6|0,0:0|0:0,0:0:0:0:
188,212,78955,1,12,0:0:0:0:
312,212,79155,1,2,0:0:0:0:
44,212,79355,1,6,0:0:0:0:
156,212,79555,1,2,0:0:0:0:
437,212,79755,2,0,L|309:212,1,125,14|2,0:0|0:0,0:0:0:0:
48,212,80155,6,0,P|60:152|100:104,1,125,4|0,0:0|0:0,0:0:0:0:
300,104,80555,1,12,0:0:0:0:
176,104,80755,1,2,0:0:0:0:
436,104,80955,2,0,L|444:228,1,125,14|2,0:0|0:0,0:0:0:0:
184,228,81355,2,0,L|84:320,1,125,14|2,0:0|0:0,0:0:0:0:
368,316,81755,6,0,L|480:252,1,125,6|2,0:0|0:0,0:0:0:0:
400,256,82055,1,0,0:0:0:0:
204,316,82155,1,14,0:0:0:0:
316,196,82355,2,0,L|384:196,1,62.5,2|0,0:0|0:0,0:0:0:0:
176,196,82555,2,0,L|60:144,1,125,6|2,0:0|0:0,0:0:0:0:
264,144,82955,1,14,0:0:0:0:
140,144,83155,1,2,0:0:0:0:
428,140,83355,6,0,P|448:80|424:20,1,125,6|0,0:0|0:0,0:0:0:0:
364,24,83655,1,0,0:0:0:0:
188,24,83755,2,0,L|76:88,1,125,14|0,0:0|0:0,0:0:0:0:
344,88,84155,2,0,L|472:88,1,125,6|0,0:0|0:0,0:0:0:0:
104,88,84555,5,14,0:0:0:0:
256,192,84755,12,0,85955,0:0:0:0:
420,192,86155,5,2,0:0:0:0:
92,192,86555,5,4,0:0:0:0:
