osu file format v14

[General]
AudioFilename: audio.mp3
AudioLeadIn: 0
PreviewTime: 58755
Countdown: 0
SampleSet: Soft
StackLeniency: 0.4
Mode: 2
LetterboxInBreaks: 0
WidescreenStoryboard: 1

[Editor]
Bookmarks: 20955,27355,32155,46555,52955,56155,59355
DistanceSpacing: 0.9
BeatDivisor: 4
GridSize: 4
TimelineZoom: 5.900002

[Metadata]
Title:YoiYoi Kokon
TitleUnicode:宵々古今
Artist:REOL
ArtistUnicode:REOL
Creator:Ongaku
Version:Hyperion's Overdose
Source:
Tags:jbhyperion mrsergio mir sigma giga
BeatmapID:1179143
BeatmapSetID:552854

[Difficulty]
HPDrainRate:6
CircleSize:5
OverallDifficulty:9.3
ApproachRate:9.3
SliderMultiplier:2.2
SliderTickRate:2

[Events]
//Background and Video events
0,0,"yoiyoi2.jpg",0,0
//Break Periods
//Storyboard Layer 0 (Background)
//Storyboard Layer 1 (Fail)
//Storyboard Layer 2 (Pass)
//Storyboard Layer 3 (Foreground)
//Storyboard Sound Samples

[TimingPoints]
6946,431.654676258993,4,2,1,50,1,0
8155,400,4,2,1,50,1,0
14555,-100,4,2,2,70,0,0
20555,-100,4,2,3,70,0,0
20955,-100,4,2,2,70,0,0
26755,-100,4,2,2,70,0,0
32955,-66.6666666666667,4,2,2,70,0,0
33355,-100,4,2,3,70,0,0
33755,-100,4,2,4,70,0,0
46555,-133.333333333333,4,2,5,70,0,0
47355,-100,4,2,5,70,0,0
47755,-133.333333333333,4,2,5,70,0,0
50555,-100,4,2,5,70,0,0
50955,-133.333333333333,4,2,5,70,0,0
52555,-100,4,2,2,70,0,0
52955,-133.333333333333,4,2,5,70,0,0
56155,-100,4,2,5,70,0,0
57755,-80,4,2,5,70,0,0
57955,-100,4,2,6,70,0,0
58555,-100,4,2,2,70,0,0
58755,-100,4,2,4,70,0,0
59355,-80,4,2,7,70,0,1
69055,-66.6666666666667,4,2,7,70,0,1
69255,-80,4,2,7,70,0,1
70355,-80,4,2,7,70,0,0
70555,-100,4,2,7,70,0,1
70755,-100,4,2,7,70,0,0
70955,-100,4,2,7,70,0,1
71155,-100,4,2,7,70,0,0
71355,-100,4,2,7,70,0,1
71555,-100,4,2,7,70,0,0
71755,-100,4,2,7,70,0,1
71955,-100,4,2,7,70,0,0
72155,-80,4,2,7,70,0,1
84555,-100,4,2,7,70,0,0
86555,-100,4,2,7,70,0,1
86605,-100,4,2,7,70,0,0

[Colours]
Combo1 : 128,0,128
Combo2 : 255,128,0
Combo3 : 128,0,255
Combo4 : 255,128,64

[HitObjects]
204,192,6945,5,0,0:0:0:0:
424,192,7053,1,0,0:0:0:0:
156,192,8155,6,0,P|104:144|156:100,1,146.666666666667,8|0,0:0|0:0,0:0:0:0:
176,100,8488,1,0,0:0:0:0:
208,100,8555,1,8,0:0:0:0:
492,104,8755,1,0,0:0:0:0:
228,192,8955,1,8,0:0:0:0:
360,192,9155,1,0,0:0:0:0:
96,192,9355,2,0,L|88:304,1,110,8|0,0:0|0:0,0:0:0:0:
288,308,9755,6,0,L|188:264,2,110,8|0|8,0:0|0:0|0:0,0:0:0:0:
95,263,10355,1,0,0:0:0:0:
187,263,10455,1,0,0:0:0:0:
279,263,10555,1,8,0:0:0:0:
79,191,10755,1,0,0:0:0:0:
79,191,10805,1,0,0:0:0:0:
79,191,10855,1,0,0:0:0:0:
260,192,10955,1,8,0:0:0:0:
148,192,11155,1,0,0:0:0:0:
417,193,11355,6,0,P|461:149|413:101,1,137.5,8|0,0:0|0:0,0:0:0:0:
397,101,11655,1,0,0:0:0:0:
365,101,11705,1,0,0:0:0:0:
225,101,11755,1,8,0:0:0:0:
333,101,11955,1,0,0:0:0:0:
69,97,12155,2,0,L|165:157,1,110,8|0,0:0|0:0,0:0:0:0:
449,157,12555,1,8,0:0:0:0:
341,157,12755,1,0,0:0:0:0:
77,157,12955,6,0,L|201:157,2,110,8|0|8,0:0|0:0|0:0,0:0:0:0:
233,241,13555,2,0,L|289:241,1,55
121,241,13755,1,8,0:0:0:0:
296,240,13955,1,0,0:0:0:0:
32,240,14155,1,8,0:0:0:0:
11,204,14205,1,0,0:0:0:0:
8,164,14255,1,0,0:0:0:0:
25,126,14305,1,0,0:0:0:0:
57,101,14355,1,0,0:0:0:0:
148,100,14455,1,0,0:0:0:0:
368,100,14555,6,0,P|440:132|404:256,1,220,12|0,0:0|0:0,0:0:0:0:
292,288,15155,1,0,0:0:0:0:
28,288,15355,1,12,0:0:0:0:
192,288,15555,1,0,0:0:0:0:
48,288,15755,1,0,0:0:0:0:
168,288,15955,1,0,0:0:0:0:
432,364,16155,5,12,0:0:0:0:
168,364,16355,2,0,L|56:364,1,110,8|0,0:0|0:0,0:0:0:0:
188,288,16755,2,0,L|120:288,1,55,0|0,0:0|0:0,0:0:0:0:
296,288,16955,1,12,0:0:0:0:
140,192,17155,1,0,0:0:0:0:
408,192,17355,1,0,0:0:0:0:
432,160,17405,1,0,0:0:0:0:
432,120,17455,1,0,0:0:0:0:
408,88,17505,1,0,0:0:0:0:
296,88,17555,1,8,0:0:0:0:
32,140,17755,6,0,P|16:96|48:44,1,110,12|0,0:0|0:0,0:0:0:0:
244,44,18155,2,0,L|156:128,1,110,4|0,0:0|0:0,0:0:0:0:
440,144,18555,2,0,L|332:100,1,110,12|0,0:0|0:0,0:0:0:0:
152,192,18955,1,4,0:0:0:0:
284,192,19155,1,0,0:0:0:0:
20,192,19355,5,12,0:0:0:0:
284,192,19555,2,0,L|400:192,1,110,8|0,0:0|0:0,0:0:0:0:
264,120,19955,2,0,L|236:72,1,55,8|0,0:0|0:0,0:0:0:0:
404,120,20155,1,8,0:0:0:0:
280,72,20355,1,0,0:0:0:0:
380,72,20455,1,0,0:0:0:0:
136,72,20555,6,0,L|24:72,1,110,4|0,0:0|0:0,0:0:0:0:
312,72,20955,6,0,L|412:120,1,110,6|0,0:0|0:0,0:0:0:0:
344,120,21255,1,0,0:0:0:0:
232,120,21355,2,0,P|184:140|160:192,1,110,6|0,0:0|0:0,0:0:0:0:
424,192,21755,1,6,0:0:0:0:
292,192,21955,1,2,0:0:0:0:
468,268,22155,2,0,L|408:268,1,55,6|0,0:0|0:0,0:0:0:0:
484,336,22355,2,0,L|424:336,1,55,2|0,0:0|0:0,0:0:0:0:
208,336,22555,6,0,L|152:336,1,55,6|0,0:0|0:0,0:0:0:0:
96,292,22755,1,2,0:0:0:0:
120,232,22855,1,0,0:0:0:0:
288,232,22955,1,4,0:0:0:0:
156,176,23155,2,0,L|220:176,1,55,2|2,0:0|0:0,0:0:0:0:
384,180,23355,2,0,L|340:144,1,55,6|0,0:0|0:0,0:0:0:0:
252,140,23555,2,0,L|296:100,1,55,2|0,0:0|0:0,0:0:0:0:
392,104,23755,2,0,L|440:144,1,55,6|0,0:0|0:0,0:0:0:0:
344,228,23955,2,0,L|296:188,1,55,2|0,0:0|0:0,0:0:0:0:
128,192,24155,6,0,L|72:192,1,55,6|0,0:0|0:0,0:0:0:0:
24,148,24355,1,2,0:0:0:0:
12,84,24455,1,0,0:0:0:0:
176,84,24555,2,0,L|236:84,1,55,4|0,0:0|0:0,0:0:0:0:
156,20,24755,2,0,L|224:20,1,55,2|2,0:0|0:0,0:0:0:0:
368,20,24955,2,0,L|484:20,1,110,6|2,0:0|0:0,0:0:0:0:
308,88,25355,1,6,0:0:0:0:
488,88,25555,1,2,0:0:0:0:
232,192,25755,6,0,L|120:192,1,110,6|2,0:0|0:0,0:0:0:0:
176,192,26055,1,0,0:0:0:0:
352,192,26155,2,0,L|452:256,1,110,6|0,0:0|0:0,0:0:0:0:
168,240,26555,1,6,0:0:0:0:
312,240,26755,2,0,L|316:300,1,55,2|0,0:1|0:0,0:0:0:0:
208,292,26955,2,0,L|204:360,1,55,10|0,0:1|0:0,0:0:0:0:
315,294,27155,2,0,L|320:360,1,55,0|0,0:0|0:0,0:0:0:0:
110,341,27355,6,0,L|219:286,1,110,6|0,0:0|0:0,0:0:0:0:
413,341,27755,2,0,L|317:289,1,110,6|0,0:0|0:0,0:0:0:0:
260,288,28055,1,0,0:0:0:0:
436,272,28155,2,0,P|448:216|408:184,1,110,6|2,0:0|0:0,0:0:0:0:
148,184,28555,1,6,0:0:0:0:
312,184,28755,1,2,0:0:0:0:
48,184,28955,6,0,L|160:160,1,110,6|2,0:0|0:0,0:0:0:0:
224,160,29255,1,0,0:0:0:0:
392,160,29355,1,4,0:0:0:0:
264,92,29555,2,0,L|220:52,1,55,2|2,0:0|0:0,0:0:0:0:
376,52,29755,2,0,L|308:52,1,55,6|0,0:0|0:0,0:0:0:0:
244,92,29955,2,0,L|274:143,1,55,2|0,0:0|0:0,0:0:0:0:
428,132,30155,2,0,L|373:165,1,55,6|0,0:0|0:0,0:0:0:0:
303,139,30355,2,0,L|367:140,1,55,2|0,0:0|0:0,0:0:0:0:
192,136,30555,6,0,P|144:148|104:192,1,110,6|2,0:0|0:0,0:0:0:0:
168,192,30855,1,0,0:0:0:0:
320,192,30955,1,4,0:0:0:0:
168,192,31155,1,2,0:0:0:0:
424,264,31355,2,0,L|476:240,1,55,6|0,0:0|0:0,0:0:0:0:
320,260,31555,2,0,L|271:283,1,55,2|0,0:0|0:0,0:0:0:0:
336,320,31755,1,4,0:0:0:0:
84,320,31955,6,0,P|44:256|144:192,1,220,6|0,0:0|0:0,0:0:0:0:
408,192,32555,1,0,0:0:0:0:
176,192,32955,2,0,B|176:128|176:128|296:128|296:128|296:64,1,247.500009441376,0|0,0:0|0:0,0:0:0:0:
66,192,33355,6,0,L|186:192,1,110,4|0,0:0|0:0,0:0:0:0:
484,192,33755,6,0,L|492:304,1,110,6|0,0:0|0:0,0:0:0:0:
180,192,34155,2,0,L|284:144,1,110,12|0,0:0|0:0,0:0:0:0:
80,144,34555,1,4,0:0:0:0:
212,144,34755,1,0,0:0:0:0:
36,144,34955,1,12,0:0:0:0:
200,144,35155,1,0,0:0:0:0:
464,144,35355,5,4,0:0:0:0:
300,144,35555,2,0,L|240:144,1,55,2|2,0:0|0:0,0:0:0:0:
400,144,35755,1,14,0:0:0:0:
288,232,35955,2,0,L|336:204,1,55,0|0,0:0|0:0,0:0:0:0:
176,232,36155,1,4,0:0:0:0:
84,308,36355,1,2,0:0:0:0:
180,308,36455,1,2,0:0:0:0:
340,308,36555,2,0,L|396:284,1,55,14|0,0:0|0:0,0:0:0:0:
232,308,36755,2,0,L|195:259,1,55,0|0,0:0|0:0,0:0:0:0:
400,288,36955,6,0,P|452:268|464:212,1,110,4|0,0:0|0:0,0:0:0:0:
400,220,37255,1,0,0:0:0:0:
220,224,37355,2,0,L|112:192,1,110,12|0,0:0|0:0,0:0:0:0:
376,152,37755,2,0,L|392:92,1,55,4|0,0:0|0:0,0:0:0:0:
296,100,37955,2,0,L|280:40,1,55,0|0,0:0|0:0,0:0:0:0:
114,192,38155,2,0,L|98:132,1,55,12|0,0:0|0:0,0:0:0:0:
194,140,38355,2,0,L|210:80,1,55,0|0,0:0|0:0,0:0:0:0:
376,152,38555,6,0,P|404:196|388:252,1,110,4|2,0:0|0:0,0:0:0:0:
368,272,38805,1,2,0:0:0:0:
336,276,38855,1,2,0:0:0:0:
152,276,38955,1,14,0:0:0:0:
316,276,39155,1,2,0:0:0:0:
208,276,39355,1,4,0:0:0:0:
472,192,39555,2,0,L|408:192,1,55,2|2,0:0|0:0,0:0:0:0:
252,192,39755,1,14,0:0:0:0:
384,192,39955,2,0,L|344:152,1,55,0|0,0:0|0:0,0:0:0:0:
120,192,40155,6,0,P|84:164|124:132,1,110,4|0,0:0|0:0,0:0:0:0:
192,92,40455,1,0,0:0:0:0:
368,92,40555,2,0,L|468:48,1,110,12|0,0:0|0:0,0:0:0:0:
204,48,40955,1,4,0:0:0:0:
368,48,41155,1,0,0:0:0:0:
104,48,41355,1,12,0:0:0:0:
280,48,41555,1,0,0:0:0:0:
16,192,41755,5,4,0:0:0:0:
60,316,41955,1,2,0:0:0:0:
180,368,42155,1,14,0:0:0:0:
442,368,42355,1,0,0:0:0:0:
290,368,42555,2,0,L|180:368,1,110,4|2,0:0|0:0,0:0:0:0:
232,340,42855,1,2,0:0:0:0:
408,192,42955,2,0,L|348:156,1,55,14|0,0:0|0:0,0:0:0:0:
296,192,43155,2,0,L|248:164,1,55
76,180,43355,5,4,0:0:0:0:
144,76,43555,1,2,0:0:0:0:
276,28,43755,1,14,0:0:0:0:
12,76,43955,2,0,P|44:124|92:136,1,110,0|4,0:0|0:0,0:0:0:0:
204,136,44355,1,2,0:0:0:0:
468,136,44555,2,0,L|352:136,1,110,14|0,0:0|0:0,0:0:0:0:
24,204,44955,6,0,L|112:132,1,110,4|2,0:0|0:0,0:0:0:0:
164,136,45255,1,2,0:0:0:0:
324,192,45355,2,0,L|238:261,1,110,14|0,0:0|0:0,0:0:0:0:
416,305,45755,2,0,L|504:233,1,110,4|2,0:0|0:0,0:0:0:0:
460,213,46055,1,2,0:0:0:0:
292,193,46155,1,14,0:0:0:0:
424,193,46355,1,0,0:0:0:0:
92,193,46555,5,14,0:0:0:0:
324,193,46955,2,0,L|336:105,1,82.5000031471254,0|0,0:0|0:0,0:0:0:0:
72,113,47355,2,0,P|16:177|92:277,1,220,8|0,0:0|0:0,0:0:0:0:
344,276,48155,5,12,0:0:0:0:
144,276,48355,1,8,0:0:0:0:
276,276,48555,2,0,L|356:224,1,82.5000031471254,0|0,0:0|0:0,0:0:0:0:
80,276,48955,2,0,P|36:224|96:164,1,165.000006294251,8|0,0:0|0:0,0:0:0:0:
260,164,49555,2,0,L|308:164,1,41.2500015735627,8|0,0:0|0:0,0:0:0:0:
116,96,49755,5,12,0:0:0:0:
301,164,50155,2,0,L|196:164,1,82.5000031471254,0|0,0:0|0:0,0:0:0:0:
484,164,50555,2,0,P|484:104|359:24,1,220,8|0,0:0|0:0,0:0:0:0:
196,24,51155,1,0,0:0:0:0:
460,164,51355,5,12,0:0:0:0:
360,164,51555,1,8,0:0:0:0:
108,164,51755,2,0,L|92:248,1,82.5000031471254,0|8,0:0|0:0,0:0:0:0:
344,244,52155,2,0,L|424:272,1,82.5000031471254,8|0,0:0|0:0,0:0:0:0:
372,272,52455,1,0,0:0:0:0:
180,276,52555,2,0,P|120:308|180:344,1,165,2|0,0:0|0:0,0:0:0:0:
344,344,52955,5,14,0:0:0:0:
144,344,53355,1,0,0:0:0:0:
456,344,53755,1,12,0:0:0:0:
192,344,54155,1,0,0:0:0:0:
424,272,54555,5,12,0:0:0:0:
240,272,54755,1,8,0:0:0:0:
156,200,54955,1,0,0:0:0:0:
420,200,55355,1,12,0:0:0:0:
124,200,55755,2,0,L|112:116,1,82.5000031471254,0|8,0:0|0:0,0:0:0:0:
380,192,56155,6,0,L|448:104,1,110,12|0,0:0|0:0,0:0:0:0:
160,120,56555,2,0,L|52:68,1,110,4|0,0:0|0:0,0:0:0:0:
368,192,56955,2,0,L|476:152,1,110,8|0,0:0|0:0,0:0:0:0:
136,192,57355,2,0,L|26:192,1,110,4|0,0:0|0:0,0:0:0:0:
400,128,57755,6,0,P|436:212|344:260,1,206.25,8|0,0:0|0:0,0:0:0:0:
312,244,58105,1,0,0:0:0:0:
300,200,58155,1,0,0:0:0:0:
327,165,58205,1,0,0:0:0:0:
321,121,58255,1,0,0:0:0:0:
286,94,58305,1,0,0:0:0:0:
242,100,58355,1,0,0:0:0:0:
215,135,58405,1,0,0:0:0:0:
222,179,58455,1,0,0:0:0:0:
256,206,58505,1,0,0:0:0:0:
368,204,58555,1,0,0:0:0:0:
104,208,58755,6,0,P|40:264|128:332,1,220,2|2,0:0|0:0,0:0:0:0:
192,332,59255,1,2,0:0:0:0:
424,332,59355,6,0,P|464:276|420:240,1,137.5,6|2,0:0|0:0,0:0:0:0:
340,240,59655,1,0,0:0:0:0:
184,240,59755,2,0,L|52:192,1,137.5,14|2,0:0|0:0,0:0:0:0:
252,108,60155,2,0,L|116:152,1,137.5,4|2,0:0|0:0,0:0:0:0:
204,144,60455,1,0,0:0:0:0:
376,140,60555,2,0,L|411:76,1,68.75,14|0,0:0|0:0,0:0:0:0:
226,209,60755,2,0,L|202:139,1,68.75,2|0,0:0|0:0,0:0:0:0:
384,192,60955,6,0,L|256:136,2,137.5,4|2|14,0:0|0:0|0:0,0:0:0:0:
248,280,61555,1,2,0:0:0:0:
424,312,61755,2,0,L|352:276,1,68.75,4|0,0:0|0:0,0:0:0:0:
296,280,61955,2,0,L|236:248,1,68.75,2|0,0:0|0:0,0:0:0:0:
412,144,62155,2,0,P|440:96|376:68,1,137.5,14|2,0:0|0:0,0:0:0:0:
308,64,62455,1,0,0:0:0:0:
136,64,62555,6,0,P|68:80|36:140,1,137.5,6|2,0:0|0:0,0:0:0:0:
52,188,62821,1,0,0:0:0:0:
99,211,62888,1,0,0:0:0:0:
236,212,62955,1,14,0:0:0:0:
152,272,63155,1,2,0:0:0:0:
356,272,63355,2,0,P|428:244|452:192,1,137.5,6|2,0:0|0:0,0:0:0:0:
368,192,63655,1,0,0:0:0:0:
204,192,63755,1,14,0:0:0:0:
328,192,63955,1,2,0:0:0:0:
36,192,64155,6,0,L|164:136,2,137.5,6|2|14,0:0|0:0|0:0,0:0:0:0:
328,192,64755,2,0,L|265:156,1,68.75,2|0,0:0|0:0,0:0:0:0:
208,156,64955,1,4,0:0:0:0:
388,192,65155,1,2,0:0:0:0:
92,288,65355,2,0,L|164:260,1,68.75,14|0,0:0|0:0,0:0:0:0:
328,352,65555,2,0,L|260:328,1,68.75,2|0,0:0|0:0,0:0:0:0:
84,192,65755,6,0,P|100:140|172:108,2,137.5,6|2|14,0:0|0:0|0:0,0:0:0:0:
292,192,66355,1,2,0:0:0:0:
444,192,66555,2,0,P|440:128|380:100,1,137.5,4|2,0:0|0:0,0:0:0:0:
315,99,66855,1,0,0:0:0:0:
136,104,66955,2,0,L|80:152,1,68.75,14|0,0:0|0:0,0:0:0:0:
264,52,67155,2,0,L|316:100,1,68.75,2|0,0:0|0:0,0:0:0:0:
132,192,67355,6,0,P|84:236|124:284,1,137.5,6|2,0:0|0:0,0:0:0:0:
192,284,67655,1,0,0:0:0:0:
364,288,67755,2,0,L|232:232,1,137.5,14|2,0:0|0:0,0:0:0:0:
404,240,68155,1,4,0:0:0:0:
128,236,68355,2,0,L|72:192,1,68.75,2|0,0:0|0:0,0:0:0:0:
240,148,68555,2,0,L|168:132,1,68.75,14|0,0:0|0:0,0:0:0:0:
5,193,68755,2,0,L|85:193,1,68.75,2|0,0:0|0:0,0:0:0:0:
240,148,68955,5,6,0:0:0:0:
72,132,69055,2,0,P|20:76|80:36,1,165.000006294251,2|2,0:0|0:0,0:0:0:0:
244,36,69355,2,0,B|312:36|312:36|312:108,1,137.5,14|2,0:0|0:0,0:0:0:0:
252,104,69655,1,0,0:0:0:0:
64,196,69755,2,0,L|8:156,1,68.75,6|0,0:0|0:0,0:0:0:0:
90,133,69955,2,0,L|146:173,1,68.75,2|0,0:0|0:0,0:0:0:0:
312,240,70155,2,0,L|260:188,1,68.75,14|0,0:0|0:0,0:0:0:0:
180,290,70355,2,0,L|232:238,1,68.75,2|0,0:0|0:0,0:0:0:0:
400,196,70555,6,0,L|392:128,1,55,6|0,0:0|0:0,0:0:0:0:
224,196,70755,2,0,L|236:128,1,55,2|0,0:0|0:0,0:0:0:0:
416,196,70955,2,0,L|376:148,1,55,14|0,0:0|0:0,0:0:0:0:
200,196,71155,2,0,L|240:148,1,55,2|0,0:0|0:0,0:0:0:0:
436,196,71355,2,0,L|480:152,1,55,6|0,0:0|0:0,0:0:0:0:
262,234,71555,2,0,L|223:195,1,55,2|0,0:0|0:0,0:0:0:0:
448,196,71755,2,0,L|504:196,1,55,14|0,0:0|0:0,0:0:0:0:
312,196,71955,2,0,L|256:196,1,55,2|0,0:0|0:0,0:0:0:0:
92,192,72155,5,4,0:0:0:0:
216,192,72355,1,2,0:0:0:0:
280,192,72455,1,2,0:0:0:0:
216,192,72555,2,0,P|160:208|128:276,1,137.5,14|2,0:0|0:0,0:0:0:0:
420,276,72955,2,0,P|484:248|488:184,1,137.5,6|2,0:0|0:0,0:0:0:0:
420,188,73255,1,0,0:0:0:0:
232,192,73355,2,0,L|172:156,1,68.75,14|0,0:0|0:0,0:0:0:0:
264,140,73555,2,0,L|296:80,1,68.75,2|0,0:0|0:0,0:0:0:0:
116,156,73755,6,0,P|84:220|124:264,1,137.5,6|0,0:0|0:0,0:0:0:0:
192,264,74055,1,2,0:0:0:0:
372,264,74155,2,0,L|256:192,1,137.5,14|2,0:0|0:0,0:0:0:0:
431,368,74555,2,0,B|431:300|431:300|359:256,1,137.5,6|2,0:0|0:0,0:0:0:0:
308,264,74855,1,2,0:0:0:0:
128,192,74955,2,0,L|200:192,1,68.75,14|0,0:0|0:0,0:0:0:0:
280,192,75155,2,0,L|228:140,1,68.75,2|0,0:0|0:0,0:0:0:0:
64,192,75355,6,0,L|172:100,2,137.5,6|2|14,0:0|0:0|0:0,0:0:0:0:
340,192,75955,1,2,0:0:0:0:
16,192,76155,2,0,P|32:256|92:288,1,137.5,6|2,0:0|0:0,0:0:0:0:
160,288,76455,1,0,0:0:0:0:
328,192,76555,2,0,P|296:144|220:120,1,137.5,14|2,0:0|0:0,0:0:0:0:
484,192,76955,5,6,0:0:0:0:
220,192,77155,1,2,0:0:0:0:
344,192,77355,1,12,0:0:0:0:
68,192,77555,2,0,L|16:240,1,68.75,2|2,0:0|0:0,0:0:0:0:
192,256,77755,2,0,L|260:256,1,68.75,6|0,0:0|0:0,0:0:0:0:
88,240,77955,2,0,L|143:190,1,68.75,2|0,0:0|0:0,0:0:0:0:
312,192,78155,2,0,L|452:192,1,137.5,14|2,0:0|0:0,0:0:0:0:
120,192,78555,6,0,P|76:152|120:104,1,137.5,6|0,0:0|0:0,0:0:0:0:
304,108,78955,1,12,0:0:0:0:
152,272,79155,2,0,L|88:240,1,68.75,2|0,0:0|0:0,0:0:0:0:
264,192,79355,2,0,L|332:192,1,68.75,6|0,0:0|0:0,0:0:0:0:
152,272,79555,2,0,L|72:272,1,68.75,2|0,0:0|0:0,0:0:0:0:
276,332,79755,2,0,B|244:272|244:272|173:272,1,137.5,14|2,0:0|0:0,0:0:0:0:
452,332,80155,6,0,P|432:272|368:240,1,137.5,4|0,0:0|0:0,0:0:0:0:
184,240,80555,1,12,0:0:0:0:
308,240,80755,1,2,0:0:0:0:
240,240,80855,1,0,0:0:0:0:
68,244,80955,2,0,B|112:192|112:192|184:192,1,137.5,14|2,0:0|0:0,0:0:0:0:
460,192,81355,2,0,L|316:192,1,137.5,14|2,0:0|0:0,0:0:0:0:
48,192,81755,6,0,P|20:140|56:76,1,137.5,6|2,0:0|0:0,0:0:0:0:
124,76,82055,1,2,0:0:0:0:
296,76,82155,1,14,0:0:0:0:
180,76,82355,2,0,L|124:116,1,68.75,2|0,0:0|0:0,0:0:0:0:
296,112,82555,1,6,0:0:0:0:
180,112,82755,1,2,0:0:0:0:
444,112,82955,1,14,0:0:0:0:
160,112,83155,1,2,0:0:0:0:
476,112,83355,6,0,P|496:172|456:228,1,137.5,6|0,0:0|0:0,0:0:0:0:
384,228,83655,1,0,0:0:0:0:
212,228,83755,2,0,L|336:164,1,137.5,14|0,0:0|0:0,0:0:0:0:
60,112,84155,2,0,L|199:112,1,137.5,6|0,0:0|0:0,0:0:0:0:
462,112,84555,5,14,0:0:0:0:
256,192,84755,12,0,85955,0:0:0:0:
440,192,86155,5,0,0:0:0:0:
72,192,86555,5,4,0:0:0:0:
