osu file format v14

[General]
AudioFilename: audio.mp3
AudioLeadIn: 0
PreviewTime: 58755
Countdown: 0
SampleSet: Soft
StackLeniency: 0.6
Mode: 0
LetterboxInBreaks: 0
WidescreenStoryboard: 1

[Editor]
Bookmarks: 15155,20955,27355,32155,46555,52955,56155,59355
DistanceSpacing: 1
BeatDivisor: 4
GridSize: 32
TimelineZoom: 8

[Metadata]
Title:YoiYoi Kokon
TitleUnicode:宵々古今
Artist:REOL
ArtistUnicode:REOL
Creator:Ongaku
Version:Easy
Source:
Tags:jbhyperion mrsergio mir sigma giga
BeatmapID:1181898
BeatmapSetID:552854

[Difficulty]
HPDrainRate:3.5
CircleSize:2.5
OverallDifficulty:2
ApproachRate:2
SliderMultiplier:1.1
SliderTickRate:1

[Events]
//Background and Video events
0,0,"yoiyoi2.jpg",0,0
//Break Periods
//Storyboard Layer 0 (Background)
//Storyboard Layer 1 (Fail)
//Storyboard Layer 2 (Pass)
//Storyboard Layer 3 (Foreground)
//Storyboard Sound Samples

[TimingPoints]
6946,431.654676258993,4,2,1,50,1,0
8155,400,4,2,1,50,1,0
8155,-133.333333333333,4,2,1,50,0,0
14555,-133.333333333333,4,2,2,70,0,0
20555,-66.6666666666667,4,2,3,70,0,0
20855,-66.6666666666667,4,2,3,5,0,0
20955,-100,4,2,2,70,0,0
26755,-100,4,2,2,70,0,0
27255,-66.6666666666667,4,2,2,5,0,0
27355,-100,4,2,2,70,0,0
33155,-200,4,2,2,70,0,0
33355,-66.6666666666667,4,2,3,70,0,0
33655,-66.6666666666667,4,2,3,5,0,0
33755,-100,4,2,4,70,0,0
46555,-133.333333333333,4,2,5,70,0,0
47255,-133.333333333333,4,2,5,5,0,0
47355,-133.333333333333,4,2,5,70,0,0
48055,-133.333333333333,4,2,5,5,0,0
48155,-133.333333333333,4,2,5,70,0,0
48855,-133.333333333333,4,2,5,5,0,0
48955,-133.333333333333,4,2,5,70,0,0
50455,-133.333333333333,4,2,5,5,0,0
50555,-133.333333333333,4,2,5,70,0,0
51255,-133.333333333333,4,2,5,5,0,0
51355,-133.333333333333,4,2,5,70,0,0
52155,-100,4,2,5,70,0,0
52555,-66.6666666666667,4,2,2,70,0,0
52955,-133.333333333333,4,2,5,70,0,0
53655,-133.333333333333,4,2,2,5,0,0
53755,-133.333333333333,4,2,2,70,0,0
54455,-133.333333333333,4,2,2,5,0,0
54555,-133.333333333333,4,2,2,70,0,0
55255,-133.333333333333,4,2,2,5,0,0
55355,-133.333333333333,4,2,2,70,0,0
57755,-100,4,2,2,70,0,0
57955,-100,4,2,6,70,0,0
58555,-100,4,2,2,70,0,0
58755,-100,4,2,4,70,0,0
59355,-100,4,2,7,70,0,1
70355,-100,4,2,7,70,0,0
70555,-100,4,2,7,70,0,1
70655,-100,4,2,7,5,0,1
70755,-100,4,2,7,70,0,0
70955,-100,4,2,7,70,0,1
71055,-100,4,2,7,5,0,1
71155,-100,4,2,7,70,0,0
71355,-100,4,2,7,70,0,1
71455,-100,4,2,7,5,0,1
71555,-100,4,2,7,70,0,0
71755,-100,4,2,7,70,0,1
71855,-100,4,2,7,5,0,1
71955,-100,4,2,7,70,0,0
72155,-100,4,2,7,70,0,1
84555,-100,4,2,7,70,0,0
86155,-100,4,2,8,70,0,0
86555,-100,4,2,7,70,0,1
86605,-100,4,2,7,70,0,0

[Colours]
Combo1 : 128,0,128
Combo2 : 255,128,0
Combo3 : 128,0,255
Combo4 : 255,128,64

[HitObjects]
280,23,8155,5,8,0:0:0:0:
284,121,8555,2,0,L|190:122,2,82.5000031471254,8|8|8,0:0|0:0|0:0,0:0:0:0:
374,164,9755,5,8,0:0:0:0:
472,172,10155,1,8,0:0:0:0:
415,253,10555,2,0,P|376:264|336:255,1,82.5000031471253,8|8,0:0|0:0,0:0:0:0:
278,175,11355,5,8,0:0:0:0:
204,239,11755,2,0,L|202:321,2,82.5000031471254,8|8|8,0:0|0:0|0:0,0:0:0:0:
196,140,12955,5,8,0:0:0:0:
101,168,13355,1,0,0:0:0:0:
124,71,13755,2,0,P|158:50|215:45,1,82.5000031471254,8|8,0:0|0:0,0:0:0:0:
303,35,14555,6,0,B|314:60|311:84|311:84|360:125|343:191,1,165.000006294251,12|12,0:0|0:0,0:0:0:0:
168,187,16155,2,0,B|152:125|201:84|201:84|198:60|209:35,1,165.000006294251,12|12,0:0|0:0,0:0:0:0:
256,160,17755,1,12,0:0:0:0:
367,190,18555,1,12,0:0:0:0:
381,80,19355,6,0,B|320:83|320:83|293:66|293:66|229:66|229:66|201:50|201:50|134:53,1,247.500009441376,12|4,0:0|0:0,0:0:0:0:
69,121,20955,6,0,L|63:243,1,110,6|6,0:0|0:0,0:0:0:0:
166,269,21755,2,0,L|171:159,1,110,6|6,0:0|0:0,0:0:0:0:
183,49,22555,2,0,P|229:67|335:62,1,110,6|4,0:0|0:0,0:0:0:0:
387,22,23355,2,0,L|376:141,1,110,6|6,0:0|0:0,0:0:0:0:
370,241,24155,6,0,P|324:223|218:228,1,110,6|4,0:0|0:0,0:0:0:0:
166,268,24955,2,0,L|177:149,1,110,6|6,0:0|0:0,0:0:0:0:
90,89,25755,2,0,L|79:198,1,110,6|6,0:0|0:0,0:0:0:0:
69,308,26555,2,0,L|59:385,2,55,4|2|10,0:0|0:1|0:1,0:0:0:0:
152,372,27355,6,0,L|263:353,1,110,6|6,0:0|0:0,0:0:0:0:
345,283,28155,2,0,L|456:264,1,110,6|6,0:0|0:0,0:0:0:0:
498,164,28955,2,0,P|496:102|476:51,1,110,6|4,0:0|0:0,0:0:0:0:
370,71,29755,2,0,P|317:79|257:67,1,110,6|6,0:0|0:0,0:0:0:0:
165,14,30555,6,0,P|150:68|166:124,2,110,6|4|6,0:0|0:0|0:0,0:0:0:0:
262,68,31755,2,0,L|339:68,1,55,4|6,0:0|0:0,0:0:0:0:
80,172,33355,5,4,0:0:0:0:
38,273,33755,6,0,P|93:282|147:258,1,110,6|12,0:0|0:0,0:0:0:0:
228,194,34555,2,0,P|278:173|332:183,1,110,4|12,0:0|0:0,0:0:0:0:
423,243,35355,1,4,0:0:0:0:
423,243,35755,1,14,0:0:0:0:
429,133,36155,1,4,0:0:0:0:
429,133,36555,1,14,0:0:0:0:
431,23,36955,6,0,P|371:35|329:74,1,110,4|12,0:0|0:0,0:0:0:0:
282,162,37755,2,0,P|239:195|185:204,1,110,4|12,0:0|0:0,0:0:0:0:
77,183,38555,1,4,0:0:0:0:
77,183,38955,1,14,0:0:0:0:
149,100,39355,1,4,0:0:0:0:
149,100,39755,1,14,0:0:0:0:
228,24,40155,6,0,L|350:24,1,110,4|12,0:0|0:0,0:0:0:0:
398,115,40955,2,0,L|288:115,1,110,4|12,0:0|0:0,0:0:0:0:
229,207,41755,2,0,L|351:207,1,110,4|14,0:0|0:0,0:0:0:0:
399,298,42555,2,0,L|289:298,1,110,4|14,0:0|0:0,0:0:0:0:
179,287,43355,6,0,P|142:245|137:186,1,110,4|14,0:0|0:0,0:0:0:0:
203,106,44155,2,0,P|240:148|245:207,1,110,4|14,0:0|0:0,0:0:0:0:
340,257,44955,2,0,L|464:245,1,110,4|14,0:0|0:0,0:0:0:0:
449,136,45755,2,0,L|325:124,1,110,4|14,0:0|0:0,0:0:0:0:
240,114,46555,5,14,0:0:0:0:
75,99,47355,1,8,0:0:0:0:
240,114,48155,2,0,L|237:159,1,41.2500015735627,12|8,0:0|0:0,0:0:0:0:
225,278,48955,1,8,0:0:0:0:
61,259,49755,5,12,0:0:0:0:
225,278,50555,1,8,0:0:0:0:
389,294,51355,2,0,L|444:300,1,41.2500015735627,12|8,0:0|0:0,0:0:0:0:
321,173,52155,1,8,0:0:0:0:
430,298,52955,6,0,P|438:223|421:121,1,165.000006294251,14|12,0:0|0:0,0:0:0:0:
291,46,54555,2,0,P|217:56|97:38,1,165.000006294251,12|12,0:0|0:0,0:0:0:0:
61,198,56155,6,0,P|48:243|54:287,1,82.5000031471254,12|4,0:0|0:0,0:0:0:0:
136,328,56955,2,0,P|149:283|143:239,1,82.5000031471254,12|4,0:0|0:0,0:0:0:0:
226,362,57755,2,0,B|287:347|287:347|347:360|347:360|442:342,1,220,8|8,0:0|0:0,0:0:0:0:
466,123,59355,6,0,L|454:13,1,110,6|14,0:0|0:0,0:0:0:0:
366,80,60155,1,4,0:0:0:0:
377,189,60555,1,14,0:0:0:0:
291,259,60955,2,0,P|266:210|272:157,1,110,4|14,0:0|0:0,0:0:0:0:
231,56,61755,2,0,P|201:102|131:122,1,110,4|14,0:0|0:0,0:0:0:0:
63,188,62555,6,0,L|60:301,1,110,6|14,0:0|0:0,0:0:0:0:
168,317,63355,1,4,0:0:0:0:
170,207,63755,1,14,0:0:0:0:
259,273,64155,2,0,P|312:286|373:270,1,110,4|14,0:0|0:0,0:0:0:0:
419,178,64955,2,0,P|366:165|305:181,1,110,4|14,0:0|0:0,0:0:0:0:
217,121,65755,6,0,L|225:9,1,110,6|14,0:0|0:0,0:0:0:0:
118,38,66555,1,4,0:0:0:0:
109,147,66955,1,14,0:0:0:0:
193,219,67355,2,0,P|253:216|308:159,1,110,4|14,0:0|0:0,0:0:0:0:
362,102,68155,2,0,P|406:71|461:70,1,110,4|14,0:0|0:0,0:0:0:0:
444,175,68955,6,0,L|441:302,1,110,6|14,0:0|0:0,0:0:0:0:
351,348,69755,2,0,L|353:238,1,110,4|14,0:0|0:0,0:0:0:0:
260,296,70555,5,6,0:0:0:0:
184,251,70955,1,14,0:0:0:0:
153,333,71355,1,6,0:0:0:0:
77,288,71755,1,14,0:0:0:0:
9,198,72155,6,0,L|22:77,1,110,6|14,0:0|0:0,0:0:0:0:
130,101,72955,1,4,0:0:0:0:
117,210,73355,1,14,0:0:0:0:
222,174,73755,2,0,P|274:163|337:183,1,110,4|14,0:0|0:0,0:0:0:0:
377,276,74555,2,0,P|325:287|262:267,1,110,4|14,0:0|0:0,0:0:0:0:
222,174,75355,6,0,L|213:53,1,110,6|14,0:0|0:0,0:0:0:0:
305,2,76155,1,4,0:0:0:0:
313,111,76555,1,14,0:0:0:0:
300,220,76955,2,0,P|356:216|402:171,1,110,4|14,0:0|0:0,0:0:0:0:
505,172,77755,2,0,P|480:222|496:284,1,110,4|14,0:0|0:0,0:0:0:0:
444,374,78555,6,0,P|413:327|351:310,1,110,6|14,0:0|0:0,0:0:0:0:
265,358,79355,1,4,0:0:0:0:
155,355,79755,1,14,0:0:0:0:
69,284,80155,2,0,P|54:232|71:174,1,110,4|14,0:0|0:0,0:0:0:0:
153,110,80955,2,0,L|268:108,1,110,12|14,0:0|0:0,0:0:0:0:
362,61,81755,6,0,P|375:117|351:175,1,110,6|14,0:0|0:0,0:0:0:0:
290,252,82555,1,4,0:0:0:0:
298,361,82955,1,14,0:0:0:0:
387,298,83355,6,0,L|511:297,1,110,6|14,0:0|0:0,0:0:0:0:
469,190,84155,2,0,L|359:190,1,110,6|14,0:0|0:0,0:0:0:0:
256,192,84955,12,4,86555,0:0:0:0:
