osu file format v14

[General]
AudioFilename: audio.mp3
AudioLeadIn: 0
PreviewTime: 58755
Countdown: 0
SampleSet: Soft
StackLeniency: 0.6
Mode: 0
LetterboxInBreaks: 0
WidescreenStoryboard: 1

[Editor]
Bookmarks: 7754,8154,15155,20955,27355,32155,46555,52955,56155,59355
DistanceSpacing: 1.2
BeatDivisor: 4
GridSize: 32
TimelineZoom: 8

[Metadata]
Title:YoiYoi Kokon
TitleUnicode:宵々古今
Artist:REOL
ArtistUnicode:REOL
Creator:Ongaku
Version:Normal
Source:
Tags:jbhyperion mrsergio mir sigma giga
BeatmapID:1181644
BeatmapSetID:552854

[Difficulty]
HPDrainRate:3.5
CircleSize:2.5
OverallDifficulty:4.5
ApproachRate:5
SliderMultiplier:1.55
SliderTickRate:2

[Events]
//Background and Video events
0,0,"yoiyoi2.jpg",0,0
//Break Periods
//Storyboard Layer 0 (Background)
//Storyboard Layer 1 (Fail)
//Storyboard Layer 2 (Pass)
//Storyboard Layer 3 (Foreground)
//Storyboard Sound Samples

[TimingPoints]
6946,431.654676258993,4,2,1,50,1,0
8155,400,4,2,1,50,1,0
8155,-133.333333333333,4,2,1,50,0,0
14555,-133.333333333333,4,2,2,70,0,0
20555,-66.6666666666667,4,2,3,70,0,0
20855,-66.6666666666667,4,2,3,5,0,0
20955,-100,4,2,2,70,0,0
26755,-100,4,2,2,70,0,0
27255,-66.6666666666667,4,2,2,5,0,0
27355,-100,4,2,2,70,0,0
33155,-200,4,2,2,70,0,0
33355,-66.6666666666667,4,2,3,70,0,0
33655,-66.6666666666667,4,2,3,5,0,0
33755,-100,4,2,4,70,0,0
46555,-133.333333333333,4,2,5,70,0,0
47255,-133.333333333333,4,2,5,5,0,0
47355,-133.333333333333,4,2,5,70,0,0
48055,-133.333333333333,4,2,5,5,0,0
48155,-133.333333333333,4,2,5,70,0,0
48855,-133.333333333333,4,2,5,5,0,0
48955,-133.333333333333,4,2,5,70,0,0
50455,-133.333333333333,4,2,5,5,0,0
50555,-133.333333333333,4,2,5,70,0,0
51255,-133.333333333333,4,2,5,5,0,0
51355,-133.333333333333,4,2,5,70,0,0
52155,-100,4,2,5,70,0,0
52555,-66.6666666666667,4,2,2,70,0,0
52955,-133.333333333333,4,2,5,70,0,0
53655,-133.333333333333,4,2,2,5,0,0
53755,-133.333333333333,4,2,2,70,0,0
54455,-133.333333333333,4,2,2,5,0,0
54555,-133.333333333333,4,2,2,70,0,0
55255,-133.333333333333,4,2,2,5,0,0
55355,-133.333333333333,4,2,2,70,0,0
57755,-133.333333333333,4,2,2,70,0,0
57955,-133.333333333333,4,2,6,70,0,0
58555,-133.333333333333,4,2,2,70,0,0
58755,-133.333333333333,4,2,4,70,0,0
59355,-100,4,2,7,70,0,1
70355,-100,4,2,7,70,0,0
70555,-100,4,2,7,70,0,1
70655,-100,4,2,7,5,0,1
70755,-100,4,2,7,70,0,0
70955,-100,4,2,7,70,0,1
71055,-100,4,2,7,5,0,1
71155,-100,4,2,7,70,0,0
71355,-100,4,2,7,70,0,1
71455,-100,4,2,7,5,0,1
71555,-100,4,2,7,70,0,0
71755,-100,4,2,7,70,0,1
71855,-100,4,2,7,5,0,1
71955,-100,4,2,7,70,0,0
72155,-100,4,2,7,70,0,1
84555,-100,4,2,7,70,0,0
86155,-100,4,2,8,70,0,0
86555,-100,4,2,7,70,0,1
86605,-100,4,2,7,70,0,0

[Colours]
Combo1 : 128,0,128
Combo2 : 255,128,0
Combo3 : 128,0,255
Combo4 : 255,128,64

[HitObjects]
256,288,8155,5,8,0:0:0:0:
333,237,8555,2,0,P|349:291|328:346,2,116.250004434586,8|8|8,0:0|0:0|0:0,0:0:0:0:
256,288,9755,5,8,0:0:0:0:
256,288,10155,1,8,0:0:0:0:
178,237,10555,2,0,P|162:291|182:345,1,116.250004434586,8|8,0:0|0:0,0:0:0:0:
256,288,11355,5,8,0:0:0:0:
346,311,11755,2,0,P|402:326|465:299,2,116.250004434586,8|8|8,0:0|0:0|0:0,0:0:0:0:
398,226,12955,5,8,0:0:0:0:
398,226,13355,1,8,0:0:0:0:
448,147,13755,2,0,P|392:132|329:159,1,116.250004434586,8|8,0:0|0:0,0:0:0:0:
236,94,14555,6,0,B|201:149|229:208|229:208|224:273|166:322,1,232.500008869171,8|8,0:0|0:0,0:0:0:0:
392,363,16155,2,0,B|349:328|344:263|344:263|372:204|337:149,1,232.500008869171,8|8,0:0|0:0,0:0:0:0:
273,59,17555,1,8,0:0:0:0:
273,59,17755,6,0,L|345:61,2,58.1250022172929,12|0|4,0:0|0:0|0:0,0:0:0:0:
235,143,18555,2,0,L|294:145,2,58.1250022172929,12|0|4,0:0|0:0|0:0,0:0:0:0:
211,232,19355,5,8,0:0:0:0:
211,232,19555,2,0,P|159:201|142:135,1,116.250004434586,8|8,0:0|0:0,0:0:0:0:
145,121,20155,1,8,0:0:0:0:
246,55,20555,1,4,0:0:0:0:
246,55,20955,6,0,B|289:68|289:68|430:54,1,155,6|6,0:0|0:0,0:0:0:0:
498,131,21755,2,0,L|494:214,1,77.5,6|2,0:0|0:0,0:0:0:0:
421,266,22155,2,0,L|417:349,1,77.5,6|2,0:0|0:0,0:0:0:0:
328,371,22555,6,0,P|257:349|179:376,1,155,6|4,0:0|0:0,0:0:0:0:
67,327,23355,2,0,P|43:302|38:241,1,77.5,6|0,0:0|0:0,0:0:0:0:
88,180,23755,2,0,P|121:171|176:197,1,77.5,6|0,0:0|0:0,0:0:0:0:
120,259,24155,6,0,P|198:263|249:182,1,155,6|4,0:0|0:0,0:0:0:0:
310,103,24955,2,0,L|288:28,1,77.5,6|2,0:0|0:0,0:0:0:0:
380,20,25355,2,0,L|403:101,1,77.5,6|2,0:0|0:0,0:0:0:0:
364,180,25755,1,6,0:0:0:0:
485,203,26155,1,6,0:0:0:0:
417,306,26555,6,0,L|418:390,2,77.5,6|2|10,0:0|0:1|0:1,0:0:0:0:
264,201,27355,6,0,P|200:164|128:214,1,155,6|6,0:0|0:0,0:0:0:0:
74,345,28155,2,0,L|79:258,1,77.5,6|2,0:0|0:0,0:0:0:0:
54,177,28555,2,0,L|59:90,1,77.5,6|2,0:0|0:0,0:0:0:0:
125,29,28955,6,0,B|176:39|176:39|314:25,1,155,6|4,0:0|0:0,0:0:0:0:
401,45,29755,2,0,P|424:92|418:142,1,77.5,6|0,0:0|0:0,0:0:0:0:
355,178,30155,2,0,P|332:131|338:81,1,77.5,6|0,0:0|0:0,0:0:0:0:
238,101,30555,6,0,P|246:180|297:254,1,155,6|4,0:0|0:0,0:0:0:0:
440,242,31355,1,6,0:0:0:0:
359,374,31755,1,4,0:0:0:0:
359,374,31955,1,6,0:0:0:0:
256,288,33355,5,4,0:0:0:0:
193,358,33755,6,0,P|162:289|206:207,1,155,6|12,0:0|0:0,0:0:0:0:
321,219,34555,2,0,P|349:289|319:358,1,155,6|12,0:0|0:0,0:0:0:0:
256,288,35355,5,4,0:0:0:0:
256,288,35755,1,12,0:0:0:0:
256,192,36155,1,4,0:0:0:0:
256,192,36555,1,12,0:0:0:0:
320,124,36955,6,0,P|349:193|319:263,1,155,6|12,0:0|0:0,0:0:0:0:
192,260,37755,2,0,P|163:191|193:121,1,155,6|12,0:0|0:0,0:0:0:0:
256,192,38555,1,4,0:0:0:0:
320,124,38955,1,14,0:0:0:0:
365,202,39355,2,0,B|365:261|365:261|301:361,1,155,4|12,0:0|0:0,0:0:0:0:
247,276,40155,6,0,B|271:235|271:235|274:115,1,155,4|12,0:0|0:0,0:0:0:0:
194,12,40955,2,0,B|235:36|235:36|355:38,1,155,6|12,0:0|0:0,0:0:0:0:
481,38,41755,6,0,P|458:108|501:183,1,155,4|12,0:0|0:0,0:0:0:0:
490,330,42555,2,0,L|493:176,1,155,6|14,0:0|0:0,0:0:0:0:
401,102,43355,6,0,B|373:144|373:144|370:249,1,155,4|12,0:0|0:0,0:0:0:0:
250,321,44155,2,0,B|277:278|277:278|280:173,1,155,6|12,0:0|0:0,0:0:0:0:
202,77,44955,6,0,L|43:67,2,155,4|12|4,0:0|0:0|0:0,0:0:0:0:
334,121,46155,1,12,0:0:0:0:
325,236,46555,5,14,0:0:0:0:
220,186,46955,2,0,P|163:182|123:229,1,116.250004434586,0|8,0:0|0:0,0:0:0:0:
8,211,47755,1,0,0:0:0:0:
57,108,48155,5,12,0:0:0:0:
57,108,48355,2,0,P|125:58|231:71,1,174.375006651879,8|8,0:0|0:0,0:0:0:0:
322,25,49355,2,0,P|332:57|321:99,1,58.1250022172929,0|8,0:0|0:0,0:0:0:0:
302,132,49755,5,12,0:0:0:0:
211,61,50155,2,0,P|184:115|204:186,1,116.250004434586,0|8,0:0|0:0,0:0:0:0:
279,245,50955,1,0,0:0:0:0:
381,318,51355,5,12,0:0:0:0:
381,318,51555,2,0,B|395:280|395:280|391:187,1,116.250004434586,8|8,0:0|0:0,0:0:0:0:
377,168,52155,2,0,P|457:170|511:124,1,155,8|2,0:0|0:1,0:0:0:0:
426,84,52955,5,14,0:0:0:0:
309,80,53755,1,12,0:0:0:0:
192,79,54555,1,12,0:0:0:0:
192,79,54755,1,8,0:0:0:0:
105,137,55355,1,12,0:0:0:0:
47,235,56155,6,0,P|106:248|168:227,1,116.250004434586,12|4,0:0|0:0,0:0:0:0:
236,183,56955,2,0,P|292:170|347:186,1,116.250004434586,8|4,0:0|0:0,0:0:0:0:
391,111,57755,6,0,P|270:84|163:127,1,232.500008869171,8|8,0:0|0:0,0:0:0:0:
174,21,59355,6,0,B|20:16,1,155,6|14,0:0|0:0,0:0:0:0:
172,121,60155,2,0,B|326:116,1,155,4|14,0:0|0:0,0:0:0:0:
409,73,60755,1,0,0:0:0:0:
409,73,60955,6,0,P|436:152|414:241,1,155,4|14,0:0|0:0,0:0:0:0:
256,300,61755,2,0,P|229:221|251:132,1,155,4|14,0:0|0:0,0:0:0:0:
177,83,62355,1,0,0:0:0:0:
177,83,62555,6,0,B|104:107|104:107|22:103,2,155,6|14|4,0:0|0:0|0:0,0:0:0:0:
364,96,63755,2,0,P|365:58|353:22,1,77.5,14|0,0:0|0:0,0:0:0:0:
273,76,64155,6,0,B|270:154|270:154|295:226,2,155,4|14|4,0:0|0:0|0:0,0:0:0:0:
450,130,65355,1,14,0:0:0:0:
368,296,65755,6,0,P|301:323|221:294,1,155,6|14,0:0|0:0,0:0:0:0:
62,208,66555,2,0,P|129:181|209:210,1,155,4|14,0:0|0:0,0:0:0:0:
295,226,67155,1,0,0:0:0:0:
295,226,67355,6,0,B|303:71,1,155,4|14,0:0|0:0,0:0:0:0:
133,6,68155,2,0,B|141:161,1,155,4|14,0:0|0:0,0:0:0:0:
111,313,68955,6,0,B|114:273|105:247|105:247|155:262|202:232,1,155,6|14,0:0|0:0,0:0:0:0:
321,238,69755,2,0,B|357:262|407:247|407:247|398:273|400:313,1,155,4|14,0:0|0:0,0:0:0:0:
370,159,70555,5,6,0:0:0:0:
279,137,70955,1,14,0:0:0:0:
230,216,71355,1,14,0:0:0:0:
321,238,71755,1,6,0:0:0:0:
370,159,72155,6,0,P|360:89|272:43,1,155,6|14,0:0|0:0,0:0:0:0:
124,123,72955,2,0,L|279:137,1,155,4|14,0:0|0:0,0:0:0:0:
294,228,73555,1,0,0:0:0:0:
294,228,73755,6,0,P|360:263|432:241,1,155,4|14,0:0|0:0,0:0:0:0:
462,58,74555,2,0,B|391:81|391:81|366:180,1,155,4|14,0:0|0:0,0:0:0:0:
464,151,75155,1,0,0:0:0:0:
464,151,75355,6,0,L|470:309,2,155,6|14|4,0:0|0:0|0:0,0:0:0:0:
364,308,76555,2,0,P|327:315|263:303,1,77.5,14|0,0:0|0:0,0:0:0:0:
199,281,76955,6,0,B|171:208|171:208|188:116,2,155,4|14|4,0:0|0:0|0:0,0:0:0:0:
363,193,78155,1,14,0:0:0:0:
240,52,78555,6,0,P|165:35|94:85,1,155,6|14,0:0|0:0,0:0:0:0:
96,259,79355,2,0,L|184:132,1,155,4|14,0:0|0:0,0:0:0:0:
240,52,79955,1,0,0:0:0:0:
240,52,80155,6,0,P|315:69|386:19,1,155,4|14,0:0|0:0,0:0:0:0:
504,167,80955,2,0,L|496:328,1,155,4|14,0:0|0:0,0:0:0:0:
408,351,81555,1,0,0:0:0:0:
408,351,81755,6,0,P|332:341|255:370,2,155,6|14|4,0:0|0:0|0:0,0:0:0:0:
289,207,82955,2,0,B|282:169|282:169|293:120,1,77.5,14|0,0:0|0:0,0:0:0:0:
361,62,83355,6,0,P|293:35|202:80,1,155,6|14,0:0|0:0,0:0:0:0:
149,143,84155,2,0,P|77:169|7:142,1,155,6|14,0:0|0:0,0:0:0:0:
256,192,84955,12,4,86555,0:0:0:0:
