osu file format v14

[General]
AudioFilename: audio.mp3
AudioLeadIn: 0
PreviewTime: 51125
Countdown: 0
SampleSet: Soft
StackLeniency: 0.5
Mode: 0
LetterboxInBreaks: 0
StoryFireInFront: 0
EpilepsyWarning: 1
WidescreenStoryboard: 1

[Editor]
DistanceSpacing: 0.9
BeatDivisor: 4
GridSize: 4
TimelineZoom: 1.7

[Metadata]
Title:YoiYoi Kokon
TitleUnicode:宵々古今
Artist:REOL
ArtistUnicode:REOL
Creator:DreaM117er
Version:Normal
Source:
Tags:れをる giga-p gigap okiku Σ sigma Regraz Misure Frey Flask kiddly Starrodkirby86 Chaoslitz m1223961117
BeatmapID:1196692
BeatmapSetID:545737

[Difficulty]
HPDrainRate:3
CircleSize:3.2
OverallDifficulty:4
ApproachRate:5
SliderMultiplier:1.2
SliderTickRate:1

[Events]
//Background and Video events
0,0,"BG.jpg",0,0
//Break Periods
2,79325,90725
2,172124,183525
//Storyboard Layer 0 (Background)
//Storyboard Layer 1 (Fail)
//Storyboard Layer 2 (Pass)
//Storyboard Layer 3 (Foreground)
Sprite,Foreground,Centre,"SB\intro\main\MISURE\_000.png",320,240 F,0,7125,8725,1
//Storyboard Sound Samples

[TimingPoints]
725,400,4,2,1,80,1,0
7125,-125,4,2,1,80,0,0
10325,-100,4,2,1,80,0,0
13525,-100,4,2,2,80,0,0
15325,-100,4,2,1,80,0,0
15525,-100,4,2,2,80,0,0
17725,-100,4,2,1,80,0,0
17925,-100,4,2,2,80,0,0
21725,-100,4,2,1,80,0,0
21925,-100,4,2,2,80,0,0
24125,-100,4,2,1,80,0,0
24325,-100,4,2,2,80,0,0
28125,-100,4,2,1,80,0,0
28325,-100,4,2,2,80,0,0
28925,-100,4,2,1,80,0,0
29125,-100,4,2,2,80,0,0
29325,-100,4,2,1,80,0,0
29525,-100,4,2,2,80,0,0
31325,-100,4,2,1,80,0,0
31525,-100,4,2,2,80,0,0
32125,-100,4,2,1,80,0,0
32325,-100,4,2,2,80,0,0
32525,-100,4,2,1,80,0,0
32725,-100,4,2,2,80,0,0
34525,-100,4,2,1,80,0,0
34725,-100,4,2,2,80,0,0
35325,-100,4,2,1,80,0,0
35525,-100,4,2,2,80,0,0
36125,-100,4,2,1,80,0,0
36325,-100,4,2,2,80,0,0
36925,-100,4,2,1,80,0,0
37125,-100,4,2,2,80,0,0
39125,-125,4,2,1,80,0,0
51925,-100,4,2,2,100,0,1
52125,-100,4,2,1,100,0,1
54125,-100,4,2,2,100,0,1
54325,-100,4,2,1,100,0,1
55125,-100,4,2,2,100,0,1
55325,-100,4,2,1,100,0,1
57325,-100,4,2,2,100,0,1
57525,-100,4,2,1,100,0,1
58325,-100,4,2,2,100,0,1
58525,-100,4,2,1,100,0,1
60525,-100,4,2,2,100,0,1
60725,-100,4,2,1,100,0,1
64525,-100,4,2,2,100,0,1
64725,-100,4,2,2,100,0,1
64925,-100,4,2,1,100,0,1
70525,-100,4,2,2,100,0,1
70725,-100,4,2,1,100,0,1
70925,-100,4,2,2,100,0,1
71325,-100,4,2,1,100,0,1
72725,-100,4,2,2,100,0,1
72925,-100,4,2,1,100,0,1
78725,-100,4,2,1,80,0,0
79125,-100,4,2,2,80,0,0
79325,-100,4,2,1,80,0,0
91925,-100,4,2,2,80,0,0
92125,-100,4,2,1,80,0,0
98325,-100,4,2,2,80,0,0
98525,-100,4,2,1,80,0,0
99525,-100,4,2,2,80,0,0
99925,-100,4,2,1,80,0,0
101125,-100,4,2,2,80,0,0
101525,-100,4,2,1,80,0,0
104725,-100,4,2,2,80,0,0
104925,-100,4,2,1,80,0,0
105325,-100,4,2,2,80,0,0
105425,-100,4,2,1,80,0,0
111725,-100,4,2,2,80,0,0
111825,-100,4,2,1,80,0,0
117125,-100,4,2,2,80,0,0
117325,-100,4,2,1,80,0,0
117525,-125,4,2,1,80,0,0
130325,-100,4,2,2,100,0,1
130525,-100,4,2,1,100,0,1
132525,-100,4,2,2,100,0,1
132725,-100,4,2,1,100,0,1
133525,-100,4,2,2,100,0,1
133725,-100,4,2,1,100,0,1
135725,-100,4,2,2,100,0,1
135925,-100,4,2,1,100,0,1
136725,-100,4,2,2,100,0,1
136925,-100,4,2,1,100,0,1
138925,-100,4,2,2,100,0,1
139125,-100,4,2,1,100,0,1
142925,-100,4,2,2,100,0,1
143325,-100,4,2,1,100,0,1
148925,-100,4,2,2,100,0,1
149125,-100,4,2,1,100,0,1
149325,-100,4,2,2,100,0,1
149725,-100,4,2,1,100,0,1
151125,-100,4,2,2,100,0,1
151325,-100,4,2,1,100,0,1
155525,-100,4,2,1,80,0,0
155925,-100,4,2,1,40,0,0
157925,-100,4,2,1,60,0,0
158725,-100,4,2,1,80,0,0
159125,-100,4,2,1,80,0,0
184725,-125,4,2,1,80,0,0
196125,-125,4,2,1,30,0,0
196325,-125,4,2,1,80,0,0
198525,-125,4,2,1,40,0,0
199125,-100,4,2,2,100,0,1
199325,-100,4,2,1,100,0,1
201325,-100,4,2,2,100,0,1
201525,-100,4,2,1,100,0,1
202325,-100,4,2,2,100,0,1
202525,-100,4,2,1,100,0,1
204525,-100,4,2,2,100,0,1
204725,-100,4,2,1,100,0,1
205525,-100,4,2,2,100,0,1
205725,-100,4,2,1,100,0,1
207725,-100,4,2,2,100,0,1
207925,-100,4,2,1,100,0,1
211625,-100,4,2,1,10,0,1
211725,-100,4,2,2,100,0,1
211825,-100,4,2,1,10,0,1
211925,-100,4,2,2,100,0,1
212125,-100,4,2,1,100,0,1
217725,-100,4,2,2,100,0,1
217925,-100,4,2,1,100,0,1
218125,-100,4,2,2,100,0,1
218525,-100,4,2,1,100,0,1
219925,-100,4,2,2,100,0,1
220125,-100,4,2,1,100,0,1
227525,-100,4,2,1,80,0,0
227925,-100,4,2,2,80,0,0
228125,-100,4,2,1,80,0,0
234325,-100,4,2,2,80,0,0
234525,-100,4,2,1,80,0,0
240725,-100,4,2,2,80,0,0
240925,-100,4,2,1,80,0,0
247125,-100,4,2,2,80,0,0
247325,-100,4,2,1,80,0,0
248325,-100,4,2,2,80,0,0
248725,-100,4,2,1,80,0,0
249925,-100,4,2,2,80,0,0
250325,-100,4,2,1,80,0,0

[Colours]
Combo1 : 198,198,198
Combo2 : 252,208,129
Combo3 : 247,60,106
Combo4 : 226,228,228
Combo5 : 251,156,51
Combo6 : 119,160,238
Combo7 : 103,96,196
Combo8 : 63,80,148
SliderBorder : 255,255,225

[HitObjects]
160,72,725,6,0,P|171:130|179:190,1,120,8|8,0:0|0:0,0:0:0:0:
152,236,1325,1,0,0:0:0:0:
152,236,1525,2,0,P|122:239|92:233,2,60,8|0|8,0:0|0:0|0:0,0:0:0:0:
220,320,2325,2,0,P|274:296|333:305,1,120,8|8,0:0|0:0,0:0:0:0:
383,292,2925,1,0,0:0:0:0:
383,292,3125,2,0,P|389:232|403:174,1,120,8|8,0:0|0:0,0:0:0:0:
472,92,3925,6,0,P|418:67|359:76,1,120,8|8,0:0|0:0,0:0:0:0:
332,124,4525,1,0,0:0:0:0:
332,124,4725,2,0,P|302:127|272:121,2,60,8|0|8,0:0|0:0|0:0,0:0:0:0:
288,24,5525,2,0,P|236:27|169:44,1,120,8|8,0:0|0:0,0:0:0:0:
132,84,6125,1,0,0:0:0:0:
132,84,6325,2,0,P|129:114|135:144,1,60,8|0,0:0|0:0,0:0:0:0:
179,175,6725,2,0,P|182:205|175:235,1,60,8|0,0:0|0:0,0:0:0:0:
139,273,7125,6,0,P|229:276|273:358,1,192,4|4,0:0|0:0,0:0:0:0:
436,296,8725,2,0,L|446:249,1,48,4|4,0:0|0:0,0:0:0:0:
404,128,9525,2,0,P|357:120|312:136,1,96,4|0,0:0|0:0,0:0:0:0:
272,168,10125,1,4,0:0:0:0:
272,168,10325,6,0,P|280:109|259:53,1,120,4|2,0:0|0:1,0:0:0:0:
152,64,11125,2,0,P|143:122|164:178,1,120,4|2,0:0|0:1,0:0:0:0:
272,168,11925,2,0,P|302:168|330:160,1,60,4|4,0:0|0:0,0:0:0:0:
364,120,12325,2,0,P|393:120|422:128,1,60,0|4,0:0|0:0,0:0:0:0:
448,176,12725,2,0,P|436:234|429:294,1,120,4|4,0:0|0:1,0:0:0:0:
348,368,13525,6,0,P|341:308|329:249,1,120,2|2,0:0|0:0,0:0:0:0:
232,204,14325,2,0,P|236:174|243:145,2,60,2|0|2,0:0|0:0|0:0,0:0:0:0:
224,312,15125,2,0,P|196:300|166:296,1,60,2|2,0:0|0:0,0:0:0:0:
116,316,15525,1,2,0:0:0:0:
16,276,15925,2,0,P|20:246|31:218,1,60,2|0,0:0|0:0,0:0:0:0:
72,180,16325,2,0,P|67:150|56:122,1,60,6|0,0:0|0:0,0:0:0:0:
84,76,16725,6,0,P|138:98|196:87,1,120,2|2,0:0|0:0,0:0:0:0:
276,12,17525,2,0,P|312:4|335:1,1,60,0|2,0:0|0:0,0:0:0:0:
380,31,17925,2,0,P|424:40|439:41,1,60,2|0,0:0|0:0,0:0:0:0:
492,28,18325,2,0,P|503:85|480:140,1,120,2|2,0:0|0:0,0:0:0:0:
388,200,19125,1,2,0:0:0:0:
388,200,19325,2,0,P|388:230|396:259,1,60,8|10,0:0|0:0,0:0:0:0:
461,348,19925,6,0,P|406:371|348:360,1,120,2|2,0:0|0:0,0:0:0:0:
260,296,20725,2,0,P|226:290|200:288,2,60,2|0|2,0:0|0:0|0:0,0:0:0:0:
330,215,21525,2,0,P|358:203|388:199,1,60,2|2,0:0|0:0,0:0:0:0:
437,218,21925,1,2,0:0:0:0:
456,112,22325,2,0,P|444:84|440:54,1,60,2|0,0:0|0:0,0:0:0:0:
392,28,22725,2,0,P|362:32|334:43,1,60,6|0,0:0|0:0,0:0:0:0:
300,84,23125,6,0,P|243:95|188:72,1,120,2|2,0:0|0:0,0:0:0:0:
112,148,23925,2,0,P|105:177|105:207,1,60,2|2,0:0|0:0,0:0:0:0:
136,252,24325,1,2,0:0:0:0:
136,252,24525,5,2,0:0:0:0:
444,32,25925,1,4,1:2:0:0:
432,140,26325,6,0,B|358:153|358:153|318:133,1,120,2|8,0:0|0:1,0:0:0:0:
256,44,27125,2,0,P|226:48|198:59,1,60,2|0,0:0|0:0,0:0:0:0:
164,100,27525,1,8,0:0:0:0:
60,76,27925,2,0,P|49:48|45:18,2,60,0|2|8,0:0|0:0|0:1,0:0:0:0:
92,180,28725,2,0,P|91:209|81:238,1,60,2|2,0:0|0:0,0:0:0:0:
32,260,29125,2,0,P|32:289|39:318,1,60,8|2,0:1|0:0,0:0:0:0:
68,364,29525,6,0,B|142:377|142:377|182:357,1,120,2|8,0:0|0:1,0:0:0:0:
268,292,30325,2,0,P|298:296|326:307,1,60,2|0,0:0|0:0,0:0:0:0:
360,348,30725,1,8,0:0:0:0:
444,280,31125,2,0,P|487:273|508:272,2,60,2|2|8,0:0|0:0|0:1,0:0:0:0:
368,200,31925,2,0,P|371:170|382:142,1,60,2|2,0:0|0:0,0:0:0:0:
420,104,32325,2,0,P|416:74|405:46,1,60,8|2,0:1|0:0,0:0:0:0:
368,8,32725,6,0,P|313:31|255:20,1,120,2|8,0:0|0:1,0:0:0:0:
156,60,33525,2,0,P|152:88|152:120,1,60,2|0,0:0|0:0,0:0:0:0:
192,156,33925,2,0,P|196:184|196:216,1,60,8|8,0:0|0:0,0:0:0:0:
164,260,34325,2,0,P|134:261|105:270,2,60,2|2|8,0:0|0:0|0:1,0:0:0:0:
224,348,35125,2,0,P|252:356|282:358,1,60,0|2,0:0|0:0,0:0:0:0:
312,312,35525,2,0,P|340:303|370:301,1,60,4|0,0:0|0:0,0:0:0:0:
408,340,35925,6,0,L|466:355,2,60,2|2|8,0:0|0:0|0:1,0:0:0:0:
448,240,36725,2,0,L|506:225,2,60,2|2|8,0:0|0:0|0:1,0:0:0:0:
376,160,37525,2,0,P|377:130|369:101,1,60,2|0,0:0|0:0,0:0:0:0:
332,64,37925,2,0,P|302:63|273:71,1,60,8|8,0:1|0:0,0:0:0:0:
236,112,38325,2,0,P|235:142|243:171,1,60,2|8,0:0|0:0,0:0:0:0:
260,224,38725,1,4,0:0:0:0:
170,280,39125,6,0,P|107:212|17:232,1,192,4|4,3:2|0:0,0:0:0:0:
150,119,40725,1,4,0:0:0:0:
150,119,40925,1,4,0:0:0:0:
272,72,41525,2,0,P|263:119|252:165,1,96,4|0,0:0|0:0,0:0:0:0:
232,204,42125,1,4,0:0:0:0:
232,204,42325,6,0,P|300:264|387:235,1,192,4|4,0:0|0:0,0:0:0:0:
480,88,43925,1,4,0:0:0:0:
480,88,44125,2,0,L|494:231,1,144,4|4,0:0|0:0,0:0:0:0:
464,312,45125,1,2,0:0:0:0:
391,267,45525,6,0,P|303:240|226:291,1,192,4|4,3:2|0:0,0:0:0:0:
244,120,47125,1,4,0:0:0:0:
244,120,47325,2,0,P|310:147|381:151,1,144,4|4,0:0|0:0,0:0:0:0:
424,228,48325,1,0,0:0:0:0:
360,284,48725,6,0,P|353:331|351:379,2,96,4|2|4,0:0|0:1|0:0,0:0:0:0:
424,228,49925,1,2,0:1:0:0:
381,151,50325,2,0,P|300:115|255:191,1,192,4|4,0:0|0:0,0:0:0:0:
236,228,51325,2,0,B|188:234|188:234|144:214,1,96,2|2,0:0|0:0,0:0:0:0:
100,212,51925,6,0,P|104:142|111:92,1,120,4|8,0:0|0:0,0:0:0:0:
153,58,52525,1,0,0:0:0:0:
206,61,52725,2,0,P|244:64|266:61,2,60,2|0|8,0:1|0:0|0:0,0:0:0:0:
221,169,53525,2,0,P|222:198|231:227,1,60,2|0,0:1|0:0,0:0:0:0:
276,260,53925,2,0,P|274:289|265:318,1,60,8|8,0:0|0:0,0:0:0:0:
224,352,54325,2,0,P|165:337|106:344,1,120,2|8,0:1|0:0,0:0:0:0:
136,240,55125,6,0,L|130:180,2,60,4|2|8,0:0|0:0|0:0,0:0:0:0:
230,292,55925,2,0,L|224:351,2,60,2|0|8,0:1|0:0|0:0,0:0:0:0:
328,248,56725,2,0,P|345:192|330:134,1,120,2|8,0:1|0:0,0:0:0:0:
292,96,57325,1,8,0:0:0:0:
292,96,57525,2,0,L|232:104,1,60,2|2,0:1|0:0,0:0:0:0:
192,140,57925,1,8,0:0:0:0:
213,245,58325,6,0,P|269:262|327:247,1,120,4|8,0:0|0:0,0:0:0:0:
380,240,58925,1,0,0:0:0:0:
416,280,59125,2,0,P|408:306|404:338,2,60,2|0|8,0:1|0:0|0:0,0:0:0:0:
504,216,59925,2,0,P|503:187|494:158,1,60,2|0,0:1|0:0,0:0:0:0:
448,132,60325,2,0,P|450:103|459:74,1,60,8|8,0:0|0:0,0:0:0:0:
487,28,60725,2,0,P|428:32|373:11,1,120,2|8,0:1|0:0,0:0:0:0:
272,48,61525,6,0,L|214:30,2,60,2|0|8,0:1|0:0|0:0,0:0:0:0:
340,132,62325,2,0,L|397:114,2,60,2|2|8,0:1|0:0|0:0,0:0:0:0:
252,196,63125,2,0,P|223:195|194:186,1,60,2|0,0:1|0:0,0:0:0:0:
160,144,63525,2,0,P|131:145|102:154,1,60,8|0,0:0|0:0,0:0:0:0:
60,188,63925,2,0,P|46:213|39:243,1,60,2|0,0:1|0:0,0:0:0:0:
48,296,64325,2,0,P|63:320|85:341,1,60,0|8,1:0|0:0,0:0:0:0:
135,360,64725,5,4,0:0:0:0:
232,314,65125,2,0,L|251:195,2,120,8|2|8,0:0|0:1|0:0,0:0:0:0:
276,344,66125,1,0,0:0:0:0:
324,320,66325,2,0,B|398:307|398:307|438:327,1,120,2|8,0:1|0:0,0:0:0:0:
484,228,67125,2,0,L|477:168,1,60,2|0,0:1|0:0,0:0:0:0:
448,124,67525,2,0,L|388:117,1,60,8|0,0:0|0:0,0:0:0:0:
356,160,67925,6,0,P|326:166|297:162,1,60,2|2,0:1|0:0,0:0:0:0:
264,120,68325,1,8,0:0:0:0:
172,176,68725,2,0,P|167:205|174:234,1,60,2|2,0:1|0:0,0:0:0:0:
216,272,69125,1,8,0:0:0:0:
323,256,69525,2,0,P|341:255|383:260,2,60,2|0|8,0:1|0:0|0:0,0:0:0:0:
216,272,70325,2,0,P|159:289|101:273,1,120,2|8,0:1|0:0,0:0:0:0:
60,240,70925,1,8,0:0:0:0:
60,240,71125,6,0,L|49:120,2,120,4|8|2,0:0|0:0|0:1,0:0:0:0:
156,188,72325,1,8,0:0:0:0:
156,188,72525,1,2,0:0:0:0:
156,188,72725,2,0,L|271:220,2,120,4|8|2,0:0|0:0|0:1,0:0:0:0:
156,80,73925,1,8,0:0:0:0:
256,44,74325,6,0,P|261:73|257:103,1,60,2|2,0:1|0:0,0:0:0:0:
236,152,74725,1,8,0:0:0:0:
264,256,75125,2,0,P|293:261|323:257,1,60,2|2,0:1|0:0,0:0:0:0:
372,236,75525,1,8,0:0:0:0:
368,127,75925,2,0,P|315:99|256:104,1,120,2|8,0:1|0:0,0:0:0:0:
200,196,76725,2,0,P|140:200|88:172,1,120,2|8,0:1|0:0,0:0:0:0:
88,64,77525,6,0,B|188:96|336:40|336:40|276:56|256:104,1,360,0|4,0:0|0:1,0:0:0:0:
353,146,79125,1,4,0:0:0:0:
412,312,91925,6,0,P|352:314|293:302,2,120,4|0|8,0:0|0:0|0:1,0:0:0:0:
476,223,93125,1,2,0:1:0:0:
400,147,93525,2,0,P|340:141|288:168,1,120,0|2,0:0|0:1,0:0:0:0:
206,240,94325,2,0,P|180:186|187:127,1,120,8|0,0:1|0:0,0:0:0:0:
269,57,95125,5,2,0:1:0:0:
166,20,95525,1,0,0:0:0:0:
83,86,95925,2,0,P|76:144|101:198,1,120,8|2,0:1|0:1,0:0:0:0:
186,127,96725,1,0,0:0:0:0:
282,175,97125,1,2,0:1:0:0:
256,279,97525,2,0,P|228:290|199:295,1,60,8|0,0:1|0:0,0:0:0:0:
156,330,97925,2,0,P|129:319|100:314,1,60,2|8,0:1|0:1,0:0:0:0:
48,332,98325,6,0,L|58:212,2,120,4|0|8,0:0|0:0|0:1,0:0:0:0:
156,331,99525,2,0,P|184:321|214:320,1,60,8|8,0:0|0:0,0:0:0:0:
256,356,99925,2,0,L|375:345,2,120,0|2|8,0:0|0:1|0:1,0:0:0:0:
260,248,101125,2,0,P|261:218|270:189,1,60,8|8,0:0|0:0,0:0:0:0:
320,168,101525,6,0,P|372:194|431:189,1,120,2|0,0:1|0:0,0:0:0:0:
452,80,102325,2,0,P|399:53|340:58,1,120,8|2,0:1|0:1,0:0:0:0:
240,96,103125,1,0,0:0:0:0:
156,28,103525,1,2,0:1:0:0:
56,72,103925,2,0,P|49:100|47:131,2,60,4|0|6,0:0|0:0|0:0,0:0:0:0:
152,120,104725,6,0,P|157:179|130:231,1,120,4|8,0:0|0:0,0:0:0:0:
84,262,105325,1,8,0:0:0:0:
84,262,105525,2,0,P|143:268|202:281,1,120,2|8,0:1|0:0,0:0:0:0:
300,234,106325,2,0,P|352:206|411:212,1,120,2|8,0:1|0:0,0:0:0:0:
445,254,106925,1,2,0:0:0:0:
445,254,107125,2,0,P|451:194|464:135,1,120,2|8,0:1|0:0,0:0:0:0:
429,35,107925,6,0,P|400:36|370:30,2,60,2|0|8,0:1|0:0|0:0,0:0:0:0:
463,135,108725,2,0,P|417:137|343:143,1,120,2|8,0:1|0:0,0:0:0:0:
256,78,109525,2,0,P|254:48|260:18,2,60,2|0|8,0:1|0:0|0:0,0:0:0:0:
343,143,110325,2,0,P|347:172|346:202,1,60,2|2,0:1|0:0,0:0:0:0:
311,243,110725,2,0,P|281:243|251:239,1,60,8|2,0:0|0:0,0:0:0:0:
210,204,111125,6,0,P|150:198|98:225,1,120,2|8,0:1|0:0,0:0:0:0:
65,268,111725,1,8,0:0:0:0:
65,268,111925,2,0,P|58:208|56:148,1,120,2|8,0:1|0:0,0:0:0:0:
145,88,112725,2,0,P|197:114|256:109,1,120,2|8,0:1|0:0,0:0:0:0:
305,84,113325,1,2,0:0:0:0:
305,84,113525,2,0,P|304:143|297:203,1,120,2|8,0:1|0:0,0:0:0:0:
228,287,114325,6,0,P|198:285|168:291,2,60,2|0|8,0:1|0:0|0:0,0:0:0:0:
304,364,115125,2,0,P|362:371|415:345,1,120,2|8,0:1|0:0,0:0:0:0:
440,296,115725,1,0,0:0:0:0:
440,296,115925,2,0,L|436:236,1,60,2|0,0:1|0:0,0:0:0:0:
432,184,116325,1,8,0:0:0:0:
328,152,116725,2,0,P|323:181|326:211,1,60,2|2,0:1|0:0,0:0:0:0:
296,256,117125,2,0,P|266:260|236:257,1,60,4|2,0:0|0:0,0:0:0:0:
192,288,117525,6,0,P|124:225|143:136,1,192,4|4,3:2|0:0,0:0:0:0:
314,158,119125,1,4,0:0:0:0:
314,158,119325,1,4,0:0:0:0:
220,248,119925,2,0,P|172:238|126:227,1,96,4|0,0:0|0:0,0:0:0:0:
112,188,120525,1,4,0:0:0:0:
112,188,120725,6,0,P|180:128|267:157,1,192,4|4,0:0|0:0,0:0:0:0:
436,200,122325,1,4,0:0:0:0:
436,200,122525,2,0,L|450:57,1,144,4|4,0:0|0:0,0:0:0:0:
380,8,123525,1,2,0:0:0:0:
296,32,123925,6,0,P|269:120|320:197,1,192,4|4,3:2|0:0,0:0:0:0:
220,336,125525,1,4,0:0:0:0:
220,336,125725,2,0,P|154:358|98:317,1,144,4|4,0:0|0:0,0:0:0:0:
52,244,126725,1,0,0:0:0:0:
100,172,127125,6,0,L|109:77,2,96,4|2|4,0:0|0:1|0:0,0:0:0:0:
144,244,128325,1,2,0:1:0:0:
192,172,128725,2,0,P|272:135|318:210,1,192,4|4,0:0|0:0,0:0:0:0:
300,248,129725,2,0,B|344:268|344:268|391:261,1,96,2|2,0:0|0:0,0:0:0:0:
436,260,130325,6,0,P|454:203|448:144,1,120,4|8,0:0|0:0,0:0:0:0:
408,108,130925,1,0,0:0:0:0:
376,64,131125,2,0,P|377:34|387:5,2,60,2|0|8,0:1|0:0|0:0,0:0:0:0:
344,168,131925,2,0,P|316:176|286:176,1,60,2|0,0:1|0:0,0:0:0:0:
248,136,132325,2,0,P|219:127|189:126,1,60,8|8,0:0|0:0,0:0:0:0:
148,160,132725,2,0,P|137:218|159:273,1,120,0|8,0:0|0:0,0:0:0:0:
96,360,133525,6,0,L|36:365,2,60,4|2|8,0:0|0:0|0:0,0:0:0:0:
56,260,134325,2,0,L|1:234,2,60,2|0|8,0:1|0:0|0:0,0:0:0:0:
136,188,135125,2,0,L|109:71,1,120,2|8,0:1|0:0,0:0:0:0:
136,24,135725,1,8,0:0:0:0:
136,24,135925,2,0,P|164:13|194:13,1,60,2|2,0:1|0:0,0:0:0:0:
244,32,136325,1,8,0:0:0:0:
260,135,136725,6,0,P|319:144|377:132,1,120,4|8,0:0|0:0,0:0:0:0:
424,156,137325,1,0,0:0:0:0:
476,140,137525,2,0,P|486:111|487:81,2,60,2|0|8,0:1|0:0|0:0,0:0:0:0:
496,248,138325,2,0,P|497:277|507:306,1,60,2|0,0:1|0:0,0:0:0:0:
468,344,138725,2,0,P|439:353|409:355,1,60,8|8,0:0|0:0,0:0:0:0:
368,320,139125,2,0,L|379:200,1,120,2|8,0:1|0:0,0:0:0:0:
336,100,139925,6,0,P|337:70|348:42,2,60,2|0|8,0:1|0:0|0:0,0:0:0:0:
272,188,140725,2,0,P|273:217|284:245,2,60,0|2|8,0:1|0:0|0:0,0:0:0:0:
232,88,141525,2,0,L|172:95,1,60,2|0,0:1|0:0,0:0:0:0:
124,72,141925,2,0,L|64:64,1,60,8|0,0:0|0:0,0:0:0:0:
24,100,142324,2,0,L|31:159,1,60,2|0,0:1|0:0,0:0:0:0:
64,204,142724,2,0,L|56:263,1,60,0|8,1:0|0:0,0:0:0:0:
20,304,143125,5,4,0:0:0:0:
112,360,143525,2,0,B|154:372|154:372|225:347,2,120,8|2|8,0:0|0:1|0:0,0:0:0:0:
124,308,144525,1,0,0:0:0:0:
140,256,144725,2,0,L|121:137,1,120,2|8,0:1|0:0,0:0:0:0:
169,38,145525,2,0,P|197:28|227:27,1,60,2|0,0:1|0:0,0:0:0:0:
261,69,145925,2,0,P|289:78|319:79,1,60,8|0,0:0|0:0,0:0:0:0:
356,40,146325,6,0,L|415:30,1,60,2|2,0:1|0:0,0:0:0:0:
468,23,146725,1,8,0:0:0:0:
512,120,147125,2,0,L|452:129,1,60,0|2,0:1|0:0,0:0:0:0:
400,137,147525,1,8,0:0:0:0:
351,235,147925,2,0,P|379:244|409:244,2,60,2|0|8,0:1|0:0|0:0,0:0:0:0:
292,144,148725,2,0,B|236:136|236:136|176:158,1,120,2|8,0:1|0:0,0:0:0:0:
128,180,149325,1,8,0:0:0:0:
128,180,149525,6,0,L|114:60,2,120,4|8|2,0:0|0:0|0:1,0:0:0:0:
176,276,150725,1,8,0:0:0:0:
176,276,150925,1,2,0:0:0:0:
176,276,151125,2,0,L|56:290,2,120,4|8|2,0:0|0:0|0:1,0:0:0:0:
200,172,152325,1,8,0:0:0:0:
284,240,152725,6,0,P|289:269|285:299,1,60,2|2,0:1|0:0,0:0:0:0:
260,348,153125,1,8,0:0:0:0:
176,276,153525,2,0,P|147:271|117:275,1,60,2|2,0:1|0:0,0:0:0:0:
68,296,153925,1,8,0:0:0:0:
63,187,154325,2,0,P|120:170|179:173,1,120,2|8,0:1|0:0,0:0:0:0:
272,232,155125,2,0,P|329:248|388:246,1,120,2|8,0:1|0:0,0:0:0:0:
372,138,155925,6,0,B|345:66|289:22|289:22|245:94|272:233,1,360,8|0,0:1|0:0,0:0:0:0:
265,340,157525,1,0,0:0:0:0:
164,304,157925,2,0,B|131:299|112:276|112:276|136:260|169:263,1,120,0|0,0:0|0:0,0:0:0:0:
272,232,158725,1,0,3:0:0:0:
208,144,159125,6,0,L|88:155,1,120,2|8,0:1|0:0,0:0:0:0:
76,48,159925,2,0,L|196:37,1,120,2|8,0:1|0:0,0:0:0:0:
296,80,160725,1,2,0:1:0:0:
208,144,161125,1,8,0:0:0:0:
272,232,161525,2,0,L|392:221,1,120,8|8,0:1|0:0,0:0:0:0:
460,136,162325,6,0,P|439:80|456:24,2,120,2|8|2,0:1|0:0|0:1,0:0:0:0:
391,221,163525,1,8,0:0:0:0:
328,133,163925,2,0,P|268:134|210:144,1,120,2|8,0:1|0:0,0:0:0:0:
136,224,164725,1,2,0:1:0:0:
200,312,165125,1,8,0:0:0:0:
280,240,165525,6,0,P|338:230|393:251,2,120,2|8|2,0:1|0:0|0:1,0:0:0:0:
200,312,166725,1,8,0:0:0:0:
112,248,167125,2,0,P|113:188|124:130,2,120,2|8|8,0:1|0:0|0:1,0:0:0:0:
200,312,168325,1,8,0:0:0:0:
280,240,168725,5,2,0:1:0:0:
270,132,169125,2,0,P|211:122|154:139,1,120,8|2,0:0|0:1,0:0:0:0:
164,248,169925,2,0,P|223:257|280:240,1,120,8|2,0:0|0:1,0:0:0:0:
367,176,170725,1,2,0:0:0:0:
270,132,171125,2,0,B|252:75|252:75|268:16,2,120,8|8|2,0:1|0:1|0:1,0:0:0:0:
256,191,184725,6,0,P|318:124|407:143,1,192,4|4,3:2|0:0,0:0:0:0:
327,296,186325,1,4,0:0:0:0:
327,296,186525,1,4,0:0:0:0:
255,190,187125,2,0,P|208:195|161:207,1,96,4|0,0:0|0:0,0:0:0:0:
144,248,187725,1,4,0:0:0:0:
144,248,187925,6,0,P|84:180|113:93,1,192,4|4,0:0|0:0,0:0:0:0:
256,191,189525,1,4,0:0:0:0:
256,191,189725,2,0,L|286:50,1,144,4|4,0:0|0:0,0:0:0:0:
360,8,190725,1,2,0:0:0:0:
440,40,191125,6,0,P|466:128|414:205,1,192,4|4,3:2|0:0,0:0:0:0:
261,288,192725,1,4,0:0:0:0:
261,288,192925,2,0,P|331:288|386:332,1,144,4|4,0:0|0:0,0:0:0:0:
445,268,193925,1,0,0:0:0:0:
405,192,194325,6,0,P|407:144|414:96,2,96,4|2|4,0:0|0:1|0:0,0:0:0:0:
337,248,195525,1,2,0:1:0:0:
284,177,195925,1,0,0:0:0:0:
197,166,196325,1,0,0:0:0:0:
129,219,196725,1,0,0:0:0:0:
118,304,197125,1,0,0:0:0:0:
172,375,197525,6,0,P|250:342|232:247,1,192,4|4,0:0|0:0,0:0:0:0:
193,240,198525,2,0,B|178:194|178:194|190:147,1,96,2|2,0:0|0:0,0:0:0:0:
217,112,199125,6,0,P|275:101|330:123,1,120,4|8,0:0|0:0,0:0:0:0:
349,176,199725,1,0,0:0:0:0:
337,228,199925,2,0,P|338:257|348:286,2,60,2|0|8,0:1|0:0|0:0,0:0:0:0:
228,236,200725,2,0,P|199:245|169:247,1,60,2|0,0:1|0:0,0:0:0:0:
148,196,201125,2,0,P|119:186|89:184,1,60,8|8,0:0|0:0,0:0:0:0:
45,215,201525,2,0,P|46:274|56:334,1,120,2|8,0:1|0:0,0:0:0:0:
161,307,202325,6,0,L|169:247,2,60,4|2|8,0:0|0:0|0:0,0:0:0:0:
256,360,203125,2,0,L|264:300,2,60,2|0|8,0:1|0:0|0:0,0:0:0:0:
364,348,203925,2,0,L|352:228,1,120,2|8,0:1|0:0,0:0:0:0:
316,188,204525,1,8,0:0:0:0:
316,188,204725,2,0,P|317:158|327:129,1,60,2|2,0:1|0:0,0:0:0:0:
376,112,205125,1,8,0:0:0:0:
328,16,205525,6,0,P|268:11|215:38,1,120,4|8,0:0|0:0,0:0:0:0:
172,68,206125,1,0,0:0:0:0:
119,63,206325,2,0,P|90:60|61:52,2,60,2|0|8,0:1|0:0|0:0,0:0:0:0:
160,164,207125,2,0,P|158:193|148:222,1,60,2|0,0:1|0:0,0:0:0:0:
104,256,207525,2,0,P|105:285|115:314,1,60,8|8,0:0|0:0,0:0:0:0:
152,352,207925,2,0,P|211:351|269:336,1,120,2|8,0:1|0:0,0:0:0:0:
356,272,208725,6,0,L|416:264,2,60,2|0|8,0:1|0:0|0:0,0:0:0:0:
292,184,209525,2,0,L|232:176,2,60,2|2|8,0:1|0:0|0:0,0:0:0:0:
392,148,210325,2,0,P|399:119|397:89,1,60,2|0,0:1|0:0,0:0:0:0:
348,68,210725,2,0,P|326:47|300:33,1,60,8|0,0:0|0:0,0:0:0:0:
256,66,211125,2,0,P|227:74|202:90,1,60,2|0,0:1|0:0,0:0:0:0:
208,144,211525,2,0,P|200:172|202:202,1,60,0|8,1:0|0:0,0:0:0:0:
251,224,211925,5,4,0:0:0:0:
260,331,212325,2,0,P|317:318|376:330,2,120,8|2|8,0:0|0:1|0:0,0:0:0:0:
220,368,213325,1,0,0:0:0:0:
168,360,213525,2,0,P|159:293|149:241,1,120,2|8,0:1|0:0,0:0:0:0:
72,164,214325,2,0,P|70:134|77:105,1,60,2|0,0:1|0:0,0:0:0:0:
108,60,214725,2,0,P|137:67|166:66,1,60,8|0,0:0|0:0,0:0:0:0:
216,44,215125,6,0,L|226:103,1,60,2|2,0:1|0:0,0:0:0:0:
236,156,215525,1,8,0:0:0:0:
344,156,215925,2,0,L|354:96,1,60,2|2,0:1|0:0,0:0:0:0:
364,44,216325,1,8,0:0:0:0:
464,8,216725,2,0,P|470:37|468:66,2,60,2|0|8,0:1|0:0|0:0,0:0:0:0:
364,44,217525,2,0,B|290:57|290:57|250:37,1,120,2|8,0:1|0:0,0:0:0:0:
208,72,218125,1,8,0:0:0:0:
208,72,218325,6,0,L|90:49,2,120,4|8|2,0:0|0:0|0:1,0:0:0:0:
240,176,219525,1,8,0:0:0:0:
240,176,219725,1,2,0:0:0:0:
240,176,219925,2,0,L|357:153,2,120,4|8|2,0:0|0:0|0:1,0:0:0:0:
184,268,221125,1,8,0:0:0:0:
240,360,221525,6,0,P|269:362|298:355,1,60,2|2,0:1|0:0,0:0:0:0:
345,326,221925,1,8,0:0:0:0:
289,234,222325,2,0,P|259:231|230:238,1,60,2|2,0:1|0:0,0:0:0:0:
184,268,222725,1,8,0:0:0:0:
76,280,223125,2,0,L|62:160,1,120,2|8,0:1|0:0,0:0:0:0:
170,148,223925,2,0,L|184:268,1,120,2|8,0:1|0:0,0:0:0:0:
289,234,224725,6,0,P|437:175|361:34,1,360,4|0,0:0|0:0,0:0:0:0:
337,139,226325,2,0,B|218:120,1,120,8|8,0:1|0:1,0:0:0:0:
133,58,227125,1,8,0:1:0:0:
133,58,227325,1,8,0:1:0:0:
133,58,227525,2,0,P|114:114|126:172,1,120,4|4,0:1|0:0,0:0:0:0:
204,248,228325,5,0,0:0:0:0:
136,328,228725,2,0,P|106:330|78:340,2,60,8|0|2,0:1|0:0|0:1,0:0:0:0:
204,248,229525,2,0,P|260:267|319:260,1,120,0|2,0:0|0:1,0:0:0:0:
408,320,230325,2,0,P|397:348|395:377,2,60,8|0|0,0:1|0:0|0:0,0:0:0:0:
500,264,231125,5,2,0:1:0:0:
412,200,231525,1,0,0:0:0:0:
320,260,231925,2,0,P|291:270|262:272,2,60,8|0|2,0:1|0:0|0:1,0:0:0:0:
272,164,232725,2,0,L|258:38,1,120,0|2,0:0|0:1,0:0:0:0:
154,15,233525,2,0,P|150:44|155:74,1,60,8|0,0:1|0:0,0:0:0:0:
120,116,233925,2,0,P|91:106|61:104,1,60,2|8,0:1|0:1,0:0:0:0:
21,140,234325,5,4,0:0:0:0:
0,246,234725,1,0,0:0:0:0:
100,284,235125,2,0,P|110:312|112:341,2,60,8|0|2,0:1|0:0|0:1,0:0:0:0:
171,202,235925,2,0,P|231:213|291:213,1,120,0|2,0:0|0:1,0:0:0:0:
357,128,236725,2,0,P|358:98|368:69,2,60,8|0|0,0:1|0:0|0:0,0:0:0:0:
441,195,237524,5,2,0:1:0:0:
376,280,237924,1,0,0:0:0:0:
291,214,238325,2,0,P|261:215|232:225,2,60,8|0|2,0:1|0:0|0:1,0:0:0:0:
280,324,239125,2,0,P|221:333|165:309,1,120,0|2,0:0|0:1,0:0:0:0:
104,221,239925,2,0,L|111:161,1,60,4|4,0:0|0:0,0:0:0:0:
152,125,240325,1,4,0:0:0:0:
123,20,240725,5,4,0:0:0:0:
228,32,241125,2,0,P|287:27|345:13,2,120,0|8|2,0:0|0:1|0:1,0:0:0:0:
192,72,242125,1,0,0:0:0:0:
192,72,242325,2,0,P|183:130|207:185,1,120,0|2,0:0|0:1,0:0:0:0:
292,116,243125,2,0,L|351:124,1,60,8|0,0:1|0:0,0:0:0:0:
396,96,243525,2,0,L|455:87,1,60,0|0,0:0|0:0,0:0:0:0:
500,120,243925,5,2,0:1:0:0:
447,216,244325,2,0,P|452:275|466:334,2,120,0|8|2,0:0|0:1|0:1,0:0:0:0:
404,184,245325,1,0,0:0:0:0:
404,184,245526,2,0,P|349:207|290:199,1,120,0|2,0:0|0:1,0:0:0:0:
196,145,246325,2,0,P|184:172|182:202,1,60,8|0,0:1|0:0,0:0:0:0:
200,254,246725,2,0,P|211:281|213:311,1,60,2|8,0:1|0:1,0:0:0:0:
184,359,247125,6,0,B|110:346|110:346|70:366,2,120,4|0|8,0:0|0:0|0:1,0:0:0:0:
200,255,248325,2,0,L|258:243,1,60,8|8,0:0|0:0,0:0:0:0:
292,284,248725,2,0,B|366:296|366:296|406:276,2,120,0|2|8,0:0|0:1|0:1,0:0:0:0:
348,192,249925,2,0,L|360:134,1,60,8|8,0:0|0:0,0:0:0:0:
344,81,250325,6,0,P|285:93|229:74,1,120,2|0,0:1|0:0,0:0:0:0:
132,26,251125,2,0,P|122:54|121:84,1,60,8|0,0:1|0:0,0:0:0:0:
144,134,251525,2,0,P|153:162|154:192,1,60,2|0,0:1|0:0,0:0:0:0:
131,241,251925,2,0,B|12:260,2,120,0|2|0,0:0|0:1|0:0,0:0:0:0:
224,301,253125,1,2,0:0:0:0:
