osu file format v14

[General]
AudioFilename: audio.mp3
AudioLeadIn: 0
PreviewTime: 51125
Countdown: 0
SampleSet: Soft
StackLeniency: 0.5
Mode: 0
LetterboxInBreaks: 0
StoryFireInFront: 0
EpilepsyWarning: 1
WidescreenStoryboard: 1

[Editor]
DistanceSpacing: 2.5
BeatDivisor: 8
GridSize: 32
TimelineZoom: 2.999999

[Metadata]
Title:YoiYoi Kokon
TitleUnicode:宵々古今
Artist:REOL
ArtistUnicode:REOL
Creator:DreaM117er
Version:Insane
Source:
Tags:れをる giga-p gigap okiku Σ sigma Regraz Misure Frey Flask kiddly Starrodkirby86 Chaoslitz m1223961117
BeatmapID:1231294
BeatmapSetID:545737

[Difficulty]
HPDrainRate:5.5
CircleSize:4
OverallDifficulty:7.5
ApproachRate:8.5
SliderMultiplier:1.5
SliderTickRate:1

[Events]
//Background and Video events
0,0,"BG.jpg",0,0
//Break Periods
//Storyboard Layer 0 (Background)
//Storyboard Layer 1 (Fail)
//Storyboard Layer 2 (Pass)
//Storyboard Layer 3 (Foreground)
Sprite,Foreground,Centre,"SB\intro\main\FLASK\_000.png",320,240 F,0,7125,8725,1
//Storyboard Sound Samples

[TimingPoints]
725,400,4,2,1,80,1,0
7125,-133.333333333333,4,2,1,80,0,0
7925,-117.647058823529,4,2,1,80,0,0
8925,-105.263157894737,4,2,1,80,0,0
9525,-100,4,2,1,80,0,0
10625,-100,4,2,1,10,0,0
10725,-100,4,2,1,80,0,0
11125,-100,4,2,1,80,0,0
11425,-100,4,2,1,80,0,0
11525,-100,4,2,1,80,0,0
11925,-100,4,2,1,80,0,0
12025,-100,4,2,1,10,0,0
12125,-90.9090909090909,4,2,1,80,0,0
12225,-100,4,2,1,10,0,0
12325,-83.3333333333333,4,2,1,80,0,0
12425,-100,4,2,1,10,0,0
12525,-76.9230769230769,4,2,1,80,0,0
12625,-100,4,2,1,10,0,0
12725,-71.4285714285714,4,2,1,80,0,0
13125,-66.6666666666667,4,2,1,80,0,0
13225,-100,4,2,1,10,0,0
13325,-100,4,2,1,80,0,0
13525,-100,4,2,2,80,0,0
14925,-100,4,2,1,80,0,0
15125,-100,4,2,2,80,0,0
15325,-100,4,2,1,80,0,0
15525,-100,4,2,2,80,0,0
17325,-100,4,2,1,80,0,0
17525,-100,4,2,2,80,0,0
17725,-100,4,2,1,80,0,0
17925,-100,4,2,2,80,0,0
19525,-83.3333333333333,4,2,2,80,0,0
19925,-100,4,2,2,80,0,0
21325,-100,4,2,1,80,0,0
21525,-100,4,2,2,80,0,0
21725,-100,4,2,1,80,0,0
21925,-100,4,2,2,80,0,0
23725,-100,4,2,1,80,0,0
23925,-100,4,2,2,80,0,0
24125,-100,4,2,1,80,0,0
24325,-100,4,2,2,80,0,0
24525,-200,4,2,2,80,0,0
25925,-66.6666666666667,4,2,2,80,0,0
26225,-100,4,2,2,10,0,0
26325,-83.3333333333333,4,2,2,80,0,0
27925,-83.3333333333333,4,2,2,80,0,0
28125,-83.3333333333333,4,2,1,80,0,0
28325,-83.3333333333333,4,2,2,80,0,0
28525,-83.3333333333333,4,2,1,80,0,0
28725,-83.3333333333333,4,2,2,80,0,0
28925,-83.3333333333333,4,2,1,80,0,0
29125,-83.3333333333333,4,2,2,80,0,0
29325,-83.3333333333333,4,2,1,80,0,0
29525,-83.3333333333333,4,2,2,80,0,0
31325,-83.3333333333333,4,2,1,80,0,0
31525,-83.3333333333333,4,2,2,80,0,0
31725,-83.3333333333333,4,2,1,80,0,0
31925,-83.3333333333333,4,2,2,80,0,0
32125,-83.3333333333333,4,2,1,80,0,0
32325,-83.3333333333333,4,2,2,80,0,0
32525,-83.3333333333333,4,2,1,80,0,0
32725,-83.3333333333333,4,2,2,80,0,0
34525,-83.3333333333333,4,2,1,80,0,0
34725,-83.3333333333333,4,2,2,80,0,0
34925,-83.3333333333333,4,2,1,80,0,0
35125,-83.3333333333333,4,2,2,80,0,0
35325,-83.3333333333333,4,2,1,80,0,0
35525,-83.3333333333333,4,2,2,80,0,0
36125,-83.3333333333333,4,2,1,80,0,0
36325,-83.3333333333333,4,2,2,80,0,0
36525,-83.3333333333333,4,2,1,80,0,0
36725,-83.3333333333333,4,2,2,80,0,0
36925,-83.3333333333333,4,2,1,80,0,0
37125,-83.3333333333333,4,2,2,80,0,0
39125,-133.333333333333,4,2,1,80,0,0
41325,-133.333333333333,4,2,1,10,0,0
41525,-133.333333333333,4,2,1,80,0,0
41925,-133.333333333333,4,2,1,10,0,0
42125,-133.333333333333,4,2,1,80,0,0
44725,-100,4,2,1,80,0,0
45425,-133.333333333333,4,2,1,10,0,0
45525,-133.333333333333,4,2,1,80,0,0
48725,-133.333333333333,4,2,1,80,0,0
48925,-100,4,2,1,10,0,0
49125,-111.111111111111,4,2,1,80,0,0
49325,-100,4,2,1,10,0,0
49525,-90.9090909090909,4,2,1,80,0,0
49725,-100,4,2,1,10,0,0
49925,-76.9230769230769,4,2,1,80,0,0
50125,-100,4,2,1,10,0,0
50325,-100,4,2,1,80,0,0
51125,-133.333333333333,4,2,1,80,0,0
51325,-200,4,2,1,80,0,0
51525,-100,4,2,1,10,0,0
51725,-100,4,2,1,80,0,0
51925,-83.3333333333333,4,2,2,100,0,1
52125,-83.3333333333333,4,2,1,100,0,1
54125,-83.3333333333333,4,2,2,100,0,1
54325,-83.3333333333333,4,2,1,100,0,1
55125,-83.3333333333333,4,2,2,100,0,1
55325,-83.3333333333333,4,2,1,100,0,1
57325,-83.3333333333333,4,2,2,100,0,1
57525,-83.3333333333333,4,2,1,100,0,1
58325,-83.3333333333333,4,2,2,100,0,1
58525,-83.3333333333333,4,2,1,100,0,1
60525,-83.3333333333333,4,2,2,100,0,1
60725,-83.3333333333333,4,2,1,100,0,1
64325,-66.6666666666667,4,2,1,100,0,1
64425,-83.3333333333333,4,2,1,10,0,1
64525,-83.3333333333333,4,2,2,100,0,1
64625,-83.3333333333333,4,2,1,10,0,1
64725,-83.3333333333333,4,2,2,100,0,1
64925,-83.3333333333333,4,2,1,100,0,1
70525,-83.3333333333333,4,2,2,100,0,1
70725,-83.3333333333333,4,2,1,100,0,1
70925,-83.3333333333333,4,2,2,100,0,1
71325,-83.3333333333333,4,2,1,100,0,1
72725,-83.3333333333333,4,2,2,100,0,1
72925,-83.3333333333333,4,2,1,100,0,1
76325,-83.3333333333333,4,2,1,100,0,1
76725,-83.3333333333333,4,2,1,100,0,1
77125,-200,4,2,1,100,0,1
77925,-83.3333333333333,4,2,1,70,0,1
78325,-133.333333333333,4,2,1,70,0,1
78725,-66.6666666666667,4,2,1,80,0,0
79025,-100,4,2,1,10,0,0
79125,-100,4,2,2,80,0,0
79325,-100,4,2,1,80,0,0
79825,-100,4,2,1,10,0,0
79925,-100,4,2,1,80,0,0
80625,-100,4,2,1,10,0,0
80725,-100,4,2,1,80,0,0
82625,-100,4,2,1,10,0,0
82725,-100,4,2,1,80,0,0
83925,-83.3333333333333,4,2,1,80,0,0
84025,-100,4,2,1,10,0,0
84125,-100,4,2,1,80,0,0
84225,-100,4,2,1,10,0,0
84325,-100,4,2,1,80,0,0
84425,-100,4,2,1,10,0,0
84525,-100,4,2,1,80,0,0
84625,-100,4,2,1,10,0,0
84725,-66.6666666666667,4,2,1,80,0,0
85525,-100,4,2,2,80,0,0
85725,-100,4,2,1,80,0,0
86225,-100,4,2,1,10,0,0
86325,-100,4,2,1,80,0,0
87025,-100,4,2,1,10,0,0
87125,-100,4,2,1,80,0,0
87525,-83.3333333333333,4,2,1,80,0,0
88325,-100,4,2,1,80,0,0
89025,-100,4,2,1,10,0,0
89125,-100,4,2,1,80,0,0
90325,-66.6666666666667,4,2,1,80,0,0
91125,-100,4,2,1,80,0,0
91225,-100,4,2,1,10,0,0
91325,-100,4,2,1,80,0,0
91425,-66.6666666666667,4,2,1,10,0,0
91825,-100,4,2,1,10,0,0
91925,-100,4,2,2,80,0,0
92125,-100,4,2,1,80,0,0
93925,-83.3333333333333,4,2,1,80,0,0
94325,-100,4,2,1,80,0,0
97525,-66.6666666666667,4,2,1,80,0,0
98325,-100,4,2,2,80,0,0
98525,-100,4,2,1,80,0,0
99525,-100,4,2,2,80,0,0
99925,-100,4,2,1,80,0,0
101125,-100,4,2,2,80,0,0
101525,-100,4,2,1,80,0,0
103925,-133.333333333333,4,2,1,80,0,0
104225,-100,4,2,1,10,0,0
104325,-66.6666666666667,4,2,1,80,0,0
104625,-100,4,2,1,10,0,0
104725,-100,4,2,2,80,0,0
104925,-100,4,2,1,80,0,0
105325,-100,4,2,2,80,0,0
105425,-100,4,2,1,20,0,0
105525,-100,4,2,1,80,0,0
105825,-100,4,2,1,20,0,0
105925,-100,4,2,1,80,0,0
106225,-100,4,2,1,20,0,0
106325,-100,4,2,1,80,0,0
106625,-100,4,2,1,20,0,0
106725,-100,4,2,1,80,0,0
107425,-100,4,2,1,20,0,0
107525,-100,4,2,1,80,0,0
108525,-100,4,2,2,80,0,0
108725,-100,4,2,1,80,0,0
111725,-100,4,2,2,80,0,0
111825,-100,4,2,1,20,0,0
111925,-100,4,2,1,80,0,0
112225,-100,4,2,1,20,0,0
112325,-100,4,2,1,80,0,0
112625,-100,4,2,1,20,0,0
112725,-100,4,2,1,80,0,0
113025,-100,4,2,1,20,0,0
113125,-100,4,2,1,80,0,0
113825,-100,4,2,1,20,0,0
113925,-100,4,2,1,80,0,0
114925,-100,4,2,2,80,0,0
115025,-100,4,2,1,80,0,0
117125,-100,4,2,2,80,0,0
117325,-100,4,2,1,80,0,0
117525,-100,4,2,1,80,0,0
123825,-100,4,2,1,10,0,0
123925,-100,4,2,1,80,0,0
126125,-100,4,2,1,10,0,0
126325,-100,4,2,1,80,0,0
127125,-133.333333333333,4,2,1,80,0,0
127325,-100,4,2,1,10,0,0
127525,-100,4,2,1,80,0,0
127725,-100,4,2,1,10,0,0
127925,-80,4,2,1,80,0,0
128125,-100,4,2,1,10,0,0
128325,-66.6666666666667,4,2,1,80,0,0
128525,-100,4,2,1,10,0,0
128725,-100,4,2,1,80,0,0
129725,-200,4,2,1,80,0,0
129925,-100,4,2,1,10,0,0
130125,-100,4,2,1,80,0,0
130325,-100,4,2,2,100,0,1
130525,-100,4,2,1,100,0,1
132525,-100,4,2,2,100,0,1
132725,-100,4,2,1,100,0,1
133525,-100,4,2,2,100,0,1
133725,-100,4,2,1,100,0,1
135725,-100,4,2,2,100,0,1
135925,-100,4,2,1,100,0,1
136725,-100,4,2,2,100,0,1
136925,-100,4,2,1,100,0,1
138925,-100,4,2,2,100,0,1
139125,-100,4,2,1,100,0,1
142725,-66.6666666666667,4,2,1,100,0,1
142825,-100,4,2,1,10,0,1
142925,-100,4,2,2,100,0,1
143025,-100,4,2,1,10,0,1
143125,-100,4,2,2,100,0,1
143325,-100,4,2,1,100,0,1
148925,-100,4,2,2,100,0,1
149125,-100,4,2,1,100,0,1
149325,-100,4,2,2,100,0,1
149725,-100,4,2,1,100,0,1
151125,-100,4,2,2,100,0,1
151325,-100,4,2,1,100,0,1
154325,-100,4,2,1,100,0,1
154525,-100,4,2,1,10,0,1
154725,-100,4,2,1,100,0,1
154925,-100,4,2,1,10,0,1
155125,-100,4,2,1,100,0,1
155325,-100,4,2,1,10,0,1
155525,-100,4,2,1,80,0,0
155825,-100,4,2,1,10,0,0
155925,-133.333333333333,4,2,1,40,0,0
156625,-100,4,2,1,10,0,0
156725,-133.333333333333,4,2,1,40,0,0
157025,-100,4,2,1,10,0,0
157125,-133.333333333333,4,2,1,40,0,0
157425,-100,4,2,1,10,0,0
157525,-100,4,2,1,40,0,0
157825,-100,4,2,1,10,0,0
157925,-100,4,2,1,60,0,0
158325,-100,4,2,1,60,0,0
158725,-66.6666666666667,4,2,1,80,0,0
159025,-100,4,2,1,10,0,0
159125,-100,4,2,1,80,0,0
161525,-66.6666666666667,4,2,1,80,0,0
162325,-100,4,2,1,80,0,0
162725,-83.3333333333333,4,2,1,80,0,0
163125,-100,4,2,1,80,0,0
163525,-83.3333333333333,4,2,1,80,0,0
163925,-100,4,2,1,80,0,0
164325,-83.3333333333333,4,2,1,80,0,0
164725,-100,4,2,1,80,0,0
165925,-83.3333333333333,4,2,1,80,0,0
166325,-100,4,2,1,80,0,0
166725,-83.3333333333333,4,2,1,80,0,0
167125,-100,4,2,1,80,0,0
167525,-83.3333333333333,4,2,1,80,0,0
167925,-100,4,2,1,80,0,0
168325,-66.6666666666667,4,2,1,80,0,0
170525,-100,4,2,1,10,0,0
170591,-100,4,2,1,80,0,0
171258,-100,4,2,1,10,0,0
171391,-100,4,2,1,80,0,0
171658,-100,4,2,1,10,0,0
171791,-100,4,2,1,80,0,0
171925,-100,4,2,1,100,0,1
172025,-100,4,2,1,80,0,0
172325,-83.3333333333333,4,2,1,80,0,0
172625,-100,4,2,1,10,0,0
172725,-83.3333333333333,4,2,1,80,0,0
172925,-100,4,2,1,10,0,0
173125,-83.3333333333333,4,2,1,80,0,0
173325,-100,4,2,1,10,0,0
173525,-100,4,2,1,80,0,0
173925,-83.3333333333333,4,2,1,80,0,0
174225,-100,4,2,1,10,0,0
174325,-83.3333333333333,4,2,1,80,0,0
174525,-100,4,2,1,10,0,0
174725,-83.3333333333333,4,2,1,80,0,0
174925,-100,4,2,1,10,0,0
175125,-100,4,2,1,80,0,0
175525,-83.3333333333333,4,2,1,80,0,0
177925,-100,4,2,1,80,0,0
178325,-100,4,2,1,80,0,0
178725,-83.3333333333333,4,2,1,80,0,0
179025,-100,4,2,1,10,0,0
179125,-83.3333333333333,4,2,1,80,0,0
179325,-100,4,2,1,10,0,0
179525,-83.3333333333333,4,2,1,80,0,0
179725,-100,4,2,1,10,0,0
179925,-100,4,2,1,80,0,0
180325,-83.3333333333333,4,2,1,80,0,0
180625,-100,4,2,1,10,0,0
180725,-83.3333333333333,4,2,1,80,0,0
180925,-100,4,2,1,10,0,0
181125,-83.3333333333333,4,2,1,80,0,0
181325,-100,4,2,1,10,0,0
181525,-100,4,2,1,80,0,0
181925,-83.3333333333333,4,2,1,80,0,0
183925,-100,4,2,1,80,0,0
184058,-100,4,2,1,10,0,0
184191,-100,4,2,1,80,0,0
184725,-100,4,2,1,80,0,0
190125,-100,4,2,1,10,0,0
190325,-100,4,2,1,80,0,0
190525,-100,4,2,1,10,0,0
190725,-100,4,2,1,80,0,0
191025,-100,4,2,1,10,0,0
191125,-133.333333333333,4,2,1,80,0,0
194325,-100,4,2,1,80,0,0
194525,-100,4,2,1,10,0,0
194725,-100,4,2,1,80,0,0
194925,-100,4,2,1,10,0,0
195125,-100,4,2,1,80,0,0
195325,-100,4,2,1,10,0,0
195525,-100,4,2,1,80,0,0
195725,-100,4,2,1,10,0,0
195925,-100,4,2,1,80,0,0
196125,-100,4,2,1,30,0,0
196325,-100,4,2,1,80,0,0
196525,-100,4,2,1,30,0,0
196725,-100,4,2,1,80,0,0
196925,-100,4,2,1,30,0,0
197125,-100,4,2,1,80,0,0
197325,-100,4,2,1,30,0,0
197525,-100,4,2,1,80,0,0
198525,-100,4,2,1,40,0,0
199125,-83.3333333333333,4,2,2,100,0,1
199325,-83.3333333333333,4,2,1,100,0,1
201325,-83.3333333333333,4,2,2,100,0,1
201525,-83.3333333333333,4,2,1,100,0,1
202325,-83.3333333333333,4,2,2,100,0,1
202525,-83.3333333333333,4,2,1,100,0,1
204525,-83.3333333333333,4,2,2,100,0,1
204725,-83.3333333333333,4,2,1,100,0,1
205525,-83.3333333333333,4,2,2,100,0,1
205725,-83.3333333333333,4,2,1,100,0,1
207725,-83.3333333333333,4,2,2,100,0,1
207925,-83.3333333333333,4,2,1,100,0,1
211525,-58.8235294117647,4,2,1,100,0,1
211625,-83.3333333333333,4,2,1,10,0,1
211725,-83.3333333333333,4,2,2,100,0,1
211825,-83.3333333333333,4,2,1,10,0,1
211925,-83.3333333333333,4,2,2,100,0,1
212125,-83.3333333333333,4,2,1,100,0,1
217725,-83.3333333333333,4,2,2,100,0,1
217925,-83.3333333333333,4,2,1,100,0,1
218125,-83.3333333333333,4,2,2,100,0,1
218525,-83.3333333333333,4,2,1,100,0,1
219925,-83.3333333333333,4,2,2,100,0,1
220125,-83.3333333333333,4,2,1,100,0,1
223125,-83.3333333333333,4,2,1,100,0,1
223525,-83.3333333333333,4,2,1,100,0,1
223925,-83.3333333333333,4,2,1,100,0,1
224325,-83.3333333333333,4,2,1,100,0,1
224725,-83.3333333333333,4,2,1,100,0,1
226325,-83.3333333333333,4,2,1,100,0,1
227525,-50,4,2,1,80,0,0
227825,-83.3333333333333,4,2,1,10,0,0
227925,-100,4,2,1,10,0,0
228125,-100,4,2,1,80,0,0
228625,-100,4,2,1,10,0,0
228725,-100,4,2,1,80,0,0
229425,-100,4,2,1,10,0,0
229525,-100,4,2,1,80,0,0
231425,-100,4,2,1,10,0,0
231525,-100,4,2,1,80,0,0
232725,-83.3333333333333,4,2,1,80,0,0
232825,-100,4,2,1,10,0,0
232925,-100,4,2,1,80,0,0
233025,-100,4,2,1,10,0,0
233125,-100,4,2,1,80,0,0
233225,-100,4,2,1,10,0,0
233325,-100,4,2,1,80,0,0
233425,-100,4,2,1,10,0,0
233525,-66.6666666666667,4,2,1,80,0,0
234325,-100,4,2,2,80,0,0
234525,-100,4,2,1,80,0,0
235025,-100,4,2,1,10,0,0
235125,-100,4,2,1,80,0,0
235825,-100,4,2,1,10,0,0
235925,-100,4,2,1,80,0,0
236325,-83.3333333333333,4,2,1,80,0,0
236725,-100,4,2,1,80,0,0
237825,-100,4,2,1,10,0,0
237925,-100,4,2,1,80,0,0
239125,-66.6666666666667,4,2,1,80,0,0
239925,-100,4,2,1,80,0,0
240025,-100,4,2,1,10,0,0
240125,-100,4,2,1,80,0,0
240225,-100,4,2,1,10,0,0
240325,-66.6666666666667,4,2,1,80,0,0
240625,-100,4,2,1,10,0,0
240725,-100,4,2,2,80,0,0
240925,-100,4,2,1,80,0,0
242725,-83.3333333333333,4,2,1,80,0,0
243125,-100,4,2,1,80,0,0
246325,-66.6666666666667,4,2,1,80,0,0
247125,-100,4,2,2,80,0,0
247325,-100,4,2,1,80,0,0
248325,-100,4,2,2,80,0,0
248725,-100,4,2,1,80,0,0
249925,-100,4,2,2,80,0,0
250325,-100,4,2,1,80,0,0
253025,-100,4,2,1,10,0,0
253125,-100,4,2,1,80,0,0
253225,-133.333333333333,4,2,3,5,0,0

[Colours]
Combo1 : 198,198,198
Combo2 : 252,208,129
Combo3 : 247,60,106
Combo4 : 226,228,228
Combo5 : 251,156,51
Combo6 : 119,160,238
Combo7 : 103,96,196
Combo8 : 63,80,148
SliderBorder : 255,255,225

[HitObjects]
85,83,725,37,8,0:0:0:0:
92,176,925,2,0,L|83:207,3,25,0|0|0|8,0:0|0:0|0:0|0:0,0:0:0:0:
179,128,1325,1,0,0:0:0:0:
185,221,1525,2,0,L|194:298,1,75,8|0,0:0|0:0,0:0:0:0:
284,226,1925,2,0,L|293:303,1,75,8|0,0:0|0:0,0:0:0:0:
368,365,2325,69,8,0:0:0:0:
448,316,2525,1,0,0:0:0:0:
436,223,2725,1,8,0:0:0:0:
346,197,2925,1,0,0:0:0:0:
341,196,3025,1,0,0:0:0:0:
336,195,3125,1,8,0:0:0:0:
365,279,3325,1,0,0:0:0:0:
412,135,3525,1,8,0:0:0:0:
436,223,3725,1,0,0:0:0:0:
276,271,3925,38,0,L|190:274,1,75,8|0,0:0|0:0,0:0:0:0:
186,283,4191,2,0,L|156:284,2,25,0|0|8,0:0|0:0|0:0,0:0:0:0:
98,341,4525,1,0,0:0:0:0:
32,273,4725,2,0,P|21:235|17:194,1,75,8|0,0:0|0:0,0:0:0:0:
109,214,5125,2,0,P|118:175|135:138,1,75,8|0,0:0|0:0,0:0:0:0:
226,145,5525,69,8,0:0:0:0:
265,59,5725,1,0,0:0:0:0:
356,80,5925,1,8,0:0:0:0:
318,166,6125,1,0,0:0:0:0:
318,166,6225,1,0,0:0:0:0:
318,166,6325,1,8,0:0:0:0:
168,72,6525,1,0,0:0:0:0:
248,239,6725,1,8,0:0:0:0:
265,59,6925,1,0,0:0:0:0:
265,59,7025,1,0,0:0:0:0:
265,59,7125,22,0,B|326:49|326:49|359:57|359:57|438:44,1,168.750006437302,4|0,0:0|0:0,0:0:0:0:
492,112,7925,6,0,P|498:202|408:239,1,191.250003647804,4|0,0:0|0:0,0:0:0:0:
416,240,8725,1,4,0:0:0:0:
279,195,8925,54,0,B|237:185|199:211|199:211|161:195|160:155,1,142.49999619484,4|0,0:0|0:0,0:0:0:0:
258,380,9525,6,0,B|287:338|257:277|257:277|186:300|188:372,1,225,4|4,0:0|0:0,0:0:0:0:
410,344,10325,38,0,L|497:335,1,75,4|0,0:0|0:0,0:0:0:0:
374,258,10725,2,0,L|461:249,1,75,2|0,0:1|0:0,0:0:0:0:
305,185,11125,6,0,L|218:176,1,75,4|0,0:0|0:0,0:0:0:0:
341,99,11525,2,0,L|254:90,1,75,2|0,0:1|0:0,0:0:0:0:
97,46,11925,54,0,P|73:53|51:69,1,37.5,4|0,0:0|0:0,0:0:0:0:
62,59,12125,6,0,P|43:75|29:100,1,41.2500012588501,4|0,0:0|0:0,0:0:0:0:
34,88,12325,22,0,P|23:110|22:142,1,44.999998626709
21,130,12525,6,0,P|21:154|34:186,1,48.7499977684022,4|0,0:0|0:0,0:0:0:0:
29,177,12725,54,0,P|40:199|68:224,1,52.4999983978272,4|0,0:0|0:0,0:0:0:0:
140,220,12925,5,0,0:0:0:0:
140,220,13025,1,0,0:0:0:0:
140,220,13125,2,0,P|185:161|165:65,1,168.750006437302,4|0,0:1|0:0,0:0:0:0:
111,137,13525,6,0,L|188:149,1,75,2|0,0:0|0:0,0:0:0:0:
260,205,13925,2,0,P|277:166|260:92,1,112.5,2|0,0:0|0:0,0:0:0:0:
264,99,14325,1,2,0:0:0:0:
388,37,14525,1,0,0:0:0:0:
354,125,14725,1,2,0:0:0:0:
298,8,14925,1,2,0:0:0:0:
354,125,15125,21,2,0:0:0:0:
475,91,15325,1,2,0:0:0:0:
479,82,15425,1,0,0:0:0:0:
483,75,15525,1,2,0:0:0:0:
438,222,15725,2,0,L|450:273,1,37.5,0|0,0:0|0:0,0:0:0:0:
463,329,15925,69,2,0:0:0:0:
374,299,16125,1,0,0:0:0:0:
320,375,16325,1,6,0:0:0:0:
463,329,16525,1,0,0:0:0:0:
345,209,16725,5,2,0:0:0:0:
374,299,16925,1,0,0:0:0:0:
374,299,17025,1,0,0:0:0:0:
374,299,17125,1,2,0:0:0:0:
232,336,17325,2,0,L|182:335,1,37.5,2|2,0:0|0:0,0:0:0:0:
127,375,17525,22,0,P|117:338|123:298,1,75,0|2,0:0|0:0,0:0:0:0:
44,248,17925,2,0,P|71:220|108:206,1,75,2|0,0:0|0:0,0:0:0:0:
101,113,18325,2,0,P|138:122|169:148,1,75,2|0,0:0|0:0,0:0:0:0:
222,220,18725,2,0,L|232:64,1,150,2|2,0:0|0:0,0:0:0:0:
44,23,19325,21,8,0:0:0:0:
44,23,19525,2,0,B|81:51|129:37|129:37|107:34|89:13,1,134.999995880127,10|0,0:0|0:0,0:0:0:0:
17,98,19925,86,0,P|92:118|167:102,2,150,2|2|2,0:0|0:0|0:0,0:0:0:0:
86,223,20925,1,0,0:0:0:0:
86,223,21125,2,0,P|88:184|91:131,1,75,2|2,0:0|0:0,0:0:0:0:
30,298,21525,5,2,0:0:0:0:
86,223,21725,1,2,0:0:0:0:
169,266,21925,1,2,0:0:0:0:
112,341,22125,1,0,0:0:0:0:
112,341,22225,1,0,0:0:0:0:
112,341,22325,1,2,0:0:0:0:
162,173,22525,1,0,0:0:0:0:
209,347,22725,1,6,0:0:0:0:
169,266,22925,1,0,0:0:0:0:
297,335,23125,6,0,L|385:331,1,75,2|0,0:0|0:0,0:0:0:0:
460,363,23525,1,2,0:0:0:0:
422,208,23725,1,2,0:0:0:0:
274,256,23925,86,0,L|362:252,1,75,2|2,0:0|0:0,0:0:0:0:
452,135,24325,1,2,0:0:0:0:
428,289,24525,1,2,0:0:0:0:
256,180,24725,6,0,L|344:176,2,75
256,180,25925,54,0,B|292:118|244:68|244:68|223:87|189:86,1,168.750006437302,4|0,1:2|0:0,0:0:0:0:
118,90,26325,6,0,L|19:81,1,89.9999972534181,2|0,0:0|0:0,0:0:0:0:
141,187,26725,2,0,L|42:178,1,89.9999972534181,8|8,0:1|0:0,0:0:0:0:
166,283,27125,1,2,0:0:0:0:
140,187,27325,1,0,0:0:0:0:
118,90,27525,1,8,0:0:0:0:
48,215,27725,1,8,0:0:0:0:
166,283,27925,1,0,0:0:0:0:
233,154,28125,5,2,0:0:0:0:
233,154,28225,1,2,0:0:0:0:
233,154,28325,1,8,0:1:0:0:
317,206,28525,1,2,0:0:0:0:
317,206,28625,1,2,0:0:0:0:
317,206,28725,1,2,0:0:0:0:
391,141,28925,1,2,0:0:0:0:
391,141,29025,1,2,0:0:0:0:
391,141,29125,1,8,0:1:0:0:
362,46,29325,1,2,0:0:0:0:
263,51,29525,54,0,P|215:49|176:29,1,89.9999972534181,2|0,0:0|0:0,0:0:0:0:
264,203,29925,2,0,P|295:171|310:129,1,89.9999972534181,8|8,0:1|0:0,0:0:0:0:
159,172,30325,2,0,P|165:223|173:279,1,89.9999972534181,2|0,0:0|0:0,0:0:0:0:
331,299,30725,1,8,0:0:0:0:
267,225,30925,1,8,0:0:0:0:
148,344,31125,1,2,0:0:0:0:
295,384,31325,5,2,0:0:0:0:
295,384,31425,1,2,0:0:0:0:
295,384,31525,1,8,0:1:0:0:
360,207,31725,1,2,0:0:0:0:
237,310,31925,1,2,0:0:0:0:
418,283,32125,2,0,L|468:275,2,44.999998626709,2|2|8,0:0|0:0|0:1,0:0:0:0:
393,368,32525,1,2,0:0:0:0:
269,222,32725,22,0,B|255:178|255:178|259:129,1,89.9999972534181,2|0,0:0|0:0,0:0:0:0:
355,70,33125,2,0,B|369:114|369:114|365:163,1,89.9999972534181,8|8,0:1|0:0,0:0:0:0:
364,257,33525,1,2,0:0:0:0:
269,222,33725,1,0,0:0:0:0:
214,304,33925,1,8,0:0:0:0:
120,271,34125,1,8,0:0:0:0:
71,357,34325,70,0,P|34:329|20:283,1,89.9999972534181,2|2,0:0|0:0,0:0:0:0:
153,192,34725,1,8,0:1:0:0:
153,192,34925,2,0,P|147:238|114:273,1,89.9999972534181,2|0,0:0|0:0,0:0:0:0:
1,202,35325,2,0,L|49:195,2,44.999998626709,2|2|4,0:0|0:0|0:0,0:0:0:0:
90,109,35725,1,0,0:0:0:0:
94,271,35925,38,0,P|92:318|92:364,1,89.9999972534181,2|2,0:0|0:0,0:0:0:0:
154,191,36325,1,8,0:1:0:0:
234,249,36525,2,0,P|277:255|316:234,1,89.9999972534181,2|2,0:0|0:0,0:0:0:0:
410,202,36925,2,0,P|457:214|482:250,1,89.9999972534181,2|8,0:0|0:1,0:0:0:0:
406,314,37325,1,0,0:0:0:0:
316,234,37525,70,0,B|302:209|316:174|316:174|305:135|305:135|316:98|305:51,2,179.999994506836,2|8|2,0:0|0:1|0:0,0:0:0:0:
349,381,38525,1,8,0:0:0:0:
349,381,38625,1,0,0:0:0:0:
349,381,38725,1,4,0:0:0:0:
399,240,38925,1,8,0:0:0:0:
246,280,39125,21,4,3:2:0:0:
246,280,39525,2,0,P|192:300|135:287,2,112.500004291535,0|4|0,0:0|0:0|0:0,0:0:0:0:
293,153,40725,1,4,0:0:0:0:
293,153,40925,2,0,L|360:143,1,56.2500021457673,4|0,0:0|0:0,0:0:0:0:
452,229,41525,2,0,B|482:282|482:282|460:346,1,112.500004291535,4|0,0:0|0:0,0:0:0:0:
406,371,42125,1,4,0:0:0:0:
338,346,42325,1,4,0:0:0:0:
338,346,42725,6,0,L|225:353,2,112.500004291535,0|4|0,0:0|0:0|0:0,0:0:0:0:
354,212,43925,1,4,0:0:0:0:
354,212,44125,1,4,0:0:0:0:
354,212,44325,2,0,L|359:182,3,28.1250010728836,0|0|0|0,0:0|0:0|0:0|0:0,0:0:0:0:
430,162,44725,102,0,P|399:122|335:115,1,112.5,4|0,0:0|0:0,0:0:0:0:
340,113,45125,2,0,P|296:130|234:106,1,112.5,2|0,0:0|0:0,0:0:0:0:
237,109,45525,6,0,L|215:113,1,14.0625005364418,4|0,3:2|0:0,0:0:0:0:
121,191,45925,1,0,0:0:0:0:
143,54,46325,1,4,0:0:0:0:
296,148,46725,1,0,0:0:0:0:
187,289,47125,101,4,0:0:0:0:
187,289,47325,1,4,0:0:0:0:
187,289,47525,1,0,0:0:0:0:
63,130,47925,1,4,0:0:0:0:
64,352,48325,1,0,0:0:0:0:
64,352,48725,6,0,P|79:329|89:289,1,56.2500021457673,4|0,0:0|0:0,0:0:0:0:
31,172,49125,102,0,P|43:196|82:231,1,67.4999979400635,2|0,0:1|0:0,0:0:0:0:
221,227,49525,6,0,P|189:224|142:248,1,82.5000025177003,4|0,0:0|0:0,0:0:0:0:
103,257,49925,102,0,P|114:185|101:104,1,146.249993305207,2|0,0:1|0:0,0:0:0:0:
74,93,50325,6,0,L|43:89,16,18.75,4|0|0|0|0|0|0|0|0|0|0|0|0|0|0|0|4,0:0|0:0|0:0|0:0|0:0|0:0|0:0|0:0|0:0|0:0|0:0|0:0|0:0|0:0|0:0|0:0|0:0,0:0:0:0:
228,145,51325,2,0,P|252:109|250:72,1,75,2|2,0:0|0:0,0:0:0:0:
251,78,51925,6,0,L|268:176,1,89.9999972534181,4|0,0:0|0:0,0:0:0:0:
370,112,52325,1,8,0:0:0:0:
278,268,52525,2,0,L|354:205,1,89.9999972534181,0|2,0:0|0:1,0:0:0:0:
442,181,52925,1,0,0:0:0:0:
442,181,53025,1,0,0:0:0:0:
442,181,53125,1,8,0:0:0:0:
413,332,53325,1,0,0:0:0:0:
278,268,53525,54,0,P|232:264|195:287,1,89.9999972534181,2|0,0:1|0:0,0:0:0:0:
146,368,53925,1,8,0:0:0:0:
145,367,54125,2,0,P|112:338|99:296,1,89.9999972534181,8|2,0:0|0:1,0:0:0:0:
181,170,54525,2,0,L|218:132,2,44.999998626709,2|0|0,0:0|0:0|0:0,0:0:0:0:
37,148,54925,1,2,0:0:0:0:
105,217,55125,6,0,P|153:219|210:211,1,89.9999972534181,4|2,0:0|0:0,0:0:0:0:
91,68,55525,2,0,P|43:66|-14:74,1,89.9999972534181,8|2,0:0|0:0,0:0:0:0:
168,134,55925,1,2,0:1:0:0:
183,37,56125,1,0,0:0:0:0:
14,182,56325,1,8,0:0:0:0:
37,278,56525,1,0,0:0:0:0:
199,344,56725,22,0,P|203:299|210:243,2,89.9999972534181,2|0|8,0:1|0:0|0:0,0:0:0:0:
102,148,57325,2,0,P|108:199|116:241,1,89.9999972534181,8|2,0:0|0:1,0:0:0:0:
293,297,57725,1,2,0:0:0:0:
293,297,57825,1,0,0:0:0:0:
293,297,57925,1,8,0:0:0:0:
232,182,58125,1,2,0:0:0:0:
185,346,58325,6,0,L|295:329,1,89.9999972534181,4|0,0:0|0:0,0:0:0:0:
451,347,58725,1,8,0:0:0:0:
451,347,58925,2,0,L|341:364,1,89.9999972534181,0|2,0:0|0:1,0:0:0:0:
323,184,59325,2,0,L|321:137,2,44.999998626709,0|0|8,0:0|0:0|0:0,0:0:0:0:
338,281,59725,1,0,0:0:0:0:
239,224,59925,54,0,P|225:184|234:130,1,89.9999972534181,2|0,0:1|0:0,0:0:0:0:
414,119,60325,2,0,P|428:159|419:213,1,89.9999972534181,8|8,0:0|0:0,0:0:0:0:
321,139,60725,2,0,L|310:37,2,89.9999972534181,2|2|8,0:1|0:0|0:0,0:0:0:0:
338,281,61325,1,2,0:0:0:0:
215,351,61525,5,2,0:1:0:0:
215,351,61625,2,0,P|171:340|124:346,1,89.9999972534181,0|0,0:0|0:0,0:0:0:0:
53,322,61925,1,8,0:0:0:0:
53,322,62025,2,0,P|98:322|142:340,1,89.9999972534181,0|2,0:0|0:0,0:0:0:0:
201,278,62325,21,2,0:1:0:0:
234,184,62525,1,2,0:0:0:0:
84,113,62725,1,8,0:0:0:0:
95,212,62925,1,2,0:0:0:0:
294,258,63125,5,2,0:1:0:0:
294,258,63325,1,0,0:0:0:0:
189,101,63525,69,8,0:0:0:0:
189,101,63725,1,0,0:0:0:0:
137,336,63925,37,2,0:1:0:0:
137,336,64125,1,0,0:0:0:0:
320,158,64325,70,0,B|356:151|379:98|379:98|432:95|460:135,1,168.750006437302,0|0,1:0|0:0,0:0:0:0:
466,200,64725,5,4,0:0:0:0:
289,66,64925,1,0,0:1:0:0:
289,66,65025,1,0,0:0:0:0:
289,66,65125,2,0,P|284:118|282:160,1,89.9999972534181,8|0,0:0|0:0,0:0:0:0:
466,200,65525,2,0,P|422:170|388:146,1,89.9999972534181,2|0,0:1|0:0,0:0:0:0:
257,286,65925,2,0,P|304:263|341:245,1,89.9999972534181,8|0,0:0|0:0,0:0:0:0:
174,229,66325,22,0,P|156:289|194:366,1,134.999995880127,2|0,0:1|0:0,0:0:0:0:
181,354,66725,1,8,0:0:0:0:
68,324,66925,1,2,0:0:0:0:
113,155,67125,1,2,0:1:0:0:
270,229,67325,1,0,0:0:0:0:
270,229,67425,1,0,0:0:0:0:
270,229,67525,1,8,0:0:0:0:
167,260,67725,1,0,0:0:0:0:
229,103,67925,70,0,P|239:58|255:4,2,89.9999972534181,2|2|8,0:1|0:0|0:0,0:0:0:0:
246,319,68525,1,2,0:0:0:0:
197,179,68725,1,2,0:1:0:0:
162,357,68925,1,2,0:0:0:0:
288,234,69125,2,0,P|332:222|380:236,1,89.9999972534181,8|2,0:0|0:0,0:0:0:0:
162,264,69525,5,2,0:1:0:0:
162,264,69725,2,0,P|119:251|89:215,1,89.9999972534181,0|8,0:0|0:0,0:0:0:0:
235,362,70125,1,0,0:0:0:0:
242,351,70225,1,0,0:0:0:0:
249,340,70325,1,2,0:1:0:0:
343,370,70525,1,8,0:0:0:0:
419,307,70725,1,8,0:0:0:0:
501,361,70925,1,8,0:0:0:0:
406,218,71125,22,0,P|394:177|400:120,1,89.9999972534181,4|0,0:0|0:0,0:0:0:0:
397,130,71425,1,0,0:0:0:0:
397,130,71525,1,8,0:0:0:0:
469,62,71725,1,0,0:0:0:0:
309,3,71925,2,0,L|311:100,1,89.9999972534181,2|2,0:1|0:0,0:0:0:0:
260,146,72225,1,2,0:0:0:0:
260,146,72325,2,0,P|213:157|166:140,1,89.9999972534181,8|2,0:0|0:0,0:0:0:0:
111,68,72725,69,4,0:0:0:0:
111,224,72925,1,0,0:0:0:0:
111,224,73025,1,0,0:0:0:0:
111,224,73125,1,8,0:0:0:0:
228,52,73325,1,0,0:0:0:0:
62,144,73525,1,2,0:1:0:0:
213,238,73725,1,0,0:0:0:0:
174,146,73925,1,8,0:0:0:0:
158,322,74125,1,0,0:0:0:0:
327,258,74325,6,0,P|349:222|349:161,1,89.9999972534181,2|2,0:1|0:0,0:0:0:0:
340,156,74625,1,0,0:0:0:0:
331,135,74725,2,0,P|351:172|404:202,1,89.9999972534181,8|2,0:0|0:0,0:0:0:0:
412,201,75025,1,2,0:0:0:0:
434,204,75125,22,0,P|391:202|338:233,1,89.9999972534181,2|2,0:1|0:0,0:0:0:0:
310,314,75525,2,0,L|212:303,1,89.9999972534181,8|2,0:0|0:0,0:0:0:0:
135,354,75925,2,0,P|126:266|119:175,2,179.999994506836,2|8|2,0:1|0:0|0:1,0:0:0:0:
118,174,77125,70,0,P|125:252|130:317,1,131.25,8|0,0:0|0:0,0:0:0:0:
130,313,77925,1,8,0:1:0:0:
131,321,78025,1,0,0:0:0:0:
132,329,78125,1,8,0:1:0:0:
133,337,78225,1,8,0:1:0:0:
134,349,78325,6,0,L|129:309,1,28.1250010728836,8|0,0:1|0:0,0:0:0:0:
124,251,78525,2,0,L|119:211,1,28.1250010728836,8|0,0:1|0:0,0:0:0:0:
112,145,78725,2,0,B|99:9|99:9|117:12|129:40,1,168.750006437302,4|0,0:1|0:0,0:0:0:0:
29,93,79125,6,0,L|186:75,2,150,4|0|8,0:0|0:0|0:1,0:0:0:0:
29,93,80125,1,0,0:0:0:0:
71,241,80325,2,0,P|131:249|190:224,1,112.5,2|0,0:1|0:0,0:0:0:0:
233,179,80725,70,0,L|226:351,2,150,0|2|8,0:0|0:1|0:1,0:0:0:0:
233,179,81725,1,0,0:0:0:0:
392,78,81925,2,0,P|425:134|418:190,1,112.5,0|0,0:0|0:0,0:0:0:0:
496,187,82325,38,0,L|407:178,1,75,2|0,0:1|0:0,0:0:0:0:
356,242,82725,1,0,0:0:0:0:
375,329,82925,1,0,0:0:0:0:
381,332,83025,1,0,0:0:0:0:
388,333,83125,1,8,0:1:0:0:
477,328,83325,1,0,0:0:0:0:
327,165,83525,70,0,P|285:195|274:260,1,112.5,2|0,0:1|0:0,0:0:0:0:
304,322,83925,38,0,B|265:344|218:313|218:313|177:280|128:302,1,179.999994506836,0|2,0:0|0:1,0:0:0:0:
32,358,84525,2,0,L|76:353,1,37.5,0|0,0:0|0:0,0:0:0:0:
99,370,84725,54,0,L|85:197,1,168.750006437302,8|2,0:1|0:1,0:0:0:0:
51,123,85125,2,0,L|56:187,1,56.2500021457673,2|0,0:1|0:0,0:0:0:0:
81,145,85325,2,0,L|86:209,1,56.2500021457673,8|0,0:1|0:0,0:0:0:0:
113,164,85525,6,0,P|195:160|265:158,1,150,4|0,0:0|0:0,0:0:0:0:
326,94,86125,1,0,0:0:0:0:
239,73,86325,2,0,P|221:36|221:-1,1,75,8|0,0:1|0:0,0:0:0:0:
404,60,86725,2,0,P|411:101|402:139,1,75,2|0,0:1|0:0,0:0:0:0:
450,210,87125,38,0,L|367:228,1,75
321,364,87525,2,0,B|328:332|361:316|361:316|320:310|299:270,1,134.999995880127,2|0,0:1|0:0,0:0:0:0:
251,333,87925,1,8,0:1:0:0:
394,384,88125,1,0,0:0:0:0:
382,201,88325,1,0,0:0:0:0:
345,296,88525,1,0,0:0:0:0:
164,295,88725,70,0,L|78:305,1,75,2|0,0:1|0:0,0:0:0:0:
29,370,89125,1,0,0:0:0:0:
27,216,89325,1,0,0:0:0:0:
30,222,89425,1,0,0:0:0:0:
33,228,89525,2,0,L|119:217,1,75,8|0,0:1|0:0,0:0:0:0:
242,271,89925,1,2,0:1:0:0:
143,363,90125,1,0,0:0:0:0:
107,218,90325,38,0,B|110:176|110:176|83:150|87:106,1,112.500004291535
196,64,90625,1,0,0:0:0:0:
196,64,90725,2,0,P|183:95|168:113,1,56.2500021457673,2|0,0:1|0:0,0:0:0:0:
57,36,90925,2,0,P|91:31|114:35,1,56.2500021457673,0|0,0:0|0:0,0:0:0:0:
211,185,91125,86,0,L|217:231,1,37.5,4|0,0:0|0:0,0:0:0:0:
289,182,91325,38,0,L|295:228,1,37.5,4|0,0:0|0:0,0:0:0:0:
366,179,91525,86,0,B|370:224|370:224|354:281|378:323|424:341,1,168.750006437302,6|0,0:0|0:0,0:0:0:0:
479,366,91925,6,0,P|485:336|472:287,1,75,4|0,0:0|0:0,0:0:0:0:
461,273,92225,2,0,L|475:228,1,37.5
341,371,92525,1,0,0:0:0:0:
272,235,92725,2,0,P|262:201|263:154,1,75,8|0,0:1|0:0,0:0:0:0:
223,341,93125,1,2,0:1:0:0:
367,276,93325,1,0,0:0:0:0:
353,102,93525,70,0,P|338:49|284:29,1,112.5
359,108,93925,38,0,P|345:46|263:25,1,134.999995880127,2|0,0:1|0:0,0:0:0:0:
363,112,94325,69,8,0:1:0:0:
279,12,94525,1,0,0:0:0:0:
259,227,94725,1,0,0:0:0:0:
246,120,94925,1,0,0:0:0:0:
137,152,95125,37,2,0:1:0:0:
170,40,95325,2,0,L|175:3,2,37.5,0|0|0,0:0|0:0|0:0,0:0:0:0:
57,70,95725,1,0,0:0:0:0:
32,187,95925,2,0,P|30:225|43:266,1,75,8|0,0:1|0:0,0:0:0:0:
180,353,96325,2,0,P|182:315|169:274,1,75,2|0,0:1|0:0,0:0:0:0:
55,375,96725,69,0,0:0:0:0:
55,375,97125,1,2,0:1:0:0:
122,101,97525,6,0,B|165:81|206:109|206:109|247:143|298:115,1,168.750006437302,8|2,0:1|0:1,0:0:0:0:
256,48,97925,2,0,L|251:-9,1,56.2500021457673,2|0,0:1|0:0,0:0:0:0:
156,176,98125,2,0,L|151:233,1,56.2500021457673,8|0,0:1|0:0,0:0:0:0:
184,310,98325,21,4,0:0:0:0:
386,353,98525,2,0,L|390:326,4,18.75
278,370,98925,1,0,0:0:0:0:
278,370,99025,1,0,0:0:0:0:
278,370,99125,2,0,P|284:334|293:288,1,75,8|0,0:1|0:0,0:0:0:0:
324,112,99525,69,8,0:0:0:0:
324,112,99725,1,8,0:0:0:0:
307,206,99925,37,0,0:0:0:0:
123,178,100125,2,0,L|95:193,4,18.75,0|0|0|2|0,0:0|0:0|0:0|0:1|0:0,0:0:0:0:
236,38,100525,1,0,0:0:0:0:
224,140,100725,2,0,L|214:228,1,75,8|0,0:1|0:0,0:0:0:0:
62,52,101125,69,8,0:0:0:0:
62,52,101325,1,8,0:0:0:0:
40,235,101525,37,2,0:1:0:0:
123,147,101725,2,0,P|161:147|194:176,1,75,0|0,0:0|0:0,0:0:0:0:
257,284,102125,1,0,0:0:0:0:
257,284,102225,1,0,0:0:0:0:
257,284,102325,2,0,P|294:274|320:239,1,75,8|0,0:1|0:0,0:0:0:0:
343,81,102725,1,2,0:1:0:0:
382,168,102925,1,0,0:0:0:0:
479,188,103125,70,0,B|505:221|505:221|516:282|451:326,1,150,0|2,0:0|0:1,0:0:0:0:
372,372,103725,5,0,0:0:0:0:
360,370,103825,1,0,0:0:0:0:
346,367,103925,2,0,P|311:357|262:373,1,84.3750032186509,4|0,0:0|0:0,0:0:0:0:
192,373,104325,6,0,B|223:364|223:364|259:295|204:231,1,168.750006437302,6|0,0:0|0:0,0:0:0:0:
146,189,104725,22,0,L|69:196,1,75,4|0,0:0|0:0,0:0:0:0:
221,22,105125,70,0,B|252:60|243:104|243:104|218:108,1,112.5,8|0,0:0|0:0,0:0:0:0:
309,103,105525,2,0,B|260:110|226:81|226:81|235:58,1,112.5,2|0,0:1|0:0,0:0:0:0:
189,134,105925,2,0,B|206:88|249:73|249:73|264:92,1,112.5,8|0,0:0|0:0,0:0:0:0:
252,50,106325,6,0,P|233:97|262:154,1,112.5,2|0,0:1|0:0,0:0:0:0:
241,130,106725,2,0,P|209:90|145:86,1,112.5,8|2,0:0|0:0,0:0:0:0:
172,66,107125,2,0,P|222:57|257:4,1,112.5,2|0,0:1|0:0,0:0:0:0:
432,26,107525,21,8,0:0:0:0:
464,110,107725,1,2,0:0:0:0:
380,142,107925,1,2,0:1:0:0:
343,59,108125,1,0,0:0:0:0:
172,74,108325,69,8,0:0:0:0:
210,231,108525,5,8,0:0:0:0:
153,301,108725,1,2,0:1:0:0:
201,376,108925,1,2,0:0:0:0:
287,353,109125,1,8,0:0:0:0:
291,265,109325,1,0,0:0:0:0:
94,214,109525,21,2,0:1:0:0:
229,304,109725,1,0,0:0:0:0:
273,134,109925,1,8,0:0:0:0:
63,134,110125,69,2,0:0:0:0:
63,134,110225,1,2,0:0:0:0:
63,134,110325,2,0,P|27:155|12:199,1,75,2|2,0:1|0:0,0:0:0:0:
253,233,110725,2,0,P|285:248|301:287,1,75,8|2,0:0|0:0,0:0:0:0:
57,366,111125,2,0,P|62:330|97:292,1,75,2|0,0:1|0:0,0:0:0:0:
180,117,111525,6,0,L|220:3,1,112.5,8|0,0:0|0:0,0:0:0:0:
194,13,111925,2,0,L|272:104,1,112.5,2|0,0:1|0:0,0:0:0:0:
273,58,112325,2,0,L|154:80,1,112.5,8|0,0:0|0:0,0:0:0:0:
197,119,112725,22,0,P|239:123|258:53,1,112.5,2|0,0:1|0:0,0:0:0:0:
185,33,113125,2,0,P|160:67|211:118,1,112.5,8|2,0:0|0:0,0:0:0:0:
264,66,113525,2,0,P|246:27|176:46,1,112.5,2|0,0:1|0:0,0:0:0:0:
97,151,113925,69,8,0:0:0:0:
23,87,114125,1,2,0:0:0:0:
31,223,114325,1,2,0:1:0:0:
168,216,114525,1,0,0:0:0:0:
157,80,114725,5,8,0:0:0:0:
100,291,114925,1,8,0:0:0:0:
100,291,115025,1,0,0:0:0:0:
100,291,115125,1,2,0:1:0:0:
180,192,115325,1,2,0:0:0:0:
240,380,115525,1,8,0:0:0:0:
384,243,115725,22,0,B|405:243|422:223|422:223|432:285|486:299,1,150
506,218,116325,1,8,0:0:0:0:
380,322,116525,1,2,0:0:0:0:
355,155,116725,86,0,L|343:-2,2,150,2|4|4,0:1|0:0|3:2,0:0:0:0:
270,313,117925,1,0,0:0:0:0:
114,220,118325,1,4,0:0:0:0:
222,76,118725,1,0,0:0:0:0:
363,186,119125,5,4,0:0:0:0:
435,132,119325,1,4,0:0:0:0:
494,199,119525,1,0,0:0:0:0:
390,346,119925,1,4,0:0:0:0:
213,312,120325,1,0,0:0:0:0:
141,366,120525,1,4,0:0:0:0:
95,201,120725,101,4,0:0:0:0:
26,367,121125,1,0,0:0:0:0:
93,185,121525,1,4,0:0:0:0:
241,310,121925,1,0,0:0:0:0:
390,210,122325,1,4,0:0:0:0:
334,138,122525,1,4,0:0:0:0:
491,135,122725,5,0,0:0:0:0:
476,132,122825,1,0,0:0:0:0:
461,128,122925,1,0,0:0:0:0:
446,124,123025,1,0,0:0:0:0:
431,119,123125,2,0,B|424:62|424:62|378:20,1,112.5,4|0,0:0|0:0,0:0:0:0:
383,24,123525,2,0,B|333:59|333:59|285:32,1,112.5,2|0,0:0|0:0,0:0:0:0:
287,33,123925,102,0,L|265:38,1,18.75,4|0,3:2|0:0,0:0:0:0:
136,122,124325,1,0,0:0:0:0:
216,282,124725,1,4,0:0:0:0:
375,198,125125,1,0,0:0:0:0:
227,95,125525,5,4,0:0:0:0:
137,105,125725,1,4,0:0:0:0:
47,112,125925,1,0,0:0:0:0:
115,278,126325,1,4,0:0:0:0:
277,199,126725,1,0,0:0:0:0:
403,362,127125,102,0,L|430:303,1,56.2500021457673,4|0,0:0|0:0,0:0:0:0:
333,306,127525,6,0,L|331:219,1,75,2|0,0:1|0:0,0:0:0:0:
240,286,127925,102,0,L|199:187,1,93.75,4|0,0:0|0:0,0:0:0:0:
145,282,128325,6,0,P|92:278|17:362,1,168.750006437302,2|0,0:1|0:0,0:0:0:0:
17,340,128725,2,0,L|9:317,16,18.75,4|0|0|0|0|0|0|0|0|0|0|0|0|0|0|0|4,0:0|0:0|0:0|0:0|0:0|0:0|0:0|0:0|0:0|0:0|0:0|0:0|0:0|0:0|0:0|0:0|0:0,0:0:0:0:
35,160,129725,70,0,P|49:134|44:88,1,75,2|2,0:0|0:0,0:0:0:0:
34,76,130325,101,4,0:0:0:0:
205,113,130525,1,0,0:0:0:0:
100,178,130725,1,8,0:0:0:0:
143,12,130925,1,0,0:0:0:0:
100,178,131125,1,2,0:1:0:0:
267,238,131325,1,0,0:0:0:0:
267,238,131425,1,0,0:0:0:0:
267,238,131525,2,0,P|286:209|288:159,1,75,8|0,0:0|0:0,0:0:0:0:
205,113,131925,5,2,0:1:0:0:
209,339,132125,1,0,0:0:0:0:
267,238,132325,1,8,0:0:0:0:
374,270,132525,1,8,0:0:0:0:
439,181,132725,1,0,0:0:0:0:
458,369,132925,1,2,0:0:0:0:
458,369,133025,1,2,0:0:0:0:
458,369,133125,2,0,P|420:366|376:365,1,75,8|2,0:0|0:0,0:0:0:0:
309,259,133525,69,4,0:0:0:0:
324,140,133725,1,2,0:0:0:0:
204,125,133925,1,8,0:0:0:0:
189,244,134125,1,2,0:0:0:0:
342,206,134325,85,2,0:1:0:0:
269,111,134525,1,0,0:0:0:0:
174,186,134725,1,8,0:0:0:0:
247,280,134925,1,0,0:0:0:0:
336,130,135125,37,2,0:1:0:0:
152,192,135325,1,0,0:0:0:0:
338,250,135525,1,8,0:0:0:0:
222,95,135725,1,8,0:0:0:0:
226,289,135925,1,2,0:1:0:0:
253,189,136125,1,2,0:0:0:0:
253,189,136225,1,0,0:0:0:0:
253,189,136325,1,8,0:0:0:0:
315,357,136525,1,2,0:0:0:0:
136,347,136725,22,0,L|56:352,1,75,4|0,0:0|0:0,0:0:0:0:
1,221,137125,1,8,0:0:0:0:
136,347,137325,2,0,P|144:310|134:275,1,75,0|2,0:0|0:1,0:0:0:0:
104,122,137725,1,0,0:0:0:0:
104,122,137825,1,0,0:0:0:0:
104,122,137925,1,8,0:0:0:0:
61,319,138125,1,0,0:0:0:0:
261,264,138325,102,0,B|297:254|297:254|314:298|377:304,1,112.5,2|0,0:1|0:0,0:0:0:0:
408,349,138725,2,0,P|412:311|419:265,1,75,8|8,0:0|0:0,0:0:0:0:
485,184,139125,1,2,0:1:0:0:
303,126,139325,1,2,0:0:0:0:
303,126,139425,1,2,0:0:0:0:
303,126,139525,2,0,P|319:165|338:199,1,75,8|2,0:0|0:0,0:0:0:0:
425,36,139925,5,2,0:1:0:0:
437,54,140025,2,0,L|522:47,1,75,0|0,0:0|0:0,0:0:0:0:
378,120,140325,2,0,L|303:126,1,75,8|2,0:0|0:0,0:0:0:0:
467,173,140625,1,2,0:0:0:0:
467,173,140725,2,0,L|464:130,1,37.5,0|0,0:1|0:0,0:0:0:0:
369,37,140925,2,0,L|366:-6,1,37.5,2|0,0:0|0:0,0:0:0:0:
334,221,141125,2,0,L|331:178,1,37.5,8|0,0:0|0:0,0:0:0:0:
236,85,141325,2,0,L|233:42,1,37.5,2|0,0:0|0:0,0:0:0:0:
135,227,141525,5,2,0:1:0:0:
224,187,141725,1,0,0:0:0:0:
131,235,141925,5,8,0:0:0:0:
49,104,142125,1,0,0:0:0:0:
127,243,142325,21,2,0:1:0:0:
248,46,142525,1,0,0:0:0:0:
124,251,142725,86,0,B|84:265|84:265|19:236|30:158,1,168.750006437302,0|0,1:0|0:0,0:0:0:0:
59,89,143125,69,4,0:0:0:0:
189,181,143325,1,0,0:0:0:0:
189,181,143425,1,0,0:0:0:0:
189,181,143525,1,8,0:0:0:0:
329,98,143725,1,0,0:0:0:0:
182,9,143925,86,0,P|179:47|188:85,1,75,2|0,0:1|0:0,0:0:0:0:
330,297,144325,2,0,P|341:264|345:217,1,75,8|0,0:0|0:0,0:0:0:0:
116,235,144725,2,0,B|156:213|195:231|195:231|236:248|273:230,2,150,2|8|2,0:1|0:0|0:1,0:0:0:0:
36,353,145725,1,0,0:0:0:0:
36,353,145825,1,0,0:0:0:0:
36,353,145925,1,8,0:0:0:0:
19,177,146125,1,0,0:0:0:0:
157,302,146325,21,2,0:1:0:0:
201,87,146525,2,0,P|203:52|206:4,1,75,2|8,0:0|0:0,0:0:0:0:
157,302,146925,1,2,0:0:0:0:
80,98,147125,85,0,0:1:0:0:
139,196,147325,1,2,0:0:0:0:
260,186,147525,1,8,0:0:0:0:
329,358,147725,1,2,0:0:0:0:
468,241,147925,1,2,0:1:0:0:
363,264,148125,2,0,P|326:267|282:274,1,75,0|8,0:0|0:0,0:0:0:0:
202,295,148525,1,0,0:0:0:0:
329,179,148725,5,2,0:1:0:0:
275,365,148925,1,8,0:0:0:0:
128,225,149125,1,8,0:0:0:0:
302,275,149325,1,8,0:0:0:0:
105,346,149525,6,0,P|93:277|79:192,1,150,4|8,0:0|0:0,0:0:0:0:
142,123,150125,1,0,0:0:0:0:
11,247,150325,1,2,0:1:0:0:
183,297,150525,1,2,0:0:0:0:
142,123,150725,1,8,0:0:0:0:
86,332,150925,1,2,0:0:0:0:
300,331,151125,86,0,B|360:322|360:322|389:332|389:332|451:321,1,150,4|8,0:0|0:0,0:0:0:0:
300,331,151725,1,0,0:0:0:0:
382,211,151925,2,0,L|396:122,1,75,2|0,0:1|0:0,0:0:0:0:
259,112,152325,2,0,L|273:23,1,75,8|0,0:0|0:0,0:0:0:0:
139,173,152725,5,2,0:1:0:0:
139,173,152925,1,2,0:0:0:0:
287,287,153125,1,8,0:0:0:0:
133,370,153325,1,2,0:0:0:0:
133,370,153425,1,2,0:0:0:0:
133,370,153525,2,0,L|52:379,1,75,2|2,0:1|0:0,0:0:0:0:
219,227,153925,2,0,P|224:268|230:312,1,75,8|2,0:0|0:0,0:0:0:0:
302,374,154325,5,2,0:1:0:0:
223,20,154725,1,8,0:0:0:0:
30,238,155125,1,2,0:1:0:0:
425,241,155525,2,0,P|463:212|458:145,1,112.5,8|0,0:0|0:0,0:0:0:0:
442,83,155925,6,0,L|449:-6,1,84.3750032186509,8|0,0:1|0:0,0:0:0:0:
377,2,156325,2,0,L|370:91,1,84.3750032186509
299,91,156725,2,0,L|306:2,1,84.3750032186509
234,9,157125,2,0,L|227:98,1,84.3750032186509
192,165,157525,38,0,P|167:204|94:211,1,112.5
53,282,157925,2,0,L|-12:290,2,50,0|0|0,0:0|0:0|0:0,0:0:0:0:
111,346,158325,1,0,0:0:0:0:
364,358,158591,53,0,0:0:0:0:
374,364,158725,2,0,B|391:317|365:264|365:264|381:247|389:222,1,150.000005722046,0|0,3:0|0:0,0:0:0:0:
466,197,159125,6,0,P|438:153|347:151,2,150,2|8|2,0:1|0:0|0:1,0:0:0:0:
260,79,160191,1,2,0:0:0:0:
265,90,160325,2,0,L|254:197,1,100,8|2,0:0|0:0,0:0:0:0:
195,256,160725,2,0,P|150:246|103:272,1,100,2|0,0:1|0:0,0:0:0:0:
121,352,161125,2,0,P|166:362|213:336,1,100,8|0,0:0|0:0,0:0:0:0:
276,275,161525,38,0,B|284:224|284:224|281:210|281:210|294:117,1,150.000005722046,8|8,0:1|0:1,0:0:0:0:
304,50,161925,1,8,0:0:0:0:
480,278,162191,69,8,0:1:0:0:
476,293,162325,2,0,P|441:308|413:365,1,100,2|0,0:1|0:0,0:0:0:0:
300,320,162725,2,0,L|428:310,1,119.999996337891,8|0,0:0|0:0,0:0:0:0:
356,302,163125,38,0,P|321:317|293:374,1,100,2|2,0:1|0:0,0:0:0:0:
180,329,163525,2,0,L|308:319,1,119.999996337891,8|2,0:0|0:0,0:0:0:0:
236,311,163925,70,0,P|201:326|173:383,1,100,2|0,0:1|0:0,0:0:0:0:
60,338,164325,2,0,L|188:328,1,119.999996337891,8|0,0:0|0:0,0:0:0:0:
107,311,164725,37,2,0:1:0:0:
36,95,164991,1,0,0:0:0:0:
77,119,165125,1,8,0:0:0:0:
122,105,165258,1,0,0:0:0:0:
145,63,165391,1,0,0:0:0:0:
138,20,165525,6,0,P|178:13|236:47,1,100,2|0,0:1|0:0,0:0:0:0:
312,58,165925,2,0,P|250:65|205:115,1,119.999996337891,8|0,0:0|0:0,0:0:0:0:
127,153,166325,54,0,P|167:146|225:180,1,100,2|2,0:1|0:0,0:0:0:0:
317,194,166725,2,0,P|255:201|210:251,1,119.999996337891,8|2,0:0|0:0,0:0:0:0:
121,290,167125,6,0,P|161:283|219:317,1,100,2|0,0:1|0:0,0:0:0:0:
319,334,167525,2,0,P|257:341|212:391,1,119.999996337891,8|0,0:0|0:0,0:0:0:0:
77,373,167925,22,0,L|23:362,2,50,8|8|8,0:1|0:1|0:1,0:0:0:0:
143,291,168325,6,0,B|168:271|168:271|186:211|143:150,1,150.000005722046,8|8,0:0|0:1,0:0:0:0:
29,79,168725,53,2,0:1:0:0:
77,114,168858,1,0,0:0:0:0:
136,116,168991,1,0,0:0:0:0:
192,95,169125,2,0,P|250:59|327:76,1,150.000005722046,8|8,0:0|0:1,0:0:0:0:
480,193,169525,37,2,0:1:0:0:
432,228,169658,1,0,0:0:0:0:
373,230,169791,1,0,0:0:0:0:
317,209,169925,2,0,P|247:210|193:268,1,150.000005722046,8|8,0:0|0:1,0:0:0:0:
186,347,170325,1,2,0:1:0:0:
52,146,170591,69,2,0:0:0:0:
47,116,170725,1,2,0:0:0:0:
209,205,170991,37,2,0:0:0:0:
201,247,171125,1,8,0:1:0:0:
328,24,171391,69,8,0:1:0:0:
339,74,171525,1,8,0:1:0:0:
485,213,171791,37,8,0:1:0:0:
491,279,171925,2,0,P|464:324|416:340,1,100,2|0,0:1|0:0,0:0:0:0:
345,368,172325,6,0,L|208:363,1,119.999996337891,0|0,0:0|0:0,0:0:0:0:
175,349,172725,2,0,L|312:354,1,119.999996337891,8|0,0:1|0:0,0:0:0:0:
336,339,173125,2,0,L|199:334,1,119.999996337891,0|0,0:0|0:0,0:0:0:0:
175,268,173525,54,0,P|155:223|165:169,1,100,2|0,0:1|0:0,0:0:0:0:
218,120,173925,6,0,L|298:17,1,119.999996337891,0|0,0:0|0:0,0:0:0:0:
341,9,174325,2,0,L|261:112,1,119.999996337891,8|0,0:1|0:0,0:0:0:0:
257,154,174725,2,0,L|337:51,1,119.999996337891,0|0,0:1|0:0,0:0:0:0:
401,89,175125,22,0,P|451:96|495:68,1,100,2|0,0:1|0:0,0:0:0:0:
485,140,175525,6,0,L|499:272,1,119.999996337891,0|0,0:0|0:0,0:0:0:0:
485,308,175925,2,0,L|471:176,1,119.999996337891,8|0,0:1|0:0,0:0:0:0:
438,156,176325,2,0,L|452:288,1,119.999996337891,0|0,0:0|0:0,0:0:0:0:
417,349,176725,1,2,0:1:0:0:
274,293,176991,53,0,0:0:0:0:
270,310,177125,1,0,0:0:0:0:
126,324,177391,5,0,0:0:0:0:
129,341,177525,1,8,0:1:0:0:
24,224,177791,21,0,0:0:0:0:
20,238,177925,1,0,0:0:0:0:
119,81,178191,5,0,0:0:0:0:
124,94,178325,2,0,B|173:120|173:120|231:105,1,100,2|0,0:1|0:0,0:0:0:0:
280,60,178725,54,0,P|326:32|396:57,1,119.999996337891
417,92,179125,2,0,P|418:145|361:193,1,119.999996337891,8|0,0:1|0:0,0:0:0:0:
319,194,179525,2,0,P|271:168|258:95,1,119.999996337891,0|0,0:0|0:0,0:0:0:0:
340,118,179925,6,0,L|346:244,1,100,2|0,0:1|0:0,0:0:0:0:
408,253,180325,22,0,B|349:234|349:234|304:289,1,119.999996337891
284,325,180725,2,0,B|225:344|225:344|180:289,1,119.999996337891,8|0,0:1|0:0,0:0:0:0:
138,277,181125,2,0,B|79:258|79:258|34:313,1,119.999996337891,0|0,0:0|0:0,0:0:0:0:
5,227,181525,6,0,L|-7:122,1,100,2|0,0:1|0:0,0:0:0:0:
40,57,181925,54,0,P|93:48|145:94,1,119.999996337891
182,122,182325,2,0,P|235:131|287:85,1,119.999996337891,8|0,0:1|0:0,0:0:0:0:
317,49,182725,2,0,P|370:40|422:86,1,119.999996337891,0|0,0:0|0:0,0:0:0:0:
476,137,183125,1,2,0:1:0:0:
438,327,183391,5,0,0:0:0:0:
415,334,183525,1,0,0:0:0:0:
247,195,183791,21,0,0:0:0:0:
301,205,183925,1,8,0:1:0:0:
170,364,184191,5,0,0:0:0:0:
130,373,184325,1,0,0:0:0:0:
44,115,184591,53,0,0:0:0:0:
44,115,184725,1,4,3:2:0:0:
236,31,185125,101,0,0:0:0:0:
205,238,185525,1,4,0:0:0:0:
124,44,185925,1,0,0:0:0:0:
82,249,186325,5,4,0:0:0:0:
99,352,186525,1,4,0:0:0:0:
201,372,186725,1,0,0:0:0:0:
321,199,187125,1,4,0:0:0:0:
449,364,187525,1,0,0:0:0:0:
344,356,187725,1,4,0:0:0:0:
391,139,187925,101,4,0:0:0:0:
186,187,188325,1,0,0:0:0:0:
386,125,188725,1,4,0:0:0:0:
214,3,189125,1,0,0:0:0:0:
287,311,189525,5,4,0:0:0:0:
327,214,189725,1,4,0:0:0:0:
73,88,190125,1,0,0:0:0:0:
87,192,190325,1,4,0:0:0:0:
278,108,190725,1,2,0:0:0:0:
407,327,191125,102,0,B|440:286|440:286|449:217,2,112.500004291535,4|0|4,3:2|0:0|0:0,0:0:0:0:
151,283,192325,1,0,0:0:0:0:
318,70,192725,1,4,0:0:0:0:
318,70,192925,1,4,0:0:0:0:
335,169,193125,1,0,0:0:0:0:
69,162,193525,1,4,0:0:0:0:
275,311,193925,1,0,0:0:0:0:
144,80,194325,5,4,0:0:0:0:
179,372,194725,1,2,0:1:0:0:
368,80,195125,1,4,0:0:0:0:
333,372,195525,1,2,0:1:0:0:
256,0,195925,102,0,L|256:75,1,75,4|0,0:0|0:0,0:0:0:0:
256,100,196225,1,0,0:0:0:0:
256,92,196325,6,0,L|256:172,1,75,4|0,0:0|0:0,0:0:0:0:
256,192,196625,1,0,0:0:0:0:
256,184,196725,102,0,L|257:263,1,75,4|0,0:0|0:0,0:0:0:0:
256,284,197025,1,0,0:0:0:0:
256,276,197125,6,0,L|257:355,1,75,4|0,0:0|0:0,0:0:0:0:
256,376,197425,1,0,0:0:0:0:
264,376,197525,102,0,L|282:376,16,18.75,4|0|0|0|0|0|0|0|0|0|0|0|0|0|0|0|4,0:0|0:0|0:0|0:0|0:0|0:0|0:0|0:0|0:0|0:0|0:0|0:0|0:0|0:0|0:0|0:0|0:0,0:0:0:0:
124,268,198525,6,0,P|72:264|24:348,1,150,0|0,0:0|0:0,0:0:0:0:
52,272,199125,22,0,P|60:236|36:180,1,89.9999972534181,4|0,0:0|0:0,0:0:0:0:
32,168,199425,1,0,0:0:0:0:
23,156,199525,2,0,L|120:132,1,89.9999972534181,8|0,0:0|0:0,0:0:0:0:
275,168,199925,1,2,0:1:0:0:
165,275,200125,1,0,0:0:0:0:
165,275,200225,1,0,0:0:0:0:
165,275,200325,1,8,0:0:0:0:
197,112,200525,1,0,0:0:0:0:
373,160,200725,22,0,L|384:53,1,89.9999972534181,2|0,0:1|0:0,0:0:0:0:
340,325,201125,1,8,0:0:0:0:
218,211,201325,2,0,P|177:193|131:202,1,89.9999972534181,8|2,0:0|0:1,0:0:0:0:
98,354,201725,1,2,0:0:0:0:
98,354,201825,1,2,0:0:0:0:
98,354,201925,1,8,0:0:0:0:
247,295,202125,1,2,0:0:0:0:
35,276,202325,69,4,0:0:0:0:
189,315,202525,1,2,0:0:0:0:
185,217,202725,1,8,0:0:0:0:
98,354,202925,1,2,0:0:0:0:
92,129,203125,1,2,0:1:0:0:
109,266,203325,1,0,0:0:0:0:
103,242,203425,1,0,0:0:0:0:
98,219,203525,2,0,L|92:122,1,89.9999972534181,8|0,0:0|0:0,0:0:0:0:
270,34,203925,6,0,L|276:131,2,89.9999972534181,2|0|8,0:1|0:0|0:0,0:0:0:0:
214,306,204525,2,0,L|208:209,1,89.9999972534181,8|2,0:0|0:1,0:0:0:0:
398,108,204925,1,2,0:0:0:0:
398,108,205025,1,0,0:0:0:0:
398,108,205125,1,8,0:0:0:0:
344,234,205325,1,2,0:0:0:0:
449,340,205525,22,0,P|468:302|462:247,1,89.9999972534181,4|0,0:0|0:0,0:0:0:0:
305,146,205925,1,8,0:0:0:0:
256,347,206125,2,0,L|361:331,1,89.9999972534181,0|2,0:0|0:1,0:0:0:0:
168,217,206525,1,0,0:0:0:0:
168,217,206625,1,0,0:0:0:0:
168,217,206725,1,8,0:0:0:0:
79,363,206925,1,0,0:0:0:0:
31,153,207125,70,0,L|44:243,1,89.9999972534181,2|0,0:1|0:0,0:0:0:0:
135,39,207525,1,8,0:0:0:0:
217,188,207725,2,0,L|208:281,1,89.9999972534181,8|2,0:0|0:1,0:0:0:0:
323,60,208125,1,2,0:0:0:0:
419,192,208325,2,0,P|464:185|515:177,1,89.9999972534181,8|2,0:0|0:0,0:0:0:0:
346,331,208725,5,2,0:1:0:0:
346,331,208825,2,0,B|328:334|315:325|315:325|298:360|253:365,1,89.9999972534181,0|0,0:0|0:0,0:0:0:0:
173,267,209125,2,0,P|216:261|245:302,1,89.9999972534181,8|2,0:0|0:0,0:0:0:0:
195,356,209425,1,2,0:0:0:0:
195,356,209525,21,2,0:1:0:0:
186,178,209725,1,2,0:0:0:0:
378,95,209925,1,8,0:0:0:0:
325,257,210125,1,2,0:0:0:0:
232,22,210325,69,2,0:1:0:0:
279,164,210525,1,0,0:0:0:0:
58,156,210725,5,8,0:0:0:0:
200,109,210925,1,0,0:0:0:0:
199,339,211125,21,2,0:1:0:0:
152,197,211325,1,0,0:0:0:0:
368,213,211525,70,0,P|333:281|235:248,1,191.250003647804,0|0,1:0|0:0,0:0:0:0:
237,253,211925,85,4,0:0:0:0:
398,368,212125,1,0,0:0:0:0:
398,368,212225,1,0,0:0:0:0:
398,368,212325,1,8,0:0:0:0:
456,165,212525,1,0,0:0:0:0:
361,258,212725,85,2,0:1:0:0:
325,75,212925,1,0,0:0:0:0:
211,328,213125,5,8,0:0:0:0:
225,167,213325,1,0,0:0:0:0:
91,243,213525,6,0,L|70:100,1,134.999995880127,2|0,0:1|0:0,0:0:0:0:
86,34,213925,2,0,P|138:73|135:149,1,134.999995880127,8|0,0:0|0:0,0:0:0:0:
5,140,214325,2,0,P|-3:96|23:52,1,89.9999972534181,2|0,0:1|0:0,0:0:0:0:
71,108,214625,1,0,0:0:0:0:
71,108,214725,1,8,0:0:0:0:
82,303,214925,1,0,0:0:0:0:
242,196,215125,85,2,0:1:0:0:
135,203,215325,1,2,0:0:0:0:
82,303,215525,1,8,0:0:0:0:
71,109,215725,1,2,0:0:0:0:
242,196,215925,2,0,L|345:176,1,89.9999972534181,2|2,0:1|0:0,0:0:0:0:
380,115,216225,1,2,0:0:0:0:
387,122,216325,2,0,P|411:165|402:217,1,89.9999972534181,8|2,0:0|0:0,0:0:0:0:
305,306,216725,5,2,0:1:0:0:
246,160,216925,2,0,P|271:117|320:99,1,89.9999972534181,0|8,0:0|0:0,0:0:0:0:
416,335,217325,1,0,0:0:0:0:
416,335,217425,1,0,0:0:0:0:
416,335,217525,1,2,0:1:0:0:
330,178,217725,1,8,0:0:0:0:
244,276,217925,1,8,0:0:0:0:
145,128,218125,1,8,0:0:0:0:
31,252,218325,6,0,L|48:388,1,134.999995880127,4|0,0:0|0:0,0:0:0:0:
63,356,218725,2,0,P|93:330|157:337,1,89.9999972534181,8|0,0:0|0:0,0:0:0:0:
159,340,219025,1,0,0:0:0:0:
172,357,219125,1,2,0:1:0:0:
240,188,219325,1,2,0:0:0:0:
342,331,219525,2,0,L|435:315,1,89.9999972534181,8|2,0:0|0:0,0:0:0:0:
481,141,219925,86,0,P|473:79|403:45,1,134.999995880127,4|0,0:0|0:0,0:0:0:0:
344,167,220325,2,0,P|376:162|410:111,1,89.9999972534181,8|0,0:0|0:0,0:0:0:0:
339,92,220625,1,0,0:0:0:0:
339,92,220725,1,2,0:1:0:0:
273,244,220925,1,0,0:0:0:0:
436,314,221125,2,0,L|427:224,1,89.9999972534181,8|0,0:0|0:0,0:0:0:0:
274,23,221525,6,0,P|248:62|248:109,1,89.9999972534181,2|2,0:1|0:0,0:0:0:0:
201,100,221825,1,0,0:0:0:0:
210,96,221925,6,0,P|167:116|144:157,1,89.9999972534181,8|2,0:0|0:0,0:0:0:0:
100,154,222225,1,2,0:0:0:0:
109,157,222325,86,0,P|62:153|21:177,1,89.9999972534181,2|2,0:1|0:0,0:0:0:0:
61,55,222725,1,8,0:0:0:0:
236,186,222925,1,2,0:0:0:0:
96,349,223125,6,0,P|62:304|91:228,1,134.999995880127,2|0,0:1|0:0,0:0:0:0:
105,232,223525,2,0,P|139:277|110:353,1,134.999995880127,8|0,0:0|0:0,0:0:0:0:
84,348,223925,6,0,B|50:303|50:303|79:227,1,134.999995880127,2|0,0:1|0:0,0:0:0:0:
116,232,224325,2,0,B|150:277|150:277|121:353,1,134.999995880127,8|0,0:0|0:0,0:0:0:0:
4,368,224725,1,4,0:0:0:0:
16,278,225125,1,0,0:0:0:0:
29,188,225525,1,0,0:0:0:0:
45,99,225925,1,0,0:0:0:0:
45,99,226325,6,0,P|88:81|138:98,1,89.9999972534181,8|0,0:1|0:0,0:0:0:0:
179,150,226625,1,0,0:0:0:0:
189,158,226725,2,0,P|234:170|286:136,1,89.9999972534181,8|8,0:1|0:1,0:0:0:0:
331,105,227025,1,8,0:1:0:0:
337,93,227125,2,0,L|334:39,1,44.999998626709,8|0,0:1|0:0,0:0:0:0:
404,195,227325,2,0,L|401:141,1,44.999998626709,8|0,0:1|0:0,0:0:0:0:
424,277,227525,38,0,B|387:287|355:264|355:264|344:292|358:330|358:330|320:299|269:314,1,225,4|0,0:1|0:0,0:0:0:0:
211,356,227925,102,0,P|144:376|77:329,2,150,4|0|8,0:0|0:0|0:1,0:0:0:0:
165,195,228925,1,0,0:0:0:0:
155,292,229125,2,0,L|149:213,1,75,2|0,0:1|0:0,0:0:0:0:
205,43,229525,6,0,P|244:79|233:172,1,150,0|2,0:0|0:1,0:0:0:0:
73,124,230125,1,0,0:0:0:0:
170,120,230325,2,0,L|82:131,1,75,8|0,0:1|0:0,0:0:0:0:
75,266,230725,2,0,L|163:255,1,75,0|0,0:0|0:0,0:0:0:0:
302,282,231125,5,2,0:1:0:0:
274,196,231325,1,0,0:0:0:0:
244,360,231525,1,0,0:0:0:0:
395,300,231725,1,0,0:0:0:0:
395,300,231825,1,0,0:0:0:0:
395,300,231925,2,0,P|434:304|474:336,1,75,8|0,0:1|0:0,0:0:0:0:
388,132,232325,2,0,P|373:169|373:209,1,75,2|0,0:1|0:0,0:0:0:0:
273,350,232725,6,0,B|271:295|271:295|258:263|258:263|255:173,1,179.999994506836,0|2,0:0|0:1,0:0:0:0:
294,90,233325,1,0,0:0:0:0:
240,212,233525,6,0,B|212:246|212:246|146:279|92:233,1,168.750006437302,8|2,0:1|0:1,0:0:0:0:
19,269,233925,2,0,L|83:261,1,56.2500021457673,2|0,0:1|0:0,0:0:0:0:
36,291,234125,2,0,L|100:283,1,56.2500021457673,8|0,0:1|0:0,0:0:0:0:
60,308,234325,6,0,L|73:159,2,150,4|0|8,0:0|0:0|0:1,0:0:0:0:
161,229,235325,1,0,0:0:0:0:
218,368,235525,2,0,P|256:359|300:348,1,75,2|0,0:1|0:0,0:0:0:0:
458,320,235925,1,0,0:0:0:0:
458,320,236125,1,0,0:0:0:0:
375,158,236325,6,0,B|352:187|314:184|314:184|343:206|348:251,1,134.999995880127,2|0,0:1|0:0,0:0:0:0:
266,250,236725,1,8,0:1:0:0:
321,107,236925,1,0,0:0:0:0:
405,318,237125,1,0,0:0:0:0:
368,206,237325,1,0,0:0:0:0:
298,357,237525,6,0,P|261:363|212:369,1,75,2|0,0:1|0:0,0:0:0:0:
153,262,237925,1,0,0:0:0:0:
132,375,238125,1,0,0:0:0:0:
132,375,238225,1,0,0:0:0:0:
132,375,238325,2,0,L|125:300,1,75,8|0,0:1|0:0,0:0:0:0:
238,174,238725,2,0,L|245:249,1,75,2|0,0:1|0:0,0:0:0:0:
31,171,239125,6,0,B|65:191|99:177|99:177|107:156|97:128,1,112.500004291535,0|0,0:0|0:0,0:0:0:0:
36,32,239425,1,0,0:0:0:0:
34,41,239525,2,0,P|32:67|40:100,1,56.2500021457673,2|0,0:1|0:0,0:0:0:0:
155,87,239725,2,0,P|136:69|99:62,1,56.2500021457673,0|0,0:0|0:0,0:0:0:0:
103,289,239925,6,0,L|147:282,1,37.5,4|0,0:0|0:0,0:0:0:0:
242,209,240125,6,0,L|204:214,1,37.5,4|0,0:0|0:0,0:0:0:0:
323,250,240325,38,0,B|355:244|355:244|412:304|365:380,1,168.750006437302,4|0,0:0|0:0,0:0:0:0:
358,381,240725,6,0,L|275:373,1,75,4|0,0:0|0:0,0:0:0:0:
258,379,240991,2,0,L|225:375,2,25,0|0|0,0:0|0:0|0:0,0:0:0:0:
323,250,241325,1,0,0:0:0:0:
447,342,241525,2,0,P|468:310|473:266,1,75,8|0,0:1|0:0,0:0:0:0:
386,167,241925,2,0,P|386:132|368:92,1,75,2|0,0:1|0:0,0:0:0:0:
244,103,242325,38,0,P|191:76|132:90,1,112.5
133,76,242725,6,0,P|197:63|253:99,1,134.999995880127,2|0,0:1|0:0,0:0:0:0:
261,94,243125,53,8,0:1:0:0:
124,71,243325,1,0,0:0:0:0:
66,196,243525,2,0,L|80:287,1,75,0|0,0:0|0:0,0:0:0:0:
203,372,243925,1,2,0:1:0:0:
260,242,244125,37,0,0:0:0:0:
264,251,244225,1,0,0:0:0:0:
268,259,244325,2,0,P|306:252|344:245,1,75,0|0,0:0|0:0,0:0:0:0:
448,364,244725,2,0,P|409:356|372:350,1,75,8|0,0:1|0:0,0:0:0:0:
440,182,245125,2,0,P|447:222|456:269,1,75,2|0,0:1|0:0,0:0:0:0:
470,69,245525,69,0,0:0:0:0:
133,140,245925,1,2,0:1:0:0:
470,69,246325,22,0,B|424:53|390:98|390:98|355:59|305:78,1,168.750006437302,8|2,0:1|0:1,0:0:0:0:
457,147,246725,2,0,L|521:140,1,56.2500021457673,2|0,0:1|0:0,0:0:0:0:
330,153,246925,2,0,L|274:159,1,56.2500021457673,8|0,0:1|0:0,0:0:0:0:
379,348,247125,5,4,0:0:0:0:
397,247,247325,1,0,0:0:0:0:
397,247,247425,1,0,0:0:0:0:
397,247,247525,1,0,0:0:0:0:
298,279,247725,1,0,0:0:0:0:
141,177,247925,1,8,0:1:0:0:
105,377,248125,1,0,0:0:0:0:
186,290,248325,86,0,L|195:337,1,37.5,8|0,0:0|0:0,0:0:0:0:
197,299,248525,2,0,L|206:346,1,37.5,8|0,0:0|0:0,0:0:0:0:
242,197,248725,21,0,0:0:0:0:
212,100,248925,1,0,0:0:0:0:
206,78,249025,1,0,0:0:0:0:
207,55,249125,1,2,0:1:0:0:
101,89,249325,1,0,0:0:0:0:
316,122,249525,1,8,0:1:0:0:
186,290,249725,1,0,0:0:0:0:
194,180,249925,6,0,L|191:137,1,37.5,8|0,0:0|0:0,0:0:0:0:
202,191,250125,2,0,L|199:148,1,37.5,8|0,0:0|0:0,0:0:0:0:
324,269,250325,53,2,0:1:0:0:
422,182,250525,1,0,0:0:0:0:
422,182,250625,1,0,0:0:0:0:
422,182,250725,2,0,P|435:147|424:96,1,75,0|0,0:0|0:0,0:0:0:0:
512,311,251125,2,0,L|434:322,1,75,8|0,0:1|0:0,0:0:0:0:
313,368,251525,1,2,0:1:0:0:
370,259,251725,1,0,0:0:0:0:
280,165,251925,38,0,P|229:144|148:190,1,150,0|2,0:0|0:1,0:0:0:0:
107,298,252525,1,0,0:0:0:0:
70,93,252725,5,0,0:0:0:0:
70,93,252825,2,0,B|80:136|63:171|63:171|41:172|28:158,1,112.5,0|2,0:0|0:0,0:0:0:0:
32,162,253225,85,0,0:0:0:0:
256,192,253325,12,0,254225,0:0:0:0:
