osu file format v14

[General]
AudioFilename: audio.mp3
AudioLeadIn: 0
PreviewTime: 51125
Countdown: 0
SampleSet: Soft
StackLeniency: 0.5
Mode: 0
LetterboxInBreaks: 0
StoryFireInFront: 0
EpilepsyWarning: 1
WidescreenStoryboard: 1

[Editor]
Bookmarks: 255125
DistanceSpacing: 1.1
BeatDivisor: 4
GridSize: 4
TimelineZoom: 1.9

[Metadata]
Title:YoiYoi Kokon
TitleUnicode:宵々古今
Artist:REOL
ArtistUnicode:REOL
Creator:DreaM117er
Version:Hard
Source:
Tags:れをる giga-p gigap okiku Σ sigma Regraz Misure Frey Flask kiddly Starrodkirby86 Chaoslitz m1223961117
BeatmapID:1220407
BeatmapSetID:545737

[Difficulty]
HPDrainRate:5
CircleSize:4
OverallDifficulty:5.5
ApproachRate:7.5
SliderMultiplier:1.7
SliderTickRate:1

[Events]
//Background and Video events
0,0,"BG.jpg",0,0
//Break Periods
//Storyboard Layer 0 (Background)
//Storyboard Layer 1 (Fail)
//Storyboard Layer 2 (Pass)
//Storyboard Layer 3 (Foreground)
Sprite,Foreground,Centre,"SB\intro\main\FREY\_000.png",320,240 F,0,7125,8725,1
//Storyboard Sound Samples

[TimingPoints]
725,400,4,2,1,80,1,0
13525,-100,4,2,2,80,0,0
14925,-100,4,2,1,80,0,0
15125,-100,4,2,2,80,0,0
15325,-100,4,2,1,80,0,0
15525,-100,4,2,2,80,0,0
17325,-100,4,2,1,80,0,0
17525,-100,4,2,2,80,0,0
17725,-100,4,2,1,80,0,0
17925,-100,4,2,2,80,0,0
21325,-100,4,2,1,80,0,0
21525,-100,4,2,2,80,0,0
21725,-100,4,2,1,80,0,0
21925,-100,4,2,2,80,0,0
23725,-100,4,2,1,80,0,0
23925,-100,4,2,2,80,0,0
26325,-100,4,2,2,80,0,0
28125,-100,4,2,1,80,0,0
28325,-100,4,2,2,80,0,0
28525,-100,4,2,1,80,0,0
28725,-100,4,2,2,80,0,0
28925,-100,4,2,1,80,0,0
29125,-100,4,2,2,80,0,0
29325,-100,4,2,1,80,0,0
29525,-100,4,2,2,80,0,0
31525,-100,4,2,2,80,0,0
31725,-100,4,2,1,80,0,0
31925,-100,4,2,2,80,0,0
32125,-100,4,2,1,80,0,0
32325,-100,4,2,2,80,0,0
32525,-100,4,2,1,80,0,0
32725,-100,4,2,2,80,0,0
35325,-100,4,2,1,80,0,0
35525,-100,4,2,2,80,0,0
36125,-100,4,2,1,80,0,0
36325,-100,4,2,2,80,0,0
36525,-100,4,2,1,80,0,0
37125,-100,4,2,2,80,0,0
39125,-100,4,2,1,80,0,0
51925,-100,4,2,2,100,0,1
52125,-100,4,2,1,100,0,1
54125,-100,4,2,2,100,0,1
54325,-100,4,2,1,100,0,1
55125,-100,4,2,2,100,0,1
55325,-100,4,2,1,100,0,1
58325,-100,4,2,2,100,0,1
58525,-100,4,2,1,100,0,1
64525,-100,4,2,2,100,0,1
64725,-100,4,2,2,100,0,1
64925,-100,4,2,1,100,0,1
70525,-100,4,2,2,100,0,1
70725,-100,4,2,1,100,0,1
70925,-100,4,2,2,100,0,1
71325,-100,4,2,1,100,0,1
72725,-100,4,2,2,100,0,1
72925,-100,4,2,1,100,0,1
78725,-100,4,2,1,80,0,0
79125,-100,4,2,2,80,0,0
79325,-100,4,2,1,80,0,0
85525,-100,4,2,2,80,0,0
85725,-100,4,2,1,80,0,0
91925,-100,4,2,2,80,0,0
92125,-100,4,2,1,80,0,0
98325,-100,4,2,2,80,0,0
98525,-100,4,2,1,80,0,0
99525,-100,4,2,2,80,0,0
99925,-100,4,2,1,80,0,0
101125,-100,4,2,2,80,0,0
101525,-100,4,2,1,80,0,0
104725,-100,4,2,2,80,0,0
104925,-100,4,2,1,80,0,0
114925,-100,4,2,2,80,0,0
115025,-100,4,2,1,80,0,0
117125,-100,4,2,2,80,0,0
117325,-100,4,2,1,80,0,0
130325,-100,4,2,2,100,0,1
130525,-100,4,2,1,100,0,1
132525,-100,4,2,2,100,0,1
132725,-100,4,2,1,100,0,1
133525,-100,4,2,2,100,0,1
133725,-100,4,2,1,100,0,1
136725,-100,4,2,2,100,0,1
136925,-100,4,2,1,100,0,1
142925,-100,4,2,2,100,0,1
143125,-100,4,2,2,100,0,1
143325,-100,4,2,1,100,0,1
148925,-100,4,2,2,100,0,1
149125,-100,4,2,1,100,0,1
149325,-100,4,2,2,100,0,1
149725,-100,4,2,1,100,0,1
151125,-100,4,2,2,100,0,1
151325,-100,4,2,1,100,0,1
155525,-100,4,2,1,80,0,0
157525,-100,4,2,1,40,0,0
157925,-100,4,2,1,60,0,0
158725,-100,4,2,1,80,0,0
159125,-100,4,2,1,80,0,0
199125,-100,4,2,2,100,0,1
199325,-100,4,2,1,100,0,1
201325,-100,4,2,2,100,0,1
201525,-100,4,2,1,100,0,1
202325,-100,4,2,2,100,0,1
202525,-100,4,2,1,100,0,1
204525,-100,4,2,2,100,0,1
204725,-100,4,2,1,100,0,1
205525,-100,4,2,2,100,0,1
205725,-100,4,2,1,100,0,1
207725,-100,4,2,2,100,0,1
207925,-100,4,2,1,100,0,1
211725,-100,4,2,2,100,0,1
211925,-100,4,2,2,100,0,1
212125,-100,4,2,1,100,0,1
217725,-100,4,2,2,100,0,1
217925,-100,4,2,1,100,0,1
218125,-100,4,2,2,100,0,1
218525,-100,4,2,1,100,0,1
219925,-100,4,2,2,100,0,1
220125,-100,4,2,1,100,0,1
227525,-100,4,2,1,80,0,0
227925,-100,4,2,2,80,0,0
228125,-100,4,2,1,80,0,0
234325,-100,4,2,2,80,0,0
234525,-100,4,2,1,80,0,0
240725,-100,4,2,2,80,0,0
240925,-100,4,2,1,80,0,0
247125,-100,4,2,2,80,0,0
247325,-100,4,2,1,80,0,0
248325,-100,4,2,2,80,0,0
248725,-100,4,2,1,80,0,0
249925,-100,4,2,2,80,0,0
250325,-100,4,2,1,80,0,0
253225,-100,4,2,3,5,0,0

[Colours]
Combo1 : 198,198,198
Combo2 : 252,208,129
Combo3 : 247,60,106
Combo4 : 226,228,228
Combo5 : 251,156,51
Combo6 : 119,160,238
Combo7 : 103,96,196
Combo8 : 63,80,148
SliderBorder : 255,255,225

[HitObjects]
128,240,725,38,0,P|124:144|72:92,2,170,8|8|8,0:0|0:0|0:0,0:0:0:0:
68,312,1725,1,0,0:0:0:0:
36,224,1925,1,8,0:0:0:0:
128,240,2125,1,0,0:0:0:0:
160,328,2325,70,0,B|220:344|244:288|332:308,2,170,8|8|8,0:0|0:0|0:0,0:0:0:0:
68,312,3325,1,0,0:0:0:0:
36,224,3525,2,0,P|36:168|56:124,1,85,8|0,0:0|0:0,0:0:0:0:
100,59,3925,38,0,P|181:47|242:102,2,170,8|8|8,0:0|0:0|0:0,0:0:0:0:
156,136,4925,1,0,0:0:0:0:
144,228,5125,2,0,P|212:240|260:260,1,85,8|0,0:0|0:0,0:0:0:0:
288,172,5525,70,0,P|352:152|468:160,2,170,8|8|8,0:0|0:0|0:0,0:0:0:0:
296,264,6525,1,0,0:0:0:0:
388,288,6725,1,8,0:0:0:0:
348,372,6925,1,0,0:0:0:0:
256,348,7125,21,4,0:0:0:0:
256,36,7925,1,4,0:0:0:0:
256,260,8725,69,4,0:0:0:0:
256,260,8925,1,4,0:0:0:0:
256,124,9525,1,4,0:0:0:0:
64,192,10125,5,4,0:0:0:0:
40,100,10325,2,0,P|92:52|200:60,2,170,4|2|4,0:0|0:1|0:0,0:0:0:0:
40,284,11525,2,0,P|100:296|136:308,1,85,2|0,0:1|0:0,0:0:0:0:
208,336,11925,37,4,0:0:0:0:
208,336,12125,1,4,0:0:0:0:
196,244,12325,2,0,P|256:232|292:220,1,85,0|4,0:0|0:0,0:0:0:0:
321,140,12725,2,0,P|369:207|351:288,1,170,4|4,0:0|0:1,0:0:0:0:
160,288,13525,102,0,P|142:207|190:140,2,170,2|2|2,0:0|0:0|0:0,0:0:0:0:
256,360,14525,1,0,0:0:0:0:
348,344,14725,2,0,P|412:332|468:328,1,85,2|2,0:0|0:0,0:0:0:0:
488,224,15125,21,2,0:0:0:0:
420,160,15325,1,2,0:0:0:0:
372,240,15525,2,0,P|329:245|288:254,1,85,2|0,0:0|0:0,0:0:0:0:
256,264,15825,1,0,0:0:0:0:
256,264,15925,1,2,0:0:0:0:
192,192,16125,2,0,P|208:144|220:100,1,85,0|6,0:0|0:0,0:0:0:0:
140,60,16525,1,0,0:0:0:0:
112,152,16725,70,0,P|100:192|86:233,1,85,2|0,0:0|0:0,0:0:0:0:
56,324,17125,1,2,0:0:0:0:
136,372,17325,1,2,0:0:0:0:
136,372,17425,1,2,0:0:0:0:
136,372,17525,2,0,P|204:356|248:364,1,85,0|2,0:0|0:0,0:0:0:0:
291,299,17925,2,0,P|332:313|374:314,1,85,2|0,0:0|0:0,0:0:0:0:
432,207,18325,6,0,P|361:164|279:181,2,170,2|2|2,0:0|0:0|0:0,0:0:0:0:
489,101,19325,1,8,0:0:0:0:
489,101,19525,1,10,0:0:0:0:
316,32,19925,70,0,B|256:40|256:40|204:28|204:28|124:40,2,170,2|2|2,0:0|0:0|0:0,0:0:0:0:
380,100,20925,1,0,0:0:0:0:
368,192,21125,2,0,P|348:244|316:272,1,85,2|2,0:0|0:0,0:0:0:0:
256,324,21525,85,2,0:0:0:0:
184,264,21725,2,0,P|156:232|144:192,1,85,2|2,0:0|0:0,0:0:0:0:
256,172,22125,1,0,0:0:0:0:
256,172,22225,1,0,0:0:0:0:
256,172,22325,1,2,0:0:0:0:
312,248,22525,1,0,0:0:0:0:
256,324,22725,2,0,P|192:340|164:352,1,85,6|0,0:0|0:0,0:0:0:0:
52,284,23125,6,0,P|96:228|64:124,1,170,2|2,0:0|0:0,0:0:0:0:
12,68,23725,1,0,0:0:0:0:
104,44,23925,2,0,B|180:88|200:32|272:40,1,170,2|2,0:0|0:0,0:0:0:0:
360,120,24525,53,2,0:0:0:0:
352,148,25925,1,4,1:2:0:0:
288,328,26325,6,0,P|204:312|112:360,2,170,2|8|2,0:0|0:1|0:0,0:0:0:0:
368,376,27325,1,0,0:0:0:0:
460,352,27525,2,0,P|444:280|440:244,1,85,8|8,0:0|0:0,0:0:0:0:
424,176,27925,85,0,0:0:0:0:
496,80,28125,2,0,P|508:32|516:12,2,42.5,2|2|8,0:0|0:0|0:1,0:0:0:0:
380,68,28525,2,0,P|362:21|357:0,2,42.5,2|2|2,0:0|0:0|0:0,0:0:0:0:
304,160,28925,2,0,P|262:132|246:117,2,42.5,2|2|8,0:0|0:0|0:1,0:0:0:0:
352,240,29325,1,2,0:0:0:0:
399,323,29525,22,0,P|445:255|424:176,2,170,2|8|2,0:0|0:1|0:0,0:0:0:0:
308,356,30525,1,0,0:0:0:0:
220,324,30725,2,0,P|164:328|116:344,1,85,8|8,0:0|0:0,0:0:0:0:
43,258,31125,6,0,P|103:194|203:202,1,170,2|8,0:0|0:1,0:0:0:0:
256,248,31725,1,2,0:0:0:0:
332,192,31925,2,0,P|333:148|324:104,1,85,2|2,0:0|0:0,0:0:0:0:
296,20,32325,1,8,0:1:0:0:
216,68,32525,1,2,0:0:0:0:
180,156,32725,54,0,P|172:212|216:316,2,170,2|8|2,0:0|0:1|0:0,0:0:0:0:
296,116,33725,1,0,0:0:0:0:
216,68,33925,2,0,L|131:74,1,85,8|8,0:0|0:0,0:0:0:0:
13,152,34325,6,0,B|82:146|82:146|115:160|115:160|179:155,2,170,2|8|0,0:0|0:1|0:0,0:0:0:0:
24,244,35325,1,2,0:0:0:0:
24,244,35525,2,0,P|29:295|32:336,1,85,4|0,0:0|0:0,0:0:0:0:
144,376,35925,22,0,P|146:333|151:291,1,85,2|2,0:0|0:0,0:0:0:0:
160,196,36325,1,8,0:1:0:0:
244,240,36525,2,0,P|324:244|380:156,1,170,2|2,0:0|0:0,0:0:0:0:
419,263,37125,2,0,P|438:300|454:340,1,85,8|0,0:1|0:0,0:0:0:0:
512,236,37525,6,0,P|516:152|456:96,2,170,2|8|2,0:0|0:1|0:0,0:0:0:0:
455,341,38525,1,8,0:0:0:0:
364,360,38725,2,0,P|300:352|260:332,1,85,4|8,0:0|0:0,0:0:0:0:
204,252,39125,85,0,3:2:0:0:
308,132,39925,1,4,0:0:0:0:
152,104,40725,5,4,0:0:0:0:
152,104,40925,1,4,0:0:0:0:
360,280,41525,1,4,0:0:0:0:
104,376,42125,1,4,0:0:0:0:
104,376,42325,102,0,P|104:288|164:240,1,170,4|0,0:0|0:0,0:0:0:0:
348,143,43125,2,0,P|410:90|408:8,1,170,4|0,0:0|0:0,0:0:0:0:
324,52,43925,5,4,0:0:0:0:
324,52,44125,1,4,0:0:0:0:
256,116,44325,2,0,P|213:104|164:88,1,85,0|0,0:0|0:0,0:0:0:0:
188,192,44725,2,0,B|144:190|144:195|92:192,1,85,4|0,0:0|0:0,0:0:0:0:
256,268,45125,2,0,P|213:279|164:296,1,85,2|0,0:0|0:0,0:0:0:0:
60,332,45525,101,4,3:2:0:0:
60,52,46325,1,4,0:0:0:0:
324,296,47125,5,4,0:0:0:0:
324,296,47325,1,4,0:0:0:0:
324,88,47925,1,4,0:0:0:0:
136,192,48525,1,4,0:0:0:0:
174,276,48725,102,0,P|214:261|256:252,1,85,4|0,0:0|0:0,0:0:0:0:
256,131,49125,2,0,P|214:122|174:107,1,85,2|0,0:1|0:0,0:0:0:0:
232,32,49525,2,0,P|271:46|313:56,1,85,4|0,0:0|0:0,0:0:0:0:
368,132,49925,2,0,P|407:117|449:107,1,85,2|0,0:1|0:0,0:0:0:0:
512,208,50325,6,0,P|412:308|296:192,1,340,4|4,0:0|0:0,0:0:0:0:
279,100,51325,2,0,P|207:98|231:29,1,170,2|2,0:0|0:0,0:0:0:0:
324,16,51925,6,0,P|424:32|516:36,2,170,4|8|2,0:0|0:0|0:1,0:0:0:0:
204,32,52925,1,0,0:0:0:0:
176,148,53125,2,0,P|112:164|80:176,1,85,8|0,0:0|0:0,0:0:0:0:
4,148,53525,53,2,0:1:0:0:
24,268,53725,1,8,0:0:0:0:
120,340,53925,2,0,P|174:346|216:348,1,85,0|8,0:0|0:0,0:0:0:0:
184,232,54325,2,0,P|176:160|176:136,1,85,2|2,0:1|0:0,0:0:0:0:
256,96,54725,1,8,0:0:0:0:
256,96,54925,1,2,0:0:0:0:
352,84,55125,6,0,P|380:140|364:248,2,170,4|8|2,0:0|0:0|0:1,0:0:0:0:
232,80,56125,1,0,0:0:0:0:
212,200,56325,2,0,P|144:192|100:188,1,85,8|0,0:0|0:0,0:0:0:0:
48,100,56725,22,0,P|32:208|28:284,2,170,2|8|2,0:1|0:0|0:1,0:0:0:0:
128,48,57725,1,2,0:0:0:0:
128,48,57825,1,0,0:0:0:0:
128,48,57925,1,8,0:0:0:0:
216,132,58125,1,2,0:0:0:0:
332,96,58325,6,0,P|408:76|520:52,2,170,4|8|2,0:0|0:0|0:1,0:0:0:0:
292,180,59325,1,0,0:0:0:0:
292,180,59425,1,0,0:0:0:0:
292,180,59525,1,8,0:0:0:0:
408,208,59725,1,0,0:0:0:0:
328,296,59925,54,0,B|228:316|252:260|156:280,2,170,2|8|2,0:1|0:0|0:1,0:0:0:0:
404,240,60925,1,2,0:0:0:0:
440,152,61125,2,0,P|430:110|427:68,1,85,8|2,0:0|0:0,0:0:0:0:
299,36,61525,6,0,P|299:121|317:203,2,170,2|8|2,0:1|0:0|0:1,0:0:0:0:
388,0,62525,1,2,0:0:0:0:
376,92,62725,1,8,0:0:0:0:
299,36,62925,1,2,0:0:0:0:
207,64,63125,22,0,P|165:60|123:52,1,85,2|0,0:1|0:0,0:0:0:0:
168,147,63525,2,0,P|125:143|84:136,1,85,8|0,0:0|0:0,0:0:0:0:
278,127,63925,6,0,P|285:168|295:209,1,85,2|0,0:1|0:0,0:0:0:0:
356,71,64325,2,0,P|361:114|372:155,1,85,0|8,1:0|0:0,0:0:0:0:
320,300,64725,86,0,P|228:312|176:248,2,170,4|8|2,0:0|0:0|0:1,0:0:0:0:
388,188,65725,1,0,0:0:0:0:
304,148,65925,2,0,L|212:160,1,85,8|0,0:0|0:0,0:0:0:0:
160,56,66325,22,0,L|328:32,2,170,2|8|2,0:1|0:0|0:1,0:0:0:0:
76,100,67325,1,0,0:0:0:0:
76,100,67425,1,0,0:0:0:0:
76,100,67525,2,0,P|68:188|68:212,1,85,8|0,0:0|0:0,0:0:0:0:
28,296,67925,70,0,P|70:298|112:303,1,85,2|2,0:1|0:0,0:0:0:0:
208,316,68325,1,8,0:0:0:0:
208,316,68525,1,2,0:0:0:0:
292,272,68725,2,0,P|284:184|284:160,1,85,2|2,0:1|0:0,0:0:0:0:
276,92,69125,1,8,0:0:0:0:
276,92,69325,1,2,0:0:0:0:
364,12,69525,6,0,P|436:20|480:104,1,170,2|8,0:1|0:0,0:0:0:0:
460,192,70125,1,0,0:0:0:0:
460,192,70225,1,0,0:0:0:0:
460,192,70325,2,0,P|416:198|360:208,1,85,2|8,0:1|0:0,0:0:0:0:
336,292,70725,2,0,L|294:285|252:278,1,85,8|8,0:0|0:0,0:0:0:0:
188,176,71125,22,0,P|44:200|-16:216,2,170,4|8|2,0:0|0:0|0:1,0:0:0:0:
256,108,72125,1,2,0:0:0:0:
164,84,72325,2,0,P|120:88|60:100,1,85,8|2,0:0|0:0,0:0:0:0:
188,176,72725,70,0,P|260:220|360:196,2,170,4|8|2,0:0|0:0|0:1,0:0:0:0:
180,56,73725,1,0,0:0:0:0:
292,16,73925,2,0,P|364:24|412:36,1,85,8|0,0:0|0:0,0:0:0:0:
396,120,74325,5,2,0:1:0:0:
310,202,74525,2,0,P|285:223|267:240,2,42.5,2|2|8,0:0|0:0|0:0,0:0:0:0:
424,236,74925,2,0,P|430:267|436:292,2,42.5,2|2|2,0:0|0:0|0:1,0:0:0:0:
396,120,75325,2,0,B|408:84|407:66|424:24,2,85,2|8|2,0:0|0:0|0:0,0:0:0:0:
372,212,75925,21,2,0:1:0:0:
140,172,76325,1,8,0:0:0:0:
276,76,76725,1,2,0:1:0:0:
236,308,77125,1,8,0:0:0:0:
256,192,77225,12,4,78725,0:1:0:0:
220,288,79125,54,0,L|389:299,2,170,4|0|8,0:0|0:0|0:1,0:0:0:0:
124,280,80125,1,0,0:0:0:0:
164,192,80325,1,2,0:1:0:0:
124,104,80525,1,0,0:0:0:0:
220,96,80725,38,0,L|389:84,2,170,0|2|8,0:0|0:1|0:1,0:0:0:0:
124,104,81725,1,0,0:0:0:0:
52,164,81925,2,0,P|44:224|48:264,1,85,0|0,0:0|0:0,0:0:0:0:
64,340,82325,70,0,P|164:336|172:256,1,170,2|0,0:1|0:0,0:0:0:0:
140,196,82925,1,0,0:0:0:0:
140,196,83025,1,0,0:0:0:0:
140,196,83125,1,8,0:1:0:0:
52,164,83325,1,0,0:0:0:0:
124,104,83525,2,0,P|168:97|212:88,1,85,2|0,0:1|0:0,0:0:0:0:
288,176,83925,6,0,P|372:168|408:84,2,170,0|2|8,0:0|0:1|0:1,0:0:0:0:
188,20,85125,1,2,0:1:0:0:
188,20,85325,1,8,0:1:0:0:
96,44,85525,22,0,P|56:112|72:208,2,170,4|0|8,0:0|0:0|0:1,0:0:0:0:
164,108,86525,1,0,0:0:0:0:
256,128,86725,1,2,0:1:0:0:
348,108,86925,1,0,0:0:0:0:
416,44,87125,70,0,P|456:112|440:208,2,170,0|2|8,0:0|0:1|0:1,0:0:0:0:
324,20,88125,1,0,0:0:0:0:
256,84,88325,2,0,P|244:129|240:176,1,85,0|0,0:0|0:0,0:0:0:0:
236,264,88725,38,0,P|332:272|372:200,1,170,2|0,0:1|0:0,0:0:0:0:
380,124,89325,1,0,0:0:0:0:
380,124,89425,1,0,0:0:0:0:
380,124,89525,1,8,0:1:0:0:
468,152,89725,1,0,0:0:0:0:
458,246,89925,2,0,P|451:288|448:330,1,85,2|0,0:1|0:0,0:0:0:0:
364,252,90325,6,0,P|288:212|208:236,1,170,0|2,0:0|0:1,0:0:0:0:
148,304,90925,1,0,0:0:0:0:
28,244,91125,2,0,P|36:204|44:140,1,85,4|4,0:0|0:0,0:0:0:0:
136,64,91525,1,6,0:0:0:0:
256,208,91925,54,0,P|337:220|399:166,2,170,4|0|8,0:0|0:0|0:1,0:0:0:0:
199,131,92925,1,0,0:0:0:0:
256,56,93125,1,2,0:1:0:0:
311,131,93325,1,0,0:0:0:0:
255,207,93525,6,0,B|224:308|284:276|256:372,2,170,0|2|8,0:0|0:1|0:1,0:0:0:0:
311,131,94525,1,0,0:0:0:0:
404,144,94725,2,0,P|401:186|395:228,1,85,0|0,0:0|0:0,0:0:0:0:
476,280,95125,22,0,P|490:196|493:111,2,170,2|0|8,0:1|0:0|0:1,0:0:0:0:
420,356,96125,1,0,0:0:0:0:
328,336,96325,1,2,0:1:0:0:
304,244,96525,1,0,0:0:0:0:
368,176,96725,6,0,P|352:68|348:8,2,170,0|2|8,0:0|0:1|0:1,0:0:0:0:
392,268,97725,1,0,0:0:0:0:
328,336,97925,1,2,0:1:0:0:
328,336,98125,1,8,0:1:0:0:
232,352,98325,54,0,P|172:324|84:252,2,170,4|0|8,0:0|0:0|0:1,0:0:0:0:
280,244,99325,1,0,0:0:0:0:
184,176,99525,1,8,0:0:0:0:
328,52,99925,6,0,P|388:48|472:136,2,170,0|2|8,0:0|0:1|0:1,0:0:0:0:
272,156,100925,1,0,0:0:0:0:
384,200,101125,1,8,0:0:0:0:
244,68,101525,22,0,L|64:52,2,170,2|0|8,0:1|0:0|0:1,0:0:0:0:
272,156,102525,1,0,0:0:0:0:
192,208,102725,2,0,L|107:214,1,85,2|0,0:1|0:0,0:0:0:0:
51,136,103125,6,0,P|14:209|45:285,2,170,0|2|4,0:0|0:1|0:0,0:0:0:0:
188,108,104125,1,0,0:0:0:0:
68,40,104325,1,6,0:0:0:0:
171,200,104725,86,0,B|233:194|233:194|264:176|264:176|368:168,2,170,4|8|2,0:0|0:0|0:1,0:0:0:0:
84,236,105725,1,2,0:0:0:0:
96,144,105925,2,0,L|112:24,1,85,8|0,0:0|0:0,0:0:0:0:
196,24,106325,22,0,P|277:32|372:40,2,170,2|8|2,0:1|0:0|0:1,0:0:0:0:
184,144,107325,1,2,0:0:0:0:
292,196,107525,2,0,P|372:180|408:184,1,85,8|2,0:0|0:0,0:0:0:0:
464,216,107925,70,0,P|508:160|488:52,2,170,2|8|2,0:1|0:0|0:1,0:0:0:0:
388,272,108925,1,2,0:0:0:0:
374,180,109125,2,0,P|368:112|368:72,1,85,8|0,0:0|0:0,0:0:0:0:
276,72,109525,6,0,P|208:104|116:80,2,170,2|8|2,0:1|0:0|0:1,0:0:0:0:
340,4,110525,1,2,0:0:0:0:
367,95,110725,1,8,0:0:0:0:
431,27,110925,1,2,0:0:0:0:
458,118,111125,22,0,L|472:288,2,170,2|8|2,0:1|0:0|0:1,0:0:0:0:
367,95,112125,1,2,0:0:0:0:
304,164,112325,2,0,P|268:152|196:144,1,85,8|0,0:0|0:0,0:0:0:0:
192,52,112725,70,0,P|132:92|28:84,2,170,2|8|2,0:1|0:0|0:1,0:0:0:0:
312,44,113725,1,2,0:0:0:0:
304,164,113925,2,0,P|300:240|300:268,1,85,8|2,0:0|0:0,0:0:0:0:
360,324,114325,6,0,P|288:332|172:352,1,170,2|8,0:1|0:0,0:0:0:0:
100,364,114925,1,8,0:0:0:0:
100,364,115025,1,0,0:0:0:0:
100,364,115125,2,0,P|88:292|84:252,1,85,2|2,0:1|0:0,0:0:0:0:
72,184,115525,1,8,0:0:0:0:
144,88,115725,22,0,P|228:68|312:128,1,170
328,196,116325,2,0,P|312:264|308:300,1,85,8|2,0:0|0:0,0:0:0:0:
216,280,116725,1,2,0:1:0:0:
297,106,117125,1,4,0:0:0:0:
108,124,117525,85,4,3:2:0:0:
404,124,118325,1,4,0:0:0:0:
140,288,119125,5,4,0:0:0:0:
140,288,119325,1,4,0:0:0:0:
372,288,119925,1,4,0:0:0:0:
256,88,120525,1,4,0:0:0:0:
200,12,120725,102,0,P|163:85|196:160,1,170,4|0,0:0|0:0,0:0:0:0:
312,372,121525,2,0,P|348:298|315:223,1,170,4|0,0:0|0:0,0:0:0:0:
256,296,122325,5,4,0:0:0:0:
256,296,122525,1,4,0:0:0:0:
168,244,122725,2,0,P|164:184|156:140,1,85,0|0,0:0|0:0,0:0:0:0:
256,192,123125,2,0,L|256:92,1,85,4|0,0:0|0:0,0:0:0:0:
344,244,123525,2,0,P|348:184|356:140,1,85,2|0,0:0|0:0,0:0:0:0:
256,296,123925,101,4,3:2:0:0:
256,88,124725,1,4,0:0:0:0:
80,48,125525,5,4,0:0:0:0:
80,48,125725,1,4,0:0:0:0:
256,192,126325,1,4,0:0:0:0:
432,48,126925,1,4,0:0:0:0:
339,68,127125,102,0,L|255:83,1,85,4|0,0:0|0:0,0:0:0:0:
132,109,127525,2,0,L|147:192,1,85,2|0,0:1|0:0,0:0:0:0:
173,316,127925,2,0,L|256:300,1,85,4|0,0:0|0:0,0:0:0:0:
380,275,128325,2,0,L|364:191,1,85,2|0,0:1|0:0,0:0:0:0:
340,68,128725,6,0,P|436:40|444:228,1,340,4|4,0:0|0:0,0:0:0:0:
380,275,129725,2,0,P|256:236|184:255,1,170,2|2,0:0|0:0,0:0:0:0:
132,275,130325,54,0,L|108:184,1,85,4|0,0:0|0:0,0:0:0:0:
23,155,130725,2,0,P|83:98|163:116,1,170,8|2,0:0|0:1,0:0:0:0:
232,212,131325,1,0,0:0:0:0:
332,148,131525,2,0,P|316:108|316:66,1,85,8|0,0:0|0:0,0:0:0:0:
407,91,131925,5,2,0:1:0:0:
460,196,132125,1,0,0:0:0:0:
384,288,132325,2,0,P|312:280|272:268,1,85,8|8,0:0|0:0,0:0:0:0:
232,212,132725,2,0,P|160:220|120:232,1,85,0|2,0:0|0:0,0:0:0:0:
64,264,133125,1,8,0:0:0:0:
0,196,133325,1,2,0:0:0:0:
84,156,133525,70,0,P|94:84|93:42,1,85,4|2,0:0|0:0,0:0:0:0:
160,4,133925,2,0,P|236:16|256:116,1,170,8|2,0:0|0:1,0:0:0:0:
192,192,134525,1,0,0:0:0:0:
263,288,134725,2,0,P|305:281|359:276,1,85,8|0,0:0|0:0,0:0:0:0:
440,268,135125,86,0,P|433:225|428:172,1,85,2|0,0:1|0:0,0:0:0:0:
416,88,135525,2,0,P|331:100|207:108,1,170,8|2,0:0|0:1,0:0:0:0:
152,116,136125,1,2,0:0:0:0:
152,116,136225,1,0,0:0:0:0:
152,116,136325,1,8,0:0:0:0:
60,40,136525,1,2,0:0:0:0:
40,156,136725,38,0,P|64:220|80:252,1,85,4|0,0:0|0:0,0:0:0:0:
120,316,137125,2,0,P|200:300|216:196,1,170,8|2,0:0|0:1,0:0:0:0:
196,136,137725,1,0,0:0:0:0:
196,136,137825,1,0,0:0:0:0:
196,136,137925,1,8,0:0:0:0:
256,32,138125,1,0,0:0:0:0:
316,136,138325,22,0,P|364:131|428:124,1,85,2|0,0:1|0:0,0:0:0:0:
368,240,138725,2,0,P|282:231|196:220,1,170,8|2,0:0|0:1,0:0:0:0:
108,204,139325,1,2,0:0:0:0:
20,232,139525,1,8,0:0:0:0:
88,296,139725,1,2,0:0:0:0:
199,220,139925,102,0,P|211:136|167:60,2,170,2|8|0,0:1|0:0|0:1,0:0:0:0:
108,204,140925,1,2,0:0:0:0:
140,292,141125,1,8,0:0:0:0:
231,308,141325,1,2,0:0:0:0:
290,236,141525,54,0,L|304:152,1,85,2|0,0:1|0:0,0:0:0:0:
382,252,141925,2,0,L|396:168,1,85,8|0,0:0|0:0,0:0:0:0:
375,51,142325,102,0,P|417:62|459:69,1,85,2|0,0:1|0:0,0:0:0:0:
303,152,142725,2,0,P|261:161|219:168,1,85,0|8,1:0|0:0,0:0:0:0:
103,199,143125,70,0,P|98:158|110:117,1,85,4|0,0:0|0:0,0:0:0:0:
204,43,143525,2,0,P|280:72|302:151,1,170,8|2,0:0|0:1,0:0:0:0:
276,244,144125,1,0,0:0:0:0:
208,308,144325,2,0,P|144:316|104:324,1,85,8|0,0:0|0:0,0:0:0:0:
28,247,144725,86,0,P|99:208|106:126,2,170,2|8|2,0:1|0:0|0:1,0:0:0:0:
20,156,145725,1,0,0:0:0:0:
20,156,145825,1,0,0:0:0:0:
20,156,145925,1,8,0:0:0:0:
72,48,146125,1,0,0:0:0:0:
188,76,146325,6,0,P|256:96|292:108,1,85,2|2,0:1|0:0,0:0:0:0:
360,80,146725,1,8,0:0:0:0:
332,168,146925,1,2,0:0:0:0:
424,152,147125,2,0,P|405:206|392:252,1,85,0|2,0:1|0:0,0:0:0:0:
328,296,147525,1,8,0:0:0:0:
416,324,147725,1,2,0:0:0:0:
288,376,147925,6,0,P|216:368|156:280,1,170,2|8,0:1|0:0,0:0:0:0:
208,216,148525,1,0,0:0:0:0:
208,216,148625,1,0,0:0:0:0:
208,216,148725,2,0,P|212:164|184:108,1,85,2|8,0:1|0:0,0:0:0:0:
112,99,149125,2,0,P|106:140|118:181,1,85,8|8,0:0|0:0,0:0:0:0:
158,295,149525,86,0,P|239:304|297:245,2,170,4|8|2,0:0|0:0|0:1,0:0:0:0:
84,356,150525,1,2,0:0:0:0:
68,264,150725,2,0,L|52:160,1,85,8|2,0:0|0:0,0:0:0:0:
180,128,151125,6,0,P|256:160|340:120,2,170,4|8|2,0:0|0:0|0:1,0:0:0:0:
256,36,152125,1,0,0:0:0:0:
140,16,152325,2,0,P|84:28|40:32,1,85,8|0,0:0|0:0,0:0:0:0:
16,116,152725,5,2,0:1:0:0:
124,164,152925,2,0,L|152:104,2,42.5,2|2|8,0:0|0:0|0:0,0:0:0:0:
76,272,153325,2,0,L|58:310,2,42.5,2|2|2,0:0|0:0|0:1,0:0:0:0:
184,320,153725,2,0,L|232:216,2,85,2|8|2,0:0|0:0|0:0,0:0:0:0:
256,380,154325,85,2,0:1:0:0:
444,296,154725,1,8,0:0:0:0:
444,88,155125,1,2,0:1:0:0:
256,4,155525,1,8,0:0:0:0:
256,192,155625,12,0,157525,0:0:0:0:
152,120,157925,38,0,L|96:128,2,56.6666666666667
200,184,158325,2,0,L|320:204,1,113.333333333333,0|0,0:0|0:0,0:0:0:0:
363,264,158725,2,0,P|391:215|380:161,1,113.333333333333,0|0,3:0|0:0,0:0:0:0:
328,99,159125,38,0,P|408:87|459:150,2,170,2|8|2,0:1|0:0|0:1,0:0:0:0:
244,192,160191,1,2,0:0:0:0:
168,168,160325,2,0,P|161:115|156:48,1,113.333333333333,8|2,0:0|0:0,0:0:0:0:
80,84,160725,70,0,P|84:140|91:196,1,113.333333333333,2|0,0:1|0:0,0:0:0:0:
104,276,161125,2,0,P|180:308|224:296,1,113.333333333333,8|0,0:0|0:0,0:0:0:0:
268,251,161525,2,0,P|308:285|281:329,1,113.333333333333,8|8,0:1|0:1,0:0:0:0:
220,380,161925,1,8,0:0:0:0:
96,356,162191,1,8,0:1:0:0:
32,308,162325,38,0,P|44:224|140:204,1,170,2|8,0:1|0:0,0:0:0:0:
228,248,162991,1,0,0:0:0:0:
308,232,163125,2,0,P|340:160|284:92,1,170,2|8,0:1|0:0,0:0:0:0:
164,80,163791,1,2,0:0:0:0:
128,152,163925,70,0,P|144:235|165:317,2,170,2|8|2,0:1|0:0|0:1,0:0:0:0:
100,32,164991,1,0,0:0:0:0:
172,64,165125,2,0,P|224:80|296:84,1,113.333333333333,8|0,0:0|0:0,0:0:0:0:
364,88,165525,38,0,P|392:156|320:216,2,170,2|8|2,0:1|0:0|0:1,0:0:0:0:
268,8,166591,1,2,0:0:0:0:
188,28,166725,2,0,P|204:108|212:156,1,113.333333333333,8|2,0:0|0:0,0:0:0:0:
228,220,167125,70,0,P|128:240|116:220,1,113.333333333333,2|0,0:1|0:0,0:0:0:0:
68,292,167525,2,0,P|56:236|46:180,1,113.333333333333,8|0,0:0|0:0,0:0:0:0:
32,100,167925,2,0,P|88:84|152:108,1,113.333333333333,8|8,0:1|0:1,0:0:0:0:
209,139,168325,2,0,P|263:146|308:114,1,113.333333333333,8|8,0:0|0:1,0:0:0:0:
244,67,168725,22,0,P|318:35|382:85,1,170,2|8,0:1|0:0,0:0:0:0:
382,298,169525,2,0,P|318:348|244:316,1,170,2|8,0:1|0:0,0:0:0:0:
220,192,170191,1,8,0:1:0:0:
280,140,170325,6,0,P|335:146|392:152,1,113.333333333333,2|2,0:1|0:0,0:0:0:0:
392,231,170725,2,0,P|336:237|280:244,1,113.333333333333,2|2,0:0|0:0,0:0:0:0:
204,272,171125,2,0,P|108:192|212:116,1,283.333333333333,8|8,0:1|0:1,0:0:0:0:
280,140,171925,6,0,P|364:96|336:24,1,170,2|0,0:1|0:0,0:0:0:0:
162,36,172725,1,8,0:1:0:0:
162,36,173125,1,0,0:0:0:0:
96,212,173525,54,0,P|84:72|76:32,1,170,2|0,0:1|0:0,0:0:0:0:
256,240,174325,1,8,0:1:0:0:
256,240,174725,1,0,0:1:0:0:
256,144,175125,6,0,P|336:128|384:216,1,170,2|0,0:1|0:0,0:0:0:0:
256,336,175925,1,8,0:1:0:0:
256,336,176325,1,0,0:0:0:0:
164,348,176725,2,0,P|132:268|168:192,1,170,2|0,0:1|0:0,0:0:0:0:
348,36,177525,2,0,P|380:116|344:192,1,170,8|0,0:1|0:0,0:0:0:0:
184,88,178325,22,0,P|95:96|8:104,1,170,2|0,0:1|0:0,0:0:0:0:
32,288,179125,1,8,0:1:0:0:
32,288,179525,1,0,0:0:0:0:
256,368,179925,6,0,P|240:280|320:220,1,170,2|0,0:1|0:0,0:0:0:0:
472,272,180725,1,8,0:1:0:0:
472,272,181125,1,0,0:0:0:0:
384,104,181525,54,0,P|290:118|184:128,1,170,2|0,0:1|0:0,0:0:0:0:
32,144,182325,1,8,0:1:0:0:
32,144,182725,1,0,0:0:0:0:
16,240,183125,2,0,P|76:284|172:272,1,170,2|0,0:1|0:0,0:0:0:0:
344,109,183925,2,0,P|427:97|496:144,1,170,8|0,0:1|0:0,0:0:0:0:
256,284,184725,101,4,3:2:0:0:
256,100,185525,1,4,0:0:0:0:
116,356,186325,5,4,0:0:0:0:
116,356,186525,1,4,0:0:0:0:
116,28,187125,1,4,0:0:0:0:
396,28,187725,1,4,0:0:0:0:
336,100,187925,102,0,P|256:80|172:100,1,170,4|0,0:0|0:0,0:0:0:0:
172,285,188725,2,0,P|253:304|335:284,1,170,4|0,0:0|0:0,0:0:0:0:
436,192,189525,1,4,0:0:0:0:
436,192,189725,2,0,P|405:117|446:46,1,170,4|0,0:0|0:0,0:0:0:0:
500,124,190325,1,4,0:0:0:0:
436,352,190725,1,2,0:0:0:0:
200,304,191125,6,0,P|208:220|224:108,1,170,4|0,3:2|0:0,0:0:0:0:
112,296,191925,2,0,P|120:211|131:127,1,170,4|0,0:0|0:0,0:0:0:0:
24,288,192725,1,4,0:0:0:0:
24,288,192925,2,0,P|32:203|43:119,1,170,4|0,0:0|0:0,0:0:0:0:
120,64,193525,1,4,0:0:0:0:
256,192,193925,1,0,0:0:0:0:
144,240,194325,102,0,P|132:152|132:144,1,85,4|0,0:0|0:0,0:0:0:0:
208,4,194725,2,0,P|199:45|196:87,1,85,2|0,0:1|0:0,0:0:0:0:
304,4,195125,2,0,P|312:45|315:88,1,85,4|0,0:0|0:0,0:0:0:0:
368,239,195525,2,0,P|376:198|380:156,1,85,2|0,0:1|0:0,0:0:0:0:
256,192,195925,5,4,0:0:0:0:
256,192,196025,12,4,197525,0:0:0:0:
256,192,197625,12,4,198325,0:0:0:0:
76,248,199125,6,0,P|64:184|60:152,1,85,4|0,0:0|0:0,0:0:0:0:
132,104,199525,2,0,P|174:102|213:117,1,85,8|0,0:0|0:0,0:0:0:0:
296,164,199925,1,2,0:1:0:0:
416,172,200125,1,0,0:0:0:0:
377,58,200325,2,0,P|338:73|296:72,1,85,8|0,0:0|0:0,0:0:0:0:
213,117,200725,5,2,0:1:0:0:
272,224,200925,1,0,0:0:0:0:
392,200,201125,2,0,P|448:192|488:192,1,85,8|8,0:0|0:0,0:0:0:0:
484,284,201525,1,2,0:1:0:0:
484,284,201725,1,2,0:0:0:0:
408,340,201925,2,0,P|365:338|323:331,1,85,8|2,0:0|0:0,0:0:0:0:
232,312,202325,22,0,P|220:264|224:208,1,85,4|2,0:0|0:0,0:0:0:0:
245,138,202725,2,0,P|321:147|311:223,1,170,8|2,0:0|0:1,0:0:0:0:
232,312,203325,1,0,0:0:0:0:
116,292,203525,2,0,P|40:276|4:268,1,85,8|0,0:0|0:0,0:0:0:0:
0,184,203925,69,2,0:1:0:0:
90,152,204125,1,0,0:0:0:0:
58,62,204325,1,8,0:0:0:0:
148,32,204525,2,0,P|212:48|264:52,1,85,8|2,0:0|0:1,0:0:0:0:
296,120,204925,1,2,0:0:0:0:
296,120,205025,1,0,0:0:0:0:
296,120,205125,1,8,0:0:0:0:
384,40,205325,1,2,0:0:0:0:
408,156,205525,5,4,0:0:0:0:
496,120,205725,2,0,P|484:72|476:20,2,85,0|8|0,0:0|0:0|0:0,0:0:0:0:
484,216,206325,1,2,0:1:0:0:
396,252,206525,1,0,0:0:0:0:
396,252,206625,1,0,0:0:0:0:
396,252,206725,1,8,0:0:0:0:
284,208,206925,1,0,0:0:0:0:
312,92,207125,22,0,P|236:104|212:104,1,85,2|0,0:1|0:0,0:0:0:0:
160,200,207525,2,0,P|118:191|76:187,1,85,8|8,0:0|0:0,0:0:0:0:
16,116,207925,1,2,0:1:0:0:
108,100,208125,1,2,0:0:0:0:
172,28,208325,1,8,0:0:0:0:
264,44,208525,1,2,0:0:0:0:
307,171,208725,70,0,P|389:183|448:126,2,170,2|8|2,0:1|0:0|0:1,0:0:0:0:
360,96,209725,1,2,0:0:0:0:
432,36,209925,1,8,0:0:0:0:
448,126,210125,1,2,0:0:0:0:
368,216,210325,6,0,P|308:224|276:232,1,85,2|0,0:1|0:0,0:0:0:0:
144,168,210725,2,0,P|204:160|236:152,1,85,8|0,0:0|0:0,0:0:0:0:
306,48,211125,22,0,P|311:90|320:132,1,85,2|0,0:1|0:0,0:0:0:0:
444,272,211525,2,0,P|452:230|457:188,1,85,0|8,1:0|0:0,0:0:0:0:
368,216,211925,5,4,0:0:0:0:
328,328,212125,1,0,0:0:0:0:
328,328,212225,1,0,0:0:0:0:
328,328,212325,1,8,0:0:0:0:
208,312,212525,1,0,0:0:0:0:
180,224,212725,2,0,P|144:240|76:248,1,85,2|0,0:1|0:0,0:0:0:0:
72,156,213125,2,0,P|108:140|176:132,1,85,8|0,0:0|0:0,0:0:0:0:
256,192,213525,6,0,P|338:194|392:131,2,170,2|8|2,0:1|0:0|0:1,0:0:0:0:
300,108,214525,1,0,0:0:0:0:
300,108,214625,1,0,0:0:0:0:
300,108,214725,1,8,0:0:0:0:
200,40,214925,1,0,0:0:0:0:
84,72,215125,6,0,P|68:156|68:172,1,85,2|2,0:1|0:0,0:0:0:0:
64,248,215525,1,8,0:0:0:0:
148,204,215725,1,2,0:0:0:0:
148,296,215925,2,0,P|196:288|244:272,1,85,2|2,0:1|0:0,0:0:0:0:
300,212,216325,1,8,0:0:0:0:
320,304,216525,1,2,0:0:0:0:
448,348,216725,86,0,P|496:276|484:188,1,170,2|8,0:1|0:0,0:0:0:0:
452,108,217325,1,0,0:0:0:0:
452,108,217425,1,0,0:0:0:0:
452,108,217525,2,0,L|356:96,1,85,2|8,0:1|0:0,0:0:0:0:
304,28,217925,2,0,L|219:38,1,85,8|8,0:0|0:0,0:0:0:0:
99,20,218325,6,0,P|58:91|80:171,2,170,4|8|2,0:0|0:0|0:1,0:0:0:0:
148,104,219325,1,2,0:0:0:0:
236,140,219525,2,0,L|320:129,1,85,8|2,0:0|0:0,0:0:0:0:
424,191,219925,6,0,P|443:111|401:40,2,170,4|8|2,0:0|0:0|0:1,0:0:0:0:
320,128,220925,1,0,0:0:0:0:
256,228,221125,2,0,P|264:288|280:336,1,85,8|0,0:0|0:0,0:0:0:0:
364,336,221525,85,2,0:1:0:0:
460,264,221725,2,0,P|503:223|517:208,2,42.5,2|2|8,0:0|0:0|0:0,0:0:0:0:
368,184,222125,2,0,P|372:152|380:116,2,42.5,2|2|2,0:0|0:0|0:1,0:0:0:0:
256,228,222525,2,0,P|236:176|224:136,2,85,2|8|2,0:0|0:0|0:0,0:0:0:0:
292,316,223125,5,2,0:1:0:0:
124,228,223525,1,8,0:0:0:0:
220,68,223925,1,2,0:1:0:0:
388,152,224325,1,8,0:0:0:0:
292,316,224725,5,4,0:0:0:0:
256,192,225925,12,4,227525,0:1:0:0:
188,240,227925,38,0,P|216:163|169:96,2,170,4|0|8,0:0|0:0|0:1,0:0:0:0:
119,176,228925,1,0,0:0:0:0:
100,268,229125,1,2,0:1:0:0:
169,332,229325,1,0,0:0:0:0:
257,304,229525,6,0,P|336:300|416:356,2,170,0|2|8,0:0|0:1|0:1,0:0:0:0:
188,240,230525,1,0,0:0:0:0:
200,148,230725,2,0,L|212:48,1,85,0|0,0:0|0:0,0:0:0:0:
302,63,231125,6,0,L|312:147,1,85,2|0,0:1|0:0,0:0:0:0:
324,240,231525,1,0,0:0:0:0:
416,264,231725,1,0,0:0:0:0:
416,264,231825,1,0,0:0:0:0:
416,264,231925,1,8,0:1:0:0:
476,192,232125,1,0,0:0:0:0:
468,100,232325,2,0,P|400:88|368:76,1,85,2|0,0:1|0:0,0:0:0:0:
280,140,232725,6,0,P|192:120|116:196,2,170,0|2|8,0:0|0:1|0:1,0:0:0:0:
416,264,233925,1,2,0:1:0:0:
416,264,234125,1,8,0:1:0:0:
356,336,234325,6,0,P|272:329|176:320,2,170,4|0|8,0:0|0:0|0:1,0:0:0:0:
440,380,235325,1,0,0:0:0:0:
500,308,235525,1,2,0:1:0:0:
416,264,235725,1,0,0:0:0:0:
448,176,235925,6,0,P|452:84|396:12,2,170,0|2|8,0:0|0:1|0:1,0:0:0:0:
416,264,236925,1,0,0:0:0:0:
336,312,237125,2,0,L|252:304,1,85,0|0,0:0|0:0,0:0:0:0:
160,332,237525,6,0,P|100:288|120:204,1,170,2|0,0:1|0:0,0:0:0:0:
192,144,238125,1,0,0:0:0:0:
192,144,238225,1,0,0:0:0:0:
192,144,238325,1,8,0:1:0:0:
228,56,238525,1,0,0:0:0:0:
136,68,238725,2,0,P|96:76|40:84,1,85,2|0,0:1|0:0,0:0:0:0:
119,204,239125,6,0,P|192:240|265:202,1,170,0|2,0:0|0:1,0:0:0:0:
316,124,239725,1,0,0:0:0:0:
452,104,239925,2,0,P|460:176|468:216,1,85,4|4,0:0|0:0,0:0:0:0:
384,300,240325,1,4,0:0:0:0:
200,336,240725,102,0,P|176:268|228:176,2,170,4|0|8,0:0|0:0|0:1,0:0:0:0:
292,316,241725,1,0,0:0:0:0:
384,300,241925,2,0,P|376:228|368:188,1,85,2|0,0:1|0:0,0:0:0:0:
336,127,242325,38,0,P|417:123|463:190,2,170,0|2|8,0:0|0:1|0:1,0:0:0:0:
256,180,243325,1,0,0:0:0:0:
176,128,243525,2,0,L|160:16,1,85,0|0,0:0|0:0,0:0:0:0:
256,24,243925,70,0,P|343:15|432:4,2,170,2|0|8,0:1|0:0|0:1,0:0:0:0:
163,43,244925,1,0,0:0:0:0:
69,62,245125,2,0,P|55:101|57:143,1,85,2|0,0:1|0:0,0:0:0:0:
108,224,245525,22,0,P|176:188|147:117,2,170,0|2|8,0:0|0:1|0:1,0:0:0:0:
57,143,246525,1,0,0:0:0:0:
0,220,246725,1,2,0:1:0:0:
0,220,246925,1,8,0:1:0:0:
24,312,247125,6,0,P|116:320|224:332,2,170,4|0|8,0:0|0:0|0:1,0:0:0:0:
108,224,248125,1,0,0:0:0:0:
64,112,248325,1,8,0:0:0:0:
228,204,248725,70,0,P|308:212|364:124,2,170,0|2|8,0:0|0:1|0:1,0:0:0:0:
192,88,249725,1,0,0:0:0:0:
304,44,249925,1,8,0:0:0:0:
464,148,250325,38,0,P|472:216|488:328,2,170,2|0|8,0:1|0:0|0:1,0:0:0:0:
452,56,251325,1,0,0:0:0:0:
364,92,251525,2,0,P|304:108|264:116,1,85,2|0,0:1|0:0,0:0:0:0:
192,88,251925,6,0,P|160:160|208:232,2,170,0|2|0,0:0|0:1|0:0,0:0:0:0:
300,36,252925,1,0,0:0:0:0:
372,132,253125,1,2,0:0:0:0:
256,192,253225,12,0,254225,0:0:0:0:
