osu file format v14

[General]
AudioFilename: audio.mp3
AudioLeadIn: 0
PreviewTime: 51125
Countdown: 0
SampleSet: Soft
StackLeniency: 0.5
Mode: 0
LetterboxInBreaks: 0
StoryFireInFront: 0
EpilepsyWarning: 1
WidescreenStoryboard: 1

[Editor]
Bookmarks: 151125
DistanceSpacing: 0.6
BeatDivisor: 4
GridSize: 32
TimelineZoom: 2.5

[Metadata]
Title:YoiYoi Kokon
TitleUnicode:宵々古今
Artist:REOL
ArtistUnicode:REOL
Creator:DreaM117er
Version:Yoi
Source:
Tags:れをる giga-p gigap okiku Σ sigma Regraz Misure Frey Flask kiddly Starrodkirby86 Chaoslitz m1223961117
BeatmapID:1220408
BeatmapSetID:545737

[Difficulty]
HPDrainRate:6
CircleSize:5
OverallDifficulty:8
ApproachRate:9
SliderMultiplier:1.6
SliderTickRate:1

[Events]
//Background and Video events
0,0,"BG.jpg",0,0
//Break Periods
//Storyboard Layer 0 (Background)
//Storyboard Layer 1 (Fail)
//Storyboard Layer 2 (Pass)
//Storyboard Layer 3 (Foreground)
Sprite,Foreground,Centre,"SB\intro\main\KIDDLY\_000.png",320,240 F,0,7125,8725,1
//Storyboard Sound Samples

[TimingPoints]
725,400,4,2,1,50,1,0
10525,-100,4,2,1,5,0,0
10725,-66.6666666666667,4,1,0,50,0,0
10925,-66.6666666666667,4,2,1,5,0,0
11125,-100,4,2,1,60,0,0
11325,-100,4,2,1,5,0,0
11525,-66.6666666666667,4,1,0,50,0,0
11725,-66.6666666666667,4,2,1,5,0,0
11925,-100,4,2,1,60,0,0
12325,-66.6666666666667,4,2,1,60,0,0
12725,-100,4,2,1,60,0,0
13125,-50,4,2,0,50,0,0
13525,-100,4,2,0,55,0,0
19325,-66.6666666666667,4,2,2,65,0,0
19425,-66.6666666666667,4,1,0,55,0,0
19525,-66.6666666666667,4,2,2,65,0,0
19825,-66.6666666666667,4,2,0,55,0,0
19925,-100,4,2,0,55,0,0
23325,-100,4,2,2,55,0,0
23425,-100,4,2,0,55,0,0
24125,-100,4,2,2,65,0,0
24225,-100,4,2,0,55,0,0
25525,-100,4,2,2,65,0,0
25825,-100,4,2,0,55,0,0
25925,-66.6666666666667,4,2,0,50,0,0
26325,-76.9230769230769,4,2,0,50,0,0
28125,-76.9230769230769,4,2,2,60,0,0
28325,-76.9230769230769,4,2,0,50,0,0
28525,-76.9230769230769,4,2,2,60,0,0
28725,-76.9230769230769,4,2,0,50,0,0
28925,-76.9230769230769,4,2,2,60,0,0
29125,-76.9230769230769,4,2,0,50,0,0
29325,-76.9230769230769,4,2,2,60,0,0
29525,-76.9230769230769,4,2,0,50,0,0
31325,-76.9230769230769,4,2,1,60,0,0
31525,-76.9230769230769,4,2,0,50,0,0
31725,-76.9230769230769,4,2,1,60,0,0
31925,-76.9230769230769,4,2,0,50,0,0
32125,-76.9230769230769,4,2,1,60,0,0
32325,-76.9230769230769,4,2,0,50,0,0
32525,-76.9230769230769,4,2,1,60,0,0
32725,-76.9230769230769,4,2,0,50,0,0
39125,-200,4,2,1,60,0,0
40725,-200,4,2,1,50,0,0
40925,-200,4,2,1,60,0,0
43925,-200,4,2,1,50,0,0
44125,-200,4,2,1,50,0,0
44325,-66.6666666666667,4,2,0,30,0,0
44525,-90.9090909090909,4,2,0,35,0,0
44725,-125,4,2,0,40,0,0
44925,-200,4,2,0,45,0,0
45125,-200,4,2,1,60,0,0
45525,-200,4,2,1,50,0,0
45925,-200,4,2,0,50,0,0
46325,-200,4,2,1,60,0,0
46725,-200,4,2,0,50,0,0
47125,-133.333333333333,4,2,1,50,0,0
47325,-133.333333333333,4,2,1,60,0,0
47525,-133.333333333333,4,2,0,50,0,0
47925,-133.333333333333,4,2,1,60,0,0
48325,-133.333333333333,4,2,0,50,0,0
48725,-133.333333333333,4,2,1,60,0,0
48925,-100,4,2,0,50,0,0
49525,-76.9230769230769,4,2,1,60,0,0
49725,-62.5,4,2,0,50,0,0
50025,-62.5,4,2,0,50,0,0
51125,-62.5,4,2,1,70,0,0
51325,-125,4,2,1,70,0,0
51925,-76.9230769230769,4,2,0,70,0,1
55125,-76.9230769230769,4,2,1,80,0,1
55725,-76.9230769230769,4,2,0,70,0,1
60125,-76.9230769230769,4,2,1,80,0,1
60525,-76.9230769230769,4,2,0,60,0,1
61625,-76.9230769230769,4,2,1,80,0,1
61725,-76.9230769230769,4,2,0,60,0,1
61825,-76.9230769230769,4,2,1,80,0,1
61925,-76.9230769230769,4,2,1,80,0,1
62025,-76.9230769230769,4,2,1,80,0,1
62125,-76.9230769230769,4,2,0,60,0,1
64325,-66.6666666666667,4,2,1,80,0,1
64425,-66.6666666666667,4,2,0,80,0,1
64525,-66.6666666666667,4,2,1,80,0,1
64625,-76.9230769230769,4,2,0,60,0,1
64725,-76.9230769230769,4,2,1,80,0,1
67925,-76.9230769230769,4,2,1,80,0,1
70025,-76.9230769230769,4,2,1,5,0,1
70125,-76.9230769230769,4,2,1,80,0,1
71325,-76.9230769230769,4,2,2,80,0,1
71525,-76.9230769230769,4,2,1,80,0,1
76225,-76.9230769230769,4,2,1,5,0,1
76325,-90.9090909090909,4,2,0,70,0,1
76725,-111.111111111111,4,2,0,70,0,1
77125,-142.857142857143,4,2,1,60,0,1
78125,-76.9230769230769,4,2,1,60,0,1
78525,-100,4,2,1,60,0,1
78625,-100,4,2,0,5,0,1
78725,-76.9230769230769,4,2,2,60,0,0
79025,-76.9230769230769,4,2,0,5,0,0
79125,-76.9230769230769,4,2,0,65,0,0
79925,-76.9230769230769,4,2,2,85,0,0
80025,-76.9230769230769,4,2,0,65,0,0
80725,-100,4,2,0,65,0,0
81525,-100,4,2,2,85,0,0
81625,-100,4,2,0,65,0,0
82325,-125,4,2,0,65,0,0
83125,-125,4,2,2,85,0,0
83225,-125,4,2,0,65,0,0
83925,-100,4,2,0,65,0,0
84325,-76.9230769230769,4,2,0,65,0,0
86325,-76.9230769230769,4,2,2,85,0,0
86425,-76.9230769230769,4,2,0,65,0,0
87125,-100,4,2,0,65,0,0
87925,-100,4,2,2,85,0,0
88025,-100,4,2,0,65,0,0
88725,-125,4,2,0,65,0,0
89525,-100,4,2,0,65,0,0
90325,-100,4,2,0,65,0,0
90725,-76.9230769230769,4,2,0,65,0,0
91125,-76.9230769230769,4,2,1,85,0,0
91225,-76.9230769230769,4,2,0,65,0,0
91325,-76.9230769230769,4,2,1,85,0,0
91425,-76.9230769230769,4,2,0,65,0,0
92725,-76.9230769230769,4,2,2,75,0,0
92825,-76.9230769230769,4,2,0,65,0,0
93525,-100,4,2,0,65,0,0
94325,-100,4,2,2,75,0,0
94425,-100,4,2,0,65,0,0
95925,-100,4,2,2,75,0,0
96025,-100,4,2,0,65,0,0
97525,-100,4,2,2,75,0,0
97725,-100,4,2,0,65,0,0
98125,-100,4,2,2,75,0,0
98225,-100,4,2,0,65,0,0
99125,-100,4,2,2,75,0,0
99225,-100,4,2,0,65,0,0
100725,-100,4,2,2,75,0,0
100825,-100,4,2,0,65,0,0
102325,-100,4,2,2,65,0,0
102425,-100,4,2,0,65,0,0
103925,-100,4,2,1,75,0,0
104025,-100,4,2,0,65,0,0
104125,-100,4,2,1,75,0,0
104225,-100,4,2,0,65,0,0
104325,-76.9230769230769,4,2,0,75,0,0
106925,-76.9230769230769,4,2,1,85,0,0
107525,-76.9230769230769,4,2,0,75,0,0
109325,-76.9230769230769,4,2,1,75,0,0
109925,-76.9230769230769,4,2,0,75,0,0
110125,-76.9230769230769,4,2,1,75,0,0
110725,-76.9230769230769,4,2,0,75,0,0
110925,-76.9230769230769,4,2,1,75,0,0
111125,-76.9230769230769,4,2,2,75,0,0
111425,-76.9230769230769,4,2,0,75,0,0
113325,-76.9230769230769,4,2,1,75,0,0
113925,-76.9230769230769,4,2,0,75,0,0
114925,-76.9230769230769,4,2,1,75,0,0
115425,-76.9230769230769,4,2,0,75,0,0
115725,-76.9230769230769,4,2,1,75,0,0
116325,-76.9230769230769,4,2,0,75,0,0
116425,-76.9230769230769,4,2,1,75,0,0
117525,-125,4,2,1,75,0,0
122725,-125,4,2,0,75,0,0
123525,-125,4,2,1,75,0,0
127325,-100,4,2,0,65,0,0
127925,-76.9230769230769,4,2,1,75,0,0
128125,-58.8235294117647,4,2,0,65,0,0
129525,-58.8235294117647,4,2,1,65,0,0
129725,-76.9230769230769,4,2,1,75,0,0
130325,-76.9230769230769,4,2,0,75,0,1
133525,-76.9230769230769,4,2,1,75,0,1
134125,-76.9230769230769,4,2,0,75,0,1
138525,-76.9230769230769,4,2,1,75,0,1
138925,-76.9230769230769,4,2,0,75,0,1
140025,-76.9230769230769,4,2,1,75,0,1
140125,-76.9230769230769,4,2,0,75,0,1
140225,-76.9230769230769,4,2,1,75,0,1
140425,-76.9230769230769,4,2,1,75,0,1
140525,-76.9230769230769,4,2,0,75,0,1
140625,-76.9230769230769,4,2,1,75,0,1
140725,-76.9230769230769,4,2,0,75,0,1
143125,-76.9230769230769,4,2,1,75,0,1
148425,-76.9230769230769,4,2,1,5,0,1
148525,-76.9230769230769,4,2,1,75,0,1
149725,-76.9230769230769,4,2,2,75,0,1
149925,-76.9230769230769,4,2,1,75,0,1
154325,-76.9230769230769,4,2,0,75,0,1
155525,-76.9230769230769,4,2,0,75,0,0
155925,-100,4,2,0,65,0,0
157125,-142.857142857143,4,2,0,65,0,0
157525,-58.8235294117647,4,2,0,65,0,0
158325,-200,4,2,0,65,0,0
158725,-66.6666666666667,4,2,0,65,0,0
159125,-90.9090909090909,4,3,0,65,0,0
160058,-90.9090909090909,4,2,1,75,0,0
160325,-90.9090909090909,4,3,0,65,0,0
161591,-90.9090909090909,4,2,1,75,0,0
161858,-90.9090909090909,4,3,0,65,0,0
163258,-90.9090909090909,4,2,1,75,0,0
163525,-90.9090909090909,4,3,0,65,0,0
165125,-71.4285714285714,4,3,0,65,0,0
165525,-90.9090909090909,4,3,0,65,0,0
166458,-90.9090909090909,4,2,1,75,0,0
166658,-90.9090909090909,4,3,0,65,0,0
168058,-90.9090909090909,4,2,1,75,0,0
168325,-71.4285714285714,4,3,0,65,0,0
169658,-71.4285714285714,4,2,1,75,0,0
169925,-71.4285714285714,4,3,0,65,0,0
171125,-90.9090909090909,4,2,1,75,0,0
171258,-90.9090909090909,4,2,0,5,0,0
171391,-90.9090909090909,4,2,1,75,0,0
171658,-90.9090909090909,4,2,0,5,0,0
171791,-90.9090909090909,4,2,1,75,0,0
171925,-133.333333333333,4,2,0,65,0,0
173125,-133.333333333333,4,2,1,75,0,0
173391,-133.333333333333,4,2,0,65,0,0
173925,-133.333333333333,4,2,1,75,0,0
174191,-133.333333333333,4,2,0,65,0,0
174725,-133.333333333333,4,2,1,75,0,0
174991,-133.333333333333,4,2,0,65,0,0
175525,-133.333333333333,4,2,1,75,0,0
177791,-100,4,2,1,65,0,0
178325,-133.333333333333,4,2,0,65,0,0
178725,-133.333333333333,4,2,1,75,0,0
178991,-133.333333333333,4,2,0,65,0,0
179525,-133.333333333333,4,2,1,75,0,0
179925,-133.333333333333,4,2,0,65,0,0
180325,-133.333333333333,4,2,1,75,0,0
180591,-133.333333333333,4,2,0,65,0,0
181125,-133.333333333333,4,2,1,75,0,0
181391,-133.333333333333,4,2,0,65,0,0
181925,-133.333333333333,4,2,1,75,0,0
183925,-83.3333333333333,4,2,0,65,0,0
184325,-55.5555555555556,4,2,1,75,0,0
184725,-200,4,2,1,75,0,0
189325,-200,4,2,0,5,0,0
189525,-200,4,2,1,75,0,0
192725,-133.333333333333,4,2,1,75,0,0
194525,-133.333333333333,4,2,0,5,0,0
194725,-100,4,2,1,75,0,0
194925,-133.333333333333,4,2,0,5,0,0
195125,-80,4,2,1,75,0,0
195325,-133.333333333333,4,2,0,5,0,0
195525,-66.6666666666667,4,2,1,75,0,0
195725,-133.333333333333,4,2,0,5,0,0
195925,-100,4,2,1,75,0,0
197525,-100,4,2,0,65,0,0
198325,-100,4,2,1,75,0,0
198525,-166.666666666667,4,2,1,75,0,0
199125,-76.9230769230769,4,2,0,65,0,1
202325,-76.9230769230769,4,2,1,75,0,1
202925,-76.9230769230769,4,2,0,65,0,1
207325,-76.9230769230769,4,2,1,75,0,1
207725,-76.9230769230769,4,2,0,65,0,1
208825,-76.9230769230769,4,2,1,75,0,1
208925,-76.9230769230769,4,2,0,65,0,1
209025,-76.9230769230769,4,2,1,75,0,1
209325,-76.9230769230769,4,2,0,65,0,1
209425,-76.9230769230769,4,2,1,75,0,1
209525,-76.9230769230769,4,2,0,65,0,1
211525,-58.8235294117647,4,2,1,75,0,1
211625,-58.8235294117647,4,2,0,65,0,1
211725,-58.8235294117647,4,2,1,75,0,1
211825,-58.8235294117647,4,2,0,65,0,1
211925,-76.9230769230769,4,2,1,75,0,1
217225,-76.9230769230769,4,2,0,5,0,1
217325,-76.9230769230769,4,2,1,75,0,1
218525,-76.9230769230769,4,2,2,75,0,1
218725,-76.9230769230769,4,2,1,75,0,1
223425,-76.9230769230769,4,2,0,5,0,1
223525,-76.9230769230769,4,2,1,75,0,1
223825,-76.9230769230769,4,2,0,5,0,1
223925,-76.9230769230769,4,2,1,75,0,1
224725,-76.9230769230769,4,2,1,75,0,1
226225,-76.9230769230769,4,2,0,5,0,1
226325,-76.9230769230769,4,2,2,75,0,1
226625,-76.9230769230769,4,2,0,75,0,1
226725,-76.9230769230769,4,2,2,75,0,1
226791,-76.9230769230769,4,2,0,75,0,1
227125,-76.9230769230769,4,2,2,75,0,1
227225,-76.9230769230769,4,2,0,75,0,1
227525,-50,4,2,0,65,0,0
228325,-76.9230769230769,4,2,0,65,0,0
228725,-76.9230769230769,4,2,2,65,0,0
228825,-76.9230769230769,4,2,0,65,0,0
229525,-100,4,2,0,65,0,0
230325,-100,4,2,2,65,0,0
230425,-100,4,2,0,65,0,0
231125,-125,4,2,0,65,0,0
231925,-125,4,2,2,65,0,0
232025,-125,4,2,0,65,0,0
233125,-100,4,2,0,65,0,0
233525,-66.6666666666667,4,2,0,65,0,0
234325,-76.9230769230769,4,2,0,65,0,0
235125,-76.9230769230769,4,2,2,65,0,0
235225,-76.9230769230769,4,2,0,65,0,0
235925,-100,4,2,0,65,0,0
236725,-100,4,2,2,65,0,0
236825,-100,4,2,0,65,0,0
237525,-111.111111111111,4,2,0,65,0,0
238325,-111.111111111111,4,2,2,65,0,0
238425,-111.111111111111,4,2,0,65,0,0
239925,-76.9230769230769,4,2,1,65,0,0
240025,-76.9230769230769,4,2,0,65,0,0
240125,-76.9230769230769,4,2,1,65,0,0
240225,-76.9230769230769,4,2,0,65,0,0
240325,-76.9230769230769,4,2,1,65,0,0
240625,-76.9230769230769,4,2,0,65,0,0
241125,-100,4,2,0,65,0,0
241525,-100,4,2,2,65,0,0
241725,-100,4,2,0,65,0,0
243125,-100,4,2,2,65,0,0
243325,-100,4,2,0,65,0,0
244725,-100,4,2,2,65,0,0
244925,-100,4,2,0,65,0,0
246325,-100,4,2,2,65,0,0
246625,-100,4,2,0,65,0,0
246925,-100,4,2,2,65,0,0
247025,-100,4,2,0,65,0,0
247925,-100,4,2,2,65,0,0
248125,-100,4,2,0,65,0,0
249525,-100,4,2,2,65,0,0
249625,-100,4,2,0,65,0,0
251125,-100,4,2,2,65,0,0
251325,-100,4,2,0,65,0,0
252725,-100,4,2,1,65,0,0
252825,-100,4,2,0,65,0,0
252925,-100,4,2,1,65,0,0
253025,-100,4,2,0,65,0,0
253125,-125,4,2,2,65,0,0
253225,-125,4,2,0,5,0,0

[Colours]
Combo1 : 198,198,198
Combo2 : 252,208,129
Combo3 : 247,60,106
Combo4 : 226,228,228
Combo5 : 251,156,51
Combo6 : 119,160,238
Combo7 : 103,96,196
Combo8 : 63,80,148
SliderBorder : 255,255,225

[HitObjects]
36,220,725,6,0,P|76:180|144:192,1,106.666666666667
172,232,1058,1,0,0:0:0:0:
172,232,1125,2,0,B|164:292|164:292|188:324,1,80
268,300,1525,101,0,0:0:0:0:
320,196,1725,1,0,0:0:0:0:
344,356,1925,37,0,0:0:0:0:
396,252,2125,1,0,0:0:0:0:
428,332,2325,69,0,0:0:0:0:
272,280,2525,1,0,0:0:0:0:
128,360,2725,2,0,P|104:324|112:280,1,80
148,236,3025,1,0,0:0:0:0:
212,216,3125,2,0,L|104:204,1,80
20,128,3525,2,0,B|8:160|8:160|20:220,1,80
182,133,3925,6,0,B|195:96|195:96|180:31,1,100
188,44,4225,1,0,0:0:0:0:
188,44,4275,1,0,0:0:0:0:
188,44,4325,2,0,L|270:57,1,80
428,209,4725,2,0,B|441:175|441:175|430:124,1,80
201,38,5125,22,0,P|246:45|279:57,1,80
414,225,5525,2,0,B|430:192|430:192|424:140,1,80
216,35,5925,6,0,P|265:48|286:71,1,80
296,135,6225,1,0,0:0:0:0:
263,195,6325,1,0,0:0:0:0:
123,170,6525,1,0,0:0:0:0:
418,114,6725,53,0,0:0:0:0:
263,195,6925,1,0,0:0:0:0:
76,298,7125,22,4,B|55:278|75:241|117:241|139:274|118:339|118:339|122:338|151:279|218:264|265:320,1,320
256,310,8725,69,4,0:0:0:0:
434,252,8925,2,4,B|485:207|496:124|464:74|382:94|388:164|432:154,1,240
425,154,10125,5,4,0:0:0:0:
358,90,10325,2,0,P|322:74|274:79,1,80,4|0,0:0|0:0,0:0:0:0:
322,291,10725,2,0,L|457:273,1,120.000004577637,4|0,0:0|0:0,0:0:0:0:
278,54,11125,22,0,P|238:53|196:76,1,80,4|0,0:0|0:0,0:0:0:0:
136,349,11525,2,0,L|271:331,1,120.000004577637,4|0,0:0|0:0,0:0:0:0:
214,209,11925,6,0,L|268:212,1,40,4|0,0:0|0:0,0:0:0:0:
257,148,12125,2,0,L|217:145,1,40,4|0,0:0|0:0,0:0:0:0:
165,104,12325,86,0,P|132:95|84:110,1,60.0000022888184
100,236,12525,2,0,P|133:245|181:230,1,60.0000022888184,4|0,0:0|0:0,0:0:0:0:
72,154,12725,38,0,L|79:183,7,20,4|0|0|0|0|0|0|0,0:0|0:0|0:0|0:0|0:0|0:0|0:0|0:0,0:0:0:0:
106,98,13125,2,0,B|149:91|149:91|160:60|160:60|207:122|207:122|218:92|218:92|285:81,1,240,4|0,0:0|0:0,0:0:0:0:
384,68,13525,85,4,1:0:0:0:
376,308,13925,2,0,B|352:268|352:268|368:168,1,120,0|0,1:0|0:0,0:0:0:0:
481,153,14325,2,0,L|393:137,1,80,0|2,1:0|0:0,0:0:0:0:
392,126,14625,1,0,0:0:0:0:
382,113,14725,1,0,1:0:0:0:
289,216,14925,101,2,3:0:0:0:
300,34,15125,2,0,B|258:30|258:30|224:45,1,80,0|0,1:0|0:0,0:0:0:0:
289,216,15525,1,0,1:0:0:0:
24,199,15725,37,2,0:0:0:0:
54,180,15825,1,0,0:0:0:0:
91,173,15925,1,0,1:0:0:0:
154,257,16125,85,2,0:0:0:0:
230,267,16325,1,0,1:0:0:0:
289,216,16525,1,2,3:0:0:0:
211,200,16725,1,0,1:0:0:0:
177,345,16925,102,0,P|224:362|269:344,1,80,0|0,0:0|1:0,0:0:0:0:
390,283,17325,1,2,0:0:0:0:
433,230,17425,1,0,0:0:0:0:
368,219,17525,1,0,1:0:0:0:
380,347,17725,37,0,0:0:0:0:
494,204,17925,1,0,1:0:0:0:
320,174,18125,1,2,3:0:0:0:
500,316,18325,85,0,1:0:0:0:
303,268,18525,1,2,3:0:0:0:
128,371,18725,2,0,B|109:325|109:325|127:233,1,120,0|0,1:0|0:0,0:0:0:0:
144,163,19125,1,0,1:0:0:0:
7,185,19325,70,0,P|50:197|74:190,1,60.0000022888184,8|0,0:0|0:0,0:0:0:0:
144,163,19525,2,4,B|186:134|191:64|167:25|103:41|108:95|142:87,1,180.000006866455,8|0,0:0|0:0,0:0:0:0:
204,229,19925,86,0,P|250:204|336:219,1,120,0|0,1:0|0:0,0:0:0:0:
315,208,20325,2,0,P|276:224|258:262,1,80,0|0,1:0|0:0,0:0:0:0:
277,376,20725,1,0,1:0:0:0:
387,304,20925,5,2,0:0:0:0:
359,281,21025,1,0,0:0:0:0:
323,274,21125,1,0,1:0:0:0:
204,293,21325,1,2,3:0:0:0:
116,376,21525,1,0,1:0:0:0:
185,224,21725,2,0,P|231:223|259:242,1,80,0|0,0:0|1:0,0:0:0:0:
391,153,22125,5,2,0:0:0:0:
376,193,22225,1,0,0:0:0:0:
343,220,22325,1,0,1:0:0:0:
258,241,22525,1,0,0:0:0:0:
455,176,22725,2,0,P|457:136|425:95,1,80,0|2,1:0|3:0,0:0:0:0:
258,241,23125,85,0,1:0:0:0:
318,212,23325,2,0,B|380:198|376:244|436:229,1,120,8|0,0:0|0:0,0:0:0:0:
262,173,23725,5,0,0:0:0:0:
291,300,23925,2,0,P|267:308|241:303,1,40,0|0,1:0|0:0,0:0:0:0:
194,274,24125,5,8,0:0:0:0:
348,340,24325,1,0,1:0:0:0:
256,52,24525,1,4,1:0:0:0:
256,124,24925,5,0,0:0:0:0:
256,132,25125,1,2,0:0:0:0:
256,196,25525,2,0,P|208:200|248:216,1,120
244,232,25925,22,0,P|201:179|268:196,1,180.000006866455,4|0,1:2|2:0,2:0:0:0:
308,248,26325,6,0,B|396:228|368:308|472:280,1,155.999992858887,4|0,1:0|0:0,0:0:0:0:
501,234,26725,1,8,0:0:0:0:
270,307,26925,1,2,0:0:0:0:
89,148,27125,2,0,P|89:96|129:56,1,103.999995239258,0|2,1:0|0:0,0:0:0:0:
158,53,27425,1,0,0:0:0:0:
193,61,27525,1,8,0:0:0:0:
274,195,27725,69,0,0:0:0:0:
385,182,27925,1,0,1:0:0:0:
495,168,28125,1,8,0:0:0:0:
501,142,28225,1,0,0:0:0:0:
506,116,28325,1,10,0:0:0:0:
385,182,28525,5,8,0:0:0:0:
394,225,28625,1,0,0:0:0:0:
404,268,28725,1,0,1:0:0:0:
274,195,28925,21,8,0:0:0:0:
287,132,29025,1,0,0:0:0:0:
301,70,29125,2,0,B|228:61|228:61|174:98,1,103.999995239258,8|8,0:0|0:0,0:0:0:0:
376,246,29525,6,0,B|449:255|449:255|503:218,1,103.999995239258,4|0,1:0|0:0,0:0:0:0:
257,195,29925,53,8,0:0:0:0:
210,298,30125,1,2,0:0:0:0:
296,181,30325,37,0,1:0:0:0:
170,311,30525,1,2,0:0:0:0:
342,181,30725,69,8,0:0:0:0:
124,311,30925,1,2,0:0:0:0:
384,195,31125,5,0,1:0:0:0:
471,272,31325,2,0,P|458:254|431:250,2,25.9999988098145,2|0|2,2:0|2:0|2:0,2:0:0:0:
414,303,31525,2,0,L|304:317,1,103.999995239258,8|2,0:0|0:0,0:0:0:0:
65,207,31925,2,0,L|168:220,1,103.999995239258,0|2,1:0|0:0,0:0:0:0:
468,125,32325,2,0,L|358:139,1,103.999995239258,8|2,0:0|0:0,0:0:0:0:
112,144,32725,22,0,B|60:128|64:68|102:46|102:46|144:68,1,155.999992858887,4|0,1:0|0:0,0:0:0:0:
184,108,33125,1,8,0:0:0:0:
252,120,33325,1,2,0:0:0:0:
400,192,33525,1,0,1:0:0:0:
332,204,33725,1,0,0:0:0:0:
153,266,33925,69,8,0:0:0:0:
85,254,34125,1,2,0:0:0:0:
384,332,34325,1,0,1:0:0:0:
448,320,34525,2,0,L|460:268,1,51.999997619629,2|0,0:0|0:0,0:0:0:0:
384,332,34725,37,8,0:0:0:0:
462,315,34925,2,0,B|474:259|474:259|455:211|455:211|479:104,1,207.999990478516,0|2,2:0|0:0,0:0:0:0:
384,20,35525,2,0,P|404:96|328:104,1,155.999992858887,8|0,0:0|0:0,0:0:0:0:
344,114,35925,69,0,1:0:0:0:
285,51,36125,1,2,0:0:0:0:
318,196,36325,1,8,0:0:0:0:
428,94,36525,2,0,B|367:91|367:91|315:126|315:126|215:119,1,207.999990478516,2|2,0:0|0:0,0:0:0:0:
77,106,37125,21,8,0:0:0:0:
230,120,37325,2,0,B|297:125|297:125|334:167|334:167|445:172,1,207.999990478516,2|2,0:0|0:0,0:0:0:0:
449,155,37825,1,0,0:0:0:0:
482,139,37925,1,8,0:0:0:0:
266,194,38125,21,2,0:0:0:0:
297,232,38225,1,0,0:0:0:0:
328,270,38325,2,0,P|343:198|317:166,1,103.999995239258,0|0,1:0|0:0,0:0:0:0:
266,194,38625,38,0,B|373:208|373:208|401:275,1,155.999992858887,0|2,1:0|0:0,0:0:0:0:
447,335,39125,38,4,B|360:309|380:373|289:344,1,160,4|4,1:2|0:0,0:0:0:0:
292,345,40725,5,4,1:2:0:0:
357,264,40925,2,0,B|377:236|373:183|356:163|311:190|343:205,1,120,4|4,0:0|0:0,0:0:0:0:
226,135,42125,1,4,0:0:0:0:
226,135,42325,102,0,B|313:161|293:97|384:126,1,160,4|4,0:0|0:0,0:0:0:0:
226,135,43525,1,0,0:0:0:0:
99,194,43925,85,4,1:2:0:0:
112,69,44125,1,4,0:0:0:0:
164,167,44325,22,0,L|171:99,1,60.0000022888184,2|0,0:0|0:0,0:0:0:0:
234,122,44525,6,0,L|228:173,1,44.0000013427735,2|0,0:0|0:0,0:0:0:0:
295,165,44725,102,0,L|298:129,1,32,2|0,0:0|0:0,0:0:0:0:
361,146,44925,86,0,L|358:173,1,20,2|0,0:0|0:0,0:0:0:0:
424,162,45125,21,2,0:0:0:0:
424,162,45525,6,0,P|385:142|348:148,1,80,4|0,1:2|0:0,0:0:0:0:
400,319,46325,2,0,P|439:323|473:303,1,80,4|0,0:0|0:0,0:0:0:0:
350,262,46925,101,2,0:0:0:0:
295,218,47125,2,0,B|292:187|292:187|307:156,1,60.0000022888184,4|4,1:2|0:0,0:0:0:0:
350,262,47525,1,0,0:0:0:0:
350,262,47925,86,0,L|230:249,1,120.000004577637,4|2,0:0|0:0,0:0:0:0:
174,196,48525,1,0,0:0:0:0:
118,139,48725,22,0,P|98:167|97:204,1,60.0000022888184,4|2,0:0|0:0,0:0:0:0:
148,108,49125,6,0,P|110:125|86:163,1,80,0|2,1:0|0:0,0:0:0:0:
197,102,49525,102,0,P|144:96|94:123,1,103.999995239258,4|2,2:0|0:0,0:0:0:0:
260,129,49925,86,0,P|205:90|133:88,1,128,0|2,1:0|0:0,0:0:0:0:
258,207,50325,38,0,P|244:216|233:226,1,32
289,200,50425,2,0,P|273:202|258:208,1,32
320,206,50525,2,0,P|304:201|288:200,1,32
345,224,50625,2,0,P|333:213|319:205,1,32
369,244,50725,102,0,P|356:234|344:223,1,32
399,252,50825,2,0,P|383:248|368:243,1,32
430,248,50925,2,0,P|414:250|398:251,1,32
456,231,51025,2,0,P|443:240|429:247,1,32
490,174,51125,5,4,0:0:0:0:
483,12,51325,2,0,P|440:62|473:134,1,128,2|2,0:0|0:0,0:0:0:0:
490,174,51825,1,2,0:0:0:0:
490,174,51925,6,0,P|427:143|371:153,1,103.999995239258,4|2,1:0|0:0,0:0:0:0:
242,302,52225,1,2,0:0:0:0:
242,302,52325,2,0,P|302:304|338:275,1,103.999995239258,0|2,1:0|0:0,0:0:0:0:
405,275,52625,1,2,0:0:0:0:
468,305,52725,54,0,P|472:253|430:209,1,103.999995239258,0|0,1:0|0:0,0:0:0:0:
341,135,53025,2,0,L|456:124,1,103.999995239258,0|0,1:0|0:0,0:0:0:0:
497,67,53325,1,0,1:0:0:0:
270,195,53525,6,0,B|231:170|185:181|185:181|202:191|205:207,1,103.999995239258,0|2,1:0|0:0,0:0:0:0:
286,259,53825,1,2,0:0:0:0:
311,318,53925,2,0,L|341:196,1,103.999995239258,0|2,1:0|0:0,0:0:0:0:
265,33,54225,1,2,0:0:0:0:
265,33,54325,22,0,B|281:74|281:74|264:152,1,103.999995239258,0|2,1:0|0:0,0:0:0:0:
203,171,54625,2,0,P|152:169|110:198,1,103.999995239258,0|0,1:0|0:0,0:0:0:0:
269,207,54925,1,0,1:0:0:0:
325,67,55125,6,0,P|373:100|417:97,1,103.999995239258,2|2,1:2|0:0,0:0:0:0:
430,89,55391,1,0,0:0:0:0:
441,78,55458,1,0,0:0:0:0:
447,64,55525,1,0,0:0:0:0:
510,192,55725,53,2,0:0:0:0:
473,245,55825,1,2,0:0:0:0:
468,309,55925,2,0,P|443:265|361:252,1,103.999995239258,0|2,1:0|0:0,0:0:0:0:
291,324,56225,2,0,B|359:337|359:337|406:311,1,103.999995239258,0|0,1:0|0:0,0:0:0:0:
346,197,56525,1,0,1:0:0:0:
219,216,56725,6,0,B|151:203|151:203|104:229,1,103.999995239258,0|2,1:0|0:0,0:0:0:0:
101,284,57025,1,2,0:0:0:0:
84,348,57125,1,0,1:0:0:0:
279,263,57325,21,2,0:0:0:0:
295,223,57425,1,2,0:0:0:0:
287,180,57525,1,0,1:0:0:0:
39,149,57725,5,2,0:0:0:0:
51,166,57825,1,2,0:0:0:0:
69,174,57925,1,0,1:0:0:0:
17,80,58125,1,2,0:0:0:0:
138,177,58325,54,0,P|186:148|250:158,1,103.999995239258,4|2,1:0|0:0,0:0:0:0:
191,327,58625,1,2,0:0:0:0:
191,327,58725,2,0,L|202:223,1,103.999995239258,0|2,1:0|0:0,0:0:0:0:
232,150,59025,1,2,0:0:0:0:
267,80,59125,6,0,P|318:79|361:106,1,103.999995239258,0|2,1:0|0:0,0:0:0:0:
498,222,59425,2,0,P|454:249|403:248,1,103.999995239258,0|0,1:0|0:0,0:0:0:0:
348,186,59725,1,0,1:0:0:0:
179,293,59925,21,0,1:0:0:0:
333,274,60125,1,2,0:0:0:0:
310,252,60191,1,2,0:0:0:0:
279,244,60258,1,0,0:0:0:0:
247,250,60325,1,2,1:2:0:0:
348,186,60525,5,2,0:0:0:0:
414,170,60625,1,2,0:0:0:0:
480,153,60725,2,0,B|499:195|499:195|485:273,1,103.999995239258,0|0,1:0|0:0,0:0:0:0:
348,186,61025,2,0,B|329:144|329:144|339:87,1,103.999995239258,0|0,1:0|0:0,0:0:0:0:
339,87,61325,1,0,1:0:0:0:
109,56,61525,53,0,1:0:0:0:
109,56,61625,2,0,P|108:96|94:128,1,51.999997619629,0|0,2:0|0:0,0:0:0:0:
78,174,61825,1,0,0:0:0:0:
150,160,61925,5,0,1:0:0:0:
150,160,62025,2,0,P|145:199|159:232,1,51.999997619629
200,256,62225,1,0,0:0:0:0:
266,239,62325,21,0,1:0:0:0:
369,177,62525,1,2,0:0:0:0:
288,280,62725,1,0,1:0:0:0:
352,134,62925,1,2,0:0:0:0:
327,310,63125,69,0,1:0:0:0:
313,107,63325,1,2,0:0:0:0:
234,325,63525,1,0,1:0:0:0:
402,77,63725,1,2,0:0:0:0:
391,369,63925,37,0,1:0:0:0:
249,27,64125,1,2,0:0:0:0:
512,162,64325,6,0,P|483:148|433:151,1,60.0000022888184,4|0,1:2|0:0,0:0:0:0:
258,158,64525,2,0,P|227:168|194:206,1,60.0000022888184,4|0,1:2|0:0,0:0:0:0:
88,351,64725,85,0,1:1:0:0:
245,308,64925,1,2,0:0:0:0:
202,292,65025,1,2,0:0:0:0:
159,301,65125,1,0,1:0:0:0:
308,371,65325,1,2,0:0:0:0:
88,351,65525,102,0,B|66:318|66:318|81:234,1,103.999995239258,0|2,1:0|0:0,0:0:0:0:
32,196,65825,1,2,0:0:0:0:
32,196,65925,2,0,L|150:181,1,103.999995239258,0|2,1:0|0:0,0:0:0:0:
338,213,66325,38,0,B|259:189|274:259|186:225,1,155.999992858887,0|2,1:0|0:0,0:0:0:0:
135,182,66725,2,0,B|120:141|120:141|139:69,1,103.999995239258,0|2,1:0|0:0,0:0:0:0:
309,279,67125,2,0,B|324:320|324:320|305:392,1,103.999995239258,0|2,1:0|0:0,0:0:0:0:
228,213,67425,1,2,0:0:0:0:
228,213,67525,2,0,B|265:215|265:215|291:203|291:203|343:210,1,103.999995239258,0|2,1:0|0:0,0:0:0:0:
407,268,67925,85,0,1:0:0:0:
429,166,68125,1,2,0:0:0:0:
233,178,68325,101,0,1:0:0:0:
255,280,68525,1,2,0:0:0:0:
441,268,68725,37,0,1:0:0:0:
447,130,68925,1,2,0:0:0:0:
193,186,69125,85,0,1:0:0:0:
243,313,69325,1,2,0:0:0:0:
483,258,69525,101,0,1:0:0:0:
453,79,69725,2,0,B|403:69|403:69|361:92|361:92|285:86,1,155.999992858887,2|0,0:0|0:0,0:0:0:0:
217,8,70125,37,2,0:0:0:0:
235,75,70225,1,2,0:0:0:0:
255,141,70325,1,0,1:0:0:0:
222,285,70525,1,2,0:0:0:0:
179,118,70725,85,0,1:0:0:0:
284,323,70925,1,2,0:0:0:0:
255,141,71125,101,0,1:0:0:0:
335,201,71325,2,0,P|356:195|373:193,2,34.6666650797527,8|8|0,0:0|0:0|0:0,0:0:0:0:
255,141,71525,1,0,1:0:0:0:
109,159,71725,38,0,P|140:145|180:147,1,51.999997619629,2|0,0:0|0:0,0:0:0:0:
255,141,71925,1,0,1:0:0:0:
231,232,72125,1,2,0:0:0:0:
194,61,72325,85,0,1:0:0:0:
298,297,72525,1,2,0:0:0:0:
105,207,72725,101,0,1:0:0:0:
36,280,72925,2,0,L|45:331,2,34.6666650797527,2|2|0,0:0|0:0|0:0,0:0:0:0:
105,207,73125,1,0,1:0:0:0:
132,332,73325,37,0,0:0:0:0:
199,363,73525,1,0,1:0:0:0:
258,315,73725,1,0,0:0:0:0:
327,347,73925,1,0,1:0:0:0:
385,296,74125,1,0,0:0:0:0:
479,360,74325,86,4,B|459:296|459:296|475:240,1,103.999995239258,0|2,1:0|0:0,0:0:0:0:
476,242,74591,2,0,L|515:232,1,34.6666650797527,2|0,0:0|0:0,0:0:0:0:
421,197,74725,102,0,B|402:192|402:192|365:228|319:201,1,103.999995239258,0|2,1:0|0:0,0:0:0:0:
261,173,75025,1,2,0:0:0:0:
229,111,75125,38,0,P|232:65|277:19,1,103.999995239258,0|0,1:0|2:0,2:0:0:0:
324,204,75525,2,0,P|350:247|344:298,1,103.999995239258,0|0,1:0|0:0,0:0:0:0:
209,319,75925,86,0,B|161:313|161:313|135:291|135:291|42:281,1,155.999992858887,0|0,1:0|0:0,0:0:0:0:
0,234,76325,102,0,P|26:213|92:217,1,88.000002685547,0|0,1:0|0:0,0:0:0:0:
277,339,76725,38,0,P|240:336|198:308,1,71.9999978027344,0|0,1:0|0:0,0:0:0:0:
346,239,77125,86,4,B|306:248|300:184|375:166|404:211|394:287|347:327,1,223.999993164063,0|0,1:0|0:0,0:0:0:0:
331,336,77991,1,0,0:0:0:0:
316,339,78058,1,0,0:0:0:0:
301,336,78125,102,0,P|283:315|247:302,1,51.999997619629
192,290,78325,1,0,0:0:0:0:
342,135,78525,86,0,P|354:164|350:192,1,40
346,239,78725,2,0,P|396:177|475:188,1,155.999992858887,8|0,0:0|0:0,0:0:0:0:
466,182,79125,5,4,1:0:0:0:
427,251,79325,1,0,0:0:0:0:
346,239,79525,2,2,B|331:227|331:227|311:236|311:236|285:220|285:220|239:227|230:278,1,155.999992858887,2|0,0:1|0:0,0:1:0:0:
239,355,79925,38,0,P|216:341|191:339,1,51.999997619629,8|0,0:0|0:0,0:0:0:0:
87,362,80125,1,2,0:0:0:0:
332,346,80325,2,0,B|296:356|269:335|269:335|238:356|238:356|217:334|180:339,1,155.999992858887,4|0,1:0|0:0,0:0:0:0:
230,276,80725,70,0,P|249:237|226:187,1,80,2|0,0:0|0:0,0:0:0:0:
142,180,81125,2,2,B|155:172|155:172|172:180|172:180|194:167|194:167|225:172|241:205,1,120,2|0,1:0|0:0,1:0:0:0:
246,271,81525,70,0,P|270:266|288:249,1,40,8|0,0:0|0:0,0:0:0:0:
311,155,81725,2,0,P|335:160|353:177,1,40,2|0,0:0|0:0,0:0:0:0:
440,227,81925,2,0,B|459:239|459:239|487:215|493:172|459:142,1,120,2|0,0:0|0:0,0:0:0:0:
403,81,82325,85,4,1:0:0:0:
257,113,82525,2,0,P|250:98|251:76,1,32,2|0,0:1|0:0,0:0:0:0:
403,81,82725,2,0,L|328:93,1,64,2|2,0:0|0:0,0:0:0:0:
257,113,83025,1,2,0:0:0:0:
257,113,83125,38,0,P|250:98|251:76,1,32,8|0,0:0|0:0,0:0:0:0:
336,183,83325,2,0,P|329:197|330:219,1,32,2|0,0:0|0:0,0:0:0:0:
227,203,83525,2,0,P|199:193|152:191,1,64,0|0,1:0|0:0,0:0:0:0:
79,213,83925,70,0,L|70:171,1,40,2|0,0:0|0:0,0:0:0:0:
160,51,84125,2,0,L|155:99,1,40,2|0,0:1|0:0,0:0:0:0:
72,220,84325,38,0,P|63:194|68:154,1,51.999997619629
170,46,84525,2,0,P|170:71|161:96,1,51.999997619629
165,189,84725,22,2,B|188:177|188:177|214:182|214:182|237:171|237:171|263:176|263:176|286:165|286:165|312:170,1,155.999992858887,2|0,0:1|0:1,0:1:0:0:
246,243,85125,2,0,P|251:268|264:291,1,51.999997619629,2|0,1:0|2:0,0:0:0:0:
358,120,85325,2,0,P|353:95|341:73,1,51.999997619629,2|0,0:0|2:0,0:0:0:0:
317,338,85525,101,4,1:0:0:0:
383,312,85725,1,0,0:0:0:0:
450,334,85925,2,2,B|477:349|477:349|506:321|504:264|452:240,1,155.999992858887,2|0,0:1|0:0,0:1:0:0:
383,312,86325,53,8,0:0:0:0:
345,169,86525,2,0,P|333:192|335:225,1,51.999997619629,2|0,0:0|0:0,0:0:0:0:
383,312,86725,22,0,B|296:286|316:350|219:317,1,155.999992858887,0|0,1:0|0:0,0:0:0:0:
137,351,87125,37,2,0:0:0:0:
158,254,87325,1,0,0:0:0:0:
63,211,87525,2,2,B|44:223|44:223|16:199|10:156|44:126,1,120,2|0,1:0|0:1,1:0:0:0:
134,178,87925,85,8,0:0:0:0:
205,198,88125,1,0,0:0:0:0:
265,152,88325,1,2,0:0:0:0:
336,172,88525,1,0,0:0:0:0:
400,132,88725,69,0,0:0:0:0:
423,232,88925,2,0,L|414:188,1,32,2|0,0:1|0:0,0:0:0:0:
400,132,89125,2,0,L|384:58,1,64,2|2,0:0|0:0,0:0:0:0:
435,192,89425,5,2,0:0:0:0:
435,192,89525,2,0,P|411:202|378:194,1,40,2|0,0:0|0:0,0:0:0:0:
336,172,89725,1,2,0:0:0:0:
282,272,89925,1,0,1:0:0:0:
211,138,90125,1,0,0:0:0:0:
155,289,90325,38,2,P|122:262|71:261,1,80,2|0,0:1|0:1,0:1:0:0:
96,327,90625,1,0,0:0:0:0:
85,257,90725,38,2,P|58:218|79:151,1,103.999995239258,2|2,1:1|0:0,0:0:0:0:
213,11,91125,102,0,P|247:10|279:26,1,51.999997619629,4|0,0:0|0:0,0:0:0:0:
177,187,91325,2,0,P|151:198|111:201,1,51.999997619629,4|0,0:0|0:0,0:0:0:0:
196,79,91525,2,0,B|240:70|271:94|271:94|301:72|301:72|343:102|392:90,1,207.999990478516,4|0,1:0|1:0,0:0:0:0:
479,215,92225,5,0,0:0:0:0:
479,215,92325,1,2,0:0:0:0:
413,183,92525,1,0,0:0:0:0:
339,190,92725,1,8,0:0:0:0:
280,234,92925,1,0,0:0:0:0:
216,272,93125,1,0,1:0:0:0:
142,265,93325,1,0,0:0:0:0:
83,221,93525,70,0,P|55:170|79:103,1,120,2|0,0:0|0:0,0:0:0:0:
233,201,93925,2,0,B|194:188|194:188|145:196,1,80,0|0,1:0|0:0,0:0:0:0:
142,265,94325,37,8,0:0:0:0:
257,132,94525,1,0,0:0:0:0:
251,269,94725,1,0,0:0:0:0:
136,136,94925,1,0,0:0:0:0:
196,199,95125,69,0,1:0:0:0:
225,70,95425,1,0,0:0:0:0:
225,70,95525,1,2,0:0:0:0:
298,51,95725,1,0,0:0:0:0:
422,272,95925,37,8,0:0:0:0:
332,299,96125,1,0,0:0:0:0:
401,367,96325,69,0,1:0:0:0:
355,185,96525,1,0,0:0:0:0:
237,248,96725,5,2,0:0:0:0:
194,255,96825,1,0,0:0:0:0:
153,262,96925,1,2,0:0:0:0:
112,271,97025,1,0,0:0:0:0:
96,299,97125,5,2,0:0:0:0:
112,271,97225,1,0,0:0:0:0:
130,244,97325,1,2,0:0:0:0:
149,218,97425,1,0,0:0:0:0:
168,156,97525,22,0,L|258:141,1,80,8|0,0:0|0:0,0:0:0:0:
319,131,97825,1,0,1:0:0:0:
319,131,97925,1,0,1:0:0:0:
168,156,98125,86,0,L|228:147,1,40,8|0,0:0|0:0,0:0:0:0:
319,131,98325,5,0,1:0:0:0:
378,295,98525,2,2,L|281:285,1,80
417,299,98925,2,0,L|377:294,1,40,2|0,0:0|0:0,0:0:0:0:
298,286,99125,1,8,0:0:0:0:
488,308,99325,5,0,0:0:0:0:
229,276,99525,2,0,P|177:291|225:262,1,160,2|0,0:0|2:0,0:0:0:0:
163,131,100125,2,0,L|260:121,1,80,2|0,0:0|1:0,0:0:0:0:
124,135,100525,2,0,L|163:130,1,40,2|0,0:0|0:0,0:0:0:0:
243,122,100725,1,8,0:0:0:0:
53,144,100925,53,0,0:0:0:0:
312,112,101125,2,0,P|364:97|316:126,1,160,2|0,0:0|1:0,0:0:0:0:
396,292,101725,37,2,0:0:0:0:
258,257,101925,1,0,0:0:0:0:
355,156,102125,5,2,0:0:0:0:
375,223,102225,1,2,0:0:0:0:
307,207,102325,1,8,0:0:0:0:
314,325,102525,85,0,0:0:0:0:
263,144,102725,1,0,1:0:0:0:
444,190,102925,1,0,0:0:0:0:
314,325,103125,6,0,B|264:315|264:315|226:337|226:337|140:330,1,160,2|2,0:0|0:0,0:0:0:0:
91,279,103725,1,0,0:0:0:0:
172,197,103925,70,0,P|205:185|221:186,1,40,4|0,0:0|0:0,0:0:0:0:
236,264,104125,2,0,P|269:276|285:275,1,40,4|0,0:0|0:0,0:0:0:0:
352,214,104325,38,0,L|345:162,1,51.999997619629,0|0,1:0|0:0,0:0:0:0:
440,142,104525,2,0,L|441:80,1,51.999997619629,0|0,1:0|0:0,0:0:0:0:
365,34,104725,102,0,B|335:27|335:27|303:40|303:40|263:9|196:35,1,155.999992858887,4|0,1:0|0:0,0:0:0:0:
151,69,105125,21,8,0:1:0:0:
164,166,105325,1,0,0:0:0:0:
259,262,105525,69,0,1:0:0:0:
272,359,105725,1,0,0:0:0:0:
49,166,105925,5,8,0:1:0:0:
62,263,106125,1,0,0:0:0:0:
296,49,106325,21,0,1:0:0:0:
309,146,106525,1,0,0:0:0:0:
468,200,106725,69,8,0:1:0:0:
486,322,106925,2,0,L|492:377,1,51.999997619629,2|0,0:0|0:0,0:1:0:0:
468,200,107125,1,0,1:2:0:0:
486,322,107325,1,2,0:0:0:0:
357,222,107525,5,8,0:1:0:0:
368,119,107725,1,0,0:0:0:0:
284,230,107925,1,0,1:0:0:0:
298,95,108125,2,0,B|274:61|221:67|221:67|244:105,1,103.999995239258,0|8,2:0|0:1,0:0:0:0:
284,230,108525,21,0,0:0:0:0:
221,67,108725,1,0,1:0:0:0:
210,239,108925,69,0,0:0:0:0:
155,43,109125,1,8,0:1:0:0:
137,247,109325,6,0,P|115:265|87:269,1,51.999997619629,2|0,0:0|0:0,0:0:0:0:
85,16,109525,1,0,1:2:0:0:
137,247,109725,2,0,L|23:266,1,103.999995239258,2|8,0:0|0:1,0:0:0:0:
67,330,110125,21,2,0:0:0:0:
74,363,110225,1,0,0:0:0:0:
100,384,110325,1,0,1:2:0:0:
156,178,110525,69,2,0:0:0:0:
124,185,110625,1,0,0:0:0:0:
104,212,110725,1,8,0:1:0:0:
35,264,110925,5,2,0:0:0:0:
154,288,111125,2,0,B|195:280|195:280|229:295|229:295|321:279,1,155.999992858887,8|0,1:2|0:0,0:0:0:0:
367,230,111525,21,8,0:1:0:0:
489,241,111725,1,0,0:0:0:0:
276,117,111925,69,0,1:0:0:0:
398,106,112125,1,0,0:0:0:0:
228,336,112325,5,8,0:1:0:0:
347,323,112525,1,0,0:0:0:0:
83,48,112725,21,0,1:0:0:0:
205,59,112925,1,0,0:0:0:0:
46,297,113125,69,8,0:1:0:0:
219,277,113325,2,0,L|280:271,1,51.999997619629,2|0,0:0|0:0,0:0:0:0:
46,297,113525,6,0,B|163:282,1,103.999995239258,0|2,1:0|0:0,0:0:0:0:
184,368,113925,21,8,0:1:0:0:
115,202,114125,1,0,0:0:0:0:
215,54,114325,2,0,P|283:57|319:84,1,103.999995239258,0|0,1:0|0:0,0:0:0:0:
480,254,114725,70,0,P|434:278|383:275,1,103.999995239258,8|2,0:1|0:0,0:0:0:0:
329,325,115025,1,0,0:0:0:0:
383,275,115125,2,0,P|344:225|239:233,1,155.999992858887,0|0,1:2|0:0,0:0:0:0:
166,254,115525,5,8,0:1:0:0:
33,159,115725,2,0,P|78:90|211:91,1,207.999990478516,2|2,0:0|0:0,0:0:0:0:
256,221,116325,21,8,0:1:0:0:
336,303,116525,1,2,0:0:0:0:
379,282,116625,1,0,0:0:0:0:
427,285,116725,1,0,1:0:0:0:
308,152,116925,69,2,0:0:0:0:
268,122,117025,1,0,0:0:0:0:
221,116,117125,1,8,0:0:0:0:
55,195,117325,5,2,0:0:0:0:
41,264,117425,1,0,0:0:0:0:
82,319,117525,2,0,B|136:302|136:302|168:322|168:322|215:319|239:290|237:246|212:212|153:224,1,256,4|4,1:2|0:0,0:0:0:0:
177,222,119125,5,4,1:2:0:0:
262,295,119325,2,0,B|283:303|306:288|306:288|328:300|328:300|368:286|403:308|403:308|403:277|375:258,1,192,4|4,0:0|0:0,0:0:0:0:
388,269,120525,101,4,0:0:0:0:
349,203,120725,2,0,P|456:214|387:269,1,256,4|4,1:2|0:0,0:0:0:0:
388,269,121925,85,0,0:0:0:0:
164,98,122325,22,0,B|151:129|151:129|158:173,1,64,4|4,1:2|0:0,0:0:0:0:
206,253,122725,5,2,0:0:0:0:
216,234,122825,1,0,0:0:0:0:
260,164,122925,101,2,0:0:0:0:
267,185,123025,1,0,0:0:0:0:
298,263,123125,85,2,0:0:0:0:
307,244,123225,1,0,0:0:0:0:
352,175,123325,21,2,0:0:0:0:
359,195,123425,1,0,0:0:0:0:
388,269,123525,5,2,0:0:0:0:
416,121,123925,102,0,P|364:68|299:75,1,128,4|0,1:2|0:0,0:0:0:0:
380,301,124725,86,0,P|442:296|482:248,1,128,4|0,0:0|0:0,0:0:0:0:
317,255,125325,1,0,0:0:0:0:
249,229,125525,2,0,P|268:197|301:190,1,64,4|0,1:2|0:0,0:0:0:0:
317,255,125925,22,0,L|179:271,1,128,0|4,0:0|0:0,0:0:0:0:
76,134,126725,2,0,P|64:103|77:64,1,64,0|4,0:0|0:0,0:0:0:0:
232,118,127125,6,0,L|304:121,1,64,4|0,0:0|0:0,0:0:0:0:
375,137,127525,102,0,L|295:133,1,80,0|0,1:0|0:0,0:0:0:0:
191,142,127925,86,0,L|319:148,1,103.999995239258,4|0,0:0|0:0,0:0:0:0:
431,167,128325,22,0,L|295:160,1,136.000002593994,0|0,1:0|0:0,0:0:0:0:
148,177,128725,6,0,P|144:159|135:138,1,34.0000006484985,0|0,1:0|0:0,0:0:0:0:
187,201,128825,2,0,P|196:185|211:170,1,34.0000006484985
151,209,128925,102,0,P|149:191|143:170,1,34.0000006484985
169,230,129025,2,0,P|176:213|189:196,1,34.0000006484985
152,242,129125,86,0,P|153:223|149:202,1,34.0000006484985
156,260,129225,2,0,P|161:242|172:224,1,34.0000006484985
147,275,129325,22,0,P|150:257|149:235,1,34.0000006484985
148,292,129425,2,0,P|151:274|160:254,1,34.0000006484985
144,309,129525,5,4,0:0:0:0:
256,270,129725,2,0,B|306:258|306:258|386:326|386:326|454:313,1,207.999990478516,2|2,0:0|0:0,0:0:0:0:
504,302,130225,1,2,0:0:0:0:
451,249,130325,54,0,P|467:199|441:150,1,103.999995239258,0|2,1:0|0:0,0:0:0:0:
366,94,130625,1,2,0:0:0:0:
366,94,130725,2,0,L|482:83,1,103.999995239258,0|2,1:0|0:0,0:0:0:0:
371,26,131025,1,2,0:0:0:0:
307,50,131125,54,0,P|291:100|317:149,1,103.999995239258,0|0,1:0|0:0,0:0:0:0:
363,218,131425,2,0,L|247:207,1,103.999995239258,0|0,1:0|0:0,0:0:0:0:
161,196,131725,1,0,1:0:0:0:
419,355,131925,22,0,P|439:308|423:260,1,103.999995239258,0|2,1:0|0:0,0:0:0:0:
429,191,132225,1,2,0:0:0:0:
363,218,132325,2,0,L|247:207,1,103.999995239258,0|2,1:0|0:0,0:0:0:0:
86,153,132625,37,2,0:0:0:0:
86,153,132725,2,0,B|92:131|79:94|79:94|123:132,1,103.999995239258,0|0,1:0|0:0,0:0:0:0:
89,255,133025,2,0,B|47:272|47:272|70:241|70:219,1,103.999995239258,0|0,1:0|0:0,0:0:0:0:
161,196,133325,1,0,1:0:0:0:
244,304,133525,86,0,P|295:278|365:295,1,103.999995239258,2|2,1:2|0:0,0:0:0:0:
352,294,133791,1,0,0:0:0:0:
359,309,133858,1,0,0:0:0:0:
362,326,133925,2,0,P|376:269|427:246,1,103.999995239258,2|2,1:2|0:0,0:0:0:0:
476,222,134225,1,2,0:0:0:0:
478,153,134325,70,0,B|471:107|432:84|432:84|434:114,1,103.999995239258,0|0,1:0|0:0,0:0:0:0:
412,247,134625,2,0,B|375:274|375:320|375:320|400:303,1,103.999995239258,0|0,1:0|0:0,0:0:0:0:
476,222,134925,1,0,1:0:0:0:
327,175,135125,53,0,1:0:0:0:
241,321,135325,1,2,0:0:0:0:
223,312,135425,1,0,0:0:0:0:
202,312,135525,1,0,1:0:0:0:
41,212,135725,85,2,0:0:0:0:
78,213,135825,1,0,0:0:0:0:
113,197,135925,1,0,1:0:0:0:
262,50,136125,5,2,0:0:0:0:
327,55,136225,1,0,0:0:0:0:
375,98,136325,1,0,1:0:0:0:
201,78,136525,1,0,0:0:0:0:
392,165,136725,70,0,B|377:233|377:233|399:280,1,103.999995239258,0|2,1:0|0:0,0:0:0:0:
499,282,137025,1,2,0:0:0:0:
439,311,137125,2,0,B|312:295,1,103.999995239258,0|2,1:0|0:0,0:0:0:0:
261,180,137425,1,2,0:0:0:0:
261,180,137525,54,0,B|276:112|276:112|254:65,1,103.999995239258,0|0,1:0|0:0,0:0:0:0:
333,196,137825,2,0,P|288:250|232:241,1,103.999995239258,0|0,1:0|0:0,0:0:0:0:
197,217,138125,1,0,1:0:0:0:
65,195,138325,53,0,1:0:0:0:
193,72,138525,1,2,0:0:0:0:
216,67,138591,1,2,0:0:0:0:
240,69,138658,1,0,0:0:0:0:
261,80,138725,1,2,1:0:0:0:
462,149,138925,21,2,0:0:0:0:
414,192,139025,1,0,0:0:0:0:
409,256,139125,2,0,P|377:216|294:216,1,103.999995239258,0|0,1:0|0:0,0:0:0:0:
322,377,139425,2,0,P|372:369|414:297,1,103.999995239258,0|0,1:0|0:0,0:0:0:0:
325,292,139725,1,0,1:0:0:0:
141,216,139925,37,0,1:0:0:0:
99,159,140025,2,0,P|97:136|116:99,1,51.999997619629
186,270,140225,85,0,0:0:0:0:
141,216,140325,1,0,1:0:0:0:
186,270,140425,2,0,P|188:293|169:330,1,51.999997619629
114,359,140625,69,0,0:0:0:0:
49,323,140725,1,0,1:0:0:0:
231,102,140925,1,0,0:0:0:0:
44,210,141125,54,0,B|118:180|112:261|204:217,1,155.999992858887,0|0,1:0|0:0,0:0:0:0:
252,189,141525,37,0,1:0:0:0:
231,102,141725,1,2,0:0:0:0:
319,211,141925,21,0,1:0:0:0:
288,344,142125,1,2,0:0:0:0:
385,231,142325,69,0,1:0:0:0:
339,23,142525,1,2,0:0:0:0:
477,314,142725,6,0,B|448:309|448:309|416:282,1,51.999997619629,0|0,1:0|0:0,0:0:0:0:
293,41,142925,2,0,B|312:24|312:24|339:22,1,51.999997619629
480,131,143125,69,0,1:0:0:0:
385,231,143325,1,2,0:0:0:0:
345,210,143425,1,2,0:0:0:0:
300,213,143525,1,0,1:0:0:0:
211,321,143725,1,2,0:0:0:0:
137,158,143925,86,0,B|148:92|148:92|129:58,1,103.999995239258,0|2,1:0|0:0,0:0:0:0:
66,151,144225,1,2,0:0:0:0:
97,215,144325,2,0,P|141:193|207:201,1,103.999995239258,0|2,1:0|0:0,0:0:0:0:
402,239,144725,6,0,B|361:234|361:234|327:250|327:250|244:237,1,155.999992858887,0|2,1:0|0:0,0:0:0:0:
194,196,145125,2,0,P|217:241|190:311,1,103.999995239258,0|0,1:0|0:0,0:0:0:0:
48,118,145525,6,0,P|54:65|92:30,1,103.999995239258,0|2,1:0|0:0,0:0:0:0:
161,32,145825,1,2,0:0:0:0:
217,76,145925,2,0,B|265:96|299:69|299:69|333:77,1,103.999995239258,0|0,1:0|0:0,0:0:0:0:
457,144,146325,85,0,1:0:0:0:
430,231,146525,1,2,2:0:0:0:
388,150,146725,5,0,1:0:0:0:
349,296,146925,1,2,2:0:0:0:
336,97,147125,5,0,1:0:0:0:
297,243,147325,1,2,2:0:0:0:
260,166,147525,85,0,1:0:0:0:
231,252,147725,1,2,2:0:0:0:
208,107,147925,5,0,1:0:0:0:
146,319,148125,2,0,B|97:287|98:239|139:211|139:211|182:231,1,155.999992858887,2|0,0:0|0:0,0:0:0:0:
231,252,148525,5,2,2:0:0:0:
160,220,148625,1,2,0:0:0:0:
231,252,148725,2,0,B|266:273|266:273|350:256,1,103.999995239258,0|2,1:0|0:0,0:0:0:0:
427,87,149125,2,0,B|392:66|392:66|308:83,1,103.999995239258,0|2,1:0|0:0,0:0:0:0:
327,260,149525,85,0,1:0:0:0:
395,302,149725,2,0,P|415:301|439:290,2,34.6666650797527,8|8|0,0:0|0:0|0:0,0:0:0:0:
327,260,149925,1,0,1:0:0:0:
217,234,150125,6,0,P|241:220|271:217,1,51.999997619629,2|0,0:0|0:0,0:0:0:0:
327,260,150325,1,0,1:0:0:0:
150,202,150525,1,2,0:0:0:0:
327,260,150725,1,0,1:0:0:0:
469,148,150925,1,2,0:0:0:0:
327,260,151125,5,0,1:0:0:0:
313,184,151325,2,0,L|304:140,2,34.6666650797527,2|2|0,0:0|0:0|0:0,0:0:0:0:
327,260,151525,1,0,1:0:0:0:
84,164,151725,85,2,2:0:0:0:
224,206,151925,1,0,1:0:0:0:
194,282,152125,1,2,2:0:0:0:
139,223,152325,1,0,1:0:0:0:
253,130,152525,1,2,2:0:0:0:
131,322,152725,6,0,P|166:351|231:347,1,103.999995239258,0|2,1:0|0:0,0:0:0:0:
282,61,153125,6,0,P|231:59|190:90,1,103.999995239258,0|2,1:0|0:0,0:0:0:0:
253,130,153425,1,0,2:0:0:0:
253,130,153525,85,0,1:0:0:0:
180,232,153725,1,2,0:0:0:0:
372,295,153925,5,0,1:0:0:0:
371,170,154125,1,2,0:0:0:0:
254,334,154325,6,0,B|233:307|196:320|196:320|212:344|246:336,1,103.999995239258,0|0,1:0|0:0,0:0:0:0:
372,295,154725,86,0,B|399:268|429:257|448:263|457:272|456:284,1,103.999995239258,0|0,1:0|0:0,0:0:0:0:
161,176,155125,6,0,P|126:208|54:199,1,103.999995239258,0|0,1:0|0:0,0:0:0:0:
305,48,155525,6,0,B|402:21|366:96|482:61,1,155.999992858887,0|0,1:0|0:0,0:0:0:0:
454,67,155925,6,0,P|391:152|516:153,1,280,4|0,0:0|0:0,0:0:0:0:
453,133,156725,38,0,B|429:122|429:122|401:134|401:134|373:116|335:127,1,120,2|0,0:0|0:0,0:0:0:0:
275,184,157125,70,0,B|292:178|292:178|321:205|367:188,1,83.9999974365235,2|0,0:0|0:0,0:0:0:0:
340,125,157525,38,2,B|301:116|301:116|282:87|282:87|224:83|187:134|217:184,1,204.000003890991,2|0,0:1|0:1,0:1:0:0:
251,234,157925,101,2,0:0:0:0:
250,240,158058,1,2,0:0:0:0:
236,372,158191,1,2,0:0:0:0:
270,316,158325,6,0,P|245:305|219:308,1,53.3333333333333
168,351,158725,38,0,P|244:331|310:375,1,160.000006103516,2|0,0:0|0:0,0:0:0:0:
394,259,159125,22,0,B|376:182|376:182|400:137,1,117.333336914063,4|2,0:0|0:0,0:0:0:0:
470,171,159525,1,4,0:0:0:0:
461,44,159658,5,0,0:0:0:0:
509,103,159791,1,2,0:0:0:0:
386,72,159925,5,4,0:0:0:0:
394,148,160058,2,0,L|354:161,2,29.3333342285157,2|0|2,0:0|0:0|0:0,0:0:0:0:
297,179,160325,86,0,B|263:174|263:174|235:188|235:188|167:177,1,117.333336914063,4|2,0:0|0:0,0:0:0:0:
104,164,160725,1,4,0:0:0:0:
104,164,160991,5,2,0:0:0:0:
103,299,161125,2,0,P|133:280|175:283,1,58.6666684570313,4|0,0:0|0:0,0:0:0:0:
212,329,161391,5,2,0:0:0:0:
233,256,161525,1,4,0:0:0:0:
306,334,161658,1,2,0:0:0:0:
327,234,161791,1,2,0:0:0:0:
389,278,161925,2,0,B|426:298|426:298|506:279,1,117.333336914063,4|2,0:0|0:0,0:0:0:0:
408,123,162325,86,0,B|371:103|371:103|291:122,1,117.333336914063,4|2,0:0|0:0,0:0:0:0:
215,156,162725,1,4,0:0:0:0:
235,0,162858,1,0,0:0:0:0:
225,77,162991,1,2,0:0:0:0:
152,108,163125,5,4,0:0:0:0:
283,128,163258,2,0,L|314:112,2,29.3333342285157,2|0|2,0:0|0:0|0:0,0:0:0:0:
200,228,163525,2,0,B|166:223|166:223|140:235|140:235|69:223,1,117.333336914063,4|2,0:0|0:0,0:0:0:0:
203,309,163925,6,0,L|258:291,1,58.6666684570313,4|0,0:0|0:0,0:0:0:0:
365,209,164191,85,2,0:0:0:0:
367,216,164325,1,4,0:0:0:0:
372,327,164458,6,0,P|406:325|431:303,1,58.6666684570313,2|2,0:0|0:0,0:0:0:0:
368,224,164725,1,4,0:0:0:0:
340,140,164858,6,0,L|344:110,1,29.3333342285157,2|0,0:1|0:0,0:0:0:0:
268,157,164991,2,0,L|271:186,1,29.3333342285157,2|0,0:1|0:0,0:0:0:0:
340,140,165125,86,0,B|316:128|316:128|281:142|281:142|247:118|182:137,1,149.333328776042,4|2,0:0|0:1,0:0:0:0:
96,95,165525,6,0,B|77:82|77:82|44:104|38:143|75:173,1,117.333336914063,4|2,0:0|0:0,0:0:0:0:
129,208,165925,1,4,0:0:0:0:
152,316,166058,1,0,0:0:0:0:
152,316,166191,1,2,0:0:0:0:
208,221,166325,1,4,0:0:0:0:
188,97,166458,6,0,L|193:68,2,29.3333342285157,2|0|2,0:0|0:0|0:0,0:0:0:0:
152,316,166725,2,0,B|186:310|186:310|210:320|210:320|274:307,1,117.333336914063,4|2,0:0|0:0,0:0:0:0:
358,245,167125,86,0,B|381:281|381:281|370:360,1,117.333336914063,4|2,0:0|0:0,0:0:0:0:
480,223,167525,2,0,B|457:187|457:187|468:108,1,117.333336914063,4|2,0:0|0:0,0:0:0:0:
410,38,167925,5,4,0:0:0:0:
359,175,168058,1,2,0:0:0:0:
359,175,168191,1,2,0:0:0:0:
467,113,168325,6,0,B|443:101|443:101|408:115|408:115|374:91|309:110,1,149.333328776042,4|2,0:0|0:0,0:0:0:0:
273,182,168725,85,4,0:0:0:0:
227,113,168858,1,0,0:0:0:0:
148,89,168991,1,0,0:0:0:0:
65,107,169125,6,0,P|8:109|54:86,1,149.333328776042,8|0,0:2|0:0,0:0:0:0:
148,89,169525,5,4,0:0:0:0:
127,252,169658,1,2,0:0:0:0:
127,252,169725,1,0,0:0:0:0:
127,252,169791,1,0,0:0:0:0:
23,202,169925,6,0,B|72:208|101:178|101:178|145:168|171:194,1,149.333328776042,8|0,0:2|0:0,0:0:0:0:
265,288,170325,86,0,B|220:259|221:215|258:190|258:190|275:200|304:203,1,149.333328776042,4|2,0:0|0:0,0:0:0:0:
304,203,170658,1,0,0:0:0:0:
322,201,170725,5,4,0:0:0:0:
302,136,170858,1,2,0:0:0:0:
420,264,170991,85,4,0:0:0:0:
379,315,171125,2,0,P|404:328|434:328,1,58.6666684570313
434,328,171391,1,0,0:0:0:0:
271,228,171525,38,0,P|241:228|215:241,1,58.6666684570313
215,240,171791,1,0,0:0:0:0:
273,308,171925,6,0,B|316:270|325:203|299:162|232:178|237:235|273:227,1,200.000007629395,4|0,1:0|0:0,0:0:0:0:
354,312,172725,54,2,P|384:295|435:299,1,80.0000030517579,2|2,0:1|0:0,0:1:0:0:
270,227,173125,2,0,P|243:206|192:201,1,80.0000030517579
258,324,173525,5,0,1:1:0:0:
320,125,173925,2,0,P|312:77|279:52,1,80.0000030517579
252,120,174325,2,2,P|221:114|242:136,1,80.0000030517579,2|0,0:1|0:0,0:1:0:0:
339,193,174725,2,0,B|367:179|367:179|421:185,1,80.0000030517579
460,290,175125,21,0,1:0:0:0:
316,334,175525,2,0,B|288:348|288:348|234:342,1,80.0000030517579
162,260,175925,5,0,0:0:0:0:
159,254,176191,53,2,0:0:0:0:
117,154,176325,1,0,0:0:0:0:
157,249,176591,5,2,0:0:0:0:
133,125,176725,1,0,1:1:0:0:
155,244,176991,21,0,0:0:0:0:
164,101,177125,1,0,0:0:0:0:
155,244,177391,5,2,0:0:0:0:
203,89,177525,1,0,0:0:0:0:
153,239,177791,54,0,B|238:208|219:289|322:242,1,160,2|2,0:0|0:0,0:0:0:0:
325,149,178325,6,0,B|357:160|356:199|356:199|342:191|334:179,1,80.0000030517579,4|0,1:0|0:0,0:0:0:0:
299,321,178725,2,0,P|259:305|207:315,1,80.0000030517579,0|2,0:1|0:0,0:0:0:0:
130,352,179125,21,2,0:1:0:0:
130,352,179525,1,0,0:0:0:0:
59,181,179925,6,0,B|49:231|49:231|61:267,1,80.0000030517579,2|0,1:0|0:0,0:0:0:0:
130,352,180325,1,0,0:0:0:0:
130,352,180591,53,0,0:0:0:0:
211,268,180725,2,2,P|250:265|285:283,1,80.0000030517579,2|0,0:1|0:0,0:1:0:0:
440,172,181125,2,0,P|400:176|368:199,1,80.0000030517579
339,355,181525,5,0,1:0:0:0:
339,355,181925,2,0,P|351:300|326:262,1,80.0000030517579
262,192,182325,21,0,0:0:0:0:
258,187,182591,5,2,0:0:0:0:
167,176,182725,1,0,0:0:0:0:
162,170,182991,53,2,0:0:0:0:
292,153,183125,1,0,1:0:0:0:
295,149,183391,5,2,0:0:0:0:
107,124,183525,1,0,0:0:0:0:
104,119,183791,37,2,0:0:0:0:
348,86,183925,2,2,P|392:75|355:104,1,127.99999609375,2|0,0:1|0:1,0:1:0:0:
347,113,184325,54,0,P|404:74|336:85,1,191.999994140625,0|0,0:1|0:1,0:1:0:0:
364,212,184725,102,0,B|346:210|346:210|327:198|327:198|304:202|304:202|280:188|280:188|246:180|205:209,1,160,4|4,1:2|0:0,0:0:0:0:
215,202,186325,5,4,1:2:0:0:
116,143,186525,2,0,B|86:124|70:73|79:48|130:57|106:83,1,120,4|4,0:0|0:0,0:0:0:0:
110,77,187725,101,4,0:0:0:0:
86,211,187925,2,0,B|173:237|153:173|244:202,1,160,4|4,1:2|0:0,0:0:0:0:
240,200,189125,6,0,L|252:255,1,40
264,324,189525,1,4,1:2:0:0:
240,200,189725,102,0,P|267:177|313:176,1,80,4|0,0:0|0:0,0:0:0:0:
166,329,190325,2,0,P|126:328|95:303,1,80,4|2,0:0|0:0,0:0:0:0:
327,273,191125,6,0,B|341:300|341:300|333:364,1,80,4|0,0:0|0:0,0:0:0:0:
417,147,191925,2,0,B|403:120|403:120|411:56,1,80,4|0,0:0|0:0,0:0:0:0:
459,202,192525,1,0,0:0:0:0:
395,213,192725,102,0,P|369:199|323:200,1,60.0000022888184,4|0,0:0|0:0,0:0:0:0:
229,265,193125,2,0,B|265:261|265:261|294:271|294:271|357:261,1,120.000004577637,0|4,0:0|0:0,0:0:0:0:
229,265,193925,5,0,0:0:0:0:
161,315,194125,1,4,0:0:0:0:
82,170,194325,102,0,P|71:140|86:105,1,60.0000022888184,4|0,0:0|0:0,0:0:0:0:
116,246,194725,6,0,L|34:239,1,80,0|0,1:0|0:0,0:0:0:0:
295,181,195125,102,0,P|326:222|308:286,1,100,4|0,0:0|0:0,0:0:0:0:
223,115,195525,6,0,L|365:101,1,120.000004577637,0|0,1:0|0:0,0:0:0:0:
320,347,195925,102,0,L|239:336,1,80,4|2,0:0|0:0,0:0:0:0:
240,336,196225,5,0,0:0:0:0:
189,271,196325,2,0,L|283:261,1,80,4|2,0:0|0:0,0:0:0:0:
268,262,196625,101,0,0:0:0:0:
333,197,196725,2,2,L|239:189,1,80,4|2,0:0|0:0,0:0:0:0:
253,190,197025,5,0,0:0:0:0:
173,132,197125,2,0,L|266:120,1,80,4|2,0:0|0:0,0:0:0:0:
252,121,197425,101,0,0:0:0:0:
292,63,197525,2,0,L|320:78,1,20
335,51,197625,2,0,L|351:77,1,20
378,62,197725,2,0,L|379:93,1,20,0|0,2:0|2:0,2:0:0:0:
409,93,197825,2,0,L|394:121,1,20
421,135,197925,6,0,L|394:151,1,20,0|0,2:0|2:0,2:0:0:0:
410,178,198025,2,0,L|378:179,1,20,0|0,2:0|2:0,2:0:0:0:
379,209,198125,2,0,L|351:194,1,20
337,221,198225,2,0,L|320:194,1,20,0|0,2:0|2:0,2:0:0:0:
297,218,198325,69,4,0:0:0:0:
177,52,198525,70,0,P|209:92|192:145,1,95.9999970703126,2|2,0:0|0:0,0:0:0:0:
195,204,199025,1,0,0:0:0:0:
138,161,199125,22,0,B|99:149|99:149|33:162,1,103.999995239258,0|2,1:0|0:0,0:0:0:0:
175,294,199425,1,2,0:0:0:0:
175,294,199525,2,0,P|165:245|194:204,1,103.999995239258,0|2,1:0|0:0,0:0:0:0:
283,105,199825,1,2,0:0:0:0:
310,43,199925,22,0,P|345:78|342:136,1,103.999995239258,0|2,1:0|0:0,0:0:0:0:
501,202,200225,2,0,L|380:189,1,103.999995239258,0|0,1:0|0:0,0:0:0:0:
340,243,200525,1,0,1:0:0:0:
188,259,200725,70,0,P|228:291|301:273,1,103.999995239258,0|2,1:0|0:0,0:0:0:0:
340,243,201025,1,2,0:0:0:0:
397,190,201125,2,0,L|501:202,1,103.999995239258,0|2,1:0|0:0,0:0:0:0:
449,87,201425,1,2,0:0:0:0:
449,87,201525,6,0,B|410:76|410:76|335:88,1,103.999995239258,0|2,1:0|0:0,0:0:0:0:
188,243,201825,2,0,B|227:254|227:254|302:242,1,103.999995239258,0|0,1:0|0:0,0:0:0:0:
328,169,202125,1,0,1:0:0:0:
101,40,202325,22,0,P|138:74|146:124,1,103.999995239258,2|2,1:2|0:0,0:0:0:0:
138,136,202591,1,0,0:0:0:0:
128,146,202658,1,0,0:0:0:0:
118,157,202725,2,0,P|157:128|231:141,1,103.999995239258,2|2,1:2|0:0,0:0:0:0:
282,163,203025,1,2,0:0:0:0:
320,231,203125,70,0,B|330:301|330:301|301:345,1,103.999995239258,0|2,1:0|0:0,0:0:0:0:
282,163,203425,2,0,P|334:154|384:188,1,103.999995239258,0|0,1:0|0:0,0:0:0:0:
395,251,203725,1,0,1:0:0:0:
253,276,203925,6,0,L|133:263,1,103.999995239258,0|2,1:0|0:0,0:0:0:0:
111,325,204225,1,0,0:0:0:0:
149,264,204325,1,0,1:0:0:0:
208,156,204525,21,2,0:0:0:0:
166,150,204625,1,0,0:0:0:0:
124,145,204725,1,0,1:0:0:0:
436,106,204925,69,2,0:0:0:0:
430,121,205025,1,0,0:0:0:0:
424,136,205125,1,0,1:0:0:0:
398,41,205325,1,2,0:0:0:0:
468,202,205525,6,0,B|434:221|434:221|361:212,1,103.999995239258,0|2,1:0|0:0,0:0:0:0:
321,157,205825,1,2,0:0:0:0:
273,100,205925,2,0,L|161:84,1,103.999995239258,0|2,1:0|0:0,0:0:0:0:
202,257,206225,1,2,0:0:0:0:
202,257,206325,22,0,P|232:215|222:155,1,103.999995239258,0|2,1:0|0:0,0:0:0:0:
59,206,206625,2,0,B|93:187|93:187|166:196,1,103.999995239258,0|0,1:0|0:0,0:0:0:0:
227,164,206925,1,0,1:0:0:0:
163,324,207125,69,0,1:0:0:0:
264,341,207325,1,2,0:0:0:0:
287,327,207391,1,2,0:0:0:0:
314,324,207458,1,0,0:0:0:0:
340,333,207525,1,2,1:2:0:0:
231,244,207725,5,2,0:0:0:0:
197,184,207825,1,2,0:0:0:0:
135,157,207925,2,0,P|76:163|37:202,1,103.999995239258,0|2,1:0|0:0,0:0:0:0:
144,335,208225,2,0,L|253:319,1,103.999995239258,0|0,1:0|0:0,0:0:0:0:
303,270,208525,1,0,1:0:0:0:
413,132,208725,21,0,1:0:0:0:
355,84,208825,2,0,P|327:76|282:86,1,51.999997619629
437,203,209025,69,0,0:0:0:0:
413,132,209125,1,0,1:0:0:0:
355,84,209225,2,0,P|327:76|282:86,1,51.999997619629
223,101,209425,5,0,0:0:0:0:
223,101,209525,1,0,1:0:0:0:
215,183,209725,1,2,0:0:0:0:
207,265,209925,1,0,1:0:0:0:
197,347,210125,1,2,0:0:0:0:
291,318,210325,21,0,1:0:0:0:
373,308,210525,1,0,0:0:0:0:
207,247,210725,69,0,1:0:0:0:
125,237,210925,1,0,0:0:0:0:
357,158,211125,5,0,1:0:0:0:
439,148,211325,1,0,0:0:0:0:
114,96,211525,22,0,L|47:87,1,68.0000012969971,4|0,1:2|0:0,0:0:0:0:
395,57,211725,2,0,L|463:48,1,68.0000012969971,4|0,1:2|0:0,0:0:0:0:
264,34,211925,5,0,1:0:0:0:
233,120,212125,1,2,0:0:0:0:
266,149,212225,1,2,0:0:0:0:
273,192,212325,1,0,1:0:0:0:
264,34,212525,1,2,0:0:0:0:
209,271,212725,6,0,P|160:246|103:257,1,103.999995239258,0|2,1:0|0:0,0:0:0:0:
197,343,213025,1,2,0:0:0:0:
266,319,213125,2,0,P|316:324|362:299,1,103.999995239258,0|2,1:0|0:0,0:0:0:0:
478,170,213525,6,0,B|429:164|429:164|393:179|393:179|305:166,1,155.999992858887,0|2,1:0|0:0,0:0:0:0:
271,112,213925,2,0,P|265:64|317:24,1,103.999995239258,0|0,1:0|0:0,0:0:0:0:
427,248,214325,2,0,P|460:284|458:344,1,103.999995239258,0|2,1:0|0:0,0:0:0:0:
366,187,214625,85,2,0:0:0:0:
366,187,214725,2,0,L|484:176,1,103.999995239258,0|0,1:0|0:0,0:0:0:0:
275,150,215125,5,0,1:0:0:0:
191,74,215325,1,2,0:0:0:0:
205,194,215525,5,0,1:0:0:0:
261,30,215725,1,2,0:0:0:0:
79,164,215925,85,0,1:0:0:0:
387,60,216125,1,2,2:0:0:0:
147,103,216325,5,0,1:0:0:0:
318,122,216525,1,2,0:0:0:0:
218,144,216725,5,0,1:0:0:0:
248,80,216925,2,0,B|259:122|259:122|226:180|226:180|244:247,1,155.999992858887,2|0,0:0|0:0,0:0:0:0:
299,189,217325,85,2,0:0:0:0:
237,224,217425,1,2,0:0:0:0:
175,257,217525,2,0,P|147:209|167:150,1,103.999995239258,0|2,1:0|0:0,0:0:0:0:
438,218,217925,5,0,1:0:0:0:
299,189,218125,1,2,0:0:0:0:
175,257,218325,1,0,1:0:0:0:
312,259,218525,6,0,L|319:294,2,34.6666650797527,8|8|0,0:0|0:0|0:0,0:0:0:0:
299,189,218725,1,0,1:0:0:0:
330,360,218925,1,2,0:0:0:0:
299,189,219125,86,0,B|258:172|258:172|178:183,1,103.999995239258,0|2,1:0|0:0,0:0:0:0:
34,351,219525,2,0,B|75:368|75:368|155:357,1,103.999995239258,0|2,1:0|0:0,0:0:0:0:
199,180,219925,1,0,1:0:0:0:
185,303,220125,6,0,L|169:238,1,51.999997619629,2|2,0:0|0:0,0:0:0:0:
199,180,220325,1,0,1:0:0:0:
134,360,220525,5,2,2:0:0:0:
81,172,220725,1,0,1:0:0:0:
39,282,220925,85,2,2:0:0:0:
230,292,221125,1,0,1:0:0:0:
199,179,221325,5,2,2:0:0:0:
135,256,221525,1,0,1:0:0:0:
224,80,221725,1,2,0:0:0:0:
251,84,221791,1,2,0:0:0:0:
273,100,221858,1,0,0:0:0:0:
286,122,221925,1,0,1:0:0:0:
261,299,222125,5,2,0:0:0:0:
198,278,222225,1,0,0:0:0:0:
135,256,222325,1,0,1:0:0:0:
227,377,222525,85,2,0:0:0:0:
189,159,222725,1,0,1:0:0:0:
75,312,222925,5,2,0:0:0:0:
360,229,223125,2,4,B|334:269|280:272|241:258|244:214|281:211|287:238,1,155.999992858887,0|0,1:0|0:0,0:0:0:0:
388,160,223525,6,0,B|425:84|375:68|342:117|450:143,1,155.999992858887,0|0,1:0|0:0,0:0:0:0:
437,210,223925,1,0,1:0:0:0:
439,214,224325,85,0,1:0:0:0:
89,252,224725,5,4,0:0:0:0:
476,122,225125,5,0,0:0:0:0:
36,80,225525,5,0,0:0:0:0:
475,51,225925,70,0,B|427:41|427:41|391:62|391:62|310:55,1,155.999992858887
254,107,226325,6,0,P|187:100|217:176,1,155.999992858887,8|0,0:0|0:0,0:0:0:0:
260,195,226725,1,8,0:0:0:0:
271,207,226791,1,0,0:0:0:0:
282,219,226858,1,0,0:0:0:0:
293,231,226925,6,0,L|353:223,1,51.999997619629,2|0,0:0|0:0,0:0:0:0:
418,114,227125,2,0,L|366:120,1,51.999997619629,8|0,0:0|0:0,0:0:0:0:
428,272,227325,2,0,L|479:265,1,51.999997619629,2|0,0:0|0:0,0:0:0:0:
367,337,227525,6,0,B|324:330|324:330|313:299|313:299|266:361|266:361|255:331|255:331|188:320,1,240,4|0,0:0|0:0,0:0:0:0:
201,322,227925,21,0,1:0:0:0:
48,362,228125,1,2,0:0:0:0:
143,276,228325,2,2,B|158:245|158:245|138:166|138:166|118:211,1,155.999992858887,2|0,0:1|0:0,0:1:0:0:
48,362,228725,6,0,P|81:344|116:348,1,51.999997619629,8|0,0:0|0:0,0:0:0:0:
242,311,228925,1,2,0:0:0:0:
48,362,229125,2,0,B|69:335|117:344|117:344|147:381|210:360,1,155.999992858887,0|0,1:0|0:0,0:0:0:0:
242,311,229525,6,0,P|257:260|235:225,1,80
187,153,229925,2,2,B|174:145|174:145|157:153|157:153|135:140|135:140|104:145|88:178,1,120,2|0,0:1|0:1,0:1:0:0:
70,251,230325,6,0,P|97:242|119:242,1,40,8|0,0:0|0:0,0:0:0:0:
203,301,230525,2,0,P|230:310|252:310,1,40,2|0,0:0|0:0,0:0:0:0:
362,261,230725,2,0,B|392:235|453:250|453:250|424:222,1,120,2|0,0:0|0:0,0:0:0:0:
435,232,231125,5,0,1:0:0:0:
291,217,231325,2,0,P|291:200|299:185,1,32,2|0,0:1|0:0,0:0:0:0:
435,232,231525,2,0,P|409:219|363:223,1,64,0|2,0:0|0:0,0:0:0:0:
291,217,231825,5,2,0:0:0:0:
291,217,231925,2,0,P|291:200|299:185,1,32,8|0,0:0|0:0,0:0:0:0:
362,72,232125,2,0,P|368:86|368:102,1,32
291,217,232325,2,0,P|264:203|218:207,1,64,0|0,1:0|0:0,0:0:0:0:
160,279,232725,6,0,L|164:312,1,32,2|0,0:0|0:0,0:0:0:0:
82,246,232925,2,0,L|86:210,1,32,2|0,0:1|0:0,0:0:0:0:
128,144,233125,6,0,P|152:142|183:150,1,40
42,317,233325,2,0,P|22:317|2:314,1,40
82,246,233525,6,2,B|127:237|127:237|165:256|165:256|275:236,1,180.000006866455,2|0,0:1|0:0,0:1:0:0:
177,182,233925,2,0,L|182:122,1,60.0000022888184,2|0,1:0|0:0,0:0:0:0:
319,275,234125,2,0,L|313:340,1,60.0000022888184,2|0,0:0|0:0,0:0:0:0:
187,30,234325,5,0,1:1:0:0:
313,71,234525,1,2,0:0:0:0:
441,41,234725,2,2,B|462:22|462:22|498:44|510:101|450:129,1,155.999992858887,2|0,0:1|0:1,0:1:0:0:
377,157,235125,5,8,0:0:0:0:
313,71,235325,2,0,P|303:101|308:127,1,51.999997619629,2|0,0:0|0:0,0:0:0:0:
377,157,235525,2,0,B|334:149|334:149|296:164|296:164|212:152,1,155.999992858887,0|0,1:1|0:0,0:0:0:0:
165,114,235925,5,0,0:0:0:0:
289,229,236125,1,2,0:0:0:0:
444,155,236325,2,2,P|489:160|449:177,1,120,2|2,0:1|0:1,0:1:0:0:
377,172,236725,5,8,0:0:0:0:
307,181,236925,1,0,0:0:0:0:
236,191,237125,1,2,0:0:0:0:
166,200,237325,1,0,0:0:0:0:
95,210,237525,5,0,1:0:0:0:
236,191,237725,2,0,L|281:185,1,35.9999989013672,2|0,0:1|0:0,0:0:0:0:
95,210,237925,2,0,L|179:198,1,71.9999978027344,2|2,0:0|0:0,0:0:0:0:
236,191,238225,1,2,0:0:0:0:
236,191,238325,6,0,L|281:185,1,35.9999989013672,8|0,0:0|0:0,0:0:0:0:
325,65,238525,2,0,L|331:110,1,35.9999989013672,2|0,0:0|0:0,0:0:0:0:
446,164,238725,2,0,L|401:170,1,35.9999989013672,0|0,1:0|0:0,0:0:0:0:
357,290,238925,2,0,L|351:245,1,35.9999989013672,2|0,0:0|0:0,0:0:0:0:
342,179,239125,5,2,0:1:0:0:
314,359,239325,1,0,0:0:0:0:
286,299,239425,1,0,0:0:0:0:
223,278,239525,2,0,P|181:281|150:300,1,71.9999978027344,2|0,0:1|0:0,0:0:0:0:
66,342,239925,6,0,P|54:317|54:283,1,51.999997619629,4|0,0:0|0:0,0:0:0:0:
177,78,240125,2,0,P|179:109|171:134,1,51.999997619629,4|0,0:0|0:0,0:0:0:0:
21,208,240325,2,0,B|71:198|71:198|113:221|113:221|189:215,1,155.999992858887,4|0,1:0|0:0,0:0:0:0:
169,216,240725,5,4,1:0:0:0:
261,339,241025,1,0,0:0:0:0:
261,339,241125,1,2,0:0:0:0:
343,330,241325,1,0,0:0:0:0:
215,256,241525,1,8,0:0:0:0:
133,247,241725,1,0,0:0:0:0:
338,175,241925,1,0,1:0:0:0:
420,166,242125,1,0,0:0:0:0:
198,120,242325,70,0,B|73:105,1,120,2|0,0:0|0:0,0:0:0:0:
24,59,242725,2,0,B|7:95|7:95|15:137,1,80,0|0,1:0|0:0,0:0:0:0:
101,191,243125,37,8,0:0:0:0:
173,29,243325,1,0,0:0:0:0:
228,210,243525,1,2,0:0:0:0:
300,48,243725,1,0,0:0:0:0:
227,121,243925,70,0,B|135:112,1,80,0|0,1:0|0:0,0:0:0:0:
78,105,244225,1,2,0:0:0:0:
78,105,244325,1,2,0:0:0:0:
101,191,244525,1,0,0:0:0:0:
202,315,244725,37,8,0:0:0:0:
225,230,244925,1,0,0:0:0:0:
296,21,245125,69,0,1:0:0:0:
318,106,245325,1,0,0:0:0:0:
432,192,245525,5,2,0:0:0:0:
422,211,245625,1,0,0:0:0:0:
378,281,245725,5,2,0:0:0:0:
371,260,245825,1,0,0:0:0:0:
340,182,245925,21,2,0:0:0:0:
331,201,246025,1,0,0:0:0:0:
286,270,246125,69,2,0:0:0:0:
279,250,246225,1,0,0:0:0:0:
257,188,246325,6,0,B|185:180|185:180|151:217,1,120,8|0,0:0|1:0,0:0:0:0:
110,272,246725,1,0,1:0:0:0:
152,116,246925,2,0,L|126:147,1,40,8|0,0:0|0:0,0:0:0:0:
27,270,247125,1,0,1:0:0:0:
12,171,247325,85,2,0:0:0:0:
42,188,247425,1,0,0:0:0:0:
73,204,247525,1,8,0:0:0:0:
165,256,247725,1,2,0:0:0:0:
73,204,247925,5,8,0:0:0:0:
256,306,248125,1,0,0:0:0:0:
439,204,248325,1,0,1:0:0:0:
439,204,248925,69,2,0:0:0:0:
434,66,249125,2,0,P|410:100|420:146,1,80,8|2,1:2|0:0,0:0:0:0:
439,204,249425,1,0,0:0:0:0:
439,204,249525,38,0,L|389:197,1,40,8|0,0:0|0:0,0:0:0:0:
357,282,249725,2,0,L|307:275,1,40,2|0,0:0|0:0,0:0:0:0:
306,121,249925,2,0,B|269:115|269:115|237:132|237:132|162:119,1,120,2|0,0:0|0:0,0:0:0:0:
191,124,250325,1,0,1:0:0:0:
104,7,250525,69,0,0:0:0:0:
107,38,250625,1,0,0:0:0:0:
111,69,250725,1,8,0:0:0:0:
23,95,250925,1,0,0:0:0:0:
213,142,251125,37,8,0:0:0:0:
319,173,251325,1,0,0:0:0:0:
139,243,251525,69,0,1:0:0:0:
1,283,251725,1,0,0:0:0:0:
290,307,251925,38,2,L|384:318,1,80
427,361,252225,1,0,0:0:0:0:
427,361,252325,2,0,B|442:324|442:324|429:274,1,80,2|0,0:0|0:0,0:0:0:0:
458,193,252725,86,0,P|432:186|409:191,1,40,4|0,0:0|0:0,0:0:0:0:
356,226,252925,2,0,P|330:233|307:228,1,40,4|0,0:0|0:0,0:0:0:0:
243,224,253125,38,0,B|206:211|167:169|172:135|193:122|218:116|242:123|257:141|256:166|247:185|224:198|194:198|179:166|148:161|117:169|93:205,1,320,8|0,0:0|0:0,0:0:0:0:
