osu file format v14

[General]
AudioFilename: audio.mp3
AudioLeadIn: 0
PreviewTime: 51125
Countdown: 0
SampleSet: Soft
StackLeniency: 0.5
Mode: 0
LetterboxInBreaks: 0
StoryFireInFront: 0
EpilepsyWarning: 1
WidescreenStoryboard: 1

[Editor]
Bookmarks: 13525,25925,104725,184725,240725
DistanceSpacing: 1.1
BeatDivisor: 8
GridSize: 32
TimelineZoom: 2.5

[Metadata]
Title:YoiYoi Kokon
TitleUnicode:宵々古今
Artist:REOL
ArtistUnicode:REOL
Creator:DreaM117er
Version:Expert
Source:
Tags:れをる giga-p gigap okiku Σ sigma Regraz Misure Frey Flask kiddly Starrodkirby86 Chaoslitz m1223961117
BeatmapID:1156136
BeatmapSetID:545737

[Difficulty]
HPDrainRate:6
CircleSize:4.5
OverallDifficulty:8
ApproachRate:9
SliderMultiplier:1.7
SliderTickRate:1

[Events]
//Background and Video events
0,0,"BG.jpg",0,0
//Break Periods
//Storyboard Layer 0 (Background)
//Storyboard Layer 1 (Fail)
//Storyboard Layer 2 (Pass)
//Storyboard Layer 3 (Foreground)
Sprite,Foreground,Centre,"SB\intro\main\DREAM117ER\_000.png",320,240 F,0,7125,8725,1
//Storyboard Sound Samples

[TimingPoints]
725,400,4,2,1,80,1,0
7125,-166.666666666667,4,2,1,80,0,0
10625,-166.666666666667,4,2,1,10,0,0
10725,-142.857142857143,4,2,1,80,0,0
11125,-125,4,2,1,80,0,0
11425,-125,4,2,1,80,0,0
11525,-111.111111111111,4,2,1,80,0,0
11925,-100,4,2,1,80,0,0
12025,-100,4,2,1,10,0,0
12125,-83.3333333333333,4,2,1,80,0,0
12225,-83.3333333333333,4,2,1,10,0,0
12325,-71.4285714285714,4,2,1,80,0,0
12425,-71.4285714285714,4,2,1,10,0,0
12525,-62.5,4,2,1,80,0,0
12625,-62.5,4,2,1,10,0,0
12725,-55.5555555555556,4,2,1,80,0,0
13125,-71.4285714285714,4,2,1,80,0,0
13225,-71.4285714285714,4,2,1,10,0,0
13325,-71.4285714285714,4,2,1,80,0,0
13525,-90.9090909090909,4,2,2,80,0,0
14925,-90.9090909090909,4,2,1,80,0,0
15125,-90.9090909090909,4,2,2,80,0,0
15325,-90.9090909090909,4,2,1,80,0,0
15525,-90.9090909090909,4,2,2,80,0,0
17325,-90.9090909090909,4,2,1,80,0,0
17525,-90.9090909090909,4,2,2,80,0,0
17725,-90.9090909090909,4,2,1,80,0,0
17925,-90.9090909090909,4,2,2,80,0,0
21325,-90.9090909090909,4,2,1,80,0,0
21525,-90.9090909090909,4,2,2,80,0,0
21725,-90.9090909090909,4,2,1,80,0,0
21925,-90.9090909090909,4,2,2,80,0,0
23725,-90.9090909090909,4,2,1,80,0,0
23925,-90.9090909090909,4,2,2,80,0,0
24125,-90.9090909090909,4,2,1,80,0,0
24325,-90.9090909090909,4,2,2,80,0,0
25925,-55.5555555555556,4,2,2,80,0,0
26225,-55.5555555555556,4,2,2,10,0,0
26325,-90.9090909090909,4,2,2,80,0,0
27925,-90.9090909090909,4,2,2,80,0,0
28125,-90.9090909090909,4,2,1,80,0,0
28325,-90.9090909090909,4,2,2,80,0,0
28525,-90.9090909090909,4,2,1,80,0,0
28725,-90.9090909090909,4,2,2,80,0,0
28925,-90.9090909090909,4,2,1,80,0,0
29125,-90.9090909090909,4,2,2,80,0,0
29325,-90.9090909090909,4,2,1,80,0,0
29525,-90.9090909090909,4,2,2,80,0,0
31325,-90.9090909090909,4,2,1,80,0,0
31525,-90.9090909090909,4,2,2,80,0,0
31725,-90.9090909090909,4,2,1,80,0,0
31925,-90.9090909090909,4,2,2,80,0,0
32125,-90.9090909090909,4,2,1,80,0,0
32325,-90.9090909090909,4,2,2,80,0,0
32525,-90.9090909090909,4,2,1,80,0,0
32725,-90.9090909090909,4,2,2,80,0,0
34525,-90.9090909090909,4,2,1,80,0,0
34725,-90.9090909090909,4,2,2,80,0,0
34925,-90.9090909090909,4,2,1,80,0,0
35125,-90.9090909090909,4,2,2,80,0,0
35325,-90.9090909090909,4,2,1,80,0,0
35525,-90.9090909090909,4,2,2,80,0,0
36125,-90.9090909090909,4,2,1,80,0,0
36325,-90.9090909090909,4,2,2,80,0,0
36525,-90.9090909090909,4,2,1,80,0,0
36725,-90.9090909090909,4,2,2,80,0,0
36925,-90.9090909090909,4,2,1,80,0,0
37125,-90.9090909090909,4,2,2,80,0,0
39125,-166.666666666667,4,2,1,80,0,0
41325,-166.666666666667,4,2,1,10,0,0
41525,-166.666666666667,4,2,1,80,0,0
41925,-166.666666666667,4,2,1,10,0,0
42125,-166.666666666667,4,2,1,80,0,0
45425,-166.666666666667,4,2,1,10,0,0
45525,-166.666666666667,4,2,1,80,0,0
48725,-142.857142857143,4,2,1,80,0,0
48925,-142.857142857143,4,2,1,10,0,0
49125,-125,4,2,1,80,0,0
49325,-125,4,2,1,10,0,0
49525,-111.111111111111,4,2,1,80,0,0
49725,-111.111111111111,4,2,1,10,0,0
49925,-100,4,2,1,80,0,0
50125,-100,4,2,1,10,0,0
50325,-100,4,2,1,80,0,0
51325,-166.666666666667,4,2,1,80,0,0
51525,-166.666666666667,4,2,1,10,0,0
51725,-166.666666666667,4,2,1,80,0,0
51925,-86.9565217391304,4,2,2,80,0,1
52125,-86.9565217391304,4,2,1,80,0,1
54125,-86.9565217391304,4,2,2,80,0,1
54325,-86.9565217391304,4,2,1,80,0,1
55125,-86.9565217391304,4,2,2,80,0,1
55325,-86.9565217391304,4,2,1,80,0,1
57325,-86.9565217391304,4,2,2,80,0,1
57525,-86.9565217391304,4,2,1,80,0,1
58325,-86.9565217391304,4,2,2,80,0,1
58525,-86.9565217391304,4,2,1,80,0,1
60525,-86.9565217391304,4,2,2,80,0,1
60725,-86.9565217391304,4,2,1,80,0,1
64325,-71.4285714285714,4,2,1,80,0,1
64425,-71.4285714285714,4,2,1,10,0,1
64525,-62.5,4,2,2,80,0,1
64625,-62.5,4,2,1,10,0,1
64725,-86.9565217391304,4,2,2,80,0,1
64925,-86.9565217391304,4,2,1,80,0,1
70525,-86.9565217391304,4,2,2,80,0,1
70725,-86.9565217391304,4,2,1,80,0,1
70925,-86.9565217391304,4,2,2,80,0,1
71325,-86.9565217391304,4,2,1,80,0,1
72725,-86.9565217391304,4,2,2,80,0,1
72925,-86.9565217391304,4,2,1,80,0,1
76325,-90.9090909090909,4,2,1,80,0,1
76725,-100,4,2,1,80,0,1
77125,-166.666666666667,4,2,1,80,0,1
77925,-166.666666666667,4,2,1,70,0,1
78725,-71.4285714285714,4,2,1,80,0,0
79025,-71.4285714285714,4,2,1,10,0,0
79125,-125,4,2,2,80,0,0
79325,-125,4,2,1,80,0,0
79825,-125,4,2,1,10,0,0
79925,-125,4,2,1,80,0,0
80625,-125,4,2,1,10,0,0
80725,-125,4,2,1,80,0,0
82625,-125,4,2,1,10,0,0
82725,-125,4,2,1,80,0,0
84025,-125,4,2,1,10,0,0
84125,-125,4,2,1,80,0,0
84225,-125,4,2,1,10,0,0
84325,-125,4,2,1,80,0,0
84425,-125,4,2,1,10,0,0
84525,-125,4,2,1,80,0,0
84625,-125,4,2,1,10,0,0
84725,-125,4,2,1,80,0,0
85225,-125,4,2,1,10,0,0
85325,-125,4,2,1,80,0,0
85425,-125,4,2,1,10,0,0
85525,-125,4,2,2,80,0,0
85725,-125,4,2,1,80,0,0
86225,-125,4,2,1,10,0,0
86325,-125,4,2,1,80,0,0
87025,-125,4,2,1,10,0,0
87125,-125,4,2,1,80,0,0
89025,-125,4,2,1,10,0,0
89125,-125,4,2,1,80,0,0
91125,-71.4285714285714,4,2,1,80,0,0
91225,-71.4285714285714,4,2,1,10,0,0
91325,-62.5,4,2,1,80,0,0
91425,-62.5,4,2,1,10,0,0
91525,-55.5555555555556,4,2,1,80,0,0
91825,-55.5555555555556,4,2,1,10,0,0
91925,-125,4,2,2,80,0,0
92125,-125,4,2,1,80,0,0
98025,-125,4,2,1,10,0,0
98125,-125,4,2,1,80,0,0
98225,-125,4,2,1,10,0,0
98325,-125,4,2,2,80,0,0
98525,-125,4,2,1,80,0,0
99525,-125,4,2,2,80,0,0
99925,-125,4,2,1,80,0,0
101125,-125,4,2,2,80,0,0
101525,-125,4,2,1,80,0,0
103925,-166.666666666667,4,2,1,80,0,0
104225,-166.666666666667,4,2,1,10,0,0
104325,-55.5555555555556,4,2,1,80,0,0
104625,-55.5555555555556,4,2,1,10,0,0
104725,-90.9090909090909,4,2,2,80,0,0
104925,-90.9090909090909,4,2,1,80,0,0
105325,-90.9090909090909,4,2,2,80,0,0
105425,-90.9090909090909,4,2,1,80,0,0
108525,-90.9090909090909,4,2,2,80,0,0
108725,-90.9090909090909,4,2,1,80,0,0
111725,-90.9090909090909,4,2,2,80,0,0
111825,-90.9090909090909,4,2,1,80,0,0
114925,-90.9090909090909,4,2,2,80,0,0
115025,-90.9090909090909,4,2,1,80,0,0
117125,-90.9090909090909,4,2,2,80,0,0
117325,-90.9090909090909,4,2,1,80,0,0
117525,-166.666666666667,4,2,1,80,0,0
123825,-166.666666666667,4,2,1,10,0,0
123925,-166.666666666667,4,2,1,80,0,0
126125,-166.666666666667,4,2,1,10,0,0
126325,-166.666666666667,4,2,1,80,0,0
127125,-142.857142857143,4,2,1,80,0,0
127325,-142.857142857143,4,2,1,10,0,0
127525,-125,4,2,1,80,0,0
127725,-125,4,2,1,10,0,0
127925,-111.111111111111,4,2,1,80,0,0
128125,-111.111111111111,4,2,1,10,0,0
128325,-100,4,2,1,80,0,0
128525,-100,4,2,1,10,0,0
128725,-100,4,2,1,80,0,0
129725,-166.666666666667,4,2,1,80,0,0
129925,-166.666666666667,4,2,1,10,0,0
130125,-166.666666666667,4,2,1,80,0,0
130325,-86.9565217391304,4,2,2,80,0,1
130525,-86.9565217391304,4,2,1,80,0,1
132525,-86.9565217391304,4,2,2,80,0,1
132725,-86.9565217391304,4,2,1,80,0,1
133525,-86.9565217391304,4,2,2,80,0,1
133725,-86.9565217391304,4,2,1,80,0,1
135725,-86.9565217391304,4,2,2,80,0,1
135925,-86.9565217391304,4,2,1,80,0,1
136725,-86.9565217391304,4,2,2,80,0,1
136925,-86.9565217391304,4,2,1,80,0,1
138925,-86.9565217391304,4,2,2,80,0,1
139125,-86.9565217391304,4,2,1,80,0,1
142725,-62.5,4,2,1,80,0,1
142825,-62.5,4,2,1,10,0,1
142925,-55.5555555555556,4,2,2,80,0,1
143025,-55.5555555555556,4,2,1,10,0,1
143125,-86.9565217391304,4,2,2,80,0,1
143325,-86.9565217391304,4,2,1,80,0,1
148925,-86.9565217391304,4,2,2,80,0,1
149125,-86.9565217391304,4,2,1,80,0,1
149325,-86.9565217391304,4,2,2,80,0,1
149725,-86.9565217391304,4,2,1,80,0,1
151125,-86.9565217391304,4,2,2,80,0,1
151325,-86.9565217391304,4,2,1,80,0,1
154325,-86.9565217391304,4,2,1,80,0,1
154525,-86.9565217391304,4,2,1,10,0,1
154725,-90.9090909090909,4,2,1,80,0,1
154925,-90.9090909090909,4,2,1,10,0,1
155125,-100,4,2,1,80,0,1
155325,-100,4,2,1,10,0,1
155525,-166.666666666667,4,2,1,80,0,0
155825,-166.666666666667,4,2,1,10,0,0
155925,-125,4,2,1,40,0,0
156625,-125,4,2,1,10,0,0
156725,-142.857142857143,4,2,1,40,0,0
157025,-142.857142857143,4,2,1,10,0,0
157125,-83.3333333333333,4,2,1,40,0,0
157425,-83.3333333333333,4,2,1,10,0,0
157525,-71.4285714285714,4,2,1,40,0,0
157825,-71.4285714285714,4,2,1,10,0,0
157925,-100,4,2,1,80,0,0
158325,-166.666666666667,4,2,1,60,0,0
158725,-55.5555555555556,4,2,1,80,0,0
159025,-55.5555555555556,4,2,1,10,0,0
159125,-111.111111111111,4,2,1,80,0,0
170525,-111.111111111111,4,2,1,10,0,0
170591,-111.111111111111,4,2,1,80,0,0
171258,-111.111111111111,4,2,1,10,0,0
171391,-111.111111111111,4,2,1,80,0,0
171658,-111.111111111111,4,2,1,10,0,0
171791,-111.111111111111,4,2,1,80,0,0
171925,-125,4,2,1,80,0,1
172025,-125,4,2,1,80,0,0
172625,-125,4,2,1,10,0,0
172725,-125,4,2,1,80,0,0
172925,-125,4,2,1,10,0,0
173125,-125,4,2,1,80,0,0
173325,-125,4,2,1,10,0,0
173525,-125,4,2,1,80,0,0
174225,-125,4,2,1,10,0,0
174325,-125,4,2,1,80,0,0
174525,-125,4,2,1,10,0,0
174725,-125,4,2,1,80,0,0
174925,-125,4,2,1,10,0,0
175125,-125,4,2,1,80,0,0
177925,-100,4,2,1,80,0,0
178325,-125,4,2,1,80,0,0
179025,-125,4,2,1,10,0,0
179125,-125,4,2,1,80,0,0
179325,-125,4,2,1,10,0,0
179525,-125,4,2,1,80,0,0
179725,-125,4,2,1,10,0,0
179925,-125,4,2,1,80,0,0
180625,-125,4,2,1,10,0,0
180725,-125,4,2,1,80,0,0
180925,-125,4,2,1,10,0,0
181125,-125,4,2,1,80,0,0
181325,-125,4,2,1,10,0,0
181525,-125,4,2,1,80,0,0
183925,-100,4,2,1,80,0,0
184058,-100,4,2,1,10,0,0
184191,-100,4,2,1,80,0,0
184725,-166.666666666667,4,2,1,80,0,0
190125,-166.666666666667,4,2,1,10,0,0
190325,-166.666666666667,4,2,1,80,0,0
190525,-166.666666666667,4,2,1,10,0,0
190725,-166.666666666667,4,2,1,80,0,0
191025,-166.666666666667,4,2,1,10,0,0
191125,-166.666666666667,4,2,1,80,0,0
194325,-142.857142857143,4,2,1,80,0,0
194525,-142.857142857143,4,2,1,10,0,0
194725,-125,4,2,1,80,0,0
194925,-125,4,2,1,10,0,0
195125,-111.111111111111,4,2,1,80,0,0
195325,-111.111111111111,4,2,1,10,0,0
195525,-100,4,2,1,80,0,0
195725,-100,4,2,1,10,0,0
195925,-86.9565217391304,4,2,1,80,0,0
196125,-86.9565217391304,4,2,1,30,0,0
196325,-83.3333333333333,4,2,1,80,0,0
196525,-83.3333333333333,4,2,1,30,0,0
196725,-80,4,2,1,80,0,0
196925,-80,4,2,1,30,0,0
197125,-76.9230769230769,4,2,1,80,0,0
197325,-76.9230769230769,4,2,1,30,0,0
197525,-71.4285714285714,4,2,1,80,0,0
198525,-200,4,2,1,40,0,0
199125,-86.9565217391304,4,2,2,80,0,1
199325,-86.9565217391304,4,2,1,80,0,1
201325,-86.9565217391304,4,2,2,80,0,1
201525,-86.9565217391304,4,2,1,80,0,1
202325,-86.9565217391304,4,2,2,80,0,1
202525,-86.9565217391304,4,2,1,80,0,1
204525,-86.9565217391304,4,2,2,80,0,1
204725,-86.9565217391304,4,2,1,80,0,1
205525,-86.9565217391304,4,2,2,80,0,1
205725,-86.9565217391304,4,2,1,80,0,1
207725,-86.9565217391304,4,2,2,80,0,1
207925,-86.9565217391304,4,2,1,80,0,1
211525,-62.5,4,2,1,80,0,1
211625,-62.5,4,2,1,10,0,1
211725,-55.5555555555556,4,2,2,80,0,1
211825,-55.5555555555556,4,2,1,10,0,1
211925,-86.9565217391304,4,2,2,80,0,1
212125,-86.9565217391304,4,2,1,80,0,1
217725,-86.9565217391304,4,2,2,80,0,1
217925,-86.9565217391304,4,2,1,80,0,1
218125,-86.9565217391304,4,2,2,80,0,1
218525,-86.9565217391304,4,2,1,80,0,1
219925,-86.9565217391304,4,2,2,80,0,1
220125,-86.9565217391304,4,2,1,80,0,1
223125,-86.9565217391304,4,2,1,80,0,1
223525,-100,4,2,1,80,0,1
223925,-111.111111111111,4,2,1,80,0,1
224325,-125,4,2,1,80,0,1
224725,-166.666666666667,4,2,1,80,0,1
226325,-125,4,2,1,80,0,1
227525,-55.5555555555556,4,2,1,80,0,0
227825,-55.5555555555556,4,2,1,10,0,0
227925,-125,4,2,2,80,0,0
228125,-125,4,2,1,80,0,0
228625,-125,4,2,1,10,0,0
228725,-125,4,2,1,80,0,0
229425,-125,4,2,1,10,0,0
229525,-125,4,2,1,80,0,0
231425,-125,4,2,1,10,0,0
231525,-125,4,2,1,80,0,0
232825,-125,4,2,1,10,0,0
232925,-125,4,2,1,80,0,0
233025,-125,4,2,1,10,0,0
233125,-125,4,2,1,80,0,0
233225,-125,4,2,1,10,0,0
233325,-125,4,2,1,80,0,0
233425,-125,4,2,1,10,0,0
233525,-125,4,2,1,80,0,0
234025,-125,4,2,1,10,0,0
234125,-125,4,2,1,80,0,0
234225,-125,4,2,1,10,0,0
234325,-125,4,2,2,80,0,0
234525,-125,4,2,1,80,0,0
235025,-125,4,2,1,10,0,0
235125,-125,4,2,1,80,0,0
235825,-125,4,2,1,10,0,0
235925,-125,4,2,1,80,0,0
237825,-125,4,2,1,10,0,0
237925,-125,4,2,1,80,0,0
239925,-71.4285714285714,4,2,1,80,0,0
240025,-71.4285714285714,4,2,1,10,0,0
240125,-62.5,4,2,1,80,0,0
240225,-62.5,4,2,1,10,0,0
240325,-62.5,4,2,1,80,0,0
240625,-55.5555555555556,4,2,1,10,0,0
240725,-125,4,2,2,80,0,0
240925,-125,4,2,1,80,0,0
246825,-125,4,2,1,10,0,0
246925,-125,4,2,1,80,0,0
247025,-125,4,2,1,10,0,0
247125,-125,4,2,2,80,0,0
247325,-125,4,2,1,80,0,0
248325,-125,4,2,2,80,0,0
248725,-125,4,2,1,80,0,0
249925,-125,4,2,2,80,0,0
250325,-125,4,2,1,80,0,0
253025,-125,4,2,1,10,0,0
253125,-125,4,2,1,80,0,0
253225,-125,4,2,3,5,0,0

[Colours]
Combo1 : 198,198,198
Combo2 : 252,208,129
Combo3 : 247,60,106
Combo4 : 226,228,228
Combo5 : 251,156,51
Combo6 : 119,160,238
Combo7 : 103,96,196
Combo8 : 63,80,148
SliderBorder : 255,255,225

[HitObjects]
383,132,725,117,8,0:0:0:0:
362,49,925,2,0,L|355:15,3,28.3333333333333,0|0|0|8,0:0|0:0|0:0|0:0,0:0:0:0:
383,132,1325,1,0,0:0:0:0:
444,73,1525,1,8,0:0:0:0:
358,159,1725,1,0,0:0:0:0:
464,156,1925,1,8,0:0:0:0:
327,165,2125,1,0,0:0:0:0:
402,215,2325,37,8,0:0:0:0:
295,153,2525,1,0,0:0:0:0:
321,34,2725,1,8,0:0:0:0:
442,20,2925,1,0,0:0:0:0:
442,20,3025,1,0,0:0:0:0:
442,20,3125,1,8,0:0:0:0:
492,132,3325,1,0,0:0:0:0:
295,153,3525,1,8,0:0:0:0:
321,34,3725,1,0,0:0:0:0:
402,215,3925,69,8,0:0:0:0:
320,238,4125,2,0,L|280:249,3,28.3333333333333,0|0|0|8,0:0|0:0|0:0|0:0,0:0:0:0:
402,215,4525,1,0,0:0:0:0:
378,296,4725,1,8,0:0:0:0:
413,179,4925,1,0,0:0:0:0:
464,277,5125,1,8,0:0:0:0:
396,144,5325,1,0,0:0:0:0:
502,195,5525,37,8,0:0:0:0:
364,132,5725,1,0,0:0:0:0:
267,241,5925,1,8,0:0:0:0:
339,368,6125,1,0,0:0:0:0:
339,368,6225,1,0,0:0:0:0:
339,368,6325,1,8,0:0:0:0:
502,195,6525,1,0,0:0:0:0:
267,241,6725,1,8,0:0:0:0:
483,338,6925,1,0,0:0:0:0:
364,132,7125,102,0,B|342:93|332:47|342:-5|342:-5|365:8|374:49,1,203.999993774414,4|4,0:0|0:0,0:0:0:0:
249,335,8725,69,4,0:0:0:0:
192,272,8925,2,0,B|138:255|125:286|75:294|44:273,1,152.999995330811,4|4,0:0|0:0,0:0:0:0:
249,335,9725,1,0,0:0:0:0:
85,202,9925,1,0,0:0:0:0:
166,351,10125,1,4,0:0:0:0:
206,243,10325,54,0,P|201:206|190:166,1,76.4999976654053,4|0,0:0|0:0,0:0:0:0:
269,306,10725,70,0,P|283:275|290:247,1,59.4999981842042,2|0,0:1|0:0,0:0:0:0:
165,350,11125,38,0,P|115:349|76:319,1,102,4|0,0:0|0:0,0:0:0:0:
284,344,11525,70,0,P|316:332|360:303,1,76.4999976654053,2|0,0:1|0:0,0:0:0:0:
179,278,11925,38,0,P|168:255|158:213,1,42.5,4|0,0:0|0:0,0:0:0:0:
289,250,12125,70,0,P|298:226|305:170,1,50.9999984436036,4|0,0:0|0:0,0:0:0:0:
164,361,12325,38,0,P|133:351|99:327,1,59.4999981842042
225,187,12525,70,0,P|220:149|209:95,1,68,4|0,0:0|0:0,0:0:0:0:
375,254,12725,38,0,P|455:258|491:121,1,229.499992996216,4|0,0:0|0:0,0:0:0:0:
442,36,13125,70,0,P|431:63|427:93,1,59.4999981842042,4|0,0:1|0:0,0:0:0:0:
421,176,13325,1,2,0:1:0:0:
209,82,13525,22,0,P|280:76|327:135,1,140.25000428009,2|0,0:0|0:0,0:0:0:0:
323,122,13925,2,0,P|313:177|303:217,1,93.5000028533936,2|0,0:0|0:0,0:0:0:0:
247,364,14325,1,2,0:0:0:0:
231,256,14525,1,0,0:0:0:0:
329,300,14725,1,2,0:0:0:0:
158,236,14925,2,0,P|181:240|204:246,1,46.7500014266968,2|2,0:0|0:0,0:0:0:0:
401,204,15125,22,0,P|356:214|310:221,1,93.5000028533936,2|2,0:0|0:0,0:0:0:0:
310,221,15525,1,2,0:0:0:0:
450,276,15725,1,0,0:0:0:0:
476,243,15825,1,0,0:0:0:0:
483,201,15925,1,2,0:0:0:0:
362,79,16125,2,0,P|366:109|377:150,1,46.7500014266968
401,204,16325,1,6,0:0:0:0:
286,134,16525,1,0,0:0:0:0:
469,33,16725,70,0,P|464:79|450:124,1,93.5000028533936,2|0,0:0|0:0,0:0:0:0:
450,124,17125,1,2,0:0:0:0:
310,217,17325,1,2,0:0:0:0:
267,218,17425,1,2,0:0:0:0:
230,197,17525,1,0,0:0:0:0:
87,95,17725,2,0,P|110:91|132:83,1,46.7500014266968,2|0,0:0|0:0,0:0:0:0:
197,38,17925,1,2,0:0:0:0:
141,176,18125,1,0,0:0:0:0:
9,104,18325,5,2,0:0:0:0:
197,38,18525,1,0,0:0:0:0:
237,48,18625,1,0,0:0:0:0:
276,62,18725,2,0,P|262:117|248:178,1,93.5000028533936,2|0,0:0|0:0,0:0:0:0:
196,351,19125,1,2,0:0:0:0:
91,158,19325,1,8,0:0:0:0:
281,237,19525,1,10,0:0:0:0:
281,237,19925,70,0,P|343:237|377:153,1,140.25000428009,2|0,0:0|0:0,0:0:0:0:
380,175,20325,2,0,P|369:120|361:73,1,93.5000028533936,2|0,0:0|0:0,0:0:0:0:
332,15,20625,1,0,0:0:0:0:
332,15,20725,2,0,P|386:13|430:52,1,93.5000028533936,2|0,0:0|0:0,0:0:0:0:
321,157,21125,1,2,0:0:0:0:
262,52,21325,2,0,P|260:75|255:98,1,46.7500014266968,2|2,0:0|0:0,0:0:0:0:
339,249,21525,86,0,P|328:204|322:158,1,93.5000028533936,2|2,0:0|0:0,0:0:0:0:
322,157,21925,1,2,0:0:0:0:
419,284,22125,1,0,0:0:0:0:
394,318,22225,1,0,0:0:0:0:
354,333,22325,1,2,0:0:0:0:
258,270,22525,2,0,P|235:265|207:263,1,46.7500014266968
134,286,22725,1,6,0:0:0:0:
229,183,22925,1,0,0:0:0:0:
161,367,23125,6,0,P|95:357|50:346,1,93.5000028533936,2|0,0:0|0:0,0:0:0:0:
68,351,23425,1,0,0:0:0:0:
68,351,23525,1,2,0:0:0:0:
266,290,23725,1,2,0:0:0:0:
307,285,23825,1,2,0:0:0:0:
346,270,23925,1,2,0:0:0:0:
229,183,24125,1,2,0:0:0:0:
296,368,24325,37,2,0:0:0:0:
328,127,24525,1,2,0:0:0:0:
12,134,25925,6,0,P|30:240|137:254,1,229.499992996216,4|0,1:2|0:0,0:0:0:0:
211,185,26325,6,0,P|201:124|189:73,1,93.5000028533936,2|0,0:0|0:0,0:0:0:0:
314,7,26725,2,0,P|324:68|336:119,1,93.5000028533936,8|8,0:1|0:0,0:0:0:0:
330,98,27025,1,0,0:0:0:0:
330,98,27125,1,2,0:0:0:0:
271,246,27325,1,0,0:0:0:0:
371,180,27525,1,8,0:0:0:0:
229,107,27725,1,8,0:0:0:0:
361,271,27925,5,0,0:0:0:0:
465,190,28125,1,2,0:0:0:0:
478,149,28225,1,2,0:0:0:0:
481,107,28325,1,8,0:1:0:0:
308,28,28525,1,2,0:0:0:0:
330,63,28625,1,2,0:0:0:0:
343,102,28725,1,2,0:0:0:0:
208,187,28925,1,2,0:0:0:0:
213,146,29025,1,2,0:0:0:0:
229,107,29125,1,2,0:0:0:0:
264,285,29325,1,2,0:0:0:0:
104,173,29525,54,0,P|58:161|-2:153,1,93.5000028533936,2|0,0:0|0:0,0:0:0:0:
264,285,29925,2,0,P|280:344|289:389,1,93.5000028533936,8|8,0:1|0:0,0:0:0:0:
286,375,30325,1,2,0:0:0:0:
195,232,30525,1,0,0:0:0:0:
313,168,30725,1,8,0:0:0:0:
169,246,30925,1,8,0:0:0:0:
349,310,31125,5,2,0:0:0:0:
172,158,31325,2,0,L|161:114,2,23.3750007133484,2|2|2,0:0|0:0|0:0,0:0:0:0:
258,36,31525,2,0,P|249:81|241:128,1,93.5000028533936,8|2,0:1|0:0,0:0:0:0:
195,326,31925,1,2,0:0:0:0:
371,184,32125,2,0,L|325:195,1,46.7500014266968,2|2,0:0|0:0,0:0:0:0:
244,221,32325,1,8,0:1:0:0:
323,95,32525,1,2,0:0:0:0:
476,280,32725,22,0,P|427:286|365:302,1,93.5000028533936,2|0,0:0|0:0,0:0:0:0:
384,296,33025,1,0,0:0:0:0:
384,296,33125,1,8,0:1:0:0:
244,154,33325,1,8,0:0:0:0:
119,301,33525,2,0,P|166:295|211:284,1,93.5000028533936,2|0,0:0|0:0,0:0:0:0:
301,245,33925,1,8,0:0:0:0:
287,363,34125,1,8,0:0:0:0:
390,206,34325,69,2,0:0:0:0:
274,257,34525,1,2,0:0:0:0:
274,257,34625,1,2,0:0:0:0:
274,257,34725,1,8,0:1:0:0:
471,341,34925,2,0,P|426:330|380:325,1,93.5000028533936,2|0,0:0|0:0,0:0:0:0:
145,189,35325,1,2,0:0:0:0:
186,184,35425,1,2,0:0:0:0:
224,165,35525,2,0,P|214:112|201:57,1,93.5000028533936,4|0,0:0|0:0,0:0:0:0:
62,162,35925,37,2,0:0:0:0:
234,256,36125,1,2,0:0:0:0:
234,256,36225,1,2,0:0:0:0:
234,256,36325,1,8,0:1:0:0:
321,173,36525,1,2,0:0:0:0:
128,247,36725,2,0,P|138:300|151:355,1,93.5000028533936,2|2,0:0|0:0,0:0:0:0:
262,367,37125,1,8,0:1:0:0:
146,338,37325,1,0,0:0:0:0:
234,256,37525,69,2,0:0:0:0:
335,290,37725,5,8,0:0:0:0:
376,297,37825,1,0,0:0:0:0:
412,318,37925,1,8,0:1:0:0:
481,180,38125,5,8,0:0:0:0:
435,179,38225,1,0,0:0:0:0:
392,198,38325,1,2,0:0:0:0:
170,170,38525,21,8,0:0:0:0:
118,174,38625,1,0,0:0:0:0:
70,154,38725,1,4,0:0:0:0:
297,158,38925,101,8,0:0:0:0:
324,93,39025,1,0,0:0:0:0:
309,24,39125,102,0,B|324:72|380:103|437:93|437:93|426:67|383:64,1,203.999993774414,4|4,3:2|0:0,0:0:0:0:
401,66,40325,1,0,0:0:0:0:
99,338,40725,1,4,0:0:0:0:
169,295,40925,2,0,P|218:282|269:276,1,101.999996887207,4|0,0:0|0:0,0:0:0:0:
195,191,41525,2,0,P|144:183|95:170,1,101.999996887207,4|0,0:0|0:0,0:0:0:0:
169,295,42125,1,4,0:0:0:0:
336,328,42325,6,0,P|399:251|504:280,1,203.999993774414,4|4,0:0|0:0,0:0:0:0:
492,268,43525,1,0,0:0:0:0:
492,268,43925,1,4,0:0:0:0:
324,175,44125,1,4,0:0:0:0:
448,53,44325,1,0,0:0:0:0:
444,78,44425,1,0,0:0:0:0:
440,103,44525,1,0,0:0:0:0:
436,128,44625,1,0,0:0:0:0:
432,154,44725,102,0,L|425:197,1,25.4999992218018,4|0,0:0|0:0,0:0:0:0:
377,240,44925,2,0,L|384:283,1,25.4999992218018
342,338,45125,6,0,P|303:337|265:315,1,76.4999976654053,2|0,0:0|0:0,0:0:0:0:
201,344,45525,70,0,P|150:268|43:278,1,203.999993774414,4|4,3:2|0:0,0:0:0:0:
47,275,46725,1,0,0:0:0:0:
491,155,47125,21,4,0:0:0:0:
491,155,47325,2,0,P|417:155|370:98,1,152.999995330811,4|4,0:0|0:0,0:0:0:0:
369,97,48325,2,0,L|378:39,1,50.9999984436036,0|4,0:0|0:0,0:0:0:0:
275,209,48725,6,0,P|274:246|288:270,1,59.4999981842042,4|0,0:0|0:0,0:0:0:0:
405,370,49125,70,0,P|421:342|422:300,1,68,2|0,0:1|0:0,0:0:0:0:
174,142,49525,38,0,P|181:181|191:225,1,76.4999976654053,4|0,0:0|0:0,0:0:0:0:
488,203,49925,70,0,P|447:212|405:220,1,85,2|0,0:1|0:0,0:0:0:0:
146,265,50325,22,0,L|148:233,1,21.25,4|0,0:0|0:0,0:0:0:0:
118,232,50425,22,0,L|103:195,1,21.25
78,224,50525,70,0,L|45:207,1,21.25
39,238,50625,6,0,L|0:238,1,21.25
17,272,50725,6,0,L|-13:296,1,21.25
18,314,50825,22,0,L|6:349,1,21.25
43,348,50925,6,0,L|56:385,1,21.25
83,360,51025,6,0,L|104:389,1,21.25
123,347,51125,5,4,0:0:0:0:
288,111,51325,2,0,L|296:50,1,50.9999984436036,2|0,0:0|0:0,0:0:0:0:
18,188,51725,1,2,0:0:0:0:
24,223,51825,1,2,0:0:0:0:
36,256,51925,54,0,P|82:246|139:232,1,97.7500018644333,4|0,0:0|0:0,0:0:0:0:
274,188,52325,1,8,0:0:0:0:
217,306,52525,1,0,0:0:0:0:
283,173,52725,2,0,P|270:113|263:68,1,97.7500018644333,2|0,0:1|0:0,0:0:0:0:
264,77,53025,1,0,0:0:0:0:
264,77,53125,1,8,0:0:0:0:
179,21,53325,1,0,0:0:0:0:
348,51,53525,53,2,0:1:0:0:
291,154,53725,1,0,0:0:0:0:
469,177,53925,1,8,0:0:0:0:
311,140,54125,1,8,0:0:0:0:
194,256,54325,2,0,P|242:249|290:238,1,97.7500018644333,2|2,0:1|0:0,0:0:0:0:
368,256,54625,1,2,0:0:0:0:
368,256,54725,2,0,P|394:306|387:357,1,97.7500018644333,8|2,0:0|0:0,0:0:0:0:
200,166,55125,5,4,0:0:0:0:
227,40,55325,2,0,L|233:3,4,24.4375004661083,2|2|2|2|8,0:0|0:0|0:0|0:0|0:0,0:0:0:0:
204,151,55725,1,2,0:0:0:0:
303,87,55925,1,2,0:1:0:0:
176,173,56125,2,0,P|146:169|107:157,1,48.8750009322167
52,131,56325,1,8,0:0:0:0:
144,256,56525,1,0,0:0:0:0:
106,58,56725,21,2,0:1:0:0:
150,241,56925,1,0,0:0:0:0:
189,135,57125,1,8,0:0:0:0:
35,279,57325,1,8,0:0:0:0:
256,200,57525,1,2,0:1:0:0:
402,281,57725,2,0,P|424:291|452:304,3,32.5833339548111,2|2|2|8,0:0|0:0|0:0|0:0,0:0:0:0:
256,200,58125,1,2,0:0:0:0:
294,369,58325,6,0,P|315:325|312:277,1,97.7500018644333,4|0,0:0|0:0,0:0:0:0:
312,277,58725,1,8,0:0:0:0:
107,324,58925,2,0,P|155:316|203:304,1,97.7500018644333,0|2,0:0|0:1,0:0:0:0:
288,131,59325,2,0,P|279:155|274:199,1,48.8750009322167
402,281,59525,2,0,P|394:232|381:185,1,97.7500018644333,8|0,0:0|0:0,0:0:0:0:
205,70,59925,53,2,0:1:0:0:
88,149,60125,1,0,0:0:0:0:
274,177,60325,1,8,0:0:0:0:
135,44,60525,1,8,0:0:0:0:
61,216,60725,2,0,P|58:264|79:307,1,97.7500018644333,2|2,0:1|0:0,0:0:0:0:
79,307,61025,1,2,0:0:0:0:
79,307,61125,1,8,0:0:0:0:
188,375,61325,1,2,0:0:0:0:
364,273,61525,5,2,0:1:0:0:
331,263,61625,1,0,0:0:0:0:
297,266,61725,1,0,0:0:0:0:
266,280,61825,1,0,0:0:0:0:
242,304,61925,1,8,0:0:0:0:
101,137,62125,2,0,P|131:143|167:150,1,48.8750009322167,2|2,0:0|0:0,0:0:0:0:
235,166,62325,1,2,0:1:0:0:
101,137,62525,1,2,0:0:0:0:
257,87,62725,1,8,0:0:0:0:
126,127,62925,1,2,0:0:0:0:
222,99,63125,21,2,0:1:0:0:
126,127,63325,1,0,0:0:0:0:
268,180,63525,5,8,0:0:0:0:
117,130,63725,1,0,0:0:0:0:
329,36,63925,53,2,0:1:0:0:
108,134,64125,1,0,0:0:0:0:
425,252,64325,6,0,P|394:245|355:236,1,59.4999981842042,0|0,1:0|0:0,0:0:0:0:
101,137,64525,2,0,P|137:128|174:118,1,68,8|0,0:0|0:0,0:0:0:0:
348,57,64725,6,0,P|336:112|328:162,1,97.7500018644333,4|0,0:0|0:1,0:1:0:0:
298,214,65025,1,0,0:0:0:0:
290,219,65125,2,0,P|240:220|194:172,1,97.7500018644333,8|0,0:0|0:0,0:0:0:0:
462,171,65525,2,0,P|488:227|482:273,1,97.7500018644333,2|0,0:1|0:0,0:0:0:0:
485,261,65925,1,8,0:0:0:0:
327,302,66125,1,0,0:0:0:0:
239,162,66325,101,2,0:1:0:0:
344,35,66525,2,0,P|361:24|393:7,2,32.5833339548111,2|2|2,0:0|0:0|0:0,0:0:0:0:
321,48,66725,2,0,P|331:105|343:157,1,97.7500018644333,8|2,0:0|0:0,0:0:0:0:
413,312,67125,1,2,0:1:0:0:
280,239,67325,2,0,P|260:236|243:234,3,32.5833339548111,0|0|0|8,0:0|0:0|0:0|0:0,0:0:0:0:
403,197,67725,1,0,0:0:0:0:
280,239,67925,37,2,0:1:0:0:
413,312,68125,2,0,L|434:348,4,24.4375004661083,2|2|2|2|8,0:0|0:0|0:0|0:0|0:0,0:0:0:0:
266,158,68525,1,2,0:0:0:0:
228,309,68725,1,2,0:1:0:0:
352,169,68925,2,0,P|347:143|335:101,1,48.8750009322167,2|2,0:0|0:0,0:0:0:0:
304,47,69125,1,8,0:0:0:0:
249,234,69325,1,2,0:0:0:0:
481,131,69525,86,0,P|434:140|387:154,1,97.7500018644333,2|0,0:1|0:0,0:0:0:0:
387,153,69825,1,0,0:0:0:0:
387,153,69925,1,8,0:0:0:0:
262,45,70125,1,0,0:0:0:0:
218,38,70225,1,0,0:0:0:0:
176,23,70325,1,2,0:1:0:0:
70,90,70525,1,8,0:0:0:0:
247,185,70725,1,8,0:0:0:0:
378,33,70925,1,8,0:0:0:0:
169,171,71125,102,0,P|179:223|190:269,1,97.7500018644333,4|0,0:0|0:0,0:0:0:0:
237,324,71425,1,0,0:0:0:0:
237,324,71525,2,0,P|262:281|251:223,1,97.7500018644333,8|0,0:0|0:0,0:0:0:0:
149,96,71925,1,2,0:1:0:0:
81,246,72125,2,0,P|110:239|138:229,1,48.8750009322167,2|2,0:0|0:0,0:0:0:0:
334,158,72325,2,0,P|280:149|220:134,1,97.7500018644333,8|2,0:0|0:0,0:0:0:0:
83,33,72725,38,0,P|58:76|69:134,1,97.7500018644333,4|0,0:0|0:0,0:0:0:0:
62,122,73025,1,0,0:0:0:0:
62,122,73125,1,8,0:0:0:0:
194,194,73325,1,0,0:0:0:0:
149,96,73525,1,2,0:1:0:0:
210,224,73725,2,0,P|232:218|257:211,1,48.8750009322167
336,184,73925,1,8,0:0:0:0:
299,313,74125,1,0,0:0:0:0:
270,129,74325,85,2,0:1:0:0:
377,256,74525,2,0,P|391:262|415:269,3,32.5833339548111,2|2|2|8,0:0|0:0|0:0|0:0,0:0:0:0:
185,141,74925,1,2,0:0:0:0:
189,97,75025,1,2,0:0:0:0:
214,61,75125,1,2,0:1:0:0:
439,114,75325,1,2,0:0:0:0:
403,139,75425,1,2,0:0:0:0:
359,143,75525,2,0,P|344:80|338:38,1,97.7500018644333,8|2,0:0|0:0,0:0:0:0:
429,255,75925,102,0,P|380:262|333:274,1,97.7500018644333,2|0,0:1|0:0,0:0:0:0:
181,167,76325,38,0,P|229:159|276:147,1,93.5000028533936,8|0,0:0|0:0,0:0:0:0:
223,339,76725,86,0,P|174:346|127:358,1,85,2|0,0:1|0:0,0:0:0:0:
1,211,77125,102,0,P|96:194|157:270,1,203.999993774414,8|8,0:0|0:1,0:0:0:0:
143,303,77991,38,0,L|137:330,1,16.9999994812012,8|8,0:1|0:1,0:0:0:0:
123,333,78125,86,0,L|129:371,1,25.4999992218018,8|8,0:1|0:1,0:0:0:0:
244,216,78325,2,0,P|250:192|253:166,1,50.9999984436036,8|8,0:1|0:1,0:0:0:0:
504,104,78725,70,0,P|444:165|361:143,1,178.499994552612,4|0,0:1|0:0,0:0:0:0:
315,71,79125,6,0,P|321:23|330:-2,1,68,4|0,0:0|0:0,0:0:0:0:
159,42,79525,2,0,P|179:89|188:152,1,102
187,138,79925,2,0,P|221:127|258:117,1,68,8|0,0:1|0:0,0:0:0:0:
316,237,80325,2,0,P|363:270|417:254,1,102,2|0,0:1|0:0,0:0:0:0:
404,262,80725,38,0,P|420:218|421:188,1,68
236,265,81125,2,0,P|240:298|253:329,1,68,2|0,0:1|0:0,0:0:0:0:
255,176,81525,1,8,0:1:0:0:
150,236,81725,1,0,0:0:0:0:
49,156,81925,2,0,P|82:153|113:139,1,68
191,21,82325,69,2,0:1:0:0:
191,21,82525,2,0,P|186:44|182:73,1,34
235,122,82725,2,0,P|241:156|247:189,1,68
247,189,83025,1,0,0:0:0:0:
247,189,83125,1,8,0:1:0:0:
315,88,83325,1,0,0:0:0:0:
169,195,83525,2,0,P|160:233|156:278,1,68,2|0,0:1|0:0,0:0:0:0:
255,343,83925,38,0,P|274:338|294:335,1,34
351,285,84125,2,0,P|367:287|384:292,1,34
443,227,84325,70,0,P|438:210|435:193,1,34,2|0,0:1|0:0,0:0:0:0:
385,125,84525,2,0,P|387:108|392:91,1,34
432,13,84725,69,8,0:1:0:0:
432,13,85025,1,2,0:1:0:0:
432,13,85125,2,0,L|395:18,1,34,2|0,0:1|0:0,0:0:0:0:
323,41,85325,2,0,L|286:36,1,34,8|0,0:1|0:0,0:0:0:0:
233,95,85525,86,0,P|234:128|250:158,1,68,4|0,0:0|0:0,0:0:0:0:
397,274,85925,2,0,P|349:262|282:255,1,102
296,255,86325,1,8,0:1:0:0:
157,331,86525,1,0,0:0:0:0:
69,201,86725,2,0,P|118:207|149:246,1,102,2|0,0:1|0:0,0:0:0:0:
149,246,87125,70,0,P|186:237|218:233,1,68
341,106,87525,2,0,P|308:113|275:118,1,68,2|0,0:1|0:0,0:0:0:0:
247,118,87825,1,0,0:0:0:0:
221,108,87925,2,0,P|206:81|201:39,1,68,8|0,0:1|0:0,0:0:0:0:
329,194,88325,1,0,0:0:0:0:
423,142,88525,1,0,0:0:0:0:
302,207,88725,37,2,0:1:0:0:
302,207,88925,2,0,L|312:264,1,34
267,317,89125,2,0,L|185:304,1,68
199,306,89425,1,0,0:0:0:0:
199,306,89525,1,8,0:1:0:0:
393,263,89725,1,0,0:0:0:0:
355,344,89925,1,2,0:1:0:0:
294,173,90125,1,0,0:0:0:0:
402,240,90325,69,0,0:0:0:0:
195,179,90525,1,0,0:0:0:0:
200,141,90625,1,0,0:0:0:0:
218,108,90725,1,2,0:1:0:0:
287,273,90925,1,0,0:0:0:0:
117,365,91125,86,0,P|151:358|179:347,1,59.4999981842042,4|0,0:0|0:0,0:0:0:0:
434,266,91325,2,0,P|404:260|352:244,1,68,4|0,0:0|0:0,0:0:0:0:
162,34,91525,54,0,P|269:30|306:131,1,229.499992996216,6|0,0:0|0:0,0:0:0:0:
246,210,91925,6,0,P|212:220|170:224,1,68,4|0,0:0|0:0,0:0:0:0:
390,165,92325,2,0,P|394:131|402:98,1,68
334,243,92725,1,8,0:1:0:0:
357,335,92925,1,0,0:0:0:0:
390,165,93125,1,2,0:1:0:0:
486,128,93325,1,0,0:0:0:0:
305,155,93525,70,0,P|263:121|262:35,1,136,0|2,0:0|0:1,0:0:0:0:
257,43,94325,1,8,0:1:0:0:
215,185,94525,1,0,0:0:0:0:
210,220,94625,1,0,0:0:0:0:
205,254,94725,1,0,0:0:0:0:
201,348,94925,1,0,0:0:0:0:
129,209,95125,38,0,P|89:179|29:181,1,102,2|0,0:1|0:0,0:0:0:0:
38,177,95525,1,0,0:0:0:0:
159,124,95725,1,0,0:0:0:0:
88,64,95925,1,8,0:1:0:0:
155,220,96125,1,0,0:0:0:0:
170,93,96325,1,2,0:1:0:0:
72,267,96525,1,0,0:0:0:0:
236,183,96725,70,0,P|273:176|329:161,1,68
81,164,97125,2,0,P|67:132|56:100,1,68,2|0,0:1|0:0,0:0:0:0:
155,220,97525,5,8,0:1:0:0:
155,220,97825,1,2,0:1:0:0:
155,220,97925,2,0,L|161:265,1,34,2|0,0:1|0:0,0:0:0:0:
160,340,98125,2,0,L|185:362,1,34,8|0,0:1|0:0,0:0:0:0:
272,374,98325,22,0,P|280:341|286:307,1,68,4|0,0:0|0:0,0:0:0:0:
286,307,98725,1,0,0:0:0:0:
243,159,98925,1,0,0:0:0:0:
243,159,99025,1,0,0:0:0:0:
243,159,99125,1,8,0:1:0:0:
325,218,99325,1,0,0:0:0:0:
234,152,99525,1,8,0:0:0:0:
394,108,99725,2,0,P|361:115|328:123,1,68,8|0,0:0|0:0,0:0:0:0:
134,196,100125,69,0,0:0:0:0:
107,24,100325,1,2,0:1:0:0:
212,40,100525,1,0,0:0:0:0:
58,119,100725,1,8,0:1:0:0:
107,24,100925,1,0,0:0:0:0:
228,146,101125,1,8,0:0:0:0:
228,146,101325,1,8,0:0:0:0:
66,230,101525,38,0,P|32:223|0:215,1,68,2|0,0:1|0:0,0:0:0:0:
148,108,101925,1,0,0:0:0:0:
260,161,102125,2,0,P|267:138|271:122,1,34
170,29,102325,2,0,P|175:69|186:112,1,68,8|0,0:1|0:0,0:0:0:0:
278,242,102725,1,2,0:1:0:0:
344,160,102925,1,0,0:0:0:0:
195,237,103125,69,0,0:0:0:0:
344,305,103325,1,0,0:0:0:0:
381,309,103425,1,0,0:0:0:0:
415,324,103525,1,2,0:1:0:0:
267,344,103725,1,0,0:0:0:0:
355,199,103925,6,0,P|395:191|443:184,1,76.4999976654053,4|0,0:0|0:0,0:0:0:0:
430,185,104325,6,0,P|338:193|294:71,1,229.499992996216,6|0,0:0|0:0,0:0:0:0:
393,20,104725,22,0,P|386:66|378:112,1,93.5000028533936,4|0,0:0|0:0,0:0:0:0:
311,261,105125,1,8,0:0:0:0:
481,225,105325,1,8,0:0:0:0:
481,225,105425,1,0,0:0:0:0:
481,225,105525,2,0,P|432:219|366:203,1,93.5000028533936,2|2,0:1|0:0,0:0:0:0:
221,268,105925,2,0,P|195:315|198:366,1,93.5000028533936,8|0,0:0|0:0,0:0:0:0:
176,135,106325,70,0,P|163:84|156:39,1,93.5000028533936,2|0,0:1|0:0,0:0:0:0:
253,183,106725,1,8,0:0:0:0:
64,242,106925,1,2,0:0:0:0:
107,241,107025,1,2,0:0:0:0:
143,220,107125,1,2,0:1:0:0:
259,87,107325,2,0,P|282:94|305:99,1,46.7500014266968,2|0,0:0|0:0,0:0:0:0:
438,160,107525,2,0,P|391:167|346:179,1,93.5000028533936,8|2,0:0|0:0,0:0:0:0:
253,226,107925,5,2,0:1:0:0:
363,358,108125,1,0,0:0:0:0:
363,358,108325,2,0,P|386:322|380:263,1,93.5000028533936,8|8,0:0|0:0,0:0:0:0:
295,122,108725,1,2,0:1:0:0:
405,168,108925,1,2,0:0:0:0:
281,118,109125,1,8,0:0:0:0:
442,62,109325,1,0,0:0:0:0:
266,112,109525,21,2,0:1:0:0:
243,83,109625,1,0,0:0:0:0:
210,66,109725,1,0,0:0:0:0:
173,62,109825,1,0,0:0:0:0:
138,73,109925,1,8,0:0:0:0:
57,196,110125,2,0,P|89:191|126:178,1,46.7500014266968,2|2,0:0|0:0,0:0:0:0:
183,157,110325,1,2,0:1:0:0:
110,97,110525,1,2,0:0:0:0:
10,271,110725,1,8,0:0:0:0:
102,187,110925,1,2,0:0:0:0:
6,22,111125,70,0,P|13:68|24:114,1,93.5000028533936,2|0,0:1|0:0,0:0:0:0:
217,150,111525,2,0,P|209:103|199:58,1,93.5000028533936,8|8,0:0|0:0,0:0:0:0:
199,58,111825,1,0,0:0:0:0:
199,58,111925,1,2,0:1:0:0:
158,249,112125,1,2,0:0:0:0:
387,157,112325,2,0,P|341:162|297:177,1,93.5000028533936,8|0,0:0|0:0,0:0:0:0:
67,229,112725,6,0,P|113:234|158:249,1,93.5000028533936,2|0,0:1|0:0,0:0:0:0:
332,264,113125,2,0,P|319:314|314:373,1,93.5000028533936,8|2,0:0|0:0,0:0:0:0:
314,355,113425,1,2,0:0:0:0:
314,355,113525,1,2,0:1:0:0:
211,177,113725,2,0,P|208:158|198:123,1,46.7500014266968,2|0,0:0|0:0,0:0:0:0:
167,53,113925,1,8,0:0:0:0:
98,215,114125,1,2,0:0:0:0:
232,331,114325,21,2,0:1:0:0:
382,240,114525,1,0,0:0:0:0:
382,240,114625,1,0,0:0:0:0:
382,240,114725,1,8,0:0:0:0:
342,68,114925,1,8,0:0:0:0:
300,71,115025,1,0,0:0:0:0:
261,89,115125,2,0,P|263:151|284:184,1,93.5000028533936,2|2,0:1|0:0,0:0:0:0:
446,318,115525,2,0,P|396:323|345:338,1,93.5000028533936,8|0,0:0|0:0,0:0:0:0:
68,202,115925,69,2,0:1:0:0:
89,233,116025,1,0,0:0:0:0:
121,253,116125,1,0,0:0:0:0:
158,258,116225,1,0,0:0:0:0:
194,249,116325,1,8,0:0:0:0:
298,141,116525,2,0,P|295:117|286:86,1,46.7500014266968,2|2,0:0|0:0,0:0:0:0:
261,17,116725,1,2,0:1:0:0:
218,166,116925,1,2,0:0:0:0:
348,254,117125,1,4,0:0:0:0:
469,156,117325,1,2,0:0:0:0:
416,11,117525,6,0,P|376:20|348:168,1,203.999993774414,4|4,3:2|0:0,0:0:0:0:
340,158,118725,1,0,0:0:0:0:
44,248,119125,5,4,0:0:0:0:
44,248,119325,2,0,P|93:303|166:295,1,152.999995330811,4|4,0:0|0:0,0:0:0:0:
167,295,120525,1,4,0:0:0:0:
339,201,120725,102,0,B|374:181|440:170|488:199|488:199|465:218|427:222,1,203.999993774414,4|4,0:0|0:0,0:0:0:0:
444,219,121925,1,0,0:0:0:0:
146,26,122325,1,4,0:0:0:0:
207,188,122525,1,4,0:0:0:0:
47,255,122725,5,0,0:0:0:0:
34,233,122825,1,0,0:0:0:0:
29,209,122925,1,0,0:0:0:0:
31,183,123025,1,0,0:0:0:0:
42,160,123125,1,4,0:0:0:0:
59,141,123225,1,0,0:0:0:0:
80,128,123325,1,0,0:0:0:0:
105,123,123425,1,0,0:0:0:0:
131,126,123525,102,0,P|122:163|109:209,1,76.4999976654053,2|0,0:0|0:0,0:0:0:0:
139,270,123925,86,0,P|181:350|290:329,2,203.999993774414,4|4|4,3:2|0:0|0:0,0:0:0:0:
188,197,125725,2,0,P|236:205|301:228,1,101.999996887207,4|0,0:0|0:0,0:0:0:0:
370,193,126325,2,0,P|373:159|386:122,1,50.9999984436036,4|0,0:0|0:0,0:0:0:0:
423,273,126725,2,0,P|452:256|469:234,1,50.9999984436036,0|4,0:0|0:0,0:0:0:0:
306,357,127125,22,0,P|277:350|252:334,1,59.4999981842042,4|0,0:0|0:0,0:0:0:0:
331,187,127525,6,0,P|337:221|343:255,1,68,2|0,0:1|0:0,0:0:0:0:
150,343,127925,102,0,P|165:296|195:267,1,76.4999976654053,4|0,0:0|0:0,0:0:0:0:
459,137,128325,86,0,P|414:131|359:111,1,85,2|0,0:1|0:0,0:0:0:0:
112,158,128725,102,0,L|98:174,1,21.25,4|0,0:0|0:0,0:0:0:0:
69,160,128825,102,0,L|49:168,1,21.25
33,138,128925,102,0,L|12:131,1,21.25
15,100,129025,38,0,L|0:84,1,21.25
24,60,129125,22,0,L|21:38,1,21.25
55,31,129225,22,0,L|64:12,1,21.25
97,25,129325,70,0,L|116:15,1,21.25
133,45,129425,6,0,L|153:41,1,21.25
152,82,129525,5,4,0:0:0:0:
208,304,129725,2,0,L|197:373,1,50.9999984436036,2|0,0:0|0:0,0:0:0:0:
377,187,130125,1,2,0:0:0:0:
370,151,130225,1,2,0:0:0:0:
364,114,130325,54,0,L|345:6,1,97.7500018644333,4|0,0:0|0:0,0:0:0:0:
276,221,130725,1,8,0:0:0:0:
150,167,130925,1,0,0:0:0:0:
384,222,131125,2,0,P|441:233|505:254,1,97.7500018644333,2|0,0:1|0:0,0:0:0:0:
479,244,131425,1,0,0:0:0:0:
479,244,131525,1,8,0:0:0:0:
331,301,131725,1,0,0:0:0:0:
237,147,131925,5,2,0:1:0:0:
310,307,132125,1,0,0:0:0:0:
358,194,132325,1,8,0:0:0:0:
189,268,132525,1,8,0:0:0:0:
35,164,132725,2,0,P|11:124|24:57,1,97.7500018644333,0|2,0:0|0:0,0:0:0:0:
68,20,133025,1,2,0:0:0:0:
68,20,133125,2,0,L|166:38,1,97.7500018644333,8|2,0:0|0:0,0:0:0:0:
329,131,133525,85,4,0:0:0:0:
217,162,133725,2,0,L|191:169,4,24.4375004661083,2|2|2|2|8,0:0|0:0|0:0|0:0|0:0,0:0:0:0:
329,131,134125,1,2,0:0:0:0:
175,70,134325,1,2,0:1:0:0:
326,263,134525,2,0,P|332:240|335:215,1,48.8750009322167
329,131,134725,1,8,0:0:0:0:
231,257,134925,1,0,0:0:0:0:
410,302,135125,69,2,0:1:0:0:
247,238,135325,1,0,0:0:0:0:
371,208,135525,1,8,0:0:0:0:
176,322,135725,1,8,0:0:0:0:
359,368,135925,1,2,0:1:0:0:
160,240,136125,2,0,P|141:235|121:231,3,32.5833339548111,2|2|2|8,0:0|0:0|0:0|0:0,0:0:0:0:
320,290,136525,1,2,0:0:0:0:
129,152,136725,22,0,P|70:162|23:175,1,97.7500018644333,4|0,0:0|0:0,0:0:0:0:
33,171,137125,1,8,0:0:0:0:
261,200,137325,2,0,P|282:156|268:93,1,97.7500018644333,0|2,0:0|0:1,0:0:0:0:
97,26,137725,1,0,0:0:0:0:
97,26,137825,1,0,0:0:0:0:
97,26,137925,2,0,P|107:85|120:132,1,97.7500018644333,8|0,0:0|0:0,0:0:0:0:
232,325,138325,37,2,0:1:0:0:
263,189,138525,1,0,0:0:0:0:
229,338,138725,1,8,0:0:0:0:
189,155,138925,1,8,0:0:0:0:
323,249,139125,2,0,P|369:243|428:230,1,97.7500018644333,2|2,0:1|0:0,0:0:0:0:
491,200,139425,1,2,0:0:0:0:
491,200,139525,2,0,P|494:151|469:110,1,97.7500018644333,8|2,0:0|0:0,0:0:0:0:
244,276,139925,101,2,0:1:0:0:
260,305,140025,1,0,0:0:0:0:
287,326,140125,1,0,0:0:0:0:
320,334,140225,1,0,0:0:0:0:
353,328,140325,1,8,0:0:0:0:
413,169,140525,2,0,P|388:173|365:178,1,48.8750009322167,2|2,0:0|0:0,0:0:0:0:
290,206,140725,1,0,0:1:0:0:
435,278,140925,1,2,0:0:0:0:
290,206,141125,1,8,0:0:0:0:
413,169,141325,1,2,0:0:0:0:
357,301,141525,5,2,0:1:0:0:
401,197,141725,1,0,0:0:0:0:
359,308,141925,21,8,0:0:0:0:
330,138,142125,1,0,0:0:0:0:
362,316,142325,5,2,0:1:0:0:
243,110,142525,1,0,0:0:0:0:
364,324,142725,102,0,P|399:319|437:310,1,68,0|0,1:0|0:0,0:0:0:0:
151,109,142925,2,0,P|114:114|75:123,1,76.4999976654053,8|0,0:0|0:0,0:0:0:0:
382,202,143125,6,0,P|406:167|398:91,1,97.7500018644333,4|0,0:0|0:0,0:0:0:0:
372,50,143425,1,0,0:0:0:0:
367,44,143525,1,8,0:0:0:0:
297,185,143725,1,0,0:0:0:0:
416,285,143925,1,2,0:1:0:0:
285,178,144125,2,0,P|257:183|223:191,1,48.8750009322167
142,166,144325,2,0,P|132:215|124:262,1,97.7500018644333,8|0,0:0|0:0,0:0:0:0:
202,89,144725,5,2,0:1:0:0:
90,53,144925,2,0,L|78:12,2,32.5833339548111,2|2|2,0:0|0:0|0:0,0:0:0:0:
98,81,145125,2,0,P|50:91|2:103,1,97.7500018644333,8|2,0:0|0:0,0:0:0:0:
237,187,145525,1,2,0:1:0:0:
290,65,145725,2,0,L|306:19,3,32.5833339548111,0|0|0|8,0:0|0:0|0:0|0:0,0:0:0:0:
237,187,146125,1,0,0:0:0:0:
346,152,146325,5,2,0:1:0:0:
163,110,146525,2,0,L|133:105,4,24.4375004661083,2|2|2|2|8,0:0|0:0|0:0|0:0|0:0,0:0:0:0:
346,152,146925,1,2,0:0:0:0:
215,195,147125,1,0,0:1:0:0:
360,146,147325,2,0,P|355:170|348:197,1,48.8750009322167,2|2,0:0|0:0,0:0:0:0:
256,304,147525,2,0,P|246:256|238:207,1,97.7500018644333,8|2,0:0|0:0,0:0:0:0:
471,296,147925,86,0,P|407:286|355:274,1,97.7500018644333,2|0,0:1|0:0,0:0:0:0:
374,278,148225,1,0,0:0:0:0:
374,278,148325,1,8,0:0:0:0:
168,351,148525,1,0,0:0:0:0:
210,340,148625,1,0,0:0:0:0:
250,322,148725,1,2,0:1:0:0:
361,236,148925,1,8,0:0:0:0:
179,169,149125,1,8,0:0:0:0:
348,193,149325,1,8,0:0:0:0:
247,107,149525,6,0,P|231:60|230:12,1,97.7500018644333,4|0,0:0|0:0,0:0:0:0:
230,12,149825,1,0,0:0:0:0:
230,12,149925,1,8,0:0:0:0:
336,155,150125,1,0,0:0:0:0:
438,69,150325,1,2,0:1:0:0:
311,175,150525,2,0,P|304:199|300:233,1,48.8750009322167,2|2,0:0|0:0,0:0:0:0:
441,328,150725,2,0,P|397:303|326:305,1,97.7500018644333,8|2,0:0|0:0,0:0:0:0:
117,270,151125,6,0,P|165:262|212:251,1,97.7500018644333,4|0,0:0|0:0,0:0:0:0:
212,251,151425,1,0,0:0:0:0:
212,251,151525,1,8,0:0:0:0:
383,194,151725,1,0,0:0:0:0:
350,299,151925,1,2,0:1:0:0:
277,151,152125,2,0,P|271:128|268:104,1,48.8750009322167
372,19,152325,2,0,P|360:66|352:114,1,97.7500018644333,8|0,0:0|0:0,0:0:0:0:
431,267,152725,85,2,0:1:0:0:
259,239,152925,2,0,P|282:233|307:229,1,48.8750009322167,2|2,0:0|0:0,0:0:0:0:
511,195,153125,2,0,P|462:188|414:177,1,97.7500018644333,8|2,0:0|0:0,0:0:0:0:
414,177,153425,1,2,0:0:0:0:
414,177,153525,1,2,0:1:0:0:
268,103,153725,1,2,0:0:0:0:
268,103,153825,1,2,0:0:0:0:
268,103,153925,1,8,0:0:0:0:
388,44,154125,1,2,0:0:0:0:
210,166,154325,6,0,P|186:127|189:67,1,97.7500018644333,2|0,0:1|0:0,0:0:0:0:
363,268,154725,6,0,P|357:309|344:378,1,93.5000028533936,8|0,0:0|0:0,0:0:0:0:
117,306,155125,86,0,P|167:295|210:284,1,85,2|0,0:1|0:0,0:0:0:0:
395,182,155525,6,0,L|303:168,1,76.4999976654053,8|0,0:0|0:0,0:0:0:0:
319,170,155925,102,0,P|422:159|409:38,1,238,8|0,0:1|0:0,0:0:0:0:
382,25,156725,70,0,P|339:44|276:44,1,89.2499972763062
226,69,157125,38,0,P|189:21|83:45,1,152.999995330811
57,95,157525,70,0,B|32:161|98:202|152:203|142:142|105:146,1,178.499994552612
58,202,157925,101,0,0:0:0:0:
50,278,158058,85,0,0:0:0:0:
87,345,158191,5,0,0:0:0:0:
157,374,158325,22,0,P|173:338|171:281,1,76.4999976654053
175,301,158725,22,0,B|171:334|207:359|207:359|227:355|247:340|247:340|275:362|315:369|360:338,1,229.499992996216,0|0,3:0|0:0,0:0:0:0:
430,299,159125,6,0,P|379:260|326:264,1,101.999996887207,2|0,0:1|0:0,0:0:0:0:
286,207,159525,2,0,P|233:220|186:224,1,101.999996887207,8|0,0:0|0:0,0:0:0:0:
112,200,159925,1,2,0:1:0:0:
48,241,160058,2,0,L|40:284,2,25.4999992218018,2|2|2,0:0|0:0|0:0,0:0:0:0:
40,164,160325,2,0,P|33:120|20:55,1,101.999996887207,8|2,0:0|0:0,0:0:0:0:
118,187,160725,102,0,P|156:154|196:122,1,101.999996887207,2|0,0:1|0:0,0:0:0:0:
141,263,161125,2,0,P|188:281|236:297,1,101.999996887207,8|0,0:0|0:0,0:0:0:0:
280,360,161525,1,8,0:1:0:0:
336,309,161658,1,8,0:1:0:0:
410,291,161791,1,8,0:1:0:0:
483,312,161925,2,0,P|508:269|502:215,1,101.999996887207,8|8,0:0|0:1,0:0:0:0:
461,153,162325,86,0,P|408:162|348:177,1,101.999996887207,2|0,0:1|0:0,0:0:0:0:
220,87,162725,2,0,P|270:96|320:108,1,101.999996887207,8|0,0:0|0:0,0:0:0:0:
361,173,163125,1,2,0:1:0:0:
288,196,163258,2,0,L|249:204,2,25.4999992218018,2|2|2,0:0|0:0|0:0,0:0:0:0:
344,248,163525,2,0,P|335:285|325:360,1,101.999996887207,8|2,0:0|0:0,0:0:0:0:
506,263,163925,38,0,P|468:231|418:227,1,101.999996887207,2|0,0:1|0:0,0:0:0:0:
344,248,164325,1,8,0:0:0:0:
279,289,164458,1,0,0:0:0:0:
204,303,164591,1,0,0:0:0:0:
132,275,164725,2,0,P|138:224|148:174,1,101.999996887207,2|0,0:1|0:0,0:0:0:0:
175,102,165125,1,8,0:0:0:0:
120,48,165258,2,0,L|125:6,2,25.4999992218018
45,79,165525,102,0,P|54:129|61:179,1,101.999996887207,2|0,0:1|0:0,0:0:0:0:
223,184,165925,2,0,P|212:135|175:102,1,101.999996887207,8|0,0:0|0:0,0:0:0:0:
148,174,166325,1,2,0:1:0:0:
179,243,166458,2,0,L|167:285,2,25.4999992218018,2|2|2,0:0|0:0|0:0,0:0:0:0:
255,252,166725,2,0,P|308:243|365:229,1,101.999996887207,8|2,0:0|0:0,0:0:0:0:
474,325,167125,86,0,P|425:313|375:305,1,101.999996887207,2|0,0:1|0:0,0:0:0:0:
226,349,167525,2,0,P|237:299|255:252,1,101.999996887207,8|0,0:0|0:0,0:0:0:0:
235,177,167925,1,8,0:1:0:0:
188,116,168058,1,8,0:1:0:0:
114,94,168191,1,8,0:1:0:0:
53,141,168325,1,8,0:0:0:0:
31,214,168458,2,0,L|-5:209,2,25.4999992218018,0|0|8,0:0|0:0|0:1,0:0:0:0:
62,284,168725,21,2,0:1:0:0:
91,277,168858,1,0,0:0:0:0:
121,271,168991,1,0,0:0:0:0:
151,264,169125,1,8,0:0:0:0:
363,209,169391,1,8,0:1:0:0:
387,133,169525,21,2,0:1:0:0:
315,105,169658,2,0,L|303:65,2,25.4999992218018
291,178,169925,1,8,0:0:0:0:
494,272,170191,1,8,0:1:0:0:
474,197,170325,54,0,P|434:188|380:178,1,76.4999976654053,2|0,0:1|0:0,0:0:0:0:
385,164,170591,2,0,L|353:171,1,25.4999992218018,2|2,0:0|0:0,0:0:0:0:
333,164,170725,2,0,P|299:196|293:255,1,101.999996887207,2|2,0:0|0:0,0:0:0:0:
255,357,171125,38,0,P|251:331|237:299,1,50.9999984436036,8|0,0:1|0:0,0:0:0:0:
241,308,171391,1,8,0:1:0:0:
101,239,171525,2,0,P|75:242|43:256,1,50.9999984436036,8|0,0:1|0:0,0:0:0:0:
52,252,171791,1,8,0:1:0:0:
200,223,171925,6,0,B|234:182|248:119|227:73|227:73|213:93|211:121|220:151,1,238,2|0,0:1|0:0,0:0:0:0:
242,218,172725,54,0,P|257:252|286:295,1,68,8|0,0:1|0:0,0:0:0:0:
133,168,173125,2,0,P|101:179|67:185,1,68
259,67,173525,6,0,B|297:98|350:112|435:123|441:83|414:31|348:88,1,238,2|0,0:1|0:0,0:0:0:0:
315,138,174325,22,0,P|305:171|297:225,1,68,8|0,0:1|0:0,0:0:0:0:
431,66,174725,2,0,P|464:72|496:83,1,68,0|0,0:1|0:0,0:0:0:0:
236,138,175125,6,0,P|202:131|170:120,1,68,2|0,0:1|0:0,0:0:0:0:
401,222,175525,2,0,P|422:218|453:211,2,45.3333333333333
333,190,175925,53,8,0:1:0:0:
333,190,176191,1,0,0:0:0:0:
226,68,176325,5,0,0:0:0:0:
226,68,176591,1,0,0:0:0:0:
77,131,176725,21,2,0:1:0:0:
77,131,176991,1,0,0:0:0:0:
90,293,177125,5,0,0:0:0:0:
90,293,177391,1,0,0:0:0:0:
251,331,177525,53,8,0:1:0:0:
251,331,177791,1,0,0:0:0:0:
333,190,177925,38,0,P|319:135|309:72,1,113.333333333333
343,12,178325,6,0,P|376:114|274:146,1,238,2|0,0:1|0:0,0:0:0:0:
223,91,179125,54,0,P|212:58|206:9,1,68,8|0,0:1|0:0,0:0:0:0:
305,235,179525,2,0,P|272:230|238:219,1,68
64,133,179925,6,0,B|80:184|80:184|75:214|61:234|61:234|110:229|152:256|155:320,1,238,2|0,0:1|0:0,0:0:0:0:
76,308,180725,22,0,P|67:341|62:375,1,68,8|0,0:1|0:0,0:0:0:0:
190,210,181125,2,0,P|222:201|256:194,1,68
51,161,181525,6,0,P|30:120|27:79,1,68,2|0,0:1|0:0,0:0:0:0:
178,53,181925,2,0,P|183:24|187:-1,2,45.3333333333333
141,121,182325,53,8,0:1:0:0:
141,121,182591,1,0,0:0:0:0:
288,74,182725,5,0,0:0:0:0:
288,74,182991,1,0,0:0:0:0:
378,198,183125,21,2,0:1:0:0:
378,198,183391,1,0,0:0:0:0:
288,323,183525,5,0,0:0:0:0:
288,323,183791,1,0,0:0:0:0:
141,275,183925,54,0,P|147:241|170:208,1,56.6666666666667,8|0,0:1|0:0,0:0:0:0:
218,271,184191,1,0,0:0:0:0:
187,342,184325,2,0,P|132:356|72:315,1,127.5
48,246,184725,102,0,B|55:219|61:193|61:193|37:146|37:146|75:120|79:87|66:49,1,203.999993774414,4|4,3:2|0:0,0:0:0:0:
69,62,185925,1,0,0:0:0:0:
468,315,186325,5,4,0:0:0:0:
468,315,186525,2,0,P|418:262|345:271,1,152.999995330811,4|4,0:0|0:0,0:0:0:0:
344,271,187525,2,0,L|334:335,1,50.9999984436036,0|4,0:0|0:0,0:0:0:0:
251,134,187925,102,0,B|236:93|243:41|266:-29|336:-19|283:62,2,203.999993774414,4|4|4,0:0|0:0|0:0,0:0:0:0:
159,290,189725,2,0,P|128:270|50:273,1,101.999996887207,4|0,0:0|0:0,0:0:0:0:
244,249,190325,2,0,P|250:224|260:201,1,50.9999984436036,4|0,0:0|0:0,0:0:0:0:
157,144,190725,2,0,P|164:181|174:218,1,76.4999976654053,2|0,0:0|0:0,0:0:0:0:
159,290,191125,6,0,B|185:242|245:248|245:248|281:286|263:345,1,203.999993774414,4|4,3:2|0:0,0:0:0:0:
263,342,192325,1,0,0:0:0:0:
0,98,192725,101,4,0:0:0:0:
0,98,192925,2,0,B|44:134|102:131|102:131|121:122|138:107,1,152.999995330811,4|4,0:0|0:0,0:0:0:0:
137,107,193925,2,0,L|147:177,1,50.9999984436036,0|4,0:0|0:0,0:0:0:0:
201,286,194325,6,0,L|211:228,1,59.4999981842042,4|0,0:0|0:0,0:0:0:0:
265,60,194725,70,0,L|275:128,1,68,2|0,0:1|0:0,0:0:0:0:
316,313,195125,38,0,L|327:238,1,76.4999976654053,4|0,0:0|0:0,0:0:0:0:
396,28,195525,70,0,L|409:111,1,85,2|0,0:1|0:0,0:0:0:0:
446,349,195925,85,4,0:0:0:0:
488,164,196125,2,0,L|473:236,1,48.8750009322167
359,296,196325,53,4,0:0:0:0:
317,79,196525,2,0,L|326:130,1,50.9999984436036
207,335,196725,5,4,0:0:0:0:
242,119,196925,2,0,L|232:189,1,53.125
95,365,197125,69,4,0:0:0:0:
53,101,197325,2,0,L|65:174,1,55.2499974708558
295,305,197525,54,0,L|289:275,1,29.7499990921021,4|0,0:0|0:0,0:0:0:0:
322,273,197625,102,0,L|298:241,1,29.7499990921021
328,232,197725,102,0,L|294:226,1,29.7499990921021
312,194,197825,86,0,L|281:206,1,29.7499990921021
277,171,197925,54,0,L|254:201,1,29.7499990921021
234,171,198025,102,0,L|233:207,1,29.7499990921021
200,193,198125,102,0,L|220:228,1,29.7499990921021
183,232,198225,38,0,L|213:247,1,29.7499990921021
189,273,198325,85,4,0:0:0:0:
401,342,198525,2,0,P|445:334|486:327,1,85
341,99,199125,22,0,P|277:93|233:79,1,97.7500018644333,4|0,0:0|0:0,0:0:0:0:
84,142,199525,1,8,0:0:0:0:
245,83,199725,1,0,0:0:0:0:
126,25,199925,1,2,0:1:0:0:
205,196,200125,2,0,P|214:223|222:256,1,48.8750009322167
117,369,200325,2,0,P|124:320|135:273,1,97.7500018644333,8|0,0:0|0:0,0:0:0:0:
363,94,200725,22,0,P|315:103|268:117,1,97.7500018644333,2|0,0:1|0:0,0:0:0:0:
115,174,201125,1,8,0:0:0:0:
237,210,201325,1,8,0:0:0:0:
90,166,201525,1,2,0:1:0:0:
191,332,201725,2,0,P|197:308|201:284,1,48.8750009322167,2|2,0:0|0:0,0:0:0:0:
19,223,201925,2,0,P|59:252|107:253,1,97.7500018644333,8|2,0:0|0:0,0:0:0:0:
290,158,202325,69,4,0:0:0:0:
321,300,202525,2,0,L|328:334,4,24.4375004661083,2|2|2|2|8,0:0|0:0|0:0|0:0|0:0,0:0:0:0:
285,141,202925,1,2,0:0:0:0:
241,280,203125,1,2,0:1:0:0:
416,156,203325,2,0,P|392:149|369:144,1,48.8750009322167
285,141,203525,1,8,0:0:0:0:
449,81,203725,1,0,0:0:0:0:
384,229,203925,5,2,0:1:0:0:
449,81,204125,1,0,0:0:0:0:
510,188,204325,1,8,0:0:0:0:
350,35,204525,1,8,0:0:0:0:
381,215,204725,1,2,0:1:0:0:
461,61,204925,2,0,P|467:45|475:28,3,32.5833339548111,2|2|2|8,0:0|0:0|0:0|0:0,0:0:0:0:
389,250,205325,1,2,0:0:0:0:
284,153,205525,22,0,P|236:142|180:132,1,97.7500018644333,4|0,0:0|0:0,0:0:0:0:
20,190,205925,1,8,0:0:0:0:
68,42,206125,2,0,P|97:97|86:152,1,97.7500018644333,0|2,0:0|0:1,0:0:0:0:
188,346,206525,1,0,0:0:0:0:
187,302,206625,1,0,0:0:0:0:
191,258,206725,2,0,P|197:208|211:150,1,97.7500018644333,8|0,0:0|0:0,0:0:0:0:
245,70,207125,69,2,0:1:0:0:
113,211,207325,1,0,0:0:0:0:
207,161,207525,1,8,0:0:0:0:
18,106,207725,1,8,0:0:0:0:
210,185,207925,2,0,P|269:177|309:167,1,97.7500018644333,2|2,0:1|0:0,0:0:0:0:
380,196,208225,1,2,0:0:0:0:
380,196,208325,2,0,P|430:183|480:176,1,97.7500018644333,8|2,0:0|0:0,0:0:0:0:
359,371,208725,5,2,0:1:0:0:
332,351,208825,1,0,0:0:0:0:
313,322,208925,1,0,0:0:0:0:
307,289,209025,1,0,0:0:0:0:
313,255,209125,1,8,0:0:0:0:
210,98,209325,2,0,L|219:148,1,48.8750009322167,2|2,0:0|0:0,0:0:0:0:
234,224,209525,1,2,0:1:0:0:
283,66,209725,1,2,0:0:0:0:
234,224,209925,1,8,0:0:0:0:
135,131,210125,1,2,0:0:0:0:
247,228,210325,21,2,0:1:0:0:
219,95,210525,1,0,0:0:0:0:
273,239,210725,69,8,0:0:0:0:
314,51,210925,1,0,0:0:0:0:
379,280,211125,5,2,0:1:0:0:
339,41,211325,1,0,0:0:0:0:
414,295,211525,22,0,L|425:219,1,68,0|0,1:0|0:0,0:0:0:0:
459,10,211725,2,0,L|446:94,1,76.4999976654053,8|0,0:0|0:0,0:0:0:0:
496,254,211925,6,0,P|499:206|472:166,1,97.7500018644333,4|0,0:0|0:0,0:0:0:0:
400,142,212225,1,0,0:0:0:0:
386,141,212325,2,0,P|333:150|279:163,1,97.7500018644333,8|0,0:0|0:0,0:0:0:0:
211,347,212725,2,0,P|264:338|318:325,1,97.7500018644333,2|0,0:1|0:0,0:0:0:0:
209,197,213125,1,8,0:0:0:0:
70,255,213325,1,0,0:0:0:0:
219,209,213525,85,2,0:1:0:0:
258,71,213725,2,0,L|267:31,2,32.5833339548111,2|2|2,0:0|0:0|0:0,0:0:0:0:
250,99,213925,2,0,P|199:91|137:77,1,97.7500018644333,8|2,0:0|0:0,0:0:0:0:
348,39,214325,1,2,0:1:0:0:
386,184,214525,2,0,L|399:232,3,32.5833339548111,0|0|0|8,0:0|0:0|0:0|0:0,0:0:0:0:
348,39,214925,1,0,0:0:0:0:
287,192,215125,53,2,0:1:0:0:
470,133,215325,2,0,L|502:126,4,24.4375004661083,2|2|2|2|8,0:0|0:0|0:0|0:0|0:0,0:0:0:0:
287,192,215725,1,2,0:0:0:0:
403,248,215925,1,2,0:1:0:0:
326,117,216125,1,2,0:0:0:0:
308,77,216225,1,2,0:0:0:0:
299,33,216325,1,8,0:0:0:0:
396,167,216525,1,2,0:0:0:0:
274,273,216725,6,0,P|225:268|168:249,1,97.7500018644333,2|0,0:1|0:0,0:0:0:0:
178,254,217025,1,0,0:0:0:0:
178,254,217125,1,8,0:0:0:0:
36,309,217325,2,0,P|14:315|-8:322,3,32.5833339548111,0|0|0|2,0:0|0:0|0:0|0:1,0:0:0:0:
170,235,217725,1,8,0:0:0:0:
64,198,217925,1,8,0:0:0:0:
212,338,218125,1,8,0:0:0:0:
391,233,218325,86,0,P|382:178|371:125,1,97.7500018644333,4|0,0:0|0:0,0:0:0:0:
373,136,218625,1,0,0:0:0:0:
373,136,218725,1,8,0:0:0:0:
330,40,218925,1,0,0:0:0:0:
292,191,219125,1,2,0:1:0:0:
448,111,219325,2,0,P|422:116|396:123,1,48.8750009322167,2|2,0:0|0:0,0:0:0:0:
171,167,219525,2,0,P|220:174|268:184,1,97.7500018644333,8|2,0:0|0:0,0:0:0:0:
400,273,219925,6,0,P|407:326|383:369,1,97.7500018644333,4|0,0:0|0:0,0:0:0:0:
387,364,220225,1,0,0:0:0:0:
387,364,220325,1,8,0:0:0:0:
292,191,220525,1,0,0:0:0:0:
419,101,220725,1,2,0:1:0:0:
306,284,220925,1,0,0:0:0:0:
265,301,221025,1,0,0:0:0:0:
221,301,221125,2,0,P|197:265|203:202,1,97.7500018644333,8|0,0:0|0:0,0:0:0:0:
307,69,221525,5,2,0:1:0:0:
176,104,221725,2,0,L|138:112,3,32.5833339548111,2|2|2|8,0:0|0:0|0:0|0:0,0:0:0:0:
341,184,222125,1,2,0:0:0:0:
384,187,222225,1,2,0:0:0:0:
424,203,222325,1,2,0:1:0:0:
215,247,222525,2,0,P|219:222|224:199,1,48.8750009322167,2|2,0:0|0:0,0:0:0:0:
255,26,222725,2,0,P|264:85|272:132,1,97.7500018644333,8|2,0:0|0:0,0:0:0:0:
84,348,223125,86,0,P|137:337|185:327,1,97.7500018644333,2|0,0:1|0:0,0:0:0:0:
414,281,223525,6,0,P|375:274|313:260,1,85,8|0,0:0|0:0,0:0:0:0:
125,184,223925,6,0,P|170:177|222:157,1,76.4999976654053,2|0,0:1|0:0,0:0:0:0:
368,127,224325,86,0,P|329:121|282:104,1,68,8|0,0:0|0:0,0:0:0:0:
219,51,224725,5,4,0:0:0:0:
223,62,225125,5,0,0:0:0:0:
227,73,225525,85,0,0:0:0:0:
231,84,225925,5,0,0:0:0:0:
297,340,226325,54,0,P|344:294|409:303,1,136,8|8,0:1|0:1,0:0:0:0:
423,318,226791,70,0,L|427:295,1,22.6666666666667,8|8,0:1|0:1,0:0:0:0:
441,350,226925,38,0,L|433:316,1,34,8|8,0:1|0:1,0:0:0:0:
317,262,227125,1,8,0:1:0:0:
451,203,227325,1,8,0:1:0:0:
279,337,227525,70,0,B|212:321|105:309|105:309|132:298|154:275,1,229.499992996216,4|0,0:1|0:0,0:0:0:0:
71,204,227925,22,0,P|63:170|56:137,1,68,4|0,0:0|0:0,0:0:0:0:
191,32,228325,2,0,P|179:91|172:156,1,102
174,132,228725,1,8,0:1:0:0:
269,97,228925,1,0,0:0:0:0:
380,208,229125,2,0,P|324:205|279:242,1,102,2|0,0:1|0:0,0:0:0:0:
287,229,229525,6,0,P|249:223|212:208,1,68
102,139,229925,2,0,P|112:182|117:206,1,68,2|0,0:1|0:0,0:0:0:0:
178,349,230325,1,8,0:1:0:0:
209,248,230525,1,0,0:0:0:0:
28,316,230725,2,0,P|62:312|95:304,1,68
209,248,231125,5,2,0:1:0:0:
209,248,231325,2,0,L|199:296,1,34
295,374,231525,2,0,P|290:340|282:308,1,68
282,308,231825,1,0,0:0:0:0:
282,308,231925,1,8,0:1:0:0:
331,192,232125,1,0,0:0:0:0:
437,290,232325,2,0,P|403:285|370:277,1,68,2|0,0:1|0:0,0:0:0:0:
264,174,232725,6,0,L|297:165,1,34
233,139,232925,2,0,L|266:145,1,34
322,39,233125,6,0,L|330:72,1,34,2|0,0:1|0:0,0:0:0:0:
357,8,233325,2,0,L|350:41,1,34
444,142,233525,5,8,0:1:0:0:
444,142,233825,1,2,0:1:0:0:
444,142,233925,2,0,P|423:149|400:153,1,34,2|0,0:1|0:0,0:0:0:0:
322,154,234125,2,0,P|303:147|288:138,1,34,8|0,0:1|0:0,0:0:0:0:
230,79,234325,38,0,P|211:46|207:3,1,68,4|0,0:0|0:0,0:0:0:0:
322,154,234725,2,0,P|316:204|305:279,1,102
308,255,235125,1,8,0:1:0:0:
243,356,235325,1,0,0:0:0:0:
151,207,235525,2,0,P|159:260|170:312,1,102,2|0,0:1|0:0,0:0:0:0:
168,307,235925,6,0,P|112:298|90:296,1,68
270,212,236325,2,0,P|265:178|259:144,1,68,2|0,0:1|0:0,0:0:0:0:
259,144,236625,1,0,0:0:0:0:
259,144,236725,1,8,0:1:0:0:
196,280,236925,1,0,0:0:0:0:
311,335,237125,1,0,0:0:0:0:
196,280,237325,1,0,0:0:0:0:
360,231,237525,5,2,0:1:0:0:
360,231,237725,2,0,L|372:183,1,34
419,71,237925,2,0,P|423:104|429:138,1,68
429,138,238225,1,0,0:0:0:0:
429,138,238325,1,8,0:1:0:0:
458,234,238525,1,0,0:0:0:0:
334,187,238725,1,2,0:1:0:0:
458,234,238925,1,0,0:0:0:0:
296,300,239125,5,0,0:0:0:0:
503,158,239325,1,0,0:0:0:0:
466,148,239425,1,0,0:0:0:0:
429,138,239525,1,2,0:1:0:0:
242,235,239725,1,0,0:0:0:0:
387,326,239925,86,0,L|376:262,1,59.4999981842042,4|0,0:0|0:0,0:0:0:0:
278,16,240125,2,0,L|266:95,1,68,4|0,0:0|0:0,0:0:0:0:
217,332,240325,54,0,B|160:352|127:298|127:298|98:317|98:317|69:300|33:308,1,204,4|0,0:0|0:0,0:0:0:0:
2,208,240725,54,0,P|38:203|77:192,1,68,4|0,0:0|0:0,0:0:0:0:
170,152,241125,1,0,0:0:0:0:
198,255,241325,1,0,0:0:0:0:
96,110,241525,2,0,P|84:79|79:28,1,68,8|0,0:1|0:0,0:0:0:0:
250,186,241925,1,2,0:1:0:0:
274,93,242125,1,0,0:0:0:0:
131,241,242325,70,0,P|165:246|198:255,1,68
404,172,242725,2,0,P|370:166|337:158,1,68,2|0,0:1|0:0,0:0:0:0:
250,186,243125,1,8,0:1:0:0:
304,309,243325,1,0,0:0:0:0:
304,309,243425,1,0,0:0:0:0:
304,309,243525,2,0,P|319:269|315:234,1,68
388,71,243925,38,0,P|395:121|404:172,1,102,2|0,0:1|0:0,0:0:0:0:
404,172,244325,1,0,0:0:0:0:
294,133,244525,1,0,0:0:0:0:
405,260,244725,1,8,0:1:0:0:
405,260,244925,1,0,0:0:0:0:
232,222,245125,1,2,0:1:0:0:
232,222,245325,1,0,0:0:0:0:
385,176,245525,70,0,P|421:166|463:161,1,68
250,306,245925,2,0,P|240:342|235:384,1,68,2|0,0:1|0:0,0:0:0:0:
219,185,246325,21,8,0:1:0:0:
219,185,246625,1,2,0:1:0:0:
219,185,246725,2,0,L|173:198,1,34,2|0,0:1|0:0,0:0:0:0:
107,166,246925,2,0,L|60:157,1,34,8|0,0:1|0:0,0:0:0:0:
96,83,247125,6,0,P|92:43|81:8,1,68,4|0,0:0|0:0,0:0:0:0:
84,16,247425,1,0,0:0:0:0:
84,16,247525,1,0,0:0:0:0:
53,167,247725,1,0,0:0:0:0:
192,109,247925,1,8,0:1:0:0:
53,167,248125,1,0,0:0:0:0:
219,223,248325,1,8,0:0:0:0:
74,276,248525,2,0,P|107:268|139:259,1,68,8|0,0:0|0:0,0:0:0:0:
300,192,248925,69,0,0:0:0:0:
260,354,249125,1,2,0:1:0:0:
299,182,249325,1,0,0:0:0:0:
332,308,249525,1,8,0:1:0:0:
297,172,249725,1,0,0:0:0:0:
404,263,249925,1,8,0:0:0:0:
229,206,250125,1,8,0:0:0:0:
368,139,250325,37,2,0:1:0:0:
332,308,250525,1,0,0:0:0:0:
327,334,250625,1,0,0:0:0:0:
322,360,250725,1,0,0:0:0:0:
404,263,250925,1,0,0:0:0:0:
229,206,251125,1,8,0:1:0:0:
247,292,251325,1,0,0:0:0:0:
324,159,251525,1,2,0:1:0:0:
170,265,251725,1,0,0:0:0:0:
300,357,251925,5,0,0:0:0:0:
196,182,252125,1,0,0:0:0:0:
160,169,252225,1,0,0:0:0:0:
122,164,252325,1,2,0:1:0:0:
271,256,252525,1,0,0:0:0:0:
359,67,252725,2,0,P|331:108|324:166,1,102
323,158,253125,85,2,0:0:0:0:
256,192,253225,12,0,254225,0:0:0:0:
