osu file format v14

[General]
AudioFilename: audio.mp3
AudioLeadIn: 0
PreviewTime: 60818
Countdown: 0
SampleSet: Soft
StackLeniency: 0.4
Mode: 0
LetterboxInBreaks: 0
WidescreenStoryboard: 1

[Editor]
Bookmarks: 62850,92850,122850,152850,182850,198318,212850
DistanceSpacing: 0.9
BeatDivisor: 6
GridSize: 4
TimelineZoom: 2.5

[Metadata]
Title:VIP KID
TitleUnicode:VIP KID
Artist:REOL
ArtistUnicode:REOL
Creator:Sparhten
Version:xChippy's Extra
Source:
Tags:Amiya Sigma Japanese J-Pop pop RΞOL GigaP Okiku れをる DeRandom Otaku Mentai Chizuru xchippy Chaoslitz fuju SnowNiNo_ お菊 ギガ Σ Sotai Soutai Sekai The Relative Worlds ソウタイセカイ
BeatmapID:2428498
BeatmapSetID:1164168

[Difficulty]
HPDrainRate:7
CircleSize:4.2
OverallDifficulty:8.7
ApproachRate:9
SliderMultiplier:1.7
SliderTickRate:1

[Events]
//Background and Video events
0,0,"maxresdefault (1).jpg",0,0
//Break Periods
//Storyboard Layer 0 (Background)
//Storyboard Layer 1 (Fail)
//Storyboard Layer 2 (Pass)
//Storyboard Layer 3 (Foreground)
//Storyboard Layer 4 (Overlay)
//Storyboard Sound Samples

[TimingPoints]
1260,497.92531120332,4,2,1,50,1,0
1260,-133.333333333333,4,2,1,50,0,0
1923,-133.333333333333,4,2,1,5,0,0
2006,-222.222222222221,4,2,1,50,0,0
2587,-222.222222222221,4,2,1,5,0,0
2753,-133.333333333333,4,2,1,50,0,0
3085,-133.333333333333,4,2,1,5,0,0
3251,-133.333333333333,4,2,1,50,0,0
3915,-133.333333333333,4,2,1,5,0,0
3998,-222.222222222221,4,2,1,50,0,0
4579,-133.333333333333,4,2,1,5,0,0
4745,-133.333333333333,4,2,1,50,0,0
5077,-133.333333333333,4,2,1,5,0,0
5243,-133.333333333333,4,2,1,50,0,0
5990,-133.333333333333,4,2,1,5,0,0
6073,-222.222222222221,4,2,1,50,0,0
6571,-133.333333333333,4,2,1,5,0,0
6737,-133.333333333333,4,2,1,50,0,0
7069,-133.333333333333,4,2,1,5,0,0
7235,-133.333333333333,4,2,1,50,0,0
8064,-133.333333333333,4,2,1,5,0,0
8147,-133.333333333333,4,2,1,50,0,0
8396,-133.333333333333,4,2,1,5,0,0
8562,-133.333333333333,4,2,1,50,0,0
8728,-133.333333333333,4,2,1,5,0,0
8894,-133.333333333333,4,2,1,50,0,0
9060,-133.333333333333,4,2,1,50,0,0
9226,-133.333333333333,4,2,1,50,0,0
13625,-133.333333333333,4,2,1,5,0,0
13708,-100,4,2,1,50,0,0
14123,-133.333333333333,4,2,1,5,0,0
14206,-133.333333333333,4,2,1,50,0,0
14620,-133.333333333333,4,2,1,5,0,0
14703,-100,4,2,1,50,0,0
15118,-133.333333333333,4,2,1,5,0,0
15201,-133.333333333333,4,2,1,50,0,0
15616,-133.333333333333,4,2,1,5,0,0
15699,-117.647058823529,4,2,1,50,0,0
16114,-117.647058823529,4,2,1,5,0,0
16197,-105.263157894737,4,2,1,50,0,0
16612,-105.263157894737,4,2,1,5,0,0
16695,-95.2380952380951,4,2,1,50,0,0
17110,-95.2380952380951,4,2,1,5,0,0
17193,-181.818181818181,4,2,1,50,0,0
17850,468.75,4,2,1,70,1,0
17850,-66.6666666666667,4,2,1,70,0,0
18318,-100,4,2,1,70,0,0
21600,-66.6666666666667,4,2,1,70,0,0
22068,-100,4,2,1,70,0,0
24881,-142.857142857143,4,2,1,70,0,0
25350,-66.6666666666667,4,2,1,70,0,0
25818,-100,4,2,1,70,0,0
27225,-66.6666666666667,4,2,1,70,0,0
27693,-100,4,2,1,70,0,0
29100,-66.6666666666667,4,2,1,70,0,0
29568,-100,4,2,1,70,0,0
30975,-133.333333333333,4,2,1,70,0,0
32381,-57.1428571428571,4,2,1,70,0,0
32850,-133.333333333333,4,2,1,65,0,0
47225,-79.9999999999999,4,2,1,65,0,0
47381,-66.6666666666667,4,2,1,65,0,0
47850,-79.9999999999999,4,2,1,75,0,0
52537,-133.333333333333,4,2,1,75,0,0
52928,-133.333333333333,4,2,1,75,0,0
53006,-66.6666666666667,4,2,1,75,0,0
53475,-80,4,2,1,75,0,0
54881,-57.1428571428571,4,2,1,75,0,0
55350,-80,4,2,1,75,0,0
59100,-80,4,2,1,65,0,0
60506,-133.333333333333,4,2,1,65,0,0
60818,-100,4,2,1,65,0,0
60975,-57.1428571428571,4,2,1,65,0,0
60987,-57.1428571428571,4,2,1,75,0,0
61443,-100,4,2,1,75,0,0
62225,-55.5555555555556,4,2,1,75,0,0
62850,-50,4,2,1,85,0,0
63318,-66.6666666666667,4,2,1,85,0,0
66600,-50,4,2,1,85,0,0
67068,-66.6666666666667,4,2,1,85,0,0
70350,-50,4,2,1,85,0,0
70818,-66.6666666666667,4,2,1,85,0,0
74100,-50,4,2,1,85,0,0
74568,-66.6666666666667,4,2,1,85,0,0
77850,-50,4,2,1,85,0,0
78318,-66.6666666666667,4,2,1,85,0,0
90975,-50,4,2,1,85,0,0
92850,-133.333333333333,4,2,1,65,0,0
102225,-100,4,2,1,65,0,0
107381,-66.6666666666667,4,2,1,65,0,0
107850,-79.9999999999999,4,2,1,75,0,0
114725,-66.6666666666667,4,2,1,75,0,0
114881,-57.1428571428571,4,2,1,75,0,0
115350,-80,4,2,1,75,0,0
122225,-55.5555555555556,4,2,1,75,0,0
122850,-50,4,2,1,85,0,0
123318,-66.6666666666667,4,2,1,85,0,0
126600,-50,4,2,1,85,0,0
127068,-66.6666666666667,4,2,1,85,0,0
130350,-50,4,2,1,85,0,0
130818,-66.6666666666667,4,2,1,85,0,0
134100,-50,4,2,1,85,0,0
134568,-66.6666666666667,4,2,1,85,0,0
135975,-50,4,2,1,85,0,0
137850,-50,4,2,1,85,0,0
138318,-66.6666666666667,4,2,1,85,0,0
152381,-50,4,2,1,85,0,0
152693,-50,4,2,1,65,0,0
152850,-66.6666666666667,4,2,1,65,0,0
153318,-100,4,2,1,65,0,0
156600,-66.6666666666667,4,2,1,65,0,0
157068,-100,4,2,1,65,0,0
159881,-142.857142857143,4,2,1,65,0,0
160350,-66.6666666666667,4,2,1,65,0,0
160818,-100,4,2,1,65,0,0
162225,-66.6666666666667,4,2,1,65,0,0
162693,-100,4,2,1,65,0,0
164100,-66.6666666666667,4,2,1,65,0,0
164568,-100,4,2,1,65,0,0
165975,-133.333333333333,4,2,1,65,0,0
166365,-133.333333333333,4,2,1,65,0,0
166443,-79.9999999999999,4,2,1,65,0,0
166834,-79.9999999999999,4,2,1,65,0,0
166912,-200,4,2,1,65,0,0
167381,-200,4,2,1,65,0,0
167850,-133.333333333333,4,2,1,55,0,0
168943,-100,4,2,1,55,0,0
171600,-133.333333333333,4,2,1,55,0,0
173475,-117.647058823529,4,2,1,55,0,0
173943,-105.263157894737,4,2,1,55,0,0
174412,-95.2380952380954,4,2,1,55,0,0
174881,-86.9565217391304,4,2,1,55,0,0
175350,-100,4,2,1,55,0,0
176287,-90.9090909090909,4,2,1,55,0,0
177225,-83.3333333333333,4,2,1,55,0,0
178162,-76.9230769230769,4,2,1,55,0,0
179100,-71.4285714285714,4,2,1,55,0,0
180975,-57.1428571428571,4,2,1,65,0,0
181912,-50,4,2,1,65,0,0
182381,-44.4444444444445,4,2,1,65,0,0
182850,-40,4,2,1,90,0,0
183318,-66.6666666666667,4,2,1,90,0,0
186600,-50,4,2,1,90,0,0
187068,-66.6666666666667,4,2,1,90,0,0
190350,-50,4,2,1,90,0,0
190818,-66.6666666666667,4,2,1,90,0,0
194100,-50,4,2,1,90,0,0
194568,-66.6666666666667,4,2,1,90,0,0
195975,-50,4,2,1,90,0,0
197850,-50,4,2,1,90,0,0
198318,-66.6666666666667,4,2,1,90,0,0
212850,-50,4,2,1,60,0,0
213318,-133.333333333333,4,2,1,60,0,0
227381,-50,4,2,1,60,0,0

[Colours]
Combo1 : 219,68,68
Combo2 : 105,105,239
Combo3 : 239,122,222
Combo4 : 65,217,224

[HitObjects]
48,24,1260,6,0,B|119:15|119:15|147:25|147:25|219:16,1,170.000006484986,2|0,0:2|0:0,0:0:0:0:
214,17,2006,2,0,B|202:41|202:41|208:79|208:79|233:99,1,89.2499972763062
300,44,2753,2,0,B|341:34|341:34|381:57,1,85.0000032424928,2|0,0:2|0:0,0:0:0:0:
468,184,3251,6,0,P|406:190|333:120,1,170.000006484986,2|0,0:2|0:0,0:0:0:0:
332,119,3998,2,0,B|344:143|344:143|338:181|338:181|312:201,1,89.2499972763062
248,144,4745,2,0,B|207:134|207:134|167:157,1,85.0000032424928,2|0,0:2|0:0,0:0:0:0:
165,301,5243,6,0,B|265:267|250:331|359:300,1,191.250007295609,2|0,0:2|0:0,0:0:0:0:
352,301,6073,2,0,B|331:294|313:298|313:298|330:289|341:271,1,76.4999976654053
399,213,6737,2,0,P|359:193|312:195,1,85.0000032424928,2|0,0:2|0:0,0:0:0:0:
232,106,7235,6,0,B|172:118|143:175|143:176|143:176|138:172|138:172|142:168|142:168|138:165|138:165|142:160|142:160|138:156|138:156|141:153|141:153|138:149|138:149|141:145|141:145|138:142|138:142|138:133|138:133|139:135|139:135|141:130|141:130|138:127|138:127|141:124|141:124|138:119|138:119|141:116|141:116|137:97,1,212.500008106232,2|0,0:2|0:0,0:0:0:0:
56,25,8147,2,0,L|118:11,1,63.7500024318696
49,38,8562,2,0,L|101:27,1,42.5000016212464,2|0,0:2|0:0,0:0:0:0:
43,54,8894,2,0,L|95:43,1,42.5000016212464,2|0,0:2|0:0,0:0:0:0:
256,18,9226,6,0,B|236:58|236:58|256:106,1,85.0000032424928,2|0,0:2|0:0,0:0:0:0:
251,95,9724,5,2,0:2:0:0:
327,139,9890,1,2,0:2:0:0:
348,212,10056,1,2,0:2:0:0:
321,278,10222,1,2,0:2:0:0:
270,300,10388,1,2,0:2:0:0:
220,289,10554,1,2,0:2:0:0:
202,255,10720,1,2,0:2:0:0:
211,224,10886,1,2,0:2:0:0:
225,215,11052,1,2,0:2:0:0:
253,298,11218,6,0,B|273:258|273:258|258:221,1,85.0000032424928,2|0,0:2|0:0,0:0:0:0:
225,215,11716,5,2,0:2:0:0:
211,224,11882,1,2,0:2:0:0:
202,255,12048,1,2,0:2:0:0:
220,289,12214,1,2,0:2:0:0:
270,300,12380,1,2,0:2:0:0:
321,278,12546,1,2,0:2:0:0:
348,212,12712,1,2,0:2:0:0:
327,139,12878,1,2,0:2:0:0:
251,95,13044,1,2,0:2:0:0:
144,115,13210,6,0,B|195:128|195:128|250:89,1,106.250004053116,2|0,0:2|0:0,0:0:0:0:
180,43,13708,2,0,L|205:202,1,141.666666666667,2|0,0:2|0:0,0:0:0:0:
404,210,14206,6,0,B|353:223|353:223|298:184,1,106.250004053116,2|0,0:2|0:0,0:0:0:0:
368,138,14703,2,0,L|343:297,1,141.666666666667,2|0,0:2|0:0,0:0:0:0:
345,277,15201,6,0,P|296:259|235:260,1,106.250004053116,2|0,0:2|0:0,0:0:0:0:
147,326,15699,6,0,P|188:283|249:256,1,120.416668963432,2|0,0:2|0:0,0:0:0:0:
396,182,16197,6,0,P|347:132|275:99,1,134.583329739571,2|0,0:2|0:0,0:0:0:0:
146,127,16695,6,0,P|210:102|290:103,1,148.74999546051,2|0,0:2|0:0,0:0:0:0:
289,103,17193,6,0,B|265:85|241:85|241:85|265:83|286:60,1,93.5000028533936
139,272,17850,6,0,B|179:231|225:235|225:235|227:229|227:229|226:235|226:235|278:266|284:321,1,212.500008106232,6|0,1:2|0:0,0:0:0:0:
397,248,18318,6,0,P|371:237|342:235,1,56.6666666666667,2|0,0:0|0:0,0:0:0:0:
397,248,18631,1,2,0:0:0:0:
312,124,18787,2,0,P|283:124|257:136,1,56.6666666666667,2|0,0:0|0:0,0:0:0:0:
113,30,19100,6,0,L|103:95,1,56.6666666666667,2|0,0:0|0:0,0:0:0:0:
34,43,19412,1,2,0:0:0:0:
181,162,19568,2,0,L|191:227,2,56.6666666666667,2|2|0,0:0|0:0|0:0,0:0:0:0:
50,212,20037,1,2,0:0:0:0:
113,253,20193,5,2,0:0:0:0:
87,373,20350,1,2,0:0:0:0:
141,322,20506,1,2,0:0:0:0:
113,253,20662,5,2,0:0:0:0:
86,134,20818,1,2,0:0:0:0:
140,184,20975,1,2,0:0:0:0:
113,253,21131,5,2,0:0:0:0:
226,209,21287,1,2,0:0:0:0:
295,241,21443,1,2,0:0:0:0:
476,212,21600,6,0,P|387:221|310:332,1,212.500008106232,2|0,1:2|0:0,0:0:0:0:
226,209,22068,6,0,P|231:175|232:134,1,56.6666666666667,2|0,0:0|0:0,0:0:0:0:
295,241,22381,1,2,0:0:0:0:
396,308,22537,2,0,P|391:342|390:383,1,56.6666666666667,2|0,0:0|0:0,0:0:0:0:
226,209,22850,5,2,0:0:0:0:
226,209,23162,1,2,0:0:0:0:
152,191,23318,2,0,L|90:209,1,56.6666666666667,2|0,0:0|0:0,0:0:0:0:
172,265,23631,5,2,0:0:0:0:
203,136,23787,1,2,0:0:0:0:
152,191,23943,1,0,0:0:0:0:
291,254,24100,5,2,0:0:0:0:
277,152,24256,1,2,0:0:0:0:
226,209,24412,1,0,0:0:0:0:
397,209,24568,5,2,0:0:0:0:
373,164,24725,1,2,0:0:0:0:
343,199,24881,6,0,B|383:192|383:192|389:201|389:201|436:195,1,99.1666636403403,2|0,0:0|0:0,0:0:0:0:
368,39,25350,6,0,P|301:38|202:142,1,212.500008106232,14|0,1:2|0:0,0:0:0:0:
76,152,25818,2,0,P|85:108|88:70,1,56.6666666666667,10|0,0:2|0:0,0:0:0:0:
144,192,26131,1,2,0:0:0:0:
252,264,26287,2,0,P|243:308|240:346,1,56.6666666666667,10|0,0:2|0:0,0:0:0:0:
22,246,26600,2,0,P|59:232|91:230,1,56.6666666666667,2|8,0:0|0:0,0:0:0:0:
246,157,26912,1,2,0:0:0:0:
181,129,27068,1,2,0:0:0:0:
464,40,27225,6,0,P|406:113|406:237,1,212.500008106232,14|0,1:2|0:0,0:0:0:0:
308,324,27693,2,0,P|350:310|388:303,1,56.6666666666667,10|0,0:0|0:0,0:0:0:0:
242,278,28006,1,2,0:0:0:0:
112,212,28162,2,0,P|69:225|31:232,1,56.6666666666667,10|0,0:0|0:0,0:0:0:0:
164,376,28475,2,0,P|178:339|180:307,1,56.6666666666667,2|8,0:0|0:0,0:0:0:0:
217,163,28787,1,2,0:0:0:0:
281,206,28943,1,2,0:0:0:0:
65,36,29100,6,0,P|148:22|251:100,1,212.500008106232,14|0,1:2|0:0,0:0:0:0:
384,120,29568,2,0,P|375:76|372:38,1,56.6666666666667,10|0,0:0|0:0,0:0:0:0:
316,160,29881,1,2,0:0:0:0:
208,232,30037,2,0,P|217:276|220:314,1,56.6666666666667,10|0,0:0|0:0,0:0:0:0:
438,214,30350,2,0,P|401:200|369:198,1,56.6666666666667,2|8,0:0|0:0,0:0:0:0:
214,125,30662,1,2,0:0:0:0:
279,97,30818,1,2,0:0:0:0:
82,83,30975,6,0,B|117:95|155:77|155:77|127:108|137:135,1,127.500004863739,2|2,0:0|0:0,0:0:0:0:
134,123,31756,1,2,0:0:0:0:
96,192,31912,1,2,0:0:0:0:
96,192,32225,1,2,0:0:0:0:
132,260,32381,6,0,B|89:219|151:114|260:144|294:169,1,247.916669030984,2|0,1:2|0:0,0:0:0:0:
358,144,32850,5,0,1:0:0:0:
398,205,33006,1,0,0:0:0:0:
352,262,33162,1,2,0:0:0:0:
241,231,33318,6,0,P|262:231|283:238,1,42.5000016212464,2|0,1:2|0:0,0:0:0:0:
250,303,33631,1,2,0:2:0:0:
179,187,33787,6,0,P|193:171|212:162,1,42.5000016212464,2|0,1:2|0:0,0:0:0:0:
241,231,34100,1,2,0:2:0:0:
100,194,34256,6,0,P|99:172|106:152,1,42.5000016212464,2|0,1:2|0:0,0:0:0:0:
179,187,34568,1,2,0:2:0:0:
49,277,34725,6,0,B|89:267|89:267|138:290,1,85.0000032424928,0|2,1:2|0:2,0:0:0:0:
112,111,35193,2,0,P|112:132|105:152,1,42.5000016212464,2|0,1:2|0:0,0:0:0:0:
37,122,35506,1,2,0:2:0:0:
246,137,35662,6,0,P|231:152|212:161,1,42.5000016212464,2|0,1:2|0:0,0:0:0:0:
187,94,35975,1,2,0:2:0:0:
324,244,36131,6,0,P|302:244|282:237,1,42.5000016212464,2|0,1:2|0:0,0:0:0:0:
319,172,36443,1,2,0:2:0:0:
202,249,36600,6,0,P|239:233|291:241,1,85.0000032424928,0|2,1:2|0:2,0:0:0:0:
424,188,37068,2,0,P|382:206|377:205,1,42.5000016212464,2|0,1:2|0:0,0:0:0:0:
377,134,37381,1,2,0:2:0:0:
391,319,37537,6,0,P|395:273|398:269,1,42.5000016212464,2|0,1:2|0:0,0:0:0:0:
460,306,37850,1,2,0:2:0:0:
289,221,38006,6,0,P|325:247|327:252,1,42.5000016212464,2|0,1:2|0:0,0:0:0:0:
268,289,38318,1,2,0:2:0:0:
168,240,38475,6,0,L|112:229,1,42.5000016212464,2|0,1:2|0:0,0:0:0:0:
5,139,38787,1,2,0:2:0:0:
75,141,38943,2,0,L|14:129,1,42.5000016212464,2|0,1:2|0:0,0:0:0:0:
226,95,39256,1,2,0:2:0:0:
159,100,39412,6,0,L|201:108,1,42.5000016212464,2|0,1:2|0:0,0:0:0:0:
208,114,39646,1,2,0:0:0:0:
214,118,39725,1,2,0:0:0:0:
168,212,39881,5,2,0:0:0:0:
236,194,40037,1,2,0:0:0:0:
304,172,40193,1,2,0:0:0:0:
408,56,40350,6,0,B|398:88|398:88|408:144,1,85.0000032424928,0|2,1:0|0:2,0:0:0:0:
458,267,40818,2,0,L|514:254,1,42.5000016212464,2|0,1:2|0:0,0:0:0:0:
361,285,41131,1,2,0:2:0:0:
429,161,41287,6,0,L|405:196,1,42.5000016212464,2|0,1:2|0:0,0:0:0:0:
361,285,41600,1,2,0:2:0:0:
312,152,41756,6,0,L|320:193,1,42.5000016212464,2|0,1:2|0:0,0:0:0:0:
361,285,42068,1,2,0:2:0:0:
251,363,42225,6,0,P|215:379|155:364,1,85.0000032424928,0|2,1:2|0:2,0:0:0:0:
54,267,42693,2,0,L|-2:254,1,42.5000016212464,2|0,1:2|0:0,0:0:0:0:
151,285,43006,1,2,0:2:0:0:
83,161,43162,6,0,L|106:196,1,42.5000016212464,2|0,1:2|0:0,0:0:0:0:
151,285,43475,1,2,0:2:0:0:
200,152,43631,6,0,L|191:193,1,42.5000016212464,2|0,1:2|0:0,0:0:0:0:
151,285,43943,1,2,0:2:0:0:
261,363,44100,6,0,P|297:379|357:364,1,85.0000032424928,0|2,1:2|0:2,0:0:0:0:
445,305,44568,2,0,P|448:277|453:253,1,42.5000016212464,2|0,1:2|0:0,0:0:0:0:
456,332,44881,1,2,0:2:0:0:
336,240,45037,6,0,P|332:211|328:188,1,42.5000016212464,2|0,1:2|0:0,0:0:0:0:
328,268,45350,1,2,0:2:0:0:
468,104,45506,2,0,P|429:100|380:92,1,85.0000032424928,2|2,1:2|0:2,0:0:0:0:
234,24,45975,6,0,P|179:48|163:76,1,85.0000032424928,0|2,1:2|0:0,0:0:0:0:
228,140,46443,2,0,L|278:147,1,42.5000016212464,2|0,0:0|0:0,0:0:0:0:
199,211,46756,1,2,0:0:0:0:
270,217,46912,2,0,L|220:224,1,42.5000016212464,2|0,0:0|0:0,0:0:0:0:
60,329,47225,6,0,P|52:315|50:288,1,35.4166666666667,2|0,0:0|0:0,0:0:0:0:
11,194,47381,6,0,B|101:181|101:181|145:227|122:294,1,212.500008106232,10|0,1:2|0:0,0:0:0:0:
122,293,47850,5,0,1:2:0:0:
195,283,48006,1,2,0:0:0:0:
264,188,48162,1,2,0:0:0:0:
202,6,48318,5,10,0:2:0:0:
297,59,48475,1,2,0:0:0:0:
363,83,48631,1,2,0:0:0:0:
501,58,48787,6,0,B|462:56|462:56|425:80,1,70.8333333333333,2|0,1:2|0:0,0:0:0:0:
336,156,49100,1,2,0:0:0:0:
453,301,49256,2,0,B|397:295|368:251|368:251|393:303|373:350,1,177.083333333333,8|0,0:0|0:0,0:0:0:0:
380,323,49725,5,2,1:2:0:0:
313,310,49881,1,2,0:0:0:0:
260,206,50037,1,2,0:0:0:0:
309,20,50193,5,10,0:2:0:0:
222,115,50350,1,2,0:2:0:0:
152,136,50506,1,2,0:2:0:0:
51,81,50662,6,0,B|73:90|94:82|94:82|73:101|71:131,1,70.8333333333333,2|0,1:2|0:0,0:0:0:0:
2,176,50975,1,2,0:2:0:0:
208,188,51131,2,0,B|243:184|274:199|274:199|290:169|339:138,1,141.666666666667,8|2,0:2|0:0,0:0:0:0:
129,185,51600,5,2,1:2:0:0:
161,251,51756,1,2,0:0:0:0:
130,358,51912,1,2,0:0:0:0:
208,188,52068,5,10,0:2:0:0:
97,295,52225,1,2,0:2:0:0:
130,358,52381,1,2,0:2:0:0:
195,143,52537,6,0,P|238:156|194:180,1,106.250004053116,2|0,1:2|0:0,0:0:0:0:
161,251,53006,6,0,P|214:206|310:213,1,170.000006484986,10|2,0:2|0:0,0:0:0:0:
475,283,53475,5,2,1:2:0:0:
420,238,53631,1,2,0:0:0:0:
385,137,53787,1,2,0:0:0:0:
462,2,53943,5,10,0:2:0:0:
348,69,54100,1,2,0:2:0:0:
276,82,54256,1,2,0:2:0:0:
152,60,54412,1,2,1:2:0:0:
203,115,54568,1,0,0:0:0:0:
208,128,54646,1,2,0:0:0:0:
205,142,54725,2,0,L|170:148,1,35.4166666666667,2|0,0:2|0:0,0:0:0:0:
3,50,54881,6,0,B|31:39|52:15|52:15|47:68|47:68|54:88|54:88|47:166,1,198.333335224787,12|2,1:2|0:0,0:0:0:0:
10,257,55271,1,0,0:0:0:0:
10,257,55350,5,2,1:2:0:0:
78,229,55506,1,2,0:0:0:0:
188,236,55662,1,2,0:0:0:0:
300,373,55818,6,0,P|290:319|283:277,1,70.8333333333333,10|0,0:2|0:0,0:0:0:0:
328,240,56131,1,2,0:2:0:0:
216,104,56287,6,0,P|226:158|233:200,1,70.8333333333333,2|0,1:2|0:0,0:0:0:0:
188,236,56600,1,2,0:2:0:0:
366,175,56756,2,0,P|427:159|496:206,1,141.666666666667,8|2,0:2|0:0,0:0:0:0:
343,70,57225,5,2,1:2:0:0:
273,50,57381,1,2,0:0:0:0:
142,80,57537,1,2,0:0:0:0:
43,211,57693,6,0,L|28:140,1,70.8333333333333,10|0,0:2|0:0,0:0:0:0:
59,77,58006,1,2,0:2:0:0:
273,50,58162,6,0,L|258:121,1,70.8333333333333,2|0,1:2|0:0,0:0:0:0:
200,160,58475,1,2,0:2:0:0:
136,300,58631,2,0,P|186:266|283:286,1,141.666666666667,8|0,0:2|0:0,0:0:0:0:
481,230,59100,5,2,1:2:0:0:
349,270,59256,1,2,0:0:0:0:
448,384,59412,1,2,0:0:0:0:
405,320,59568,5,2,1:2:0:0:
368,341,59725,1,0,0:0:0:0:
334,344,59881,1,2,0:0:0:0:
228,303,60037,5,2,1:2:0:0:
166,268,60193,1,2,0:0:0:0:
89,267,60350,1,2,0:0:0:0:
24,321,60506,6,0,L|31:389,1,63.7500024318696,2|0,1:2|0:0,0:0:0:0:
30,384,60818,6,0,L|37:344,1,28.3333333333333,2|0,0:0|0:0,0:0:0:0:
14,181,60975,6,0,B|122:149|89:228|216:184,1,198.333335224787,10|2,1:2|0:2,0:0:0:0:
344,96,61443,1,10,0:2:0:0:
344,96,61600,2,0,L|410:107,1,56.6666666666667,10|2,0:2|0:2,0:0:0:0:
406,120,61912,2,0,L|462:129,1,56.6666666666667,10|0,0:2|0:0,0:0:0:0:
206,187,62225,6,0,P|195:211|197:249,1,50.9999984436036,10|0,0:2|0:0,0:0:0:0:
402,228,62381,6,0,B|336:161|260:179|234:239|262:304|343:304|330:249,1,254.999992218018,10|0,1:2|0:0,0:0:0:0:
329,271,62850,6,0,B|313:180|313:180|337:139|337:139|314:81|314:81|328:41|326:-7,1,283.333333333333,6|0,1:2|0:0,0:0:0:0:
232,40,63318,2,0,P|189:47|156:75,1,85.0000032424928,10|0,0:2|0:0,0:0:0:0:
225,118,63631,1,0,0:0:0:0:
413,57,63787,6,0,L|405:99,1,42.5000016212464,2|0,1:2|0:0,0:0:0:0:
289,193,63943,2,0,L|298:152,1,42.5000016212464
429,49,64100,2,0,L|421:91,1,42.5000016212464,2|0,0:2|0:0,0:0:0:0:
510,273,64256,2,0,P|442:233|342:241,1,170.000006484986,10|0,0:2|0:0,0:0:0:0:
206,201,64725,6,0,P|217:153|231:86,1,85.0000032424928,2|0,1:2|0:0,0:0:0:0:
288,68,65037,1,0,0:0:0:0:
182,276,65193,2,0,P|221:280|269:250,1,85.0000032424928,10|0,0:2|0:0,0:0:0:0:
224,118,65506,2,0,P|185:114|137:144,1,85.0000032424928,2|0,0:0|1:2,0:0:0:0:
92,192,65818,5,0,0:0:0:0:
288,68,65975,2,0,P|306:92|308:130,1,42.5000016212464,2|0,0:2|0:0,0:0:0:0:
376,212,66131,2,0,P|397:183|406:131,1,85.0000032424928,10|0,0:2|0:0,0:0:0:0:
224,118,66443,1,2,0:2:0:0:
343,297,66600,6,0,B|263:255|180:282|180:282|221:293|239:322,1,226.666666666667,6|2,1:2|0:0,0:0:0:0:
72,352,67068,2,0,P|43:330|41:283,1,85.0000032424928,10|0,0:2|0:0,0:0:0:0:
104,244,67381,1,0,0:0:0:0:
12,112,67537,6,0,P|58:142|150:136,1,127.500004863739,2|0,1:2|0:0,0:0:0:0:
128,145,67850,2,0,B|140:120|140:120|136:93,1,42.5000016212464,2|0,0:0|0:0,0:0:0:0:
193,220,68006,2,0,P|235:219|281:179,1,85.0000032424928,10|0,0:0|0:0,0:0:0:0:
324,144,68318,1,2,0:0:0:0:
440,288,68475,5,2,1:2:0:0:
383,352,68631,1,0,0:0:0:0:
411,214,68787,1,2,0:2:0:0:
257,102,68943,5,10,0:2:0:0:
206,209,69100,1,0,0:0:0:0:
166,38,69256,1,2,0:0:0:0:
366,59,69412,6,0,P|293:65|246:131,1,127.500004863739,2|0,1:2|0:0,0:0:0:0:
288,177,69725,1,2,0:2:0:0:
159,122,69881,6,0,L|96:139,1,42.5000016212464,10|0,0:2|0:0,0:0:0:0:
277,218,70037,2,0,L|293:154,1,42.5000016212464
124,268,70193,2,0,L|170:314,1,42.5000016212464
384,352,70350,6,0,B|320:333|283:295|283:295|258:341|192:386,1,226.666666666667,6|0,1:2|0:0,0:0:0:0:
91,201,70818,2,0,P|61:222|46:267,1,85.0000032424928,8|0,0:0|0:0,0:0:0:0:
124,268,71131,1,0,0:0:0:0:
269,202,71287,6,0,L|227:194,1,42.5000016212464,2|0,1:2|0:0,0:0:0:0:
104,124,71443,2,0,L|145:133,1,42.5000016212464
277,218,71600,2,0,L|235:210,1,42.5000016212464,2|0,0:0|0:0,0:0:0:0:
32,100,71756,2,0,P|92:98|144:25,1,127.500004863739,10|0,0:0|0:0,0:0:0:0:
138,53,72068,1,2,0:0:0:0:
277,218,72225,6,0,P|325:219|367:277,2,85.0000032424928,2|0|0,1:2|0:0|0:0,0:0:0:0:
432,260,72693,2,0,P|424:223|416:175,1,85.0000032424928,10|0,0:2|0:0,0:0:0:0:
464,120,73006,1,2,0:2:0:0:
372,314,73162,5,0,1:2:0:0:
440,340,73318,1,0,0:0:0:0:
318,210,73475,2,0,P|293:214|269:219,1,42.5000016212464,2|0,0:2|0:0,0:0:0:0:
153,167,73631,2,0,P|113:195|99:295,1,127.500004863739,10|0,0:2|0:0,0:0:0:0:
92,268,73943,2,0,P|117:264|141:259,1,42.5000016212464,2|0,0:2|0:0,0:0:0:0:
3,56,74100,6,0,B|72:52|94:108|94:108|145:73|217:103,1,226.666666666667,6|2,1:2|0:0,0:0:0:0:
351,39,74568,2,0,P|380:58|390:106,1,85.0000032424928,10|0,0:0|0:0,0:0:0:0:
348,174,74881,1,2,0:0:0:0:
507,281,75037,6,0,P|459:249|378:251,1,127.500004863739,2|0,1:2|0:0,0:0:0:0:
390,246,75350,2,0,P|363:253|341:266,1,42.5000016212464,2|0,0:0|0:0,0:0:0:0:
390,105,75506,2,0,P|342:92|301:69,1,85.0000032424928,8|0,0:2|0:0,0:0:0:0:
244,28,75818,1,0,0:0:0:0:
248,232,75975,6,0,L|261:290,1,42.5000016212464,10|0,0:0|0:0,0:0:0:0:
301,116,76131,2,0,L|314:58,1,42.5000016212464,2|0,0:0|0:0,0:0:0:0:
156,164,76287,2,0,L|214:177,1,42.5000016212464,2|0,0:0|0:0,0:0:0:0:
320,200,76443,5,10,0:0:0:0:
331,192,76600,1,10,0:0:0:0:
347,189,76756,1,2,0:0:0:0:
256,372,76912,6,0,P|304:342|384:345,1,127.500004863739,10|0,0:0|0:0,0:0:0:0:
444,328,77225,2,0,P|469:340|495:345,1,42.5000016212464,10|0,0:0|0:0,0:0:0:0:
256,276,77381,6,0,P|208:246|128:249,1,127.500004863739,10|0,0:0|0:0,0:0:0:0:
57,180,77693,2,0,P|35:192|0:206,1,42.5000016212464,8|0,0:0|0:0,0:0:0:0:
204,92,77850,6,0,B|360:156|256:244|152:156|308:92,1,283.333333333333,4|0,1:2|0:0,0:0:0:0:
216,17,78318,6,0,P|164:24|125:88,1,127.500004863739,10|0,0:2|0:0,0:0:0:0:
125,83,78631,2,0,P|121:57|105:22,1,42.5000016212464,2|0,0:2|0:0,0:0:0:0:
143,205,78787,5,2,1:2:0:0:
79,147,78943,1,0,0:0:0:0:
151,190,79100,1,0,0:0:0:0:
36,339,79256,2,0,P|83:288|147:286,1,127.500004863739,10|0,0:2|0:0,0:0:0:0:
138,283,79568,2,0,P|112:278|98:271,1,42.5000016212464,2|0,0:2|0:0,0:0:0:0:
264,312,79725,5,2,1:2:0:0:
185,348,79881,1,0,0:0:0:0:
253,298,80037,1,2,0:2:0:0:
140,164,80193,2,0,P|187:214|251:216,1,127.500004863739,10|0,0:2|0:0,0:0:0:0:
242,220,80506,2,0,P|216:225|202:232,1,42.5000016212464,2|0,0:2|0:0,0:0:0:0:
332,317,80662,6,0,P|401:319|447:275,1,127.500004863739,2|0,1:2|0:0,0:0:0:0:
443,284,80975,2,0,P|428:305|423:320,1,42.5000016212464,2|0,0:2|0:0,0:0:0:0:
405,134,81131,2,0,P|335:131|289:175,1,127.500004863739,10|0,0:2|0:0,0:0:0:0:
293,167,81443,1,0,0:0:0:0:
172,111,81600,5,0,1:2:0:0:
214,178,81756,1,0,0:0:0:0:
184,248,81912,1,0,0:0:0:0:
44,364,82068,2,0,P|110:320|166:328,1,127.500004863739,10|0,0:2|0:0,0:0:0:0:
155,323,82381,2,0,P|115:302|106:289,1,42.5000016212464,2|0,0:2|0:0,0:0:0:0:
265,357,82537,6,0,B|277:315|277:315|251:261,1,85.0000032424928,2|0,1:2|0:0,0:0:0:0:
200,384,82850,1,2,0:2:0:0:
325,218,83006,2,0,P|259:174|203:182,1,127.500004863739,10|0,0:2|0:0,0:0:0:0:
214,177,83318,2,0,P|254:156|263:143,1,42.5000016212464,2|0,0:0|0:0,0:0:0:0:
48,108,83475,5,2,1:2:0:0:
104,172,83631,1,0,0:0:0:0:
76,34,83787,1,2,0:2:0:0:
138,261,83943,5,10,0:2:0:0:
104,172,84100,1,0,0:0:0:0:
70,337,84256,1,2,0:0:0:0:
257,275,84412,6,0,B|194:247|194:247|112:267,1,127.500004863739,2|0,1:2|0:0,0:0:0:0:
185,327,84725,1,2,0:2:0:0:
203,173,84881,2,0,L|210:106,1,42.5000016212464,10|0,0:2|0:0,0:0:0:0:
130,42,85037,2,0,L|184:81,1,42.5000016212464
304,60,85193,2,0,L|242:87,1,42.5000016212464
433,239,85350,6,0,P|368:186|285:193,1,170.000006484986,0|0,1:0|0:0,0:0:0:0:
114,136,85818,2,0,B|123:189|123:189|122:209|122:209|136:272,1,127.500004863739,10|0,0:2|0:0,0:0:0:0:
133,261,86131,2,0,L|145:204,1,42.5000016212464,2|0,0:2|0:0,0:0:0:0:
115,335,86287,5,2,1:2:0:0:
196,307,86443,1,0,0:0:0:0:
123,349,86600,1,0,0:0:0:0:
328,352,86756,2,0,B|337:298|337:298|336:279|336:279|350:216,1,127.500004863739,10|0,0:2|0:0,0:0:0:0:
348,226,87068,2,0,L|359:283,1,42.5000016212464,2|0,0:2|0:0,0:0:0:0:
329,153,87225,5,2,1:2:0:0:
410,181,87381,1,0,0:0:0:0:
337,139,87537,1,2,0:2:0:0:
449,24,87693,2,0,P|395:55|314:44,1,127.500004863739,10|0,0:2|0:0,0:0:0:0:
331,51,88006,2,0,P|300:60|278:63,1,42.5000016212464,2|0,0:2|0:0,0:0:0:0:
272,240,88162,6,0,P|211:217|135:216,1,127.500004863739,0|0,1:2|0:0,0:0:0:0:
149,214,88475,2,0,P|176:208|195:194,1,42.5000016212464,2|0,0:0|0:0,0:0:0:0:
16,308,88631,2,0,P|79:311|138:333,1,127.500004863739,10|0,0:0|0:0,0:0:0:0:
138,333,88943,2,0,P|110:327|91:313,1,42.5000016212464,2|0,0:0|0:0,0:0:0:0:
296,376,89100,6,0,B|312:336|312:336|293:280,2,85.0000032424928,2|0|0,1:2|0:0|0:0,0:0:0:0:
269,210,89568,2,0,P|332:212|386:279,1,127.500004863739,10|0,0:2|0:0,0:0:0:0:
377,254,89881,2,0,P|366:231|363:207,1,42.5000016212464,2|0,0:0|0:0,0:0:0:0:
403,324,90037,5,2,1:2:0:0:
449,267,90193,1,0,0:0:0:0:
416,335,90350,1,2,0:2:0:0:
405,98,90506,2,0,P|351:145|348:233,1,127.500004863739,10|0,0:2|0:0,0:0:0:0:
339,197,90818,2,0,P|347:173|362:154,1,42.5000016212464,2|0,0:2|0:0,0:0:0:0:
145,274,90975,6,0,B|175:282|199:270|199:270|180:348|255:386|332:348|311:270|311:270|335:282|362:274,1,340,6|2,1:2|0:0,0:0:0:0:
361,274,91600,1,0,0:0:0:0:
145,274,91756,1,0,0:0:0:0:
298,114,91912,6,0,B|332:36|256:-2|256:-2|180:36|215:118,1,283.333333333333,6|0,1:2|0:0,0:0:0:0:
215,117,92381,2,0,B|255:77|255:77|298:114,1,113.333333333333,10|0,0:2|0:0,0:0:0:0:
92,60,92850,5,2,1:2:0:0:
69,102,93006,1,2,0:2:0:0:
54,34,93162,1,2,0:2:0:0:
44,234,93318,5,2,1:2:0:0:
70,187,93475,1,2,0:2:0:0:
86,262,93631,1,2,0:2:0:0:
192,144,93787,5,2,1:2:0:0:
211,75,93943,1,2,0:2:0:0:
174,146,94100,1,2,0:2:0:0:
296,232,94256,5,2,1:2:0:0:
227,213,94412,1,2,0:2:0:0:
298,250,94568,1,2,0:2:0:0:
413,165,94725,5,2,1:2:0:0:
368,220,94881,1,2,0:2:0:0:
482,165,95037,1,2,0:2:0:0:
268,108,95193,5,2,1:2:0:0:
338,107,95350,1,2,0:2:0:0:
224,52,95506,1,2,0:2:0:0:
440,53,95662,6,0,P|406:61|382:66,1,42.5000016212464,2|0,1:2|0:0,0:0:0:0:
338,107,95975,1,0,0:0:0:0:
480,188,96131,2,0,P|446:180|422:175,1,42.5000016212464,0|0,1:2|0:0,0:0:0:0:
374,207,96443,1,2,0:0:0:0:
398,62,96600,5,2,1:2:0:0:
421,104,96756,1,2,0:2:0:0:
436,36,96912,1,2,0:2:0:0:
446,236,97068,5,2,1:2:0:0:
420,189,97225,1,2,0:2:0:0:
404,264,97381,1,2,0:2:0:0:
298,146,97537,5,2,1:2:0:0:
230,121,97693,1,2,0:2:0:0:
316,139,97850,1,2,0:2:0:0:
200,260,98006,5,2,1:2:0:0:
267,240,98162,1,2,0:2:0:0:
184,256,98318,1,2,0:2:0:0:
28,208,98475,5,2,1:2:0:0:
95,175,98631,1,2,0:2:0:0:
32,136,98787,1,2,0:2:0:0:
248,36,98943,5,2,1:2:0:0:
185,75,99100,1,2,0:2:0:0:
252,108,99256,1,2,0:2:0:0:
136,264,99412,6,0,P|184:240|228:240,1,85.0000032424928,0|2,1:2|0:2,0:0:0:0:
297,170,99881,2,0,P|331:180|351:184,1,42.5000016212464,2|0,1:2|0:0,0:0:0:0:
252,108,100193,1,2,0:2:0:0:
225,320,100350,6,0,B|218:286|218:286|222:275|222:275|212:226,1,85.0000032424928,2|0,0:2|0:0,0:0:0:0:
146,289,100818,2,0,P|105:297|69:333,1,85.0000032424928,2|2,0:2|0:2,0:0:0:0:
73,325,101287,2,0,P|79:300|80:265,1,42.5000016212464,2|0,0:2|0:0,0:0:0:0:
4,296,101600,1,2,0:2:0:0:
64,184,101756,2,0,P|92:201|154:210,1,85.0000032424928,2|2,0:2|0:2,0:0:0:0:
232,140,102225,6,0,P|236:171|244:213,1,56.6666666666667,2|0,1:2|0:0,0:0:0:0:
308,160,102537,1,2,0:2:0:0:
108,28,102693,6,0,P|103:55|99:83,1,56.6666666666667,2|0,1:2|0:0,0:0:0:0:
180,70,103006,1,2,0:2:0:0:
11,201,103162,6,0,P|38:187|88:188,1,56.6666666666667,2|0,1:2|0:0,0:0:0:0:
16,120,103475,1,2,0:2:0:0:
218,206,103631,6,0,P|245:220|295:219,1,56.6666666666667,2|0,1:2|0:0,0:0:0:0:
222,288,103943,1,2,0:2:0:0:
416,124,104100,6,0,B|426:153|426:153|420:203,1,56.6666666666667,2|0,1:2|0:0,0:0:0:0:
348,160,104412,1,2,0:2:0:0:
222,288,104568,6,0,P|249:274|299:275,1,56.6666666666667,2|0,1:2|0:0,0:0:0:0:
218,206,104881,1,2,0:2:0:0:
40,120,105037,6,0,P|86:147|148:142,1,113.333333333333,2|2,1:2|0:2,0:0:0:0:
153,151,105428,1,2,0:0:0:0:
153,151,105506,2,0,P|99:161|74:184,1,85,0|0,1:2|0:0,0:0:0:0:
40,244,105818,5,2,0:2:0:0:
228,128,105975,2,0,L|294:139,1,56.6666666666667,2|0,1:2|0:0,0:0:0:0:
218,206,106287,5,2,0:2:0:0:
392,276,106443,2,0,L|458:265,1,56.6666666666667,2|0,1:2|0:0,0:0:0:0:
380,348,106756,5,2,0:2:0:0:
208,284,106912,2,0,L|152:293,1,56.6666666666667,2|0,1:2|0:0,0:0:0:0:
152,100,107225,5,2,0:2:0:0:
152,100,107303,1,2,0:0:0:0:
152,100,107381,2,0,B|271:79|230:151|363:125,1,212.500008106232,6|0,1:2|0:0,0:0:0:0:
423,67,107850,6,0,P|434:137|396:208,1,141.666666666667,2|0,1:2|0:0,0:0:0:0:
422,66,108318,2,0,P|392:130|404:199,1,141.666666666667,10|0,0:2|0:0,0:0:0:0:
289,67,108787,5,2,1:2:0:0:
230,23,108943,1,2,0:2:0:0:
260,134,109100,1,2,0:2:0:0:
54,123,109256,2,0,B|95:89|95:89|146:101,1,106.25,10|0,0:2|0:0,0:0:0:0:
115,173,109568,1,2,0:2:0:0:
192,316,109725,6,0,B|121:275|133:331|51:290,1,141.666666666667,2|0,1:2|0:0,0:0:0:0:
191,315,110193,2,0,B|105:327|136:278|56:293,1,141.666666666667,10|0,0:2|0:0,0:0:0:0:
242,255,110662,5,2,1:2:0:0:
315,285,110818,1,2,0:2:0:0:
191,315,110975,1,2,0:2:0:0:
424,360,111131,2,0,P|432:303|441:234,1,106.25,10|0,0:2|0:0,0:0:0:0:
484,202,111443,1,0,0:2:0:0:
367,84,111600,6,0,P|296:144|299:215,1,141.666666666667,2|0,1:2|0:0,0:0:0:0:
178,125,112068,2,0,P|267:149|294:214,1,141.666666666667,10|0,0:2|0:0,0:0:0:0:
360,285,112537,5,2,1:2:0:0:
337,355,112693,1,2,0:2:0:0:
429,309,112850,1,2,0:2:0:0:
265,234,113006,5,10,0:2:0:0:
321,145,113162,1,2,0:2:0:0:
299,219,113318,1,2,0:2:0:0:
44,148,113475,5,2,1:2:0:0:
111,123,113631,1,2,0:2:0:0:
90,210,113787,1,2,0:2:0:0:
15,18,113943,5,10,0:2:0:0:
105,40,114100,1,2,0:0:0:0:
248,158,114256,5,2,0:0:0:0:
444,60,114412,1,2,1:2:0:0:
360,148,114568,5,0,0:0:0:0:
360,148,114646,1,2,0:0:0:0:
360,148,114725,2,0,L|317:136,1,42.5000016212464,2|0,0:0|0:0,0:0:0:0:
504,244,114881,6,0,B|440:205|411:252|383:226|383:226|389:263|334:261|338:336,1,247.916669030984,14|0,1:2|0:0,0:0:0:0:
240,268,115350,6,0,P|169:268|104:316,1,141.666666666667,2|0,1:2|0:0,0:0:0:0:
241,268,115818,2,0,P|182:307|112:306,1,141.666666666667,10|0,0:2|0:0,0:0:0:0:
80,140,116287,5,2,1:2:0:0:
51,73,116443,1,2,0:0:0:0:
21,184,116600,1,2,0:0:0:0:
113,306,116756,5,10,0:0:0:0:
92,235,116912,1,2,0:0:0:0:
100,309,117068,1,2,0:0:0:0:
192,180,117225,6,0,B|263:139|251:194|333:154,1,141.666666666667,2|0,1:2|0:0,0:0:0:0:
192,178,117693,2,0,B|278:190|247:141|327:156,1,141.666666666667,10|0,0:2|0:0,0:0:0:0:
496,192,118162,5,2,1:2:0:0:
457,124,118318,1,2,0:2:0:0:
429,229,118475,1,2,0:2:0:0:
490,368,118631,5,10,0:2:0:0:
424,336,118787,1,2,0:2:0:0:
499,358,118943,1,2,0:2:0:0:
352,208,119100,6,0,P|264:238|241:305,1,141.666666666667,2|0,1:2|0:0,0:0:0:0:
161,179,119568,2,0,P|235:233|237:303,1,141.666666666667,10|0,0:2|0:0,0:0:0:0:
286,380,120037,5,2,1:2:0:0:
213,348,120193,1,2,0:2:0:0:
314,308,120350,1,2,0:2:0:0:
205,110,120506,5,10,0:2:0:0:
322,148,120662,1,2,0:2:0:0:
224,100,120818,1,2,0:2:0:0:
439,280,120975,6,0,L|431:231,1,35.4166666666667,10|0,1:2|0:0,0:0:0:0:
322,148,121131,2,0,L|327:182,1,35.4166666666667
433,245,121287,5,2,0:2:0:0:
374,94,121443,1,10,0:2:0:0:
374,94,121600,1,10,0:2:0:0:
432,135,121756,5,2,0:2:0:0:
249,20,121912,2,0,P|191:22|144:49,1,106.25,10|0,0:2|0:0,0:0:0:0:
56,176,122225,6,0,P|53:204|61:227,1,50.9999984436036,10|0,0:2|0:0,0:0:0:0:
219,105,122381,2,0,B|197:124|162:133|162:133|162:172|136:194|136:194|162:216|162:256|162:256|197:265|219:291,1,254.999992218018,10|0,1:2|0:0,0:0:0:0:
221,289,122850,6,0,B|243:317|164:338|120:282|129:214|219:157|298:197,1,283.333333333333,6|0,1:2|0:0,0:0:0:0:
290,193,123318,2,0,P|246:195|208:211,1,85.0000032424928,10|0,0:2|0:0,0:0:0:0:
356,224,123631,1,0,0:0:0:0:
188,42,123787,6,0,L|180:84,1,42.5000016212464,2|0,1:2|0:0,0:0:0:0:
335,129,123943,2,0,L|344:88,1,42.5000016212464
204,38,124100,2,0,L|196:80,1,42.5000016212464,2|0,0:2|0:0,0:0:0:0:
40,144,124256,2,0,B|77:121|77:121|139:134,2,85.0000032424928,10|0|0,0:2|0:0|0:0,0:0:0:0:
157,310,124725,6,0,P|179:273|167:224,1,85.0000032424928,2|0,1:2|0:0,0:0:0:0:
103,258,125037,1,0,0:0:0:0:
264,120,125193,2,0,P|299:143|309:193,1,85.0000032424928,10|0,0:2|0:0,0:0:0:0:
236,188,125506,1,2,0:0:0:0:
292,344,125662,6,0,P|334:337|364:296,1,85.0000032424928,0|0,1:2|0:0,0:0:0:0:
438,187,125975,2,0,P|426:214|441:252,1,42.5000016212464,2|0,0:2|0:0,0:0:0:0:
492,268,126131,2,0,P|465:234|414:229,1,85.0000032424928,10|0,0:2|0:0,0:0:0:0:
296,272,126443,1,2,0:2:0:0:
453,105,126600,6,0,B|380:109|359:172|359:172|315:122|257:149,1,226.666666666667,6|2,1:2|0:0,0:0:0:0:
152,0,127068,2,0,P|123:22|121:69,1,85.0000032424928,10|0,0:2|0:0,0:0:0:0:
188,96,127381,1,0,0:0:0:0:
45,212,127537,6,0,P|91:182|183:188,1,127.500004863739,2|0,1:2|0:0,0:0:0:0:
161,179,127850,2,0,B|173:204|173:204|169:231,1,42.5000016212464,2|0,0:0|0:0,0:0:0:0:
266,144,128006,2,0,L|367:167,1,85.0000032424928,10|0,0:0|0:0,0:0:0:0:
285,225,128318,1,2,0:0:0:0:
324,80,128475,5,2,1:2:0:0:
348,162,128631,1,0,0:0:0:0:
381,25,128787,1,2,0:2:0:0:
429,233,128943,5,10,0:2:0:0:
348,162,129100,1,0,0:0:0:0:
387,322,129256,1,2,0:0:0:0:
457,119,129412,6,0,P|384:125|337:191,1,127.500004863739,2|0,1:2|0:0,0:0:0:0:
300,220,129725,1,2,0:2:0:0:
141,117,129881,6,0,L|78:134,1,42.5000016212464,10|0,0:2|0:0,0:0:0:0:
220,238,130037,2,0,L|157:221,1,42.5000016212464
296,76,130193,2,0,L|233:93,1,42.5000016212464
428,317,130350,6,0,B|275:299|275:299|246:330|201:337,1,226.666666666667,6|0,1:2|0:0,0:0:0:0:
347,161,130818,2,0,P|378:185|371:236,1,85.0000032424928,8|0,0:0|0:0,0:0:0:0:
300,220,131131,1,0,0:0:0:0:
384,99,131287,6,0,L|425:90,1,42.5000016212464,2|0,1:2|0:0,0:0:0:0:
376,227,131443,2,0,L|418:235,1,42.5000016212464
398,106,131600,2,0,L|440:98,1,42.5000016212464,2|0,0:0|0:0,0:0:0:0:
240,176,131756,2,0,P|161:184|111:136,1,127.500004863739,10|0,0:0|0:0,0:0:0:0:
124,158,132068,1,2,0:0:0:0:
56,304,132225,6,0,P|77:272|125:263,2,85.0000032424928,2|0|0,1:2|0:0|0:0,0:0:0:0:
240,176,132693,2,0,P|276:185|302:227,1,85.0000032424928,10|0,0:2|0:0,0:0:0:0:
224,252,133006,1,2,0:2:0:0:
68,104,133162,5,0,1:2:0:0:
136,82,133318,1,0,0:0:0:0:
198,15,133475,2,0,P|202:40|207:64,1,42.5000016212464,2|0,0:2|0:0,0:0:0:0:
340,159,133631,2,0,P|302:129|202:143,1,127.500004863739,10|0,0:2|0:0,0:0:0:0:
225,128,133943,2,0,P|252:131|277:146,1,42.5000016212464,2|0,0:2|0:0,0:0:0:0:
512,8,134100,6,0,B|383:78|383:78|352:53|306:42,1,226.666666666667,6|2,1:2|0:0,0:0:0:0:
416,140,134568,2,0,P|438:168|428:214,1,85.0000032424928,10|0,0:0|0:0,0:0:0:0:
356,223,134881,1,2,0:0:0:0:
464,372,135037,6,0,P|427:331|336:313,1,127.500004863739,2|0,1:2|0:0,0:0:0:0:
360,310,135350,2,0,B|341:331|341:331|338:358,1,42.5000016212464,2|0,0:0|0:0,0:0:0:0:
232,180,135506,2,0,P|203:218|214:277,1,85.0000032424928,8|0,0:2|0:0,0:0:0:0:
238,317,135818,1,0,0:0:0:0:
130,162,135975,6,0,B|122:120|122:120|129:107,1,56.6666666666667,10|0,0:0|0:0,0:0:0:0:
343,98,136131,2,0,B|384:112|384:112|391:124,1,56.6666666666667,2|0,0:0|0:0,0:0:0:0:
293,314,136287,2,0,B|259:342|259:342|234:342,1,56.6666666666667,2|0,0:0|0:0,0:0:0:0:
252,192,136443,5,10,0:0:0:0:
256,208,136600,1,10,0:0:0:0:
272,196,136756,1,2,0:0:0:0:
343,98,136912,6,0,B|372:37|508:57|436:153|403:117,1,170,10|0,0:0|0:0,0:0:0:0:
185,67,137225,2,0,P|153:123|153:147,1,56.6666666666667,10|0,0:0|0:0,0:0:0:0:
264,244,137381,2,0,P|208:212|184:212,1,56.6666666666667,10|0,0:0|0:0,0:0:0:0:
343,98,137537,6,0,P|290:135|280:156,1,56.6666666666667
406,228,137693,2,0,P|360:182|337:176,1,56.6666666666667,8|0,0:0|0:0,0:0:0:0:
114,213,137850,6,0,B|97:214|53:210|26:242|20:291|58:324|98:330|129:297|139:280|139:280|171:302|218:285,1,283.333333333333,4|0,1:2|0:0,0:0:0:0:
264,244,138318,6,0,P|322:320|317:352,1,127.500004863739,10|0,0:2|0:0,0:0:0:0:
319,344,138631,2,0,P|327:317|361:298,1,42.5000016212464,2|0,0:2|0:0,0:0:0:0:
464,204,138787,6,0,L|411:216,1,42.5000016212464,2|0,1:2|0:0,0:0:0:0:
468,196,138943,2,0,L|415:208,1,42.5000016212464
473,187,139100,2,0,L|420:199,1,42.5000016212464
288,156,139256,6,0,P|301:60|326:41,1,127.500004863739,10|0,0:2|0:0,0:0:0:0:
320,44,139568,2,0,P|295:57|258:46,1,42.5000016212464,2|0,0:2|0:0,0:0:0:0:
132,24,139725,6,0,L|120:77,1,42.5000016212464,2|0,1:2|0:0,0:0:0:0:
140,20,139881,2,0,L|128:73,1,42.5000016212464
208,64,140037,1,2,0:2:0:0:
0,164,140193,6,0,P|52:142|135:144,1,127.500004863739,10|0,0:2|0:0,0:0:0:0:
122,140,140506,2,0,P|89:133|66:122,1,42.5000016212464,2|0,0:2|0:0,0:0:0:0:
76,244,140662,6,0,P|146:244|232:290,1,170.000006484986,2|2,1:2|0:2,0:0:0:0:
232,290,141131,2,0,P|161:290|75:243,1,170.000006484986,10|0,0:2|0:0,0:0:0:0:
312,284,141600,6,0,L|300:231,1,42.5000016212464,0|0,1:2|0:0,0:0:0:0:
320,288,141756,2,0,L|308:235,1,42.5000016212464
329,293,141912,2,0,L|317:240,1,42.5000016212464
447,84,142068,6,0,P|403:150|411:206,1,127.500004863739,10|0,0:2|0:0,0:0:0:0:
406,195,142381,2,0,P|385:155|372:146,1,42.5000016212464,2|0,0:2|0:0,0:0:0:0:
240,72,142537,6,0,L|293:84,1,42.5000016212464,2|0,1:2|0:0,0:0:0:0:
236,64,142693,2,0,L|289:76,1,42.5000016212464
352,64,142850,1,2,0:2:0:0:
144,208,143006,6,0,P|200:177|279:176,1,127.500004863739,10|0,0:2|0:0,0:0:0:0:
262,172,143318,2,0,P|234:170|191:155,1,42.5000016212464,2|0,0:0|0:0,0:0:0:0:
40,100,143475,5,2,1:2:0:0:
64,182,143631,1,0,0:0:0:0:
97,45,143787,1,2,0:2:0:0:
21,281,143943,5,10,0:2:0:0:
64,182,144100,1,0,0:0:0:0:
96,343,144256,1,2,0:0:0:0:
256,252,144412,6,0,P|317:269|374:324,1,127.500004863739,2|0,1:2|0:0,0:0:0:0:
364,310,144725,1,2,0:2:0:0:
417,201,144881,6,0,L|434:138,1,42.5000016212464,10|0,0:2|0:0,0:0:0:0:
303,158,145037,2,0,L|286:95,1,42.5000016212464
448,80,145193,2,0,L|465:17,1,42.5000016212464
291,116,145350,6,0,B|248:140|248:140|204:132,2,85.0000032424928,0|0|0,1:0|0:0|0:0,0:0:0:0:
76,20,145818,2,0,P|134:96|129:128,1,127.500004863739,10|0,0:2|0:0,0:0:0:0:
131,121,146131,2,0,P|139:94|173:75,1,42.5000016212464,2|0,0:2|0:0,0:0:0:0:
24,180,146287,6,0,L|77:192,1,42.5000016212464,2|0,1:2|0:0,0:0:0:0:
20,172,146443,2,0,L|73:184,1,42.5000016212464
52,100,146600,1,2,0:0:0:0:
208,208,146756,6,0,P|194:303|169:322,1,127.500004863739,10|0,0:2|0:0,0:0:0:0:
175,319,147068,2,0,P|199:305|236:316,1,42.5000016212464,2|0,0:2|0:0,0:0:0:0:
68,364,147225,6,0,L|121:376,1,42.5000016212464,2|0,1:2|0:0,0:0:0:0:
64,356,147381,2,0,L|117:368,1,42.5000016212464
96,280,147537,1,2,0:2:0:0:
244,380,147693,6,0,P|296:358|379:360,1,127.500004863739,10|0,0:2|0:0,0:0:0:0:
366,356,148006,2,0,P|333:349|310:338,1,42.5000016212464,2|0,0:2|0:0,0:0:0:0:
196,240,148162,6,0,P|196:169|242:83,1,170.000006484986,0|2,1:2|0:0,0:0:0:0:
242,84,148631,2,0,P|242:154|195:240,1,170.000006484986,10|2,0:0|0:0,0:0:0:0:
15,110,149100,6,0,B|107:88|107:88|121:106|144:120,1,127.500004863739,2|0,1:2|0:0,0:0:0:0:
130,110,149412,2,0,P|119:84|126:56,1,42.5000016212464
8,260,149568,6,0,P|50:217|130:193,1,127.500004863739,10|0,0:2|0:0,0:0:0:0:
112,194,149881,2,0,P|123:220|116:248,1,42.5000016212464,2|0,0:0|0:0,0:0:0:0:
84,328,150037,6,0,L|137:316,1,42.5000016212464,2|0,1:2|0:0,0:0:0:0:
80,336,150193,2,0,L|133:324,1,42.5000016212464
8,360,150350,1,2,0:2:0:0:
215,372,150506,6,0,P|236:305|209:225,1,127.500004863739,10|0,0:2|0:0,0:0:0:0:
224,250,150818,2,0,P|212:276|219:304,1,42.5000016212464,2|0,0:2|0:0,0:0:0:0:
376,296,150975,5,2,1:2:0:0:
318,347,151131,1,0,0:0:0:0:
343,232,151287,1,2,0:0:0:0:
283,85,151443,5,10,0:0:0:0:
241,174,151600,1,0,0:0:0:0:
207,28,151756,1,0,0:0:0:0:
343,232,151912,5,0,1:0:0:0:
468,140,152068,1,0,0:0:0:0:
432,352,152225,1,0,0:0:0:0:
241,174,152381,6,0,B|181:195|139:156|139:156|194:205|196:262,1,226.666666666667,8|0,0:0|0:0,0:0:0:0:
2,314,152850,6,0,B|132:295|132:295|156:329|206:334,1,212.500008106232,6|0,1:2|0:0,0:0:0:0:
400,312,153318,2,0,P|372:296|343:294,1,56.6666666666667,10|0,0:0|0:0,0:0:0:0:
277,317,153631,1,2,0:0:0:0:
368,193,153787,6,0,P|335:190|308:200,1,56.6666666666667,10|0,0:0|0:0,0:0:0:0:
220,96,154100,2,0,L|211:157,1,56.6666666666667,2|8,0:0|0:0,0:0:0:0:
88,200,154412,1,2,0:0:0:0:
155,225,154568,1,2,0:0:0:0:
66,101,154725,5,8,0:0:0:0:
82,172,154881,2,0,L|91:218,1,28.3333333333333
79,255,155037,2,0,L|88:199,1,56.6666666666667,0|8,0:0|0:0,0:0:0:0:
124,316,155350,1,0,0:0:0:0:
135,313,155506,1,0,0:0:0:0:
288,380,155662,5,8,0:0:0:0:
196,270,155818,1,0,0:0:0:0:
207,273,155975,1,0,0:0:0:0:
372,192,156131,5,8,0:0:0:0:
272,306,156287,1,0,0:0:0:0:
283,303,156443,1,0,0:0:0:0:
472,96,156600,6,0,P|358:102|294:174,1,212.500008106232,10|0,0:0|0:0,0:0:0:0:
169,185,157068,2,0,B|164:155|164:155|178:116,1,56.6666666666667,10|0,0:0|0:0,0:0:0:0:
295,170,157381,1,2,0:0:0:0:
140,272,157537,6,0,L|81:259,1,56.6666666666667,10|0,0:0|0:0,0:0:0:0:
228,118,157850,2,0,L|169:131,1,56.6666666666667,2|8,0:0|0:0,0:0:0:0:
295,170,158162,1,2,0:0:0:0:
160,304,158318,5,2,0:0:0:0:
160,304,158396,1,2,0:0:0:0:
160,304,158475,2,0,L|182:342,1,28.3333333333333,10|0,0:0|0:0,0:0:0:0:
254,294,158631,2,0,L|257:250,1,28.3333333333333,2|0,0:0|0:0,0:0:0:0:
348,304,158787,2,0,L|326:342,1,28.3333333333333,2|0,0:0|0:0,0:0:0:0:
160,304,158943,6,0,L|145:279,1,28.3333333333333,10|0,0:0|0:0,0:0:0:0:
259,237,159100,2,0,L|256:265,1,28.3333333333333,2|0,0:0|0:0,0:0:0:0:
348,304,159256,2,0,L|362:279,1,28.3333333333333,2|0,0:0|0:0,0:0:0:0:
268,152,159412,6,0,L|259:236,1,85,10|0,0:0|0:0,0:0:0:0:
248,363,159725,1,2,0:0:0:0:
268,152,159881,6,0,L|278:51,1,99.1666636403403,10|0,0:0|0:0,0:0:0:0:
374,146,160350,6,0,B|237:120|276:196|156:176,1,212.500008106232,10|0,0:0|0:0,0:0:0:0:
29,130,160818,2,0,P|65:142|108:146,1,56.6666666666667,10|0,0:0|0:0,0:0:0:0:
169,177,161131,1,2,0:0:0:0:
53,289,161287,6,0,P|89:277|132:273,1,56.6666666666667,10|0,0:0|0:0,0:0:0:0:
247,175,161600,2,0,P|283:187|326:191,1,56.6666666666667,2|8,0:0|0:0,0:0:0:0:
224,280,161912,1,2,0:0:0:0:
296,268,162068,1,2,0:0:0:0:
492,88,162225,6,0,B|345:73|345:73|325:100|291:122,1,212.500008106232,10|0,0:0|0:0,0:0:0:0:
164,95,162693,2,0,P|171:63|176:23,1,56.6666666666667,10|0,0:0|0:0,0:0:0:0:
226,147,163006,1,2,0:0:0:0:
328,224,163162,6,0,P|321:256|316:296,1,56.6666666666667,10|0,0:0|0:0,0:0:0:0:
123,226,163475,2,0,P|153:213|194:210,1,56.6666666666667,2|8,0:0|0:0,0:0:0:0:
302,99,163787,1,2,0:0:0:0:
235,74,163943,1,2,0:0:0:0:
339,310,164100,6,0,B|276:300|241:349|241:349|225:289|160:286,1,212.500008106232,10|0,0:0|0:0,0:0:0:0:
123,226,164568,2,0,P|153:213|194:210,1,56.6666666666667,10|0,0:0|0:0,0:0:0:0:
258,241,164881,1,2,0:0:0:0:
235,74,165037,6,0,P|267:74|306:89,1,56.6666666666667,10|0,0:0|0:0,0:0:0:0:
123,226,165350,2,0,P|153:213|194:210,1,56.6666666666667,2|8,0:0|0:0,0:0:0:0:
336,232,165662,1,2,0:0:0:0:
292,172,165818,1,2,0:0:0:0:
333,9,165975,6,0,B|384:18|384:18|390:25|390:25|438:35,1,106.250004053116
444,40,166443,6,0,B|416:56|380:46|380:46|371:53|371:53|320:44|270:91,1,177.083333333333,2|0,0:0|0:0,0:0:0:0:
223,35,166912,6,0,P|208:65|206:96,1,56.6666666666667,2|0,0:0|0:0,0:0:0:0:
205,87,167381,2,0,P|180:72|153:66,1,56.6666666666667,2|2,0:0|0:0,0:0:0:0:
272,232,167850,6,0,B|287:216|287:216|224:216|224:216|243:258|243:258|224:300|224:300|288:300|288:300|272:288,1,255.000009727478,6|8,1:2|0:0,0:0:0:0:
153,283,168943,1,2,0:0:0:0:
173,352,169100,1,2,0:0:0:0:
24,284,169256,2,0,P|49:273|84:273,1,56.6666666666667,2|0,0:0|0:0,0:0:0:0:
153,283,169568,1,2,0:0:0:0:
200,196,169725,5,2,1:2:0:0:
129,181,169881,1,2,0:2:0:0:
205,174,170037,1,0,0:2:0:0:
332,92,170193,5,2,0:2:0:0:
261,107,170350,1,0,0:2:0:0:
337,114,170506,1,2,0:2:0:0:
349,285,170662,5,10,0:2:0:0:
407,241,170818,1,2,0:2:0:0:
389,346,170975,1,2,0:2:0:0:
337,114,171131,5,2,0:2:0:0:
300,54,171287,1,2,0:2:0:0:
283,163,171443,1,2,0:2:0:0:
20,140,171600,6,0,B|63:95|77:28|77:28|120:82|188:97,1,255.000009727478,2|8,1:2|0:2,0:0:0:0:
252,192,172850,1,2,0:2:0:0:
136,172,173006,2,0,L|178:178,1,42.5000016212464,2|0,0:2|0:0,0:0:0:0:
252,192,173318,5,2,0:2:0:0:
242,62,173475,2,0,L|234:109,1,48.1666675853729,2|0,1:2|0:0,0:0:0:0:
252,192,173787,5,2,0:0:0:0:
274,334,173943,2,0,L|283:274,1,53.8333318958283,2|0,0:0|0:0,0:0:0:0:
252,192,174256,5,2,0:0:0:0:
405,220,174412,2,0,L|345:211,1,59.4999981842042,10|0,0:0|0:0,0:0:0:0:
252,192,174725,5,2,0:0:0:0:
508,192,174881,2,0,L|336:211,1,162.916669774056,2|0,0:0|0:0,0:0:0:0:
346,210,175350,5,2,1:2:0:0:
369,138,175506,1,0,0:0:0:0:
394,277,175662,1,0,0:0:0:0:
281,249,175818,2,0,P|275:224|279:183,1,56.6666666666667
296,96,176131,5,2,0:2:0:0:
104,146,176287,2,0,P|129:128|182:130,1,62.3333352355958,10|0,0:2|0:0,0:0:0:0:
184,196,176600,2,0,P|158:213|105:211,2,62.3333352355958
303,91,177068,5,2,0:2:0:0:
76,104,177225,2,0,P|106:99|153:122,1,67.9999979248048,2|0,1:2|0:0,0:0:0:0:
127,216,177537,2,0,P|96:220|49:197,2,67.9999979248048
309,87,178006,5,2,0:2:0:0:
82,72,178162,2,0,P|112:80|144:121,1,73.6666632944744,10|0,0:2|0:0,0:0:0:0:
127,216,178475,1,2,0:2:0:0:
186,58,178631,2,0,P|159:74|138:122,1,73.6666632944744,2|0,0:2|0:0,0:0:0:0:
200,200,178943,1,2,0:2:0:0:
27,321,179100,6,0,B|119:305|86:374|202:353,1,158.666661824544,2|0,1:2|0:0,0:0:0:0:
242,321,179568,1,0,0:0:0:0:
314,347,179725,1,0,0:0:0:0:
228,252,179881,1,0,0:0:0:0:
400,116,180037,5,8,0:2:0:0:
332,92,180193,1,0,0:0:0:0:
216,148,180350,5,2,0:2:0:0:
228,252,180506,2,0,B|246:217|246:217|237:163,1,79.3333309122722,2|0,0:2|0:0,0:0:0:0:
252,80,180818,1,2,0:2:0:0:
224,352,180975,6,0,B|225:329|215:294|215:294|249:274|254:241|254:241|286:251|321:231|321:231|346:256|380:262,1,247.916669030984,2|0,1:2|0:0,0:0:0:0:
302,316,181443,1,2,0:0:0:0:
431,233,181600,1,0,0:0:0:0:
496,264,181756,1,2,0:0:0:0:
206,147,181912,6,0,B|214:187|199:224|199:224|233:244|238:277|238:277|270:267|305:287|305:287|329:259|363:257,1,283.333333333333,2|0,1:2|0:0,0:0:0:0:
135,262,182381,6,0,B|171:268|223:244|223:244|234:256|239:276|239:276|304:243|363:257,1,255.000009727478,2|2,1:2|0:2,0:0:0:0:
43,169,182850,6,0,B|19:36|19:36|77:15|118:45|92:90|62:100|62:100|121:120|137:172,1,354.166666666667,6|0,1:2|0:0,0:0:0:0:
235,114,183318,2,0,B|247:160|247:160|218:216,1,85.0000032424928,10|0,0:2|0:0,0:0:0:0:
122,141,183631,1,0,0:0:0:0:
316,72,183787,6,0,L|358:64,1,42.5000016212464,2|0,1:2|0:0,0:0:0:0:
229,193,183943,2,0,L|188:202,1,42.5000016212464
312,88,184100,2,0,L|354:80,1,42.5000016212464,2|0,0:2|0:0,0:0:0:0:
479,196,184256,2,0,P|385:242|376:293,1,127.500004863739,10|0,0:2|0:0,0:0:0:0:
379,256,184568,1,0,0:0:0:0:
244,348,184725,6,0,P|222:311|234:262,1,85.0000032424928,2|0,1:2|0:0,0:0:0:0:
298,296,185037,1,2,0:0:0:0:
137,158,185193,2,0,P|102:181|92:231,1,85.0000032424928,10|0,0:2|0:0,0:0:0:0:
165,226,185506,1,0,0:0:0:0:
23,349,185662,6,0,P|60:325|111:325,1,85.0000032424928,0|0,1:2|0:0,0:0:0:0:
167,344,185975,1,2,0:2:0:0:
228,176,186131,2,0,P|271:185|307:221,1,85.0000032424928,10|0,0:2|0:0,0:0:0:0:
324,280,186443,1,2,0:2:0:0:
71,60,186600,6,0,B|144:64|165:127|165:127|209:77|267:104,1,226.666666666667,6|2,1:2|0:0,0:0:0:0:
368,2,187068,2,0,P|397:24|399:71,1,85.0000032424928,10|0,0:2|0:0,0:0:0:0:
332,105,187381,1,2,0:0:0:0:
481,220,187537,6,0,P|435:190|343:196,1,127.500004863739,2|0,1:2|0:0,0:0:0:0:
364,187,187850,2,0,B|352:212|352:212|363:249,1,42.5000016212464,2|0,0:0|0:0,0:0:0:0:
433,325,188006,2,0,P|401:324|332:350,1,85.0000032424928,10|0,0:0|0:0,0:0:0:0:
284,376,188318,1,2,0:0:0:0:
184,256,188475,5,2,1:2:0:0:
132,319,188631,1,0,0:0:0:0:
260,280,188787,1,2,0:2:0:0:
132,89,188943,5,10,0:2:0:0:
41,118,189100,1,0,0:0:0:0:
195,164,189256,1,2,0:0:0:0:
0,288,189412,6,0,P|55:240|135:254,1,127.500004863739,2|0,1:2|0:0,0:0:0:0:
184,256,189725,1,2,0:2:0:0:
293,293,189881,6,0,L|276:356,1,42.5000016212464,10|0,0:2|0:0,0:0:0:0:
172,214,190037,2,0,L|189:277,1,42.5000016212464
334,138,190193,2,0,L|317:201,1,42.5000016212464
162,73,190350,6,0,B|212:30|233:-14|233:-14|259:26|348:66,1,226.666666666667,6|0,1:2|0:0,0:0:0:0:
468,148,190818,2,0,P|443:173|394:177,1,85.0000032424928,8|0,0:0|0:0,0:0:0:0:
409,108,191131,1,0,0:0:0:0:
268,231,191287,6,0,L|276:273,1,42.5000016212464,2|0,1:2|0:0,0:0:0:0:
313,95,191443,2,0,L|322:54,1,42.5000016212464
239,219,191600,2,0,L|247:261,1,42.5000016212464,2|0,0:0|0:0,0:0:0:0:
460,336,191756,2,0,P|420:296|344:290,1,127.500004863739,10|0,0:0|0:0,0:0:0:0:
351,287,192068,1,2,0:0:0:0:
252,140,192225,6,0,P|215:140|175:167,2,85.0000032424928,2|0|2,1:2|0:0|0:2,0:0:0:0:
118,110,192693,2,0,P|150:125|175:167,1,85.0000032424928,10|0,0:2|0:0,0:0:0:0:
164,248,193006,1,0,0:0:0:0:
40,328,193162,5,0,1:2:0:0:
112,305,193318,1,0,0:0:0:0:
175,344,193475,2,0,P|201:348|218:354,1,42.5000016212464,2|0,0:2|0:0,0:0:0:0:
164,248,193631,2,0,P|222:227|299:228,1,127.500004863739,10|0,0:2|0:0,0:0:0:0:
287,225,193943,2,0,P|316:233|331:234,1,42.5000016212464,2|0,0:2|0:0,0:0:0:0:
492,296,194100,6,0,B|364:264|392:348|264:304,1,226.666666666667,6|2,1:2|0:0,0:0:0:0:
123,189,194568,2,0,P|93:216|90:262,1,85.0000032424928,10|0,0:0|0:0,0:0:0:0:
164,248,194881,1,2,0:0:0:0:
23,39,195037,6,0,P|60:80|151:98,1,127.500004863739,2|0,1:2|0:0,0:0:0:0:
127,101,195350,2,0,B|146:80|146:80|149:53,1,42.5000016212464,2|0,0:0|0:0,0:0:0:0:
255,236,195506,2,0,P|284:198|273:139,1,85.0000032424928,8|0,0:2|0:0,0:0:0:0:
249,99,195818,1,0,0:0:0:0:
308,351,195975,6,0,B|306:319|306:319|281:289,1,56.6666666666667,10|0,0:0|0:0,0:0:0:0:
360,59,196131,2,0,B|333:75|333:75|324:99,1,56.6666666666667,2|0,0:0|0:0,0:0:0:0:
88,164,196287,2,0,B|116:178|116:178|140:174,1,56.6666666666667,2|0,0:0|0:0,0:0:0:0:
264,192,196443,5,10,0:0:0:0:
260,208,196600,1,10,0:0:0:0:
244,196,196756,1,2,0:0:0:0:
395,124,196912,5,10,0:0:0:0:
232,347,197068,1,2,0:0:0:0:
127,101,197225,1,10,0:0:0:0:
173,293,197381,6,0,P|205:276|255:275,1,56.6666666666667,10|0,0:0|0:0,0:0:0:0:
348,216,197537,2,0,P|316:199|265:198,1,56.6666666666667
127,101,197693,2,0,P|159:84|209:83,1,56.6666666666667,8|0,0:0|0:0,0:0:0:0:
437,33,197850,6,0,B|379:7|303:23|303:23|373:24|395:62,1,226.666666666667,4|0,1:2|0:0,0:0:0:0:
512,192,198318,6,0,P|422:225|409:255,1,127.500004863739,10|0,0:2|0:0,0:0:0:0:
411,248,198631,2,0,P|418:220|399:186,1,42.5000016212464,2|0,0:2|0:0,0:0:0:0:
326,325,198787,6,0,L|368:316,1,42.5000016212464,2|0,1:2|0:0,0:0:0:0:
321,339,198943,2,0,L|363:330,1,42.5000016212464
248,300,199100,1,2,0:0:0:0:
124,168,199256,6,0,P|200:228|231:224,1,127.500004863739,10|0,0:2|0:0,0:0:0:0:
224,226,199568,2,0,P|196:234|178:267,1,42.5000016212464,2|0,0:2|0:0,0:0:0:0:
288,176,199725,6,0,L|329:185,1,42.5000016212464,2|0,1:2|0:0,0:0:0:0:
283,162,199881,2,0,L|324:171,1,42.5000016212464
204,149,200037,1,2,0:2:0:0:
376,56,200193,6,0,P|319:59|245:97,1,127.500004863739,10|0,0:2|0:0,0:0:0:0:
256,88,200506,2,0,P|282:67|298:47,1,42.5000016212464,2|0,0:2|0:0,0:0:0:0:
84,116,200662,6,0,P|140:119|214:157,1,127.500004863739,0|0,1:2|0:0,0:0:0:0:
203,148,200975,2,0,P|176:127|160:107,1,42.5000016212464
320,272,201131,2,0,B|281:250|258:215|258:215|236:251|188:289,1,170.000006484986,10|0,0:2|0:0,0:0:0:0:
88,344,201600,6,0,L|100:291,1,42.5000016212464,0|0,1:2|0:0,0:0:0:0:
80,348,201756,2,0,L|92:295,1,42.5000016212464
71,353,201912,2,0,L|83:300,1,42.5000016212464
28,164,202068,6,0,P|103:188|131:237,1,127.500004863739,10|0,0:2|0:0,0:0:0:0:
128,226,202381,2,0,P|119:181|124:166,1,42.5000016212464,2|0,0:2|0:0,0:0:0:0:
204,96,202537,6,0,L|192:149,1,42.5000016212464,2|0,1:2|0:0,0:0:0:0:
212,92,202693,2,0,L|200:145,1,42.5000016212464
128,101,202850,1,2,0:2:0:0:
288,128,203006,6,0,P|344:97|423:96,1,127.500004863739,10|0,0:2|0:0,0:0:0:0:
406,92,203318,2,0,P|378:90|335:75,1,42.5000016212464,2|0,0:0|0:0,0:0:0:0:
488,216,203475,6,0,P|432:185|353:184,1,127.500004863739,2|0,1:2|0:0,0:0:0:0:
370,180,203787,2,0,P|398:178|441:163,1,42.5000016212464
296,224,203943,6,0,L|308:277,1,42.5000016212464,8|0,0:2|0:0,0:0:0:0:
288,220,204100,2,0,L|300:273,1,42.5000016212464
279,215,204256,2,0,L|291:268,1,42.5000016212464
208,96,204412,6,0,P|152:127|73:128,1,127.500004863739,0|0,1:2|0:0,0:0:0:0:
89,131,204725,1,0,0:0:0:0:
23,250,204881,1,8,0:2:0:0:
104,276,205037,1,0,0:0:0:0:
24,267,205193,1,0,0:0:0:0:
188,260,205350,6,0,B|227:241|227:241|279:248,2,85.0000032424928,0|0|0,1:0|0:0|0:0,0:0:0:0:
400,362,205818,2,0,P|342:286|347:254,1,127.500004863739,10|0,0:2|0:0,0:0:0:0:
345,261,206131,2,0,P|337:288|303:307,1,42.5000016212464,2|0,0:2|0:0,0:0:0:0:
452,202,206287,6,0,L|399:190,1,42.5000016212464,2|0,1:2|0:0,0:0:0:0:
456,210,206443,2,0,L|403:198,1,42.5000016212464
424,282,206600,1,2,0:0:0:0:
268,174,206756,6,0,P|282:79|307:60,1,127.500004863739,10|0,0:2|0:0,0:0:0:0:
301,63,207068,2,0,P|277:77|240:66,1,42.5000016212464,2|0,0:2|0:0,0:0:0:0:
408,18,207225,6,0,L|355:6,1,42.5000016212464,2|0,1:2|0:0,0:0:0:0:
412,26,207381,2,0,L|359:14,1,42.5000016212464
380,102,207537,1,2,0:2:0:0:
184,14,207693,6,0,P|131:35|74:95,1,127.500004863739,10|0,0:2|0:0,0:0:0:0:
81,84,208006,2,0,P|100:55|107:31,1,42.5000016212464,2|0,0:2|0:0,0:0:0:0:
232,138,208162,2,0,P|175:135|98:165,1,127.500004863739,0|0,1:2|0:0,0:0:0:0:
109,157,208475,2,0,P|138:138|155:120,1,42.5000016212464
32,255,208631,6,0,P|85:262|161:354,1,170.000006484986,8|0,0:0|0:0,0:0:0:0:
248,228,209100,6,0,L|236:281,1,42.5000016212464,0|0,1:2|0:0,0:0:0:0:
256,224,209256,2,0,L|244:277,1,42.5000016212464
168,224,209412,1,0,0:0:0:0:
336,208,209568,6,0,P|393:224|452:284,1,127.500004863739,10|0,0:2|0:0,0:0:0:0:
443,269,209881,2,0,P|426:248|417:226,1,42.5000016212464,2|0,0:0|0:0,0:0:0:0:
308,132,210037,6,0,L|320:79,1,42.5000016212464,2|0,1:2|0:0,0:0:0:0:
300,136,210193,2,0,L|312:83,1,42.5000016212464
388,136,210350,1,2,0:2:0:0:
215,108,210506,6,0,P|146:124|92:188,1,127.500004863739,10|0,0:2|0:0,0:0:0:0:
105,163,210818,2,0,P|131:151|156:146,1,42.5000016212464,2|0,0:2|0:0,0:0:0:0:
24,80,210975,6,0,B|10:153|10:153|25:182|25:182|9:256|9:256|65:267,1,212.500008106232,6|0,1:2|0:0,0:0:0:0:
38,261,211443,1,8,0:0:0:0:
116,244,211600,1,8,0:0:0:0:
116,244,211912,1,8,0:0:0:0:
116,244,212225,6,0,L|171:252,1,42.5000016212464,2|0,1:2|0:0,0:0:0:0:
232,288,212381,6,0,B|250:311|185:328|148:282|156:226|230:179|295:212,1,212.500008106232,2|0,1:2|0:0,0:0:0:0:
333,156,212850,6,0,B|356:184|345:228,1,56.6666666666667,2|0,0:0|0:0,0:0:0:0:
412,254,213006,2,0,B|435:226|424:182,2,56.6666666666667,2|0|2,0:0|0:0|0:0,0:0:0:0:
256,304,213318,5,0,1:0:0:0:
188,286,213787,1,0,1:0:0:0:
121,306,214256,1,0,1:0:0:0:
312,360,214725,5,0,1:0:0:0:
343,297,215193,1,0,1:0:0:0:
293,247,215662,1,0,1:0:0:0:
224,260,216131,1,0,1:0:0:0:
368,228,216600,5,0,1:0:0:0:
318,178,217068,1,0,1:0:0:0:
247,178,217537,1,0,1:0:0:0:
197,227,218006,1,0,1:0:0:0:
129,245,218475,1,0,1:0:0:0:
60,229,218943,1,0,1:0:0:0:
10,179,219412,1,0,1:0:0:0:
60,229,219568,5,2,0:0:0:0:
64,239,219646,1,2,0:0:0:0:
67,250,219725,1,2,0:0:0:0:
65,261,219803,1,2,0:0:0:0:
62,272,219881,6,0,B|86:268|104:244|104:244|86:268|83:299,1,106.250004053116,2|0,0:0|0:0,0:0:0:0:
9,371,220350,6,0,P|37:360|63:357,1,42.5000016212464,0|0,1:0|0:0,0:0:0:0:
121,355,220662,1,0,0:0:0:0:
244,376,220818,5,0,1:0:0:0:
228,305,220975,1,0,0:0:0:0:
254,372,221131,1,0,0:0:0:0:
280,248,221287,5,0,1:0:0:0:
210,230,221443,1,0,0:0:0:0:
228,305,221600,1,0,0:0:0:0:
352,232,221756,5,0,1:0:0:0:
280,248,221912,1,0,0:0:0:0:
354,242,222068,1,0,0:0:0:0:
496,264,222225,6,0,L|396:285,1,85.0000032424928,0|0,1:0|0:0,0:0:0:0:
312,370,222693,5,0,1:0:0:0:
260,318,222850,1,0,0:0:0:0:
280,248,223006,1,0,0:0:0:0:
210,128,223162,5,0,1:0:0:0:
279,109,223318,1,0,0:0:0:0:
214,142,223475,1,0,0:0:0:0:
352,128,223631,6,0,L|408:140,1,42.5000016212464,0|0,1:0|0:0,0:0:0:0:
464,152,223943,1,0,0:0:0:0:
352,260,224100,6,0,B|442:243,1,85.0000032424928,0|0,1:0|0:0,0:0:0:0:
280,248,224568,1,0,1:0:0:0:
228,299,224725,1,0,0:0:0:0:
167,260,224881,1,0,0:0:0:0:
252,178,225037,5,0,1:0:0:0:
182,189,225193,1,0,0:0:0:0:
250,166,225350,1,0,0:0:0:0:
127,139,225506,5,0,1:0:0:0:
56,155,225662,1,0,0:0:0:0:
107,206,225818,1,0,0:0:0:0:
16,312,225975,6,0,P|44:292|108:284,1,85.0000032424928,0|0,1:0|0:0,0:0:0:0:
127,139,226443,1,0,1:0:0:0:
107,206,226600,1,0,0:0:0:0:
56,155,226756,1,0,0:0:0:0:
184,88,226912,6,0,P|221:94|277:137,1,106.250004053116,0|0,1:0|0:0,0:0:0:0:
419,157,227381,6,0,B|370:153|348:115|348:115|357:159|325:193,1,170,8|0,0:0|0:0,0:0:0:0:
