osu file format v14

[General]
AudioFilename: audio.mp3
AudioLeadIn: 0
PreviewTime: 60818
Countdown: 0
SampleSet: Soft
StackLeniency: 0.4
Mode: 0
LetterboxInBreaks: 0
WidescreenStoryboard: 1

[Editor]
Bookmarks: 17850,32850,47850,59100,62850,75975,77850,92850,102537,107850,120037,135975,137850,165975,194100,210975
DistanceSpacing: 1.5
BeatDivisor: 6
GridSize: 32
TimelineZoom: 1.4

[Metadata]
Title:VIP KID
TitleUnicode:VIP KID
Artist:REOL
ArtistUnicode:REOL
Creator:Sparhten
Version:Isolophobia
Source:
Tags:Amiya Sigma Japanese J-Pop pop RΞOL GigaP Okiku れをる DeRandom Otaku Mentai Chizuru xchippy Chaoslitz fuju SnowNiNo_ お菊 ギガ Σ Sotai Soutai Sekai The Relative Worlds ソウタイセカイ
BeatmapID:2609556
BeatmapSetID:1164168

[Difficulty]
HPDrainRate:5
CircleSize:4.5
OverallDifficulty:9
ApproachRate:9.6
SliderMultiplier:2.5
SliderTickRate:1

[Events]
//Background and Video events
0,0,"maxresdefault (1).jpg",0,0
//Break Periods
//Storyboard Layer 0 (Background)
//Storyboard Layer 1 (Fail)
//Storyboard Layer 2 (Pass)
//Storyboard Layer 3 (Foreground)
//Storyboard Layer 4 (Overlay)
//Storyboard Sound Samples

[TimingPoints]
1260,497.92531120332,4,2,1,50,1,0
1260,-250.000000000001,4,2,1,50,0,0
9226,-200,4,2,1,50,0,0
13210,-125,4,2,1,50,0,0
13708,-500.000000000003,4,2,1,50,0,0
14206,-125,4,2,1,50,0,0
14703,-500.000000000003,4,2,1,50,0,0
15201,-125,4,2,1,50,0,0
15699,-111.111111111111,4,2,1,50,0,0
16197,-100,4,2,1,50,0,0
16695,-90.9090909090909,4,2,1,50,0,0
17850,468.75,4,2,1,70,1,0
17850,-125,4,2,1,70,0,0
25350,-100,4,2,1,70,0,0
32850,-111.111111111111,4,2,1,65,0,0
47850,-90.9090909090908,4,2,1,75,0,0
52537,-142.857142857143,4,2,1,75,0,0
53006,-83.3333333333333,4,2,1,75,0,0
60975,-66.6666666666667,4,2,1,80,0,0
62850,-76.9230769230769,4,2,1,85,0,1
75975,-76.9230769230769,4,2,1,85,0,0
77850,-76.9230769230769,4,2,1,85,0,1
91912,-500,4,2,1,85,0,1
92381,-66.6666666666667,4,2,1,85,0,1
92850,-125,4,2,1,55,0,0
102225,-83.3333333333333,4,2,1,55,0,0
102537,-100,4,2,1,65,0,0
107381,-83.3333333333333,4,2,1,65,0,0
107850,-90.9090909090909,4,2,1,75,0,0
121912,-66.6666666666667,4,2,1,75,0,0
122850,-76.9230769230769,4,2,1,85,0,1
135975,-76.9230769230769,4,2,1,85,0,0
137850,-76.9230769230769,4,2,1,85,0,1
152381,-76.9230769230769,4,2,1,85,0,0
152850,-111.111111111111,4,2,1,60,0,0
159881,-999.99999999999,4,2,1,60,0,0
160350,-111.111111111111,4,2,1,60,0,0
165975,-249.999999999999,4,2,1,60,0,0
167850,-166.666666666666,4,2,1,55,0,0
180506,-142.857142857142,4,2,1,60,0,0
180975,-111.111111111111,4,2,1,65,0,0
182225,-62.5,4,2,1,75,0,0
182850,-62.5,4,2,1,90,0,1
183318,-71.4285714285714,4,2,1,90,0,1
195975,-71.4285714285714,4,2,1,90,0,0
197381,-62.5,4,2,1,90,0,0
197850,-62.5,4,2,1,90,0,1
198318,-71.4285714285714,4,2,1,90,0,1
210975,-71.4285714285714,4,2,1,85,0,0
213318,-200,4,2,1,65,0,0
220350,-142.857142857143,4,2,1,65,0,0
227381,-66.6666666666667,4,2,1,65,0,0

[Colours]
Combo1 : 219,68,68
Combo2 : 105,105,239
Combo3 : 239,122,222
Combo4 : 65,217,224

[HitObjects]
308,311,1260,6,0,B|385:295|342:241|425:227,1,150,2|0,0:2|0:0,0:0:0:0:
505,365,2753,6,0,P|473:353|455:313,1,66.6666666666667,2|0,0:2|0:0,0:0:0:0:
321,207,3251,2,0,P|332:189|424:229,1,150,2|0,0:2|0:0,0:0:0:0:
176,263,4745,6,0,P|145:254|108:254,1,66.6666666666667,2|0,0:2|0:0,0:0:0:0:
256,143,5243,2,0,P|293:138|387:72,1,150,2|0,0:2|0:0,0:0:0:0:
65,110,6737,6,0,P|83:100|123:121,1,66.6666666666667,2|0,0:2|0:0,0:0:0:0:
273,240,7235,2,0,P|190:242|171:183,1,150,2|0,0:2|0:0,0:0:0:0:
302,154,8230,5,2,0:2:0:0:
304,134,8313,1,0,0:0:0:0:
171,209,8562,5,2,0:2:0:0:
169,189,8645,1,0,0:0:0:0:
339,310,8894,5,2,0:2:0:0:
341,290,8977,1,0,0:0:0:0:
509,314,9226,6,0,P|471:280|421:287,1,104.166666666667,2|0,0:2|0:0,0:0:0:0:
271,365,9724,5,2,0:2:0:0:
246,300,9890,1,2,0:2:0:0:
266,233,10056,1,2,0:2:0:0:
426,176,10222,5,2,0:2:0:0:
404,202,10388,1,2,0:2:0:0:
370,210,10554,1,2,0:2:0:0:
275,119,10720,5,2,0:2:0:0:
292,121,10886,1,2,0:2:0:0:
304,134,11052,1,2,0:2:0:0:
164,235,11218,6,0,P|213:242|251:208,1,104.166666666667,2|0,0:2|0:0,0:0:0:0:
114,148,11716,5,2,0:2:0:0:
102,133,11882,1,2,0:2:0:0:
85,130,12048,1,2,0:2:0:0:
197,243,12214,5,2,0:2:0:0:
230,234,12380,1,2,0:2:0:0:
251,208,12546,1,2,0:2:0:0:
85,252,12712,5,2,0:2:0:0:
61,317,12878,1,2,0:2:0:0:
80,384,13044,1,2,0:2:0:0:
181,332,13210,6,0,L|193:155,1,166.666666666667,2|0,0:2|0:0,0:0:0:0:
200,158,13708,2,0,L|197:202,1,41.6666666666667,2|0,0:2|0:0,0:0:0:0:
379,282,14206,6,0,L|367:105,1,166.666666666667,2|0,0:2|0:0,0:0:0:0:
360,108,14704,2,0,L|363:152,1,41.6666666666667,2|0,0:2|0:0,0:0:0:0:
252,210,15201,6,0,P|208:191|111:185,1,133.333333333333,2|0,0:2|0:0,0:0:0:0:
305,336,15699,6,0,P|361:305|471:282,1,149.999995422363,2|0,0:2|0:0,0:0:0:0:
153,368,16197,6,0,P|85:348|-46:334,1,166.666666666667,2|0,0:2|0:0,0:0:0:0:
255,136,16695,6,0,P|244:188|222:357,1,183.333338928223,2|0,0:2|0:0,0:0:0:0:
230,332,17442,6,0,B|196:259|273:255|228:178,1,137.500004196167
37,103,17850,6,0,B|82:107|82:107|112:131|112:131|179:140,1,133.333333333333,6|0,1:2|0:0,0:0:0:0:
79,212,18318,2,0,P|46:218|14:228,1,66.6666666666667,2|0,0:0|0:0,0:0:0:0:
179,49,18631,1,2,0:0:0:0:
179,49,18787,2,0,P|214:61|243:65,1,66.6666666666667,2|0,0:0|0:0,0:0:0:0:
68,21,19100,1,2,0:0:0:0:
68,21,19412,5,2,0:0:0:0:
239,200,19568,1,2,0:0:0:0:
79,212,19725,6,0,P|102:149|171:142,1,133.333333333333,2|2,0:0|0:0,0:0:0:0:
281,333,20193,5,2,0:0:0:0:
168,235,20350,1,2,0:0:0:0:
158,222,20506,1,2,0:0:0:0:
186,314,20662,5,2,0:0:0:0:
336,261,20818,1,2,0:0:0:0:
351,257,20975,1,2,0:0:0:0:
362,344,21131,5,2,0:0:0:0:
247,255,21287,1,2,0:0:0:0:
242,245,21443,1,2,0:0:0:0:
489,164,21600,6,0,B|449:183|449:183|360:162,1,133.333333333333,2|0,1:2|0:0,0:0:0:0:
279,127,22068,2,0,P|272:94|266:62,1,66.6666666666667,2|0,0:0|0:0,0:0:0:0:
493,168,22381,1,2,0:0:0:0:
493,168,22537,2,0,P|480:214|475:247,1,66.6666666666667,2|0,0:0|0:0,0:0:0:0:
425,94,22850,1,2,0:0:0:0:
425,94,23162,5,2,0:0:0:0:
336,261,23318,2,0,P|346:331|349:342,1,66.6666666666667,2|0,0:0|0:0,0:0:0:0:
359,170,23631,5,2,0:0:0:0:
259,356,23787,2,0,P|167:344|155:344,1,66.6666666666667,2|0,0:0|0:0,0:0:0:0:
250,254,24100,5,2,0:0:0:0:
409,380,24256,2,0,P|501:368|513:368,1,66.6666666666667,2|0,0:0|0:0,0:0:0:0:
442,256,24568,5,2,0:0:0:0:
345,326,24725,1,2,0:0:0:0:
174,192,24881,2,0,B|106:199|106:199|86:220|86:220|3:235,1,166.666666666667,2|0,0:0|0:0,0:0:0:0:
7,242,25350,6,0,P|102:251|180:264,1,166.666666666667,14|0,1:2|0:0,0:0:0:0:
333,334,25818,2,0,B|316:295|316:295|329:239,1,83.3333333333333,10|0,0:2|0:0,0:0:0:0:
462,104,26131,1,2,0:0:0:0:
505,264,26287,2,0,B|521:225|521:225|508:169,1,83.3333333333333,10|0,0:2|0:0,0:0:0:0:
407,271,26600,2,0,B|306:251,1,83.3333333333333,2|8,0:0|0:0,0:0:0:0:
356,35,26912,5,2,0:0:0:0:
422,185,27068,1,2,0:0:0:0:
197,141,27225,6,0,B|261:126|261:126|300:135|300:135|366:125,1,166.666666666667,14|0,1:2|0:0,0:0:0:0:
263,258,27693,2,0,P|241:234|178:240,1,83.3333333333333,10|0,0:0|0:0,0:0:0:0:
12,92,28006,1,2,0:0:0:0:
12,92,28162,2,0,P|61:92|108:63,1,83.3333333333333,10|0,0:0|0:0,0:0:0:0:
256,10,28475,2,0,P|244:73|240:108,1,83.3333333333333,2|8,0:0|0:0,0:0:0:0:
361,114,28787,5,2,0:0:0:0:
164,145,28943,1,2,0:0:0:0:
417,201,29100,6,0,P|404:142|379:8,1,166.666666666667,14|0,1:2|0:0,0:0:0:0:
234,203,29568,2,0,B|271:182|271:182|319:191,1,83.3333333333333,10|0,0:0|0:0,0:0:0:0:
430,294,29881,1,2,0:0:0:0:
430,294,30037,2,0,P|370:279|335:278,1,83.3333333333333,10|0,0:0|0:0,0:0:0:0:
431,111,30350,2,0,P|472:106|512:94,1,83.3333333333333,2|8,0:0|0:0,0:0:0:0:
243,96,30662,5,2,0:0:0:0:
417,201,30818,1,2,0:0:0:0:
174,353,30975,6,0,B|139:327|132:270|165:231|218:224|241:257|232:292,1,208.333333333333,2|0,0:0|0:0,0:0:0:0:
225,298,31443,1,2,0:0:0:0:
225,298,31756,5,2,0:0:0:0:
54,207,31912,1,2,0:0:0:0:
0,314,32225,5,2,0:0:0:0:
242,154,32381,2,0,P|189:141|162:125,1,83.3333333333333,2|0,1:2|0:0,0:0:0:0:
164,225,32693,1,2,0:0:0:0:
31,197,32850,6,0,P|22:148|15:108,2,74.9999977111817,0|0|2,1:0|0:0|0:0,0:0:0:0:
137,358,33318,2,0,P|181:333|225:353,1,74.9999977111817,2|0,1:2|0:0,0:0:0:0:
86,278,33631,1,2,0:2:0:0:
302,365,33787,2,0,P|311:303|308:265,1,74.9999977111817,2|0,1:2|0:0,0:0:0:0:
302,365,34100,5,2,0:2:0:0:
473,246,34256,2,0,P|413:231|351:203,1,112.499996566773,2|0,1:2|0:0,0:0:0:0:
366,211,34568,1,2,0:2:0:0:
179,143,34725,2,0,P|236:143|286:131,1,74.9999977111817,0|0,1:2|0:0,0:0:0:0:
399,7,35037,5,2,0:2:0:0:
399,7,35193,2,0,P|345:50|348:150,1,149.999995422363,2|2,1:2|0:2,0:0:0:0:
502,123,35662,6,0,P|444:98|408:92,1,74.9999977111817,2|0,1:2|0:0,0:0:0:0:
179,0,35975,1,2,0:2:0:0:
233,67,36131,2,0,P|268:56|302:39,1,74.9999977111817,2|0,1:2|0:0,0:0:0:0:
386,194,36443,5,2,0:2:0:0:
386,194,36600,2,0,P|378:233|374:272,1,74.9999977111817,0|0,1:2|0:0,0:0:0:0:
464,253,36912,5,2,0:2:0:0:
318,366,37068,2,0,P|305:321|195:336,1,149.999995422363,2|2,1:2|0:2,0:0:0:0:
49,295,37537,2,0,P|99:288|138:256,1,74.9999977111817,2|0,1:2|0:0,0:0:0:0:
212,142,37850,1,2,0:2:0:0:
212,142,38006,2,0,P|193:188|201:238,1,74.9999977111817,2|0,1:2|0:0,0:0:0:0:
214,310,38318,1,2,0:2:0:0:
0,175,38475,6,0,P|54:180|109:196,1,112.499996566773,2|0,1:2|0:0,0:0:0:0:
109,196,38787,1,2,0:2:0:0:
408,88,38943,2,0,P|353:93|299:109,1,112.499996566773,2|0,1:2|0:0,0:0:0:0:
298,109,39256,1,2,0:2:0:0:
62,12,39412,2,0,P|117:17|172:33,1,112.499996566773,2|0,1:2|0:0,0:0:0:0:
171,32,39725,1,2,0:0:0:0:
325,201,39881,5,2,0:0:0:0:
260,28,40037,1,2,0:0:0:0:
94,108,40193,1,2,0:0:0:0:
190,147,40350,6,0,P|237:134|284:112,1,74.9999977111817,0|0,1:0|0:0,0:0:0:0:
483,62,40662,1,2,0:2:0:0:
483,62,40818,2,0,P|451:24|341:43,1,149.999995422363,2|2,1:2|0:2,0:0:0:0:
424,183,41287,2,0,P|409:126|404:83,1,74.9999977111817,2|0,1:2|0:0,0:0:0:0:
512,208,41600,1,2,0:2:0:0:
379,256,41756,2,0,P|339:247|306:229,1,74.9999977111817,2|0,1:2|0:0,0:0:0:0:
203,161,42068,1,2,0:2:0:0:
203,161,42225,2,0,P|244:160|290:98,1,112.499996566773,0|0,1:2|0:0,0:0:0:0:
288,109,42537,5,2,0:2:0:0:
87,18,42693,2,0,P|104:98|113:180,1,149.999995422363,2|2,1:2|0:2,0:0:0:0:
64,267,43162,2,0,P|14:258|-9:214,1,74.9999977111817,2|0,1:2|0:0,0:0:0:0:
217,324,43475,1,2,0:2:0:0:
217,324,43631,2,0,P|225:283|252:224,1,74.9999977111817,2|0,1:2|0:0,0:0:0:0:
482,231,43943,1,2,0:2:0:0:
482,231,44100,2,0,B|423:235|423:235|362:193,1,112.499996566773,0|0,1:2|0:0,0:0:0:0:
379,204,44412,5,2,0:2:0:0:
160,245,44568,2,0,B|251:242|198:187|320:177,1,149.999995422363,2|2,1:2|0:2,0:0:0:0:
346,96,45037,2,0,P|290:84|243:70,1,74.9999977111817,2|0,1:2|0:0,0:0:0:0:
425,22,45350,1,2,0:2:0:0:
425,22,45506,2,0,P|479:81|455:147,1,149.999995422363,2|2,1:2|0:2,0:0:0:0:
379,206,45975,6,0,P|387:182|378:153,1,37.4999988555909,0|0,1:2|0:0,0:0:0:0:
180,52,46287,5,2,0:0:0:0:
221,145,46443,1,2,0:0:0:0:
309,47,46756,5,2,0:0:0:0:
259,259,46912,1,2,0:0:0:0:
312,137,47225,5,2,0:0:0:0:
108,236,47381,1,10,1:2:0:0:
368,275,47537,5,2,0:2:0:0:
132,137,47693,1,2,0:2:0:0:
219,66,47850,5,0,1:2:0:0:
208,193,48006,1,2,0:0:0:0:
197,320,48162,1,2,0:0:0:0:
363,199,48318,5,10,0:2:0:0:
108,236,48475,1,2,0:0:0:0:
287,295,48631,1,2,0:0:0:0:
2,63,48787,6,0,P|55:79|40:168,1,137.500004196167,2|0,1:2|0:0,0:0:0:0:
61,166,49100,2,0,B|118:152,1,45.8333347320557,2|0,0:0|0:0,0:0:0:0:
313,79,49256,2,0,P|264:71|203:52,1,91.6666694641114,8|0,0:0|0:0,0:0:0:0:
223,59,49568,1,2,0:0:0:0:
459,69,49725,5,2,1:2:0:0:
258,154,49881,1,2,0:0:0:0:
472,239,50037,1,2,0:0:0:0:
379,12,50193,5,10,0:2:0:0:
364,140,50350,1,2,0:2:0:0:
349,267,50506,1,2,0:2:0:0:
468,94,50662,6,0,P|400:88|364:161,1,137.500004196167,2|0,1:2|0:0,0:0:0:0:
369,156,50975,2,0,P|336:149|313:148,1,45.8333347320557,2|0,0:2|0:0,0:0:0:0:
122,285,51131,1,8,0:2:0:0:
177,237,51287,1,0,0:0:0:0:
250,242,51443,1,2,0:0:0:0:
213,348,51600,5,2,1:2:0:0:
101,200,51756,1,2,0:0:0:0:
97,192,51912,1,2,0:0:0:0:
221,115,52068,5,10,0:2:0:0:
177,237,52225,1,2,0:2:0:0:
60,87,52381,5,2,0:2:0:0:
24,356,52537,2,0,P|91:309|133:333,1,116.666663106283,2|2,1:2|0:2,0:0:0:0:
336,152,53006,2,0,P|280:172|220:102,1,149.999995422363,10|0,0:2|0:0,0:0:0:0:
220,114,53318,1,2,0:0:0:0:
357,57,53475,5,2,1:2:0:0:
423,130,53631,1,2,0:0:0:0:
397,225,53787,1,2,0:0:0:0:
497,185,53943,5,10,0:2:0:0:
321,269,54100,1,2,0:2:0:0:
500,337,54256,5,2,0:2:0:0:
302,171,54412,2,0,P|319:252|324:297,1,99.9999969482423,2|0,1:2|0:0,0:0:0:0:
321,269,54725,1,2,0:2:0:0:
253,380,54881,6,0,L|244:331,1,49.9999984741211,12|0,1:2|0:0,0:0:0:0:
430,242,55037,2,0,L|424:294,1,49.9999984741211,2|0,0:0|0:0,0:0:0:0:
181,141,55193,2,0,L|192:93,1,49.9999984741211,2|0,0:0|0:0,0:0:0:0:
393,111,55350,5,2,1:2:0:0:
242,251,55506,1,2,0:0:0:0:
302,171,55662,6,0,P|282:158|240:158,1,49.9999984741211,2|0,0:0|0:0,0:0:0:0:
52,286,55818,2,0,P|113:265|95:171,1,149.999995422363,10|0,0:2|0:0,0:0:0:0:
115,188,56131,1,2,0:2:0:0:
23,30,56287,5,2,1:2:0:0:
12,46,56443,1,0,0:0:0:0:
15,65,56600,1,2,0:2:0:0:
143,266,56756,2,0,P|192:261|256:247,1,99.9999969482423,8|0,0:2|0:0,0:0:0:0:
241,250,57068,1,2,0:0:0:0:
39,153,57225,5,2,1:2:0:0:
224,77,57381,1,2,0:0:0:0:
102,57,57537,6,0,P|118:103|121:125,1,49.9999984741211,2|0,0:0|0:0,0:0:0:0:
263,322,57693,2,0,P|291:211|310:168,1,149.999995422363,10|0,0:2|0:0,0:0:0:0:
304,178,58006,1,2,0:2:0:0:
167,186,58162,5,2,1:2:0:0:
182,173,58318,1,0,0:0:0:0:
201,175,58475,1,2,0:2:0:0:
455,298,58631,5,8,0:2:0:0:
377,316,58787,1,0,0:0:0:0:
323,257,58943,1,0,0:0:0:0:
416,190,59100,5,2,1:2:0:0:
413,200,59256,1,2,0:0:0:0:
244,294,59412,1,2,0:0:0:0:
240,285,59568,1,2,1:2:0:0:
240,285,59881,5,2,0:0:0:0:
154,215,60037,1,2,1:2:0:0:
151,206,60193,1,2,0:0:0:0:
326,248,60350,1,2,0:0:0:0:
323,257,60506,1,2,1:2:0:0:
77,95,60818,5,2,0:0:0:0:
77,95,60975,2,0,B|127:28|220:33|268:83|237:154|182:155,1,250.000009536744,10|2,1:2|0:2,0:0:0:0:
80,335,61443,2,0,P|54:245|74:209,1,125.000004768372,10|10,0:2|0:2,0:0:0:0:
80,335,61756,1,2,0:2:0:0:
144,268,61912,2,0,P|206:230|272:263,1,125.000004768372,10|0,0:2|0:0,0:0:0:0:
127,167,62225,1,10,0:2:0:0:
316,130,62381,6,0,P|247:107|221:92,1,62.5000023841859,10|0,1:2|0:0,0:0:0:0:
398,74,62537,2,0,P|356:14|344:-13,1,62.5000023841859,2|0,0:0|0:0,0:0:0:0:
311,222,62693,2,0,P|242:245|212:248,1,62.5000023841859,2|0,0:0|0:0,0:0:0:0:
430,320,62850,6,0,P|481:251|397:174,1,216.666656748454,6|0,1:2|0:0,0:0:0:0:
252,243,63318,2,0,P|198:238|139:222,1,108.333328374227,10|0,0:2|0:0,0:0:0:0:
47,338,63631,1,0,0:0:0:0:
0,154,63787,6,0,B|54:165|54:165|113:122,1,108.333328374227,2|0,1:2|0:0,0:0:0:0:
37,66,64100,1,2,0:2:0:0:
170,308,64256,5,10,0:2:0:0:
209,168,64412,1,0,0:0:0:0:
145,224,64568,1,0,0:0:0:0:
335,264,64725,6,0,P|266:248|212:247,1,108.333328374227,2|0,1:2|0:0,0:0:0:0:
307,344,65037,1,0,0:0:0:0:
114,98,65193,2,0,P|167:93|220:80,1,108.333328374227,10|0,0:2|0:0,0:0:0:0:
385,6,65506,1,2,0:0:0:0:
334,263,65662,6,0,P|334:153|431:142,1,216.666656748454,0|2,1:2|0:2,0:0:0:0:
465,356,66131,5,10,0:2:0:0:
390,211,66287,1,0,0:0:0:0:
315,67,66443,1,2,0:2:0:0:
190,357,66600,6,0,P|201:304|217:252,1,108.333328374227,6|0,1:2|0:0,0:0:0:0:
291,324,66912,5,2,0:0:0:0:
204,169,67068,2,0,P|256:163|289:203,1,108.333328374227,10|0,0:2|0:0,0:0:0:0:
289,203,67381,1,0,0:0:0:0:
60,271,67537,2,0,P|49:218|33:166,1,108.333328374227,2|0,1:2|0:0,0:0:0:0:
0,339,67850,1,2,0:0:0:0:
162,110,68006,2,0,B|163:164|163:164|129:255,1,108.333328374227,10|0,0:0|0:0,0:0:0:0:
171,362,68318,6,0,P|170:337|121:293,1,54.1666641871136,2|0,0:0|0:0,0:0:0:0:
60,271,68475,2,0,P|88:233|173:222,1,108.333328374227,2|0,1:2|0:0,0:0:0:0:
252,278,68787,1,2,0:2:0:0:
120,103,68943,2,0,P|164:101|221:181,1,108.333328374227,10|0,0:2|0:0,0:0:0:0:
156,311,69255,1,2,0:0:0:0:
254,29,69412,2,0,P|252:84|107:80,1,216.666656748454,2|2,1:2|0:2,0:0:0:0:
493,134,69881,5,10,0:2:0:0:
335,92,70037,1,0,0:0:0:0:
177,52,70193,1,0,0:0:0:0:
294,186,70350,6,0,P|374:176|442:173,1,108.333328374227,6|0,1:2|0:0,0:0:0:0:
401,174,70662,1,0,0:0:0:0:
271,39,70818,2,0,P|338:8|397:51,1,108.333328374227,8|0,0:0|0:0,0:0:0:0:
228,127,71131,1,0,0:0:0:0:
308,283,71287,6,0,B|323:230|323:230|289:179,1,108.333328374227,2|0,1:2|0:0,0:0:0:0:
218,245,71600,1,2,0:0:0:0:
28,292,71756,5,10,0:0:0:0:
169,329,71912,1,0,0:0:0:0:
111,265,72068,1,2,0:0:0:0:
19,181,72225,6,0,P|90:177|136:164,1,108.333328374227,2|0,1:2|0:0,0:0:0:0:
125,167,72537,1,0,0:0:0:0:
367,17,72693,2,0,P|296:13|250:0,1,108.333328374227,10|0,0:2|0:0,0:0:0:0:
384,99,73006,1,2,0:2:0:0:
69,82,73162,6,0,P|167:56|227:139,1,216.666656748454,0|2,1:2|0:2,0:0:0:0:
111,266,73631,5,10,0:2:0:0:
272,239,73787,1,0,0:0:0:0:
432,212,73943,1,2,0:2:0:0:
157,337,74100,6,0,B|207:315|207:315|254:341,1,108.333328374227,6|0,1:2|0:0,0:0:0:0:
253,340,74412,1,2,0:0:0:0:
432,212,74568,2,0,P|372:196|310:169,1,108.333328374227,10|0,0:0|0:0,0:0:0:0:
491,141,74881,1,2,0:0:0:0:
385,380,75037,2,0,P|364:327|394:270,1,108.333328374227,2|0,1:2|0:0,0:0:0:0:
464,330,75350,1,2,0:0:0:0:
241,114,75506,5,8,0:2:0:0:
262,239,75662,1,0,0:0:0:0:
287,364,75818,1,0,0:0:0:0:
329,151,75975,5,10,0:0:0:0:
155,274,76131,1,2,0:0:0:0:
143,283,76287,1,2,0:0:0:0:
374,286,76443,5,10,0:0:0:0:
126,137,76600,1,10,0:0:0:0:
114,128,76756,1,2,0:0:0:0:
35,373,76912,6,0,P|111:321|182:382,1,162.499992561341,10|0,0:0|0:0,0:0:0:0:
166,348,77225,1,10,0:0:0:0:
255,187,77381,5,10,0:0:0:0:
251,207,77693,1,8,0:0:0:0:
395,117,77850,5,4,1:2:0:0:
162,224,78006,1,0,0:0:0:0:
354,300,78162,1,0,0:0:0:0:
303,97,78318,6,0,P|197:99|157:88,1,108.333328374227,10|0,0:2|0:0,0:0:0:0:
340,214,78631,2,0,P|393:209|447:215,1,108.333328374227,2|2,0:2|1:2,0:0:0:0:
193,353,78943,5,0,0:0:0:0:
255,187,79099,1,0,0:0:0:0:
34,280,79256,6,0,P|116:267|127:204,1,108.333328374227,10|0,0:2|0:0,0:0:0:0:
382,373,79568,2,0,P|329:379|290:344,1,108.333328374227,2|2,0:2|1:2,0:0:0:0:
290,344,79881,1,0,0:0:0:0:
360,222,80037,5,2,0:2:0:0:
224,261,80193,2,0,P|208:205|195:143,1,108.333328374227,10|0,0:2|0:0,0:0:0:0:
445,190,80506,2,0,P|455:152|464:110,1,54.1666641871136,2|0,0:2|0:0,0:0:0:0:
295,107,80662,5,2,1:2:0:0:
378,38,80818,1,0,0:0:0:0:
485,55,80975,1,2,0:2:0:0:
190,166,81131,5,10,0:2:0:0:
107,97,81287,1,0,0:0:0:0:
0,114,81444,1,0,0:0:0:0:
219,21,81600,5,0,1:2:0:0:
223,42,81756,1,0,0:0:0:0:
227,63,81912,1,0,0:0:0:0:
103,285,82068,6,0,P|90:219|71:153,1,108.333328374227,10|0,0:2|0:0,0:0:0:0:
354,322,82381,1,2,0:2:0:0:
354,322,82537,2,0,P|367:256|386:190,1,108.333328374227,2|0,1:2|0:0,0:0:0:0:
186,256,82850,5,2,0:2:0:0:
422,89,83006,2,0,P|327:116|318:102,1,108.333328374227,10|0,0:2|0:0,0:0:0:0:
228,34,83318,6,0,P|228:59|278:103,1,54.1666641871136,2|0,0:0|0:0,0:0:0:0:
338,125,83475,2,0,P|310:162|224:173,1,108.333328374227,2|0,1:2|0:0,0:0:0:0:
147,118,83787,1,2,0:2:0:0:
279,293,83943,2,0,P|234:295|177:214,1,108.333328374227,10|0,0:2|0:0,0:0:0:0:
243,85,84255,1,2,0:0:0:0:
144,366,84412,2,0,P|146:311|291:315,1,216.666656748454,2|2,1:2|0:2,0:0:0:0:
117,36,84881,5,10,0:2:0:0:
168,189,85037,1,0,0:0:0:0:
220,343,85193,1,0,0:0:0:0:
64,124,85350,5,0,1:0:0:0:
266,178,85506,1,0,0:0:0:0:
73,287,85662,1,0,0:0:0:0:
355,279,85818,6,0,B|338:228|338:228|355:165,1,108.333328374227,10|0,0:2|0:0,0:0:0:0:
216,259,86131,5,2,0:2:0:0:
318,99,86287,2,0,P|246:93|183:78,1,108.333328374227,2|0,1:2|0:0,0:0:0:0:
210,85,86600,1,0,0:0:0:0:
458,213,86756,6,0,B|475:162|475:162|460:109,1,108.333328374227,10|0,0:2|0:0,0:0:0:0:
266,178,87068,5,2,0:2:0:0:
308,328,87225,2,0,P|361:318|415:314,1,108.333328374227,2|0,1:2|0:0,0:0:0:0:
415,314,87537,1,2,0:2:0:0:
181,333,87693,6,0,B|132:344|132:344|62:313,1,108.333328374227,10|0,0:2|0:0,0:0:0:0:
173,151,88006,2,0,P|119:154|65:160,1,108.333328374227,2|0,0:2|1:2,0:0:0:0:
142,246,88318,1,0,0:0:0:0:
272,123,88475,6,0,L|265:177,1,54.1666641871136,2|0,0:0|0:0,0:0:0:0:
265,176,88631,1,10,0:0:0:0:
98,26,88787,5,0,0:0:0:0:
98,26,88943,2,0,L|105:80,1,54.1666641871136,2|0,0:0|0:0,0:0:0:0:
104,79,89099,1,2,1:2:0:0:
202,35,89256,5,0,0:0:0:0:
0,104,89412,1,0,0:0:0:0:
237,269,89568,6,0,P|310:253|361:252,1,108.333328374227,10|0,0:2|0:0,0:0:0:0:
432,354,89881,1,2,0:0:0:0:
432,354,90037,2,0,B|459:303|459:303|449:230,1,108.333328374227,2|0,1:2|0:0,0:0:0:0:
158,355,90350,6,0,L|149:288,1,54.1666641871136,2|0,0:2|0:0,0:0:0:0:
415,120,90506,2,0,L|407:173,1,54.1666641871136,10|0,0:2|0:0,0:0:0:0:
133,197,90662,5,0,0:0:0:0:
331,266,90818,1,2,0:2:0:0:
151,303,90975,6,0,B|269:256|189:199|329:162,1,216.666656748454,6|0,1:2|0:0,0:0:0:0:
240,70,91443,5,2,0:0:0:0:
238,80,91600,1,0,0:0:0:0:
236,90,91756,1,0,0:0:0:0:
71,220,91912,6,0,P|65:181|64:174,1,41.6666666666667,6|0,1:2|0:0,0:0:0:0:
144,96,92381,2,0,B|96:80|96:80|63:80|63:80|12:62,1,125.000004768372,10|0,0:2|0:0,0:0:0:0:
188,191,92850,5,2,1:2:0:0:
182,173,93006,1,2,0:2:0:0:
128,262,93162,5,2,0:2:0:0:
272,212,93318,1,2,1:2:0:0:
278,194,93474,1,2,0:2:0:0:
161,356,93631,5,2,0:2:0:0:
309,299,93787,1,2,1:2:0:0:
215,274,93943,1,2,0:2:0:0:
250,362,94100,1,2,0:2:0:0:
415,223,94256,5,2,1:2:0:0:
410,232,94412,1,2,0:2:0:0:
405,241,94568,1,2,0:2:0:0:
478,294,94725,5,2,1:2:0:0:
387,147,94881,1,2,0:2:0:0:
473,167,95037,5,2,0:2:0:0:
405,241,95193,1,2,1:2:0:0:
400,250,95350,1,2,0:2:0:0:
332,72,95506,1,2,0:2:0:0:
387,147,95662,6,0,B|349:166|349:166|246:138,1,133.333333333333,2|0,1:2|0:0,0:0:0:0:
43,234,96131,2,0,B|81:253|81:253|184:225,1,133.333333333333,0|2,1:2|0:0,0:0:0:0:
147,54,96600,5,2,1:2:0:0:
129,142,96756,1,2,0:2:0:0:
51,60,96912,5,2,0:2:0:0:
225,127,97068,1,2,1:2:0:0:
242,137,97225,1,2,0:2:0:0:
233,31,97381,5,2,0:2:0:0:
46,154,97537,1,2,1:2:0:0:
31,167,97693,1,2,0:2:0:0:
82,277,97850,5,2,0:2:0:0:
153,216,98006,1,2,1:2:0:0:
244,231,98162,1,2,0:2:0:0:
82,277,98318,5,2,0:2:0:0:
226,149,98475,1,2,1:2:0:0:
242,137,98631,1,2,0:2:0:0:
180,301,98787,5,2,0:2:0:0:
126,133,98943,1,2,1:2:0:0:
119,114,99099,1,2,0:2:0:0:
153,215,99256,5,2,0:2:0:0:
313,301,99412,2,0,P|390:285|451:281,1,133.333333333333,0|2,1:2|0:2,0:0:0:0:
252,227,99881,2,0,P|261:185|275:141,2,66.6666666666667,2|0|2,1:2|0:0|0:2,0:0:0:0:
82,314,100350,6,0,B|126:274|209:307|180:365,1,133.333333333333,2|0,0:2|0:0,0:0:0:0:
30,152,100818,2,0,P|65:195|75:230,1,66.6666666666667,2|0,0:2|0:0,0:0:0:0:
30,152,101131,1,2,0:2:0:0:
153,123,101287,2,0,P|155:178|141:212,1,66.6666666666667,2|0,0:2|0:0,0:0:0:0:
153,123,101600,1,2,0:2:0:0:
263,163,101756,2,0,P|211:263|177:280,1,133.333333333333,2|2,0:2|0:2,0:0:0:0:
312,67,102225,6,0,P|233:41|227:-5,1,99.9999969482423,2|0,1:2|0:0,0:0:0:0:
373,7,102537,5,2,0:2:0:0:
361,157,102693,2,0,B|401:140|401:140|467:157,1,83.3333333333333,2|0,1:2|0:0,0:0:0:0:
451,65,103006,1,2,0:2:0:0:
352,244,103162,2,0,L|253:223,1,83.3333333333333,2|0,1:2|0:0,0:0:0:0:
361,157,103475,1,2,0:2:0:0:
438,337,103631,2,0,B|400:347|400:347|360:330,1,83.3333333333333,2|0,1:2|0:0,0:0:0:0:
447,243,103943,1,2,0:2:0:0:
282,366,104100,6,0,P|264:321|220:319,1,83.3333333333333,2|0,1:2|0:0,0:0:0:0:
156,350,104412,1,2,0:2:0:0:
220,210,104568,2,0,P|182:222|171:261,1,83.3333333333333,2|0,1:2|0:0,0:0:0:0:
162,355,104881,1,2,0:2:0:0:
16,221,105037,6,0,P|60:208|119:201,1,83.3333333333333,2|0,1:2|0:0,0:0:0:0:
288,135,105350,2,0,P|246:129|207:117,2,83.3333333333333,2|0|0,0:2|1:2|0:0,0:0:0:0:
194,7,105818,5,2,0:2:0:0:
82,33,105975,2,0,B|114:58|114:58|126:119,1,83.3333333333333,2|0,1:2|0:0,0:0:0:0:
28,122,106287,1,2,0:2:0:0:
167,200,106443,2,0,P|115:193|63:189,1,83.3333333333333,2|0,1:2|0:0,0:0:0:0:
122,99,106756,5,2,0:2:0:0:
231,274,106912,2,0,P|246:224|356:223,1,166.666666666667,2|2,1:2|0:2,0:0:0:0:
407,41,107381,2,0,P|388:57|366:66,1,49.9999984741211,6|0,1:2|0:0,0:0:0:0:
464,155,107537,2,0,P|440:156|415:150,1,49.9999984741211
383,247,107693,2,0,P|363:234|347:214,1,49.9999984741211
270,101,107850,6,0,P|287:176|306:298,1,183.333338928223,2|0,1:2|0:0,0:0:0:0:
137,345,108318,1,10,0:2:0:0:
137,345,108475,2,0,B|175:318|175:318|238:324,1,91.6666694641114
383,335,108787,5,2,1:2:0:0:
214,239,108943,1,2,0:2:0:0:
415,150,109100,1,2,0:2:0:0:
121,251,109256,6,0,P|107:207|90:164,1,91.6666694641114,10|0,0:2|0:0,0:0:0:0:
336,258,109568,1,2,0:2:0:0:
336,258,109725,2,0,P|382:179|453:218,1,183.333338928223,2|0,1:2|0:0,0:0:0:0:
272,49,110193,2,0,P|251:104|236:174,1,91.6666694641114,10|0,0:2|0:0,0:0:0:0:
242,135,110506,1,0,0:0:0:0:
363,8,110662,5,2,1:2:0:0:
152,58,110819,1,2,0:2:0:0:
341,180,110975,1,2,0:2:0:0:
209,313,111131,6,0,B|229:266|229:266|210:215,1,91.6666694641114,10|0,0:2|0:0,0:0:0:0:
64,156,111443,1,0,0:2:0:0:
64,156,111600,2,0,L|265:138,1,183.333338928223,2|0,1:2|0:0,0:0:0:0:
373,30,112068,2,0,B|346:67|346:67|349:113,1,91.6666694641114,10|0,0:2|0:0,0:0:0:0:
348,112,112381,1,0,0:0:0:0:
477,0,112537,5,2,1:2:0:0:
247,58,112693,1,2,0:2:0:0:
438,183,112850,1,2,0:2:0:0:
388,1,113006,5,10,0:2:0:0:
354,115,113162,1,2,0:2:0:0:
321,230,113318,1,2,0:2:0:0:
441,98,113475,5,2,1:2:0:0:
459,94,113631,1,2,0:2:0:0:
241,178,113787,5,2,0:2:0:0:
476,305,113943,1,10,0:2:0:0:
490,316,114100,1,2,0:0:0:0:
458,205,114256,6,0,B|435:193|435:193|381:206,1,45.8333347320557,2|0,0:0|0:0,0:0:0:0:
263,338,114412,2,0,P|330:298|303:214,1,137.500004196167,2|0,1:2|0:0,0:0:0:0:
198,184,114725,2,0,B|217:188|217:188|240:177,1,45.8333347320557,2|0,0:0|0:0,0:0:0:0:
317,49,114881,6,0,P|287:76|285:109,1,45.8333347320557,14|0,1:2|0:0,0:0:0:0:
199,18,115037,2,0,P|191:57|209:85,1,45.8333347320557
103,92,115193,2,0,P|120:128|151:139,1,45.8333347320557
21,266,115350,6,0,P|91:235|159:305,1,183.333338928223,2|0,1:2|0:0,0:0:0:0:
336,262,115818,2,0,B|292:274|292:274|238:256,1,91.6666694641114,10|0,0:2|0:0,0:0:0:0:
248,260,116131,1,0,0:0:0:0:
20,77,116287,5,2,1:2:0:0:
228,113,116443,1,2,0:0:0:0:
0,217,116600,1,2,0:0:0:0:
93,0,116756,5,10,0:0:0:0:
112,119,116912,1,2,0:0:0:0:
132,241,117068,1,2,0:0:0:0:
290,144,117225,6,0,B|223:126|223:126|175:134|175:134|101:116,1,183.333338928223,2|0,1:2|0:0,0:0:0:0:
299,249,117693,2,0,P|331:219|395:255,1,91.6666694641114,10|0,0:2|0:0,0:0:0:0:
375,226,118006,1,0,0:0:0:0:
470,170,118162,5,2,1:2:0:0:
361,323,118318,1,2,0:2:0:0:
289,119,118475,1,2,0:2:0:0:
512,253,118631,5,10,0:2:0:0:
379,230,118787,1,2,0:2:0:0:
245,209,118943,1,2,0:2:0:0:
78,364,119100,6,0,P|119:289|201:312,1,183.333338928223,2|0,1:2|0:0,0:0:0:0:
93,110,119568,2,0,P|109:168|115:212,1,91.6666694641114,10|0,0:2|0:0,0:0:0:0:
113,200,119881,1,0,0:0:0:0:
202,130,120037,6,0,P|224:125|243:113,1,45.8333347320557,2|0,1:2|0:0,0:0:0:0:
243,113,120193,1,2,0:2:0:0:
42,40,120350,5,2,0:2:0:0:
42,40,120506,2,0,P|19:35|0:23,1,45.8333347320557,10|0,0:2|0:0,0:0:0:0:
0,23,120662,1,2,0:2:0:0:
205,216,120818,1,2,0:2:0:0:
111,126,120975,6,0,P|144:54|219:84,1,137.500004196167,10|0,1:2|0:0,0:0:0:0:
293,129,121287,2,0,P|266:127|229:98,1,45.8333347320557,2|0,0:2|0:0,0:0:0:0:
398,135,121443,6,0,B|392:89|392:89|361:55,1,91.6666694641114,10|10,0:2|0:2,0:0:0:0:
476,207,121756,2,0,P|532:173|542:171,1,45.8333347320557,2|0,0:2|0:0,0:0:0:0:
252,281,121912,6,0,B|294:213|366:226|400:265|376:327,1,187.500007152558,10|0,0:2|0:0,0:0:0:0:
196,346,122225,2,0,P|174:306|182:269,1,62.5000023841859,10|0,0:2|0:0,0:0:0:0:
210,121,122381,6,0,P|223:149|224:181,1,62.5000023841859,10|0,1:2|0:0,0:0:0:0:
0,254,122537,2,0,P|30:250|59:259,1,62.5000023841859,2|0,0:0|0:0,0:0:0:0:
77,141,122693,2,0,P|104:155|121:180,1,62.5000023841859,2|0,0:0|0:0,0:0:0:0:
174,290,122850,6,0,B|312:252|267:365|430:280,1,216.666656748454,6|0,1:2|0:0,0:0:0:0:
328,121,123318,2,0,B|306:173|306:173|329:223,1,108.333328374227,10|0,0:2|0:0,0:0:0:0:
480,126,123631,1,0,0:0:0:0:
512,233,123787,6,0,P|458:220|392:216,1,108.333328374227,2|0,1:2|0:0,0:0:0:0:
405,215,124100,1,2,0:2:0:0:
265,54,124256,5,10,0:2:0:0:
405,93,124412,1,0,0:0:0:0:
349,29,124568,1,0,0:0:0:0:
117,153,124725,6,0,P|170:148|223:135,1,108.333328374227,2|0,1:2|0:0,0:0:0:0:
325,119,125037,1,0,0:0:0:0:
327,258,125193,2,0,B|279:227|279:227|221:240,1,108.333328374227,10|0,0:2|0:0,0:0:0:0:
262,327,125506,1,2,0:0:0:0:
8,347,125662,6,0,P|70:268|158:315,1,216.666656748454,0|2,1:2|0:2,0:0:0:0:
50,27,126131,5,10,0:2:0:0:
68,189,126287,1,0,0:0:0:0:
86,350,126443,1,2,0:2:0:0:
160,148,126600,6,0,P|202:142|265:121,1,108.333328374227,6|0,1:2|0:0,0:0:0:0:
440,34,126912,5,2,0:0:0:0:
454,176,127068,2,0,B|408:196|408:196|337:176,1,108.333328374227,10|0,0:2|0:0,0:0:0:0:
401,107,127381,1,0,0:0:0:0:
353,285,127537,2,0,P|301:266|248:258,1,108.333328374227,2|0,1:2|0:0,0:0:0:0:
0,105,127850,1,2,0:0:0:0:
0,105,128006,2,0,B|53:119|53:119|122:88,1,108.333328374227,10|0,0:0|0:0,0:0:0:0:
178,37,128318,6,0,P|193:56|184:121,1,54.1666641871136,2|0,0:0|0:0,0:0:0:0:
151,178,128475,2,0,P|196:189|269:142,1,108.333328374227,2|0,1:2|0:0,0:0:0:0:
294,49,128787,1,2,0:2:0:0:
305,268,128943,2,0,P|339:241|332:143,1,108.333328374227,10|0,0:2|0:0,0:0:0:0:
199,85,129255,1,2,0:0:0:0:
455,238,129412,2,0,P|418:197|309:293,1,216.666656748454,2|2,1:2|0:2,0:0:0:0:
66,350,129881,5,10,0:2:0:0:
224,308,130037,1,0,0:0:0:0:
382,268,130193,1,0,0:0:0:0:
13,274,130350,6,0,B|61:249|61:249|129:277,1,108.333328374227,6|0,1:2|0:0,0:0:0:0:
111,269,130662,1,0,0:0:0:0:
178,116,130818,2,0,P|207:159|199:212,1,108.333328374227,8|0,0:0|0:0,0:0:0:0:
120,178,131131,1,0,0:0:0:0:
360,101,131287,6,0,B|307:116|307:116|263:87,1,108.333328374227,2|0,1:2|0:0,0:0:0:0:
263,87,131600,1,2,0:0:0:0:
512,169,131756,5,10,0:0:0:0:
371,206,131912,1,0,0:0:0:0:
429,142,132068,1,2,0:0:0:0:
485,329,132225,6,0,P|449:283|468:212,1,108.333328374227,2|0,1:2|0:0,0:0:0:0:
452,235,132537,1,0,0:0:0:0:
322,319,132693,2,0,P|272:303|205:302,1,108.333328374227,10|0,0:2|0:0,0:0:0:0:
293,139,133006,1,2,0:2:0:0:
2,220,133162,6,0,B|78:209|78:209|136:226|136:226|220:211,1,216.666656748454,0|2,1:2|0:2,0:0:0:0:
299,150,133631,5,10,0:2:0:0:
159,126,133787,1,0,0:0:0:0:
21,103,133943,1,2,0:2:0:0:
352,80,134100,6,0,B|305:54|305:54|255:76,1,108.333328374227,6|0,1:2|0:0,0:0:0:0:
400,192,134412,1,2,0:0:0:0:
312,257,134568,2,0,P|303:208|298:149,1,108.333328374227,10|0,0:0|0:0,0:0:0:0:
477,95,134881,5,2,0:0:0:0:
494,216,135037,2,0,P|455:185|386:202,1,108.333328374227,2|0,1:2|0:0,0:0:0:0:
399,191,135350,1,2,0:0:0:0:
95,342,135506,5,8,0:2:0:0:
256,319,135662,1,0,0:0:0:0:
417,293,135818,1,0,0:0:0:0:
181,381,135975,5,10,0:0:0:0:
91,177,136131,1,2,0:0:0:0:
83,156,136287,1,2,0:0:0:0:
261,332,136443,5,10,0:0:0:0:
41,253,136600,1,10,0:0:0:0:
359,128,136756,5,2,0:0:0:0:
170,295,136912,2,0,P|173:224|268:205,1,162.499992561341,10|0,0:0|0:0,0:0:0:0:
250,196,137225,5,10,0:0:0:0:
512,107,137381,2,0,B|429:88|429:88|394:101|394:101|292:77,1,216.666656748454,10|8,0:0|0:0,0:0:0:0:
302,79,137850,5,4,1:2:0:0:
135,135,138006,1,0,0:0:0:0:
363,209,138162,1,0,0:0:0:0:
217,0,138318,6,0,P|221:53|231:107,1,108.333328374227,10|0,0:2|0:0,0:0:0:0:
36,35,138631,2,0,P|46:88|50:142,1,108.333328374227,2|2,0:2|1:2,0:0:0:0:
312,0,138943,5,0,0:0:0:0:
136,66,139099,1,0,0:0:0:0:
467,120,139256,6,0,B|416:94|416:94|353:111,1,108.333328374227,10|0,0:2|0:0,0:0:0:0:
199,200,139568,2,0,B|259:206|259:206|304:175,1,108.333328374227,2|2,0:2|1:2,0:0:0:0:
231,107,139881,1,0,0:0:0:0:
403,193,140037,5,2,0:2:0:0:
488,370,140193,2,0,P|500:325|514:257,1,108.333328374227,10|0,0:2|0:0,0:0:0:0:
257,335,140506,2,0,P|249:304|241:271,1,54.1666641871136,2|0,0:2|0:0,0:0:0:0:
231,107,140662,5,2,1:2:0:0:
148,176,140818,1,0,0:0:0:0:
41,159,140975,1,2,0:2:0:0:
276,198,141131,5,10,0:2:0:0:
370,249,141287,1,0,0:0:0:0:
472,212,141444,1,0,0:0:0:0:
165,260,141600,5,0,1:2:0:0:
161,281,141756,1,0,0:0:0:0:
157,302,141912,1,0,0:0:0:0:
465,352,142068,6,0,B|422:324|422:324|361:339,1,108.333328374227,10|0,0:2|0:0,0:0:0:0:
261,132,142381,1,2,0:2:0:0:
261,132,142537,2,0,P|313:145|366:155,1,108.333328374227,2|0,1:2|0:0,0:0:0:0:
268,288,142850,5,2,0:2:0:0:
442,92,143006,2,0,P|347:65|338:79,1,108.333328374227,10|0,0:2|0:0,0:0:0:0:
114,118,143318,6,0,P|138:124|193:87,1,54.1666641871136,2|0,0:0|0:0,0:0:0:0:
230,35,143475,2,0,P|258:71|246:157,1,108.333328374227,2|0,1:2|0:0,0:0:0:0:
174,218,143787,1,2,0:2:0:0:
377,135,143943,2,0,P|367:178|274:213,1,108.333328374227,10|0,0:2|0:0,0:0:0:0:
167,116,144255,1,2,0:0:0:0:
413,284,144412,2,0,P|360:267|401:128,1,216.666656748454,2|2,1:2|0:2,0:0:0:0:
103,307,144881,5,10,0:2:0:0:
256,256,145037,1,0,0:0:0:0:
410,204,145193,1,0,0:0:0:0:
145,217,145350,5,0,1:0:0:0:
269,363,145506,1,0,0:0:0:0:
294,148,145662,1,0,0:0:0:0:
447,292,145818,6,0,B|392:301|392:301|337:260,1,108.333328374227,10|0,0:2|0:0,0:0:0:0:
410,204,146131,5,2,0:2:0:0:
269,363,146287,2,0,P|265:308|255:255,1,108.333328374227,2|0,1:2|0:0,0:0:0:0:
62,114,146600,1,2,0:0:0:0:
66,221,146756,2,0,B|116:199|116:199|169:210,1,108.333328374227,10|0,0:2|0:0,0:0:0:0:
327,0,147068,5,2,0:2:0:0:
326,132,147225,2,0,P|273:122|219:118,1,108.333328374227,2|0,1:2|0:0,0:0:0:0:
66,221,147537,1,2,0:2:0:0:
3,36,147693,6,0,B|56:12|56:12|105:23,1,108.333328374227,10|0,0:2|0:0,0:0:0:0:
219,118,148006,2,0,P|214:65|211:11,1,108.333328374227,2|0,0:2|1:2,0:0:0:0:
210,10,148318,1,0,0:0:0:0:
124,110,148475,5,2,0:0:0:0:
327,228,148631,2,0,B|277:201|277:201|202:222,1,108.333328374227,10|0,0:0|0:0,0:0:0:0:
311,133,148943,5,2,0:0:0:0:
269,292,149099,1,2,1:2:0:0:
46,154,149256,5,0,0:0:0:0:
123,349,149412,1,0,0:0:0:0:
58,279,149568,6,0,B|103:253|103:253|178:270,1,108.333328374227,10|0,0:2|0:0,0:0:0:0:
418,145,149881,1,2,0:0:0:0:
418,145,150037,2,0,B|360:150|360:150|296:114,1,108.333328374227,2|0,1:2|0:0,0:0:0:0:
391,61,150350,5,2,0:2:0:0:
260,271,150506,2,0,P|244:209|235:159,1,108.333328374227,10|0,0:2|0:0,0:0:0:0:
219,59,150818,5,2,0:2:0:0:
316,125,150975,1,2,1:2:0:0:
157,215,151131,1,0,0:0:0:0:
346,328,151287,5,2,0:0:0:0:
346,328,151443,2,0,P|357:275|365:221,2,108.333328374227,10|0|0,0:0|0:0|0:0,0:0:0:0:
255,349,151912,5,0,1:0:0:0:
479,216,152068,1,0,0:3:0:0:
512,302,152225,5,0,0:3:0:0:
317,127,152381,1,8,0:0:0:0:
366,222,152850,6,0,B|329:277|341:312|364:340|403:344|438:326|429:285,1,187.499994277954,6|0,1:2|0:0,0:0:0:0:
429,302,153318,1,10,0:0:0:0:
265,199,153631,5,2,0:0:0:0:
265,199,153787,2,0,P|221:192|178:193,1,74.9999977111817,10|0,0:0|0:0,0:0:0:0:
30,41,154100,2,0,P|67:40|104:33,1,74.9999977111817,2|8,0:0|0:0,0:0:0:0:
82,128,154412,5,2,0:0:0:0:
76,132,154568,1,2,0:0:0:0:
70,137,154725,2,0,B|129:128|129:128|150:114|150:114|218:106,1,149.999995422363,8|0,0:0|0:0,0:0:0:0:
294,35,155193,5,8,0:0:0:0:
305,44,155350,1,0,0:0:0:0:
309,58,155506,1,0,0:0:0:0:
398,59,155662,5,8,0:0:0:0:
401,72,155819,1,0,0:0:0:0:
396,86,155975,1,0,0:0:0:0:
456,149,156131,5,8,0:0:0:0:
450,161,156288,1,0,0:0:0:0:
438,169,156444,1,0,0:0:0:0:
345,314,156600,6,0,B|323:269|323:269|336:155,1,149.999995422363,10|0,0:0|0:0,0:0:0:0:
257,332,157068,2,0,L|171:316,1,74.9999977111817,10|0,0:0|0:0,0:0:0:0:
408,256,157381,5,2,0:0:0:0:
439,357,157537,2,0,L|525:341,1,74.9999977111817,10|0,0:0|0:0,0:0:0:0:
331,384,157850,2,0,B|349:349|349:349|345:314,1,74.9999977111817,2|8,0:0|0:0,0:0:0:0:
345,314,158162,5,2,0:0:0:0:
151,226,158318,1,2,0:0:0:0:
234,143,158475,6,0,P|210:157|206:187,1,37.4999988555909,10|0,0:0|0:0,0:0:0:0:
138,115,158631,2,0,P|127:140|142:166,1,37.4999988555909,2|0,0:0|0:0,0:0:0:0:
55,172,158787,2,0,P|61:198|89:211,1,37.4999988555909,2|0,0:0|0:0,0:0:0:0:
207,321,158943,6,0,P|206:301|189:288,1,37.4999988555909,10|0,0:0|0:0,0:0:0:0:
257,272,159099,2,0,P|245:255|223:255,1,37.4999988555909,2|0,0:0|0:0,0:0:0:0:
251,202,159255,2,0,P|232:196|214:208,1,37.4999988555909,2|0,0:0|0:0,0:0:0:0:
62,275,159412,6,0,P|76:283|94:276,1,37.4999988555909,10|0,0:0|0:0,0:0:0:0:
73,321,159568,2,0,P|89:318|99:302,1,37.4999988555909
117,343,159724,2,0,P|128:330|126:311,1,37.4999988555909,2|0,0:0|0:0,0:0:0:0:
149,226,159881,6,0,L|147:204,1,20.8333333333333,10|0,0:0|0:0,0:0:0:0:
72,37,160350,6,0,B|123:-17|219:2|230:57|199:78,1,187.499994277954,10|0,0:0|0:0,0:0:0:0:
208,69,160818,1,10,0:0:0:0:
312,178,161131,5,2,0:0:0:0:
312,178,161287,2,0,B|277:163|277:163|215:172,1,74.9999977111817,10|0,0:0|0:0,0:0:0:0:
43,124,161600,2,0,B|79:129|79:129|114:114,1,74.9999977111817,2|8,0:0|0:0,0:0:0:0:
213,73,161912,5,2,0:0:0:0:
268,251,162068,1,2,0:0:0:0:
2,238,162225,6,0,B|120:226|66:299|198:282,1,187.499994277954,10|0,0:0|0:0,0:0:0:0:
177,284,162693,1,10,0:0:0:0:
322,365,163006,5,2,0:0:0:0:
322,365,163162,2,0,B|284:347|284:347|219:361,1,74.9999977111817,10|0,0:0|0:0,0:0:0:0:
162,193,163475,2,0,B|194:199|194:199|232:181,1,74.9999977111817,2|8,0:0|0:0,0:0:0:0:
309,106,163787,5,2,0:0:0:0:
408,262,163943,1,2,0:0:0:0:
446,185,164100,6,0,B|405:144|334:172|311:218|317:262,1,187.499994277954,10|0,0:0|0:0,0:0:0:0:
316,256,164568,1,10,0:0:0:0:
498,39,164881,5,2,0:0:0:0:
498,39,165037,2,0,B|509:77|509:77|491:120,1,74.9999977111817,10|0,0:0|0:0,0:0:0:0:
311,176,165350,2,0,B|297:143|297:143|308:105,1,74.9999977111817,2|8,0:0|0:0,0:0:0:0:
183,23,165662,5,2,0:0:0:0:
404,77,165818,1,2,0:0:0:0:
153,102,165975,6,0,B|193:110|193:110|230:90,1,83.3333333333333
311,24,166443,2,0,B|291:69|317:61|306:109,1,83.3333333333333,2|0,0:0|0:0,0:0:0:0:
312,179,166912,2,0,L|313:190,8,8.33333333333333
399,161,167381,5,2,0:0:0:0:
412,158,167537,1,2,0:0:0:0:
424,154,167693,1,2,0:0:0:0:
377,303,167850,6,0,B|339:234|205:252|228:315|198:351|123:333|102:307,1,299.999990844727,6|8,1:2|0:0,0:0:0:0:
11,246,168943,5,2,0:0:0:0:
82,209,169100,1,2,0:0:0:0:
27,146,169256,5,2,0:0:0:0:
158,229,169412,1,0,0:0:0:0:
183,79,169568,5,2,0:0:0:0:
89,197,169725,1,2,1:2:0:0:
82,209,169881,1,2,0:2:0:0:
155,148,170037,5,0,0:2:0:0:
224,184,170193,1,2,0:2:0:0:
235,193,170350,1,0,0:2:0:0:
194,70,170506,5,2,0:2:0:0:
99,94,170662,1,10,0:2:0:0:
85,101,170818,1,2,0:2:0:0:
286,99,170975,5,2,0:2:0:0:
349,59,171131,1,2,0:2:0:0:
420,81,171287,1,2,0:2:0:0:
258,20,171443,5,2,0:2:0:0:
362,146,171600,2,0,B|396:203|388:277|337:335|247:325|230:248|262:217|300:217,1,299.999990844727,2|8,1:2|0:2,0:0:0:0:
500,281,172850,5,2,0:0:0:0:
435,336,173006,2,0,P|419:295|427:271,1,49.9999984741211,2|0,0:2|0:0,0:0:0:0:
419,290,173318,1,2,0:2:0:0:
312,348,173475,2,0,P|323:305|344:291,1,49.9999984741211,2|0,1:2|0:0,0:0:0:0:
327,302,173787,1,2,0:0:0:0:
246,246,173943,2,0,P|281:219|306:220,1,49.9999984741211,2|0,0:0|0:0,0:0:0:0:
285,218,174256,1,2,0:0:0:0:
381,170,174412,6,0,P|377:203|375:236,1,49.9999984741211,10|0,0:0|0:0,0:0:0:0:
376,219,174725,1,2,0:0:0:0:
216,329,174881,2,0,P|209:278|183:202,1,124.999996185303,2|0,0:0|0:0,0:0:0:0:
185,208,175350,1,2,1:2:0:0:
190,212,176131,5,2,0:2:0:0:
44,185,176287,2,0,B|31:158|31:158|49:87,1,99.9999969482423,10|0,0:2|0:0,0:0:0:0:
48,90,177068,5,2,0:2:0:0:
248,107,177225,2,0,B|261:80|261:80|243:9,1,99.9999969482423,2|0,1:2|0:0,0:0:0:0:
243,12,178006,5,2,0:2:0:0:
121,142,178162,2,0,B|145:126|145:126|173:135,1,49.9999984741211,10|0,0:2|0:0,0:0:0:0:
285,184,178475,1,2,0:2:0:0:
339,114,178631,6,0,B|296:91|296:91|243:108,1,99.9999969482423,2|2,0:2|0:2,0:0:0:0:
123,316,179100,6,0,B|101:254|158:210|209:223|244:288|306:296|369:236,1,299.999990844727,2|8,1:2|0:2,0:0:0:0:
356,248,180350,5,2,0:2:0:0:
442,357,180506,2,0,P|452:312|456:260,1,87.499997329712,2|0,0:2|0:0,0:0:0:0:
455,270,180818,1,2,0:2:0:0:
272,333,180975,2,0,P|261:277|266:178,1,149.999995422363,2|0,1:2|0:0,0:0:0:0:
431,91,181443,5,2,0:0:0:0:
431,91,181600,1,0,0:0:0:0:
431,91,181756,1,2,0:0:0:0:
478,165,181912,6,0,B|423:176|423:176|358:142,1,112.499996566773,2|0,1:2|0:0,0:0:0:0:
278,24,182225,6,0,P|299:91|280:109,1,66.6666666666667,2|0,0:0|0:0,0:0:0:0:
168,222,182381,2,0,P|134:153|240:91,1,200,2|0,1:2|0:0,0:0:0:0:
290,184,182693,2,0,P|271:167|220:175,1,66.6666666666667,2|0,0:2|0:0,0:0:0:0:
35,314,182850,6,0,B|60:288|113:274|188:302|133:345|221:371|312:325,1,266.666666666667,6|0,1:2|0:0,0:0:0:0:
385,203,183318,2,0,B|356:255|356:255|377:308,1,116.666663106283,10|0,0:2|0:0,0:0:0:0:
485,207,183631,1,0,0:0:0:0:
450,123,183787,6,0,P|390:120|334:109,1,116.666663106283,2|0,1:2|0:0,0:0:0:0:
385,203,184100,1,2,0:2:0:0:
223,384,184257,5,10,0:2:0:0:
213,212,184413,1,0,0:0:0:0:
278,295,184569,1,0,0:0:0:0:
76,294,184725,6,0,B|131:326|131:326|181:307,1,116.666663106283,2|0,1:2|0:0,0:0:0:0:
76,294,185037,1,2,0:0:0:0:
288,171,185193,6,0,P|219:124|127:217,1,233.333326212565,10|0,0:2|0:0,0:0:0:0:
129,75,185662,5,0,1:2:0:0:
128,215,185818,1,0,0:0:0:0:
129,358,185975,1,2,0:2:0:0:
46,112,186131,5,10,0:2:0:0:
213,212,186287,1,0,0:0:0:0:
12,312,186443,1,2,0:2:0:0:
212,59,186600,6,0,B|270:82|270:82|328:51,1,116.666663106283,6|0,1:2|0:0,0:0:0:0:
317,56,186912,1,2,0:0:0:0:
484,240,187068,2,0,P|417:215|367:207,1,116.666663106283,10|0,0:2|0:0,0:0:0:0:
468,118,187381,1,2,0:0:0:0:
299,276,187537,2,0,P|264:247|289:164,1,116.666663106283,2|0,1:2|0:0,0:0:0:0:
373,208,187850,1,2,0:0:0:0:
132,330,188006,5,10,0:0:0:0:
375,355,188162,1,0,0:0:0:0:
357,60,188318,6,0,P|340:77|343:143,1,58.3333315531413,2|0,0:0|0:0,0:0:0:0:
373,208,188475,2,0,P|327:215|258:161,1,116.666663106283,2|0,1:2|0:0,0:0:0:0:
246,58,188787,1,2,0:2:0:0:
212,285,188943,2,0,P|176:246|208:160,1,116.666663106283,10|0,0:2|0:0,0:0:0:0:
331,109,189255,1,2,0:0:0:0:
68,227,189412,2,0,P|108:189|208:294,1,233.333326212565,2|2,1:2|0:2,0:0:0:0:
462,314,189881,5,10,0:2:0:0:
299,289,190037,1,0,0:0:0:0:
134,264,190193,1,0,0:0:0:0:
254,365,190350,6,0,B|301:380|301:380|363:354,1,116.666663106283,6|0,1:2|0:0,0:0:0:0:
254,365,190662,1,0,0:0:0:0:
512,237,190818,2,0,P|420:216|384:206,1,116.666663106283,8|0,0:0|0:0,0:0:0:0:
221,157,191131,1,0,0:0:0:0:
286,82,191287,6,0,B|232:54|232:54|178:70,1,116.666663106283,2|0,1:2|0:0,0:0:0:0:
316,183,191600,1,2,0:0:0:0:
117,160,191756,5,10,0:0:0:0:
86,330,191912,1,0,0:0:0:0:
44,234,192068,1,2,0:0:0:0:
134,264,192225,6,0,P|190:249|247:237,1,116.666663106283,2|0,1:2|0:0,0:0:0:0:
247,236,192537,1,2,0:2:0:0:
403,317,192693,2,0,B|378:267|378:267|402:200,1,116.666663106283,10|0,0:2|0:0,0:0:0:0:
489,260,193005,1,0,0:0:0:0:
295,152,193162,2,0,B|434:149|364:71|501:60,1,233.333326212565,0|2,1:2|0:2,0:0:0:0:
478,159,193631,5,10,0:2:0:0:
294,151,193787,1,0,0:0:0:0:
111,147,193943,1,2,0:2:0:0:
213,16,194100,6,0,B|233:73|233:73|208:123,1,116.666663106283,6|0,1:2|0:0,0:0:0:0:
321,56,194412,1,2,0:0:0:0:
322,252,194568,2,0,P|244:232|186:227,1,116.666663106283,10|0,0:0|0:0,0:0:0:0:
294,151,194881,5,2,0:0:0:0:
121,351,195037,2,0,B|96:301|96:301|116:244,1,116.666663106283,2|0,1:2|0:0,0:0:0:0:
237,324,195350,1,2,0:0:0:0:
8,193,195506,5,8,0:2:0:0:
150,166,195662,1,0,0:0:0:0:
294,151,195818,1,0,0:0:0:0:
47,96,195975,5,10,0:0:0:0:
39,87,196131,1,2,0:0:0:0:
240,234,196287,1,2,0:0:0:0:
226,83,196443,5,10,0:0:0:0:
237,72,196600,1,10,0:0:0:0:
54,283,196756,1,2,0:0:0:0:
329,131,196912,5,10,0:0:0:0:
138,208,197068,1,2,0:0:0:0:
385,327,197225,5,10,0:0:0:0:
470,43,197381,2,0,B|395:75|390:140|441:190|491:167|497:134,1,200,10|0,0:0|0:0,0:0:0:0:
387,238,197693,2,0,P|355:244|330:265,1,66.6666666666667,8|0,0:0|0:0,0:0:0:0:
236,334,197850,6,0,P|213:358|181:366,1,66.6666666666667,4|0,1:2|0:0,0:0:0:0:
183,252,198006,2,0,P|154:236|137:207,1,66.6666666666667
226,165,198162,2,0,P|234:132|257:109,1,66.6666666666667
416,185,198318,6,0,B|363:201|363:201|287:162,1,116.666663106283,10|0,0:2|0:0,0:0:0:0:
173,35,198631,2,0,P|253:28|310:15,1,116.666663106283,2|2,0:2|1:2,0:0:0:0:
398,275,198943,5,0,0:0:0:0:
370,107,199100,1,2,0:0:0:0:
447,374,199256,6,0,P|389:363|331:359,1,116.666663106283,10|0,0:2|0:0,0:0:0:0:
148,265,199568,2,0,B|199:239|199:239|267:256,1,116.666663106283,2|2,0:2|1:2,0:0:0:0:
214,328,199881,1,0,0:0:0:0:
157,173,200037,5,2,0:2:0:0:
270,138,200193,2,0,P|268:196|256:254,1,116.666663106283,10|0,0:2|0:0,0:0:0:0:
65,327,200506,2,0,P|55:299|51:270,1,58.3333315531413,2|0,0:2|0:0,0:0:0:0:
0,49,200662,5,0,1:2:0:0:
107,32,200818,1,0,0:0:0:0:
190,101,200975,1,0,0:0:0:0:
506,66,201131,5,10,0:2:0:0:
399,49,201287,1,0,0:0:0:0:
316,118,201444,1,0,0:0:0:0:
250,0,201600,5,0,1:2:0:0:
254,21,201756,1,0,0:0:0:0:
258,42,201912,1,0,0:0:0:0:
157,192,202068,6,0,P|91:180|23:176,1,116.666663106283,10|0,0:2|0:0,0:0:0:0:
155,341,202381,1,2,0:2:0:0:
155,341,202537,2,0,P|89:353|21:357,1,116.666663106283,2|0,1:2|0:0,0:0:0:0:
98,263,202850,5,2,0:2:0:0:
240,121,203006,2,0,P|172:84|168:71,1,58.3333315531413,10|0,0:2|0:0,0:0:0:0:
298,50,203162,2,0,P|278:-24|285:-36,1,58.3333315531413
390,77,203318,2,0,P|431:11|444:8,1,58.3333315531413,2|0,0:0|0:0,0:0:0:0:
240,121,203475,6,0,P|211:119|187:105,1,58.3333315531413,2|0,1:2|0:0,0:0:0:0:
298,50,203631,2,0,P|280:28|274:0,1,58.3333315531413
390,77,203787,2,0,P|394:48|411:24,1,58.3333315531413
329,139,203943,1,8,0:2:0:0:
332,143,204099,1,0,0:0:0:0:
335,147,204256,1,0,0:0:0:0:
416,156,204412,2,0,P|445:157|470:172,1,58.3333315531413,0|0,1:2|0:0,0:0:0:0:
358,226,204568,2,0,P|376:248|383:277,1,58.3333315531413
266,199,204724,2,0,P|262:228|246:252,1,58.3333315531413
416,156,204881,6,0,P|445:159|470:174,1,58.3333315531413,8|0,0:2|0:0,0:0:0:0:
358,226,205037,2,0,P|376:248|383:277,1,58.3333315531413
266,199,205193,2,0,P|262:227|246:252,1,58.3333315531413
329,139,205350,1,0,1:0:0:0:
332,143,205506,1,0,0:0:0:0:
335,147,205663,1,0,0:0:0:0:
44,22,205818,6,0,B|94:-1|94:-1|177:20,1,116.666663106283,10|0,0:2|0:0,0:0:0:0:
267,199,206131,2,0,P|209:191|151:186,1,116.666663106283,2|2,0:2|1:2,0:0:0:0:
236,102,206443,5,0,0:0:0:0:
176,296,206600,1,2,0:0:0:0:
176,296,206756,2,0,B|115:312|115:312|39:274,1,116.666663106283,10|0,0:2|0:0,0:0:0:0:
0,113,207068,1,2,0:2:0:0:
0,113,207225,2,0,P|76:108|141:98,1,116.666663106283,2|0,1:2|0:0,0:0:0:0:
267,199,207537,5,2,0:2:0:0:
348,265,207693,2,0,P|371:215|320:155,1,116.666663106283,10|0,0:2|0:0,0:0:0:0:
392,354,208006,1,2,0:2:0:0:
392,354,208162,2,0,B|439:378|439:378|532:341,1,116.666663106283,0|0,1:2|0:0,0:0:0:0:
451,276,208475,5,0,0:0:0:0:
297,374,208631,1,8,0:0:0:0:
290,384,208787,1,0,0:0:0:0:
270,216,208943,5,0,0:0:0:0:
385,346,209100,1,0,1:2:0:0:
392,354,209256,1,0,0:0:0:0:
442,157,209412,5,0,0:0:0:0:
442,157,209568,2,0,P|365:149|304:134,1,116.666663106283,10|0,0:2|0:0,0:0:0:0:
148,318,209881,1,2,0:0:0:0:
148,318,210037,2,0,P|225:310|286:295,1,116.666663106283,2|0,1:2|0:0,0:0:0:0:
185,74,210350,5,2,0:2:0:0:
270,216,210506,1,10,0:2:0:0:
366,17,210662,1,0,0:0:0:0:
373,6,210818,1,2,0:2:0:0:
91,174,210975,5,6,1:2:0:0:
279,114,211131,1,0,0:0:0:0:
468,55,211287,1,0,0:0:0:0:
465,64,211443,6,0,L|461:95,1,29.1666657765707,8|0,0:0|0:0,0:0:0:0:
378,145,211600,2,0,L|382:176,1,29.1666657765707,8|0,0:0|0:0,0:0:0:0:
477,83,211912,6,0,L|473:114,1,29.1666657765707,8|0,0:0|0:0,0:0:0:0:
477,120,212225,1,2,1:2:0:0:
421,256,212381,2,0,B|382:192|314:182|267:192|231:257|248:308|175:316,1,291.666657765707,2|0,1:2|0:0,0:0:0:0:
84,298,212850,6,0,B|100:323|100:323|96:364,1,58.3333315531413,2|2,0:0|0:0,0:0:0:0:
24,253,213006,1,2,0:0:0:0:
135,133,213162,1,2,0:0:0:0:
71,86,213318,5,0,1:0:0:0:
71,86,213787,5,0,1:0:0:0:
149,52,214100,5,0,0:0:0:0:
152,68,214256,1,0,1:0:0:0:
233,65,214568,5,0,0:0:0:0:
227,80,214724,1,0,1:0:0:0:
297,120,215037,5,0,0:0:0:0:
284,130,215193,1,0,1:0:0:0:
322,200,215506,5,0,0:0:0:0:
305,202,215662,1,0,1:0:0:0:
300,282,215975,5,0,0:0:0:0:
286,274,216131,1,0,1:0:0:0:
238,339,216443,5,0,0:0:0:0:
229,325,216599,1,0,1:0:0:0:
155,355,216912,5,0,0:0:0:0:
156,338,217068,1,0,1:0:0:0:
77,325,217381,5,0,0:0:0:0:
86,312,217537,1,0,1:0:0:0:
25,256,217850,5,0,0:0:0:0:
41,250,218006,1,0,1:0:0:0:
18,173,218319,5,0,0:0:0:0:
34,175,218475,1,0,1:0:0:0:
116,186,218631,1,0,0:0:0:0:
164,129,218787,1,0,0:0:0:0:
107,26,218943,2,0,B|90:69|90:69|89:119,1,83.3333333333333,0|0,1:0|0:0,0:0:0:0:
89,106,219412,1,0,1:0:0:0:
302,187,219568,2,0,L|295:221,1,20.8333333333333
305,224,219725,2,0,P|261:193|183:217,1,125,0|0,0:0|0:0,0:0:0:0:
446,50,220350,6,0,B|438:91|438:91|441:104|441:104|429:167,1,116.666663106283,2|2,1:2|0:2,0:2:0:0:
353,119,220818,1,2,1:2:0:0:
354,136,220975,1,2,0:2:0:0:
355,153,221131,1,2,0:2:0:0:
433,248,221287,1,2,1:2:0:0:
433,248,221443,2,0,B|465:239|465:239|501:251,1,58.3333315531413,2|2,0:2|0:2,0:2:0:0:
457,369,221756,5,2,1:2:0:0:
403,322,221912,1,2,0:2:0:0:
332,329,222068,1,2,0:2:0:0:
224,253,222225,6,0,B|263:245|263:245|286:253|286:253|338:243,1,116.666663106283,0|0,1:2|0:2,0:2:0:0:
337,243,222693,1,2,1:2:0:0:
303,115,222850,1,2,0:2:0:0:
303,115,223006,2,0,B|294:146|294:146|300:175,1,58.3333315531413,2|0,0:2|1:2,0:2:0:0:
242,333,223318,1,2,0:2:0:0:
242,333,223475,2,0,L|175:322,1,58.3333315531413,2|2,0:2|1:2,0:2:0:0:
38,166,223943,5,2,0:2:0:0:
38,166,224100,2,0,L|161:150,1,116.666663106283,2|0,1:2|0:2,0:2:0:0:
231,183,224568,1,2,1:2:0:0:
185,235,224724,1,2,0:2:0:0:
115,235,224881,1,2,0:2:0:0:
41,312,225037,5,2,1:2:0:0:
41,312,225193,2,0,B|47:282|47:282|32:246,1,58.3333315531413,2|0,0:2|0:2,0:2:0:0:
164,93,225506,5,2,1:2:0:0:
164,93,225662,2,0,L|151:160,1,58.3333315531413,2|2,0:2|0:2,0:2:0:0:
8,157,225975,2,0,B|38:157|38:157|62:143,2,58.3333315531413,2|0|2,1:2|0:2|0:2,0:2:0:0:
216,27,226443,5,2,1:2:0:0:
142,12,226600,1,2,0:2:0:0:
84,60,226756,1,2,0:2:0:0:
275,137,226912,6,0,B|258:102|259:78|290:44|311:37|339:55|349:74|347:94,1,145.833328882853,2|0,1:2|0:2,0:2:0:0:
435,177,227381,6,0,P|371:152|359:127,1,62.5000023841859,8|0,0:2|0:2,0:2:0:0:
