osu file format v14

[General]
AudioFilename: audio.mp3
AudioLeadIn: 0
PreviewTime: -1
Countdown: 1
SampleSet: Soft
StackLeniency: 0.7
Mode: 3
LetterboxInBreaks: 0
SpecialStyle: 0
WidescreenStoryboard: 0

[Editor]
DistanceSpacing: 1.3
BeatDivisor: 4
GridSize: 4
TimelineZoom: 2.799999

[Metadata]
Title:SUMMER HORROR PARTY
TitleUnicode:SUMMER HORROR PARTY
Artist:REOL
ArtistUnicode:REOL
Creator:sumang
Version:Horror LN Party
Source:
Tags:
BeatmapID:1585972
BeatmapSetID:753312

[Difficulty]
HPDrainRate:8
CircleSize:7
OverallDifficulty:8
ApproachRate:5
SliderMultiplier:1.4
SliderTickRate:1

[Events]
//Background and Video events
//Break Periods
//Storyboard Layer 0 (Background)
//Storyboard Layer 1 (Fail)
//Storyboard Layer 2 (Pass)
//Storyboard Layer 3 (Foreground)
//Storyboard Sound Samples

[TimingPoints]
2538.50288703807,315.789473684211,4,2,0,100,1,0
31591,-40,4,2,0,100,0,0
31906,-100,4,2,0,100,0,0
42327,-33.3333333333333,4,2,0,100,0,0
42801,-100,4,2,0,100,0,0

[HitObjects]
36,192,2222,128,0,2380:0:0:0:0:
109,192,2380,128,0,2538:0:0:0:0:
182,192,2538,128,0,2854:0:0:0:0:
256,192,2854,1,0,0:0:0:0:
109,192,2854,1,0,0:0:0:0:
402,192,3170,128,0,3485:0:0:0:0:
329,192,3485,1,0,0:0:0:0:
475,192,3485,1,0,0:0:0:0:
256,192,3801,128,0,4117:0:0:0:0:
182,192,4117,1,0,0:0:0:0:
329,192,4117,1,0,0:0:0:0:
109,192,4433,128,0,4749:0:0:0:0:
182,192,4749,1,0,0:0:0:0:
36,192,4749,1,0,0:0:0:0:
475,192,5064,128,0,5380:0:0:0:0:
329,192,5380,1,0,0:0:0:0:
402,192,5380,1,0,0:0:0:0:
36,192,5696,128,0,6012:0:0:0:0:
109,192,6012,1,0,0:0:0:0:
182,192,6012,1,0,0:0:0:0:
402,192,6327,128,0,6643:0:0:0:0:
329,192,6643,1,0,0:0:0:0:
256,192,6643,1,0,0:0:0:0:
109,192,6959,128,0,7275:0:0:0:0:
182,192,7275,1,0,0:0:0:0:
256,192,7275,1,0,0:0:0:0:
182,192,7591,128,0,7906:0:0:0:0:
329,192,7906,1,0,0:0:0:0:
36,192,7906,1,0,0:0:0:0:
329,192,8222,128,0,8538:0:0:0:0:
182,192,8538,1,0,0:0:0:0:
475,192,8538,1,0,0:0:0:0:
36,192,8854,128,0,9170:0:0:0:0:
109,192,8854,128,0,9170:0:0:0:0:
256,192,9012,128,0,9170:0:0:0:0:
329,192,9327,128,0,9485:0:0:0:0:
182,192,9485,128,0,9801:0:0:0:0:
256,192,9801,1,0,0:0:0:0:
402,192,9801,1,0,0:0:0:0:
329,192,9959,1,0,0:0:0:0:
36,192,10117,1,0,0:0:0:0:
182,192,10117,1,0,0:0:0:0:
256,192,10275,1,0,0:0:0:0:
109,192,10275,1,0,0:0:0:0:
182,192,10433,1,0,0:0:0:0:
329,192,10433,1,0,0:0:0:0:
475,192,10749,1,0,0:0:0:0:
329,192,10749,1,0,0:0:0:0:
402,192,10906,1,0,0:0:0:0:
256,192,10906,1,0,0:0:0:0:
329,192,11064,1,0,0:0:0:0:
182,192,11064,1,0,0:0:0:0:
36,192,11380,128,0,11538:0:0:0:0:
109,192,11538,1,0,0:0:0:0:
402,192,11696,128,0,11854:0:0:0:0:
329,192,11696,1,0,0:0:0:0:
109,192,11854,128,0,12012:0:0:0:0:
475,192,11854,128,0,12012:0:0:0:0:
182,192,12012,1,0,0:0:0:0:
256,192,12012,1,0,0:0:0:0:
36,192,12643,128,0,12959:0:0:0:0:
109,192,12643,128,0,12959:0:0:0:0:
329,192,12959,1,0,0:0:0:0:
402,192,12959,1,0,0:0:0:0:
475,192,12959,1,0,0:0:0:0:
475,192,13275,128,0,13591:0:0:0:0:
402,192,13275,128,0,13591:0:0:0:0:
182,192,13591,1,0,0:0:0:0:
109,192,13591,1,0,0:0:0:0:
36,192,13591,1,0,0:0:0:0:
182,192,13906,128,0,13985:0:0:0:0:
36,192,13906,128,0,13985:0:0:0:0:
329,192,14064,128,0,14143:0:0:0:0:
475,192,14064,128,0,14143:0:0:0:0:
256,192,14222,1,0,0:0:0:0:
109,192,14222,1,0,0:0:0:0:
256,192,14538,1,0,0:0:0:0:
182,192,14538,1,0,0:0:0:0:
329,192,14538,1,0,0:0:0:0:
256,192,14854,128,0,15170:0:0:0:0:
475,192,15170,128,0,15485:0:0:0:0:
329,192,15485,1,0,0:0:0:0:
256,192,15485,1,0,0:0:0:0:
36,192,15801,128,0,16117:0:0:0:0:
182,192,16117,1,0,0:0:0:0:
256,192,16117,1,0,0:0:0:0:
36,192,16433,128,0,16749:0:0:0:0:
329,192,16433,128,0,16749:0:0:0:0:
109,192,16591,128,0,16749:0:0:0:0:
402,192,16591,128,0,16749:0:0:0:0:
182,192,16749,1,0,0:0:0:0:
475,192,16749,1,0,0:0:0:0:
109,192,17064,1,0,0:0:0:0:
182,192,17064,1,0,0:0:0:0:
329,192,17064,128,0,17222:0:0:0:0:
182,192,17222,1,0,0:0:0:0:
256,192,17222,1,0,0:0:0:0:
402,192,17222,128,0,17380:0:0:0:0:
256,192,17380,1,0,0:0:0:0:
329,192,17380,1,0,0:0:0:0:
475,192,17380,128,0,17538:0:0:0:0:
36,192,17696,128,0,17854:0:0:0:0:
109,192,17854,128,0,18012:0:0:0:0:
182,192,18012,128,0,18170:0:0:0:0:
36,192,18327,1,0,0:0:0:0:
475,192,18327,128,0,18485:0:0:0:0:
109,192,18327,1,0,0:0:0:0:
182,192,18327,1,0,0:0:0:0:
402,192,18485,128,0,18643:0:0:0:0:
329,192,18643,128,0,18801:0:0:0:0:
475,192,18959,1,0,0:0:0:0:
402,192,18959,1,0,0:0:0:0:
329,192,18959,1,0,0:0:0:0:
36,192,18959,128,0,19117:0:0:0:0:
109,192,19117,128,0,19275:0:0:0:0:
182,192,19275,128,0,19433:0:0:0:0:
256,192,19591,128,0,20064:0:0:0:0:
329,192,20064,1,0,0:0:0:0:
36,192,20064,1,0,0:0:0:0:
109,192,20064,1,0,0:0:0:0:
402,192,20222,128,0,20538:0:0:0:0:
329,192,20538,128,0,20696:0:0:0:0:
109,192,20538,1,0,0:0:0:0:
256,192,20696,128,0,20854:0:0:0:0:
182,192,20854,128,0,21170:0:0:0:0:
402,192,20854,1,0,0:0:0:0:
256,192,21170,128,0,21327:0:0:0:0:
36,192,21170,1,0,0:0:0:0:
402,192,21327,128,0,21485:0:0:0:0:
109,192,21485,128,0,21801:0:0:0:0:
475,192,21485,1,0,0:0:0:0:
402,192,21801,128,0,21959:0:0:0:0:
36,192,21801,1,0,0:0:0:0:
329,192,21959,128,0,22117:0:0:0:0:
256,192,22117,1,0,0:0:0:0:
36,192,22117,128,0,22275:0:0:0:0:
109,192,22275,128,0,22433:0:0:0:0:
329,192,22433,128,0,22591:0:0:0:0:
402,192,22591,128,0,22749:0:0:0:0:
36,192,22749,128,0,23222:0:0:0:0:
109,192,22906,128,0,23222:0:0:0:0:
182,192,23064,128,0,23222:0:0:0:0:
402,192,23222,128,0,23696:0:0:0:0:
256,192,23222,1,0,0:0:0:0:
329,192,23380,128,0,23696:0:0:0:0:
256,192,23538,128,0,23696:0:0:0:0:
109,192,23696,128,0,24170:0:0:0:0:
475,192,23696,1,0,0:0:0:0:
36,192,23854,128,0,24170:0:0:0:0:
182,192,24012,128,0,24170:0:0:0:0:
256,192,24170,128,0,24485:0:0:0:0:
329,192,24327,128,0,24485:0:0:0:0:
402,192,24485,128,0,24643:0:0:0:0:
475,192,24643,1,0,0:0:0:0:
182,192,24643,1,0,0:0:0:0:
109,192,24643,1,0,0:0:0:0:
36,192,24643,1,0,0:0:0:0:
256,192,24959,128,0,25117:0:0:0:0:
329,192,25117,128,0,25275:0:0:0:0:
182,192,25117,128,0,25275:0:0:0:0:
36,192,25275,128,0,25591:0:0:0:0:
475,192,25275,128,0,25591:0:0:0:0:
109,192,25591,128,0,25749:0:0:0:0:
402,192,25591,128,0,25749:0:0:0:0:
182,192,25749,128,0,25906:0:0:0:0:
329,192,25749,128,0,25906:0:0:0:0:
256,192,25906,128,0,26222:0:0:0:0:
182,192,26222,128,0,26380:0:0:0:0:
329,192,26222,128,0,26380:0:0:0:0:
109,192,26380,128,0,26538:0:0:0:0:
402,192,26380,128,0,26538:0:0:0:0:
36,192,26538,128,0,26696:0:0:0:0:
475,192,26538,128,0,26696:0:0:0:0:
109,192,26696,128,0,26854:0:0:0:0:
402,192,26696,128,0,26854:0:0:0:0:
182,192,26854,128,0,27012:0:0:0:0:
329,192,26854,128,0,27012:0:0:0:0:
109,192,27012,128,0,27170:0:0:0:0:
256,192,27012,128,0,27170:0:0:0:0:
36,192,27170,128,0,27327:0:0:0:0:
182,192,27170,128,0,27327:0:0:0:0:
256,192,27327,128,0,27485:0:0:0:0:
402,192,27327,128,0,27485:0:0:0:0:
109,192,27485,1,0,0:0:0:0:
475,192,27485,1,0,0:0:0:0:
36,192,27801,128,0,27959:0:0:0:0:
109,192,27801,128,0,27959:0:0:0:0:
402,192,27959,128,0,28117:0:0:0:0:
475,192,27959,128,0,28117:0:0:0:0:
109,192,28117,128,0,28275:0:0:0:0:
182,192,28117,128,0,28275:0:0:0:0:
329,192,28275,128,0,28433:0:0:0:0:
402,192,28275,128,0,28433:0:0:0:0:
36,192,28433,1,0,0:0:0:0:
109,192,28591,1,0,0:0:0:0:
182,192,28749,1,0,0:0:0:0:
256,192,28906,1,0,0:0:0:0:
402,192,29064,128,0,29222:0:0:0:0:
475,192,29064,128,0,29222:0:0:0:0:
109,192,29222,128,0,29380:0:0:0:0:
36,192,29222,128,0,29380:0:0:0:0:
329,192,29380,128,0,29538:0:0:0:0:
402,192,29380,128,0,29538:0:0:0:0:
109,192,29538,128,0,29696:0:0:0:0:
182,192,29538,128,0,29696:0:0:0:0:
475,192,29696,1,0,0:0:0:0:
402,192,29854,1,0,0:0:0:0:
329,192,30012,1,0,0:0:0:0:
256,192,30170,1,0,0:0:0:0:
36,192,30327,1,0,0:0:0:0:
402,192,30327,128,0,30959:0:0:0:0:
109,192,30485,1,0,0:0:0:0:
182,192,30643,1,0,0:0:0:0:
109,192,30801,1,0,0:0:0:0:
36,192,30959,128,0,31591:0:0:0:0:
475,192,30959,1,0,0:0:0:0:
329,192,31117,1,0,0:0:0:0:
182,192,31275,1,0,0:0:0:0:
329,192,31433,1,0,0:0:0:0:
182,192,31591,128,0,31906:0:0:0:0:
256,192,31591,128,0,31906:0:0:0:0:
402,192,31591,128,0,31906:0:0:0:0:
36,192,31906,128,0,32222:0:0:0:0:
182,192,32064,1,0,0:0:0:0:
256,192,32222,128,0,32538:0:0:0:0:
109,192,32222,1,0,0:0:0:0:
402,192,32380,1,0,0:0:0:0:
475,192,32538,128,0,32854:0:0:0:0:
329,192,32538,1,0,0:0:0:0:
256,192,32696,1,0,0:0:0:0:
329,192,32775,1,0,0:0:0:0:
36,192,32854,128,0,33170:0:0:0:0:
109,192,32854,128,0,33170:0:0:0:0:
182,192,33051,128,0,33170:0:0:0:0:
256,192,33051,128,0,33170:0:0:0:0:
475,192,33406,128,0,33643:0:0:0:0:
256,192,33406,128,0,33643:0:0:0:0:
329,192,33485,128,0,33643:0:0:0:0:
402,192,33485,128,0,33643:0:0:0:0:
36,192,34038,128,0,34354:0:0:0:0:
109,192,34038,128,0,34354:0:0:0:0:
182,192,34117,128,0,34433:0:0:0:0:
256,192,34117,128,0,34433:0:0:0:0:
36,192,34433,1,0,0:0:0:0:
109,192,34433,1,0,0:0:0:0:
109,192,34749,128,0,34906:0:0:0:0:
36,192,34749,1,0,0:0:0:0:
256,192,35064,128,0,35222:0:0:0:0:
182,192,35064,1,0,0:0:0:0:
475,192,35380,128,0,35696:0:0:0:0:
402,192,35380,1,0,0:0:0:0:
256,192,35538,1,0,0:0:0:0:
182,192,35538,1,0,0:0:0:0:
36,192,35696,128,0,36012:0:0:0:0:
402,192,35696,1,0,0:0:0:0:
329,192,35696,1,0,0:0:0:0:
182,192,35893,1,0,0:0:0:0:
256,192,35893,1,0,0:0:0:0:
109,192,36012,1,0,0:0:0:0:
402,192,36012,128,0,36327:0:0:0:0:
256,192,36170,1,0,0:0:0:0:
182,192,36170,1,0,0:0:0:0:
329,192,36327,1,0,0:0:0:0:
109,192,36327,128,0,36643:0:0:0:0:
256,192,36485,1,0,0:0:0:0:
182,192,36485,1,0,0:0:0:0:
36,192,36643,1,0,0:0:0:0:
182,192,37275,128,0,37433:0:0:0:0:
109,192,37275,128,0,37433:0:0:0:0:
256,192,37591,128,0,37749:0:0:0:0:
329,192,37591,128,0,37749:0:0:0:0:
36,192,37906,128,0,38538:0:0:0:0:
475,192,37906,128,0,38538:0:0:0:0:
109,192,37906,1,0,0:0:0:0:
182,192,37906,1,0,0:0:0:0:
256,192,38064,1,0,0:0:0:0:
329,192,38222,1,0,0:0:0:0:
402,192,38222,1,0,0:0:0:0:
256,192,38380,1,0,0:0:0:0:
182,192,38538,1,0,0:0:0:0:
109,192,38538,1,0,0:0:0:0:
402,192,38538,128,0,39170:0:0:0:0:
329,192,38538,128,0,39170:0:0:0:0:
475,192,38696,1,0,0:0:0:0:
256,192,38696,1,0,0:0:0:0:
36,192,38854,1,0,0:0:0:0:
109,192,38854,1,0,0:0:0:0:
182,192,39012,1,0,0:0:0:0:
256,192,39012,1,0,0:0:0:0:
109,192,39170,1,0,0:0:0:0:
475,192,39170,128,0,39485:0:0:0:0:
402,192,39327,1,0,0:0:0:0:
329,192,39327,1,0,0:0:0:0:
256,192,39327,1,0,0:0:0:0:
182,192,39485,1,0,0:0:0:0:
109,192,39485,1,0,0:0:0:0:
36,192,39485,1,0,0:0:0:0:
182,192,39643,128,0,39801:0:0:0:0:
36,192,39643,1,0,0:0:0:0:
329,192,39801,128,0,39959:0:0:0:0:
475,192,39801,1,0,0:0:0:0:
109,192,39801,1,0,0:0:0:0:
182,192,39959,128,0,40117:0:0:0:0:
36,192,39959,1,0,0:0:0:0:
402,192,39959,1,0,0:0:0:0:
329,192,40117,128,0,40275:0:0:0:0:
109,192,40117,1,0,0:0:0:0:
475,192,40117,1,0,0:0:0:0:
402,192,40275,1,0,0:0:0:0:
182,192,40275,128,0,40433:0:0:0:0:
36,192,40275,1,0,0:0:0:0:
109,192,40433,1,0,0:0:0:0:
256,192,40433,1,0,0:0:0:0:
182,192,40591,1,0,0:0:0:0:
329,192,40591,1,0,0:0:0:0:
109,192,40591,128,0,40749:0:0:0:0:
256,192,40749,1,0,0:0:0:0:
402,192,40749,1,0,0:0:0:0:
182,192,40749,128,0,40906:0:0:0:0:
329,192,40906,1,0,0:0:0:0:
475,192,40906,1,0,0:0:0:0:
256,192,40906,128,0,41064:0:0:0:0:
36,192,41064,1,0,0:0:0:0:
182,192,41064,1,0,0:0:0:0:
329,192,41064,128,0,41222:0:0:0:0:
109,192,41222,1,0,0:0:0:0:
256,192,41222,1,0,0:0:0:0:
402,192,41222,128,0,41380:0:0:0:0:
182,192,41380,1,0,0:0:0:0:
329,192,41380,1,0,0:0:0:0:
475,192,41380,128,0,41538:0:0:0:0:
256,192,41538,1,0,0:0:0:0:
402,192,41538,1,0,0:0:0:0:
36,192,41696,1,0,0:0:0:0:
109,192,41696,1,0,0:0:0:0:
182,192,41696,1,0,0:0:0:0:
329,192,41696,1,0,0:0:0:0:
475,192,41696,1,0,0:0:0:0:
256,192,41696,1,0,0:0:0:0:
402,192,41696,1,0,0:0:0:0:
109,192,42327,128,0,42959:0:0:0:0:
329,192,42959,128,0,43275:0:0:0:0:
402,192,43117,128,0,43275:0:0:0:0:
109,192,43117,128,0,43275:0:0:0:0:
475,192,43275,128,0,43591:0:0:0:0:
182,192,43275,1,0,0:0:0:0:
182,192,43433,128,0,43749:0:0:0:0:
256,192,43433,128,0,43591:0:0:0:0:
36,192,43433,1,0,0:0:0:0:
109,192,43591,128,0,43906:0:0:0:0:
402,192,43591,1,0,0:0:0:0:
36,192,43749,128,0,44064:0:0:0:0:
329,192,43749,128,0,43906:0:0:0:0:
182,192,43906,1,0,0:0:0:0:
109,192,44064,128,0,44380:0:0:0:0:
402,192,44064,128,0,44222:0:0:0:0:
475,192,44064,128,0,44380:0:0:0:0:
329,192,44064,1,0,0:0:0:0:
182,192,44222,128,0,44538:0:0:0:0:
256,192,44380,128,0,44696:0:0:0:0:
36,192,44380,128,0,44459:0:0:0:0:
329,192,44380,1,0,0:0:0:0:
475,192,44538,128,0,44854:0:0:0:0:
109,192,44538,128,0,44617:0:0:0:0:
182,192,44696,128,0,44775:0:0:0:0:
402,192,44696,128,0,45012:0:0:0:0:
256,192,44854,128,0,44933:0:0:0:0:
329,192,44854,128,0,45170:0:0:0:0:
109,192,44854,1,0,0:0:0:0:
475,192,45012,128,0,45091:0:0:0:0:
182,192,45012,1,0,0:0:0:0:
36,192,45012,1,0,0:0:0:0:
402,192,45170,128,0,45249:0:0:0:0:
109,192,45170,1,0,0:0:0:0:
256,192,45170,1,0,0:0:0:0:
329,192,45327,128,0,45406:0:0:0:0:
182,192,45327,1,0,0:0:0:0:
36,192,45327,1,0,0:0:0:0:
36,192,45485,128,0,45564:0:0:0:0:
109,192,45485,128,0,45564:0:0:0:0:
182,192,45564,128,0,45643:0:0:0:0:
256,192,45564,128,0,45643:0:0:0:0:
329,192,45643,128,0,45722:0:0:0:0:
402,192,45643,128,0,45722:0:0:0:0:
475,192,45722,128,0,45801:0:0:0:0:
36,192,45722,1,0,0:0:0:0:
109,192,45722,1,0,0:0:0:0:
182,192,45801,1,0,0:0:0:0:
256,192,45801,1,0,0:0:0:0:
329,192,45880,1,0,0:0:0:0:
402,192,45880,1,0,0:0:0:0:
475,192,45959,1,0,0:0:0:0:
182,192,46117,128,0,46433:0:0:0:0:
36,192,46117,1,0,0:0:0:0:
36,192,46275,128,0,46591:0:0:0:0:
256,192,46275,1,0,0:0:0:0:
109,192,46433,128,0,46749:0:0:0:0:
329,192,46433,1,0,0:0:0:0:
402,192,46591,128,0,46906:0:0:0:0:
329,192,46591,1,0,0:0:0:0:
256,192,46749,1,0,0:0:0:0:
36,192,46749,128,0,46906:0:0:0:0:
475,192,46749,128,0,47064:0:0:0:0:
182,192,46906,1,0,0:0:0:0:
329,192,46906,128,0,47222:0:0:0:0:
256,192,47064,1,0,0:0:0:0:
475,192,47222,128,0,47380:0:0:0:0:
36,192,47222,128,0,47380:0:0:0:0:
182,192,47380,128,0,47538:0:0:0:0:
329,192,47380,128,0,47538:0:0:0:0:
109,192,47538,128,0,47696:0:0:0:0:
402,192,47538,128,0,47696:0:0:0:0:
36,192,47696,128,0,47854:0:0:0:0:
475,192,47696,128,0,47854:0:0:0:0:
109,192,47854,128,0,48327:0:0:0:0:
402,192,47854,128,0,48327:0:0:0:0:
256,192,47854,128,0,48012:0:0:0:0:
182,192,48012,128,0,48327:0:0:0:0:
329,192,48012,128,0,48327:0:0:0:0:
36,192,48012,1,0,0:0:0:0:
475,192,48012,1,0,0:0:0:0:
256,192,48170,1,0,0:0:0:0:
36,192,48327,1,0,0:0:0:0:
475,192,48327,1,0,0:0:0:0:
109,192,48485,1,0,0:0:0:0:
402,192,48485,1,0,0:0:0:0:
182,192,48485,128,0,48643:0:0:0:0:
329,192,48485,128,0,48643:0:0:0:0:
36,192,48643,128,0,48801:0:0:0:0:
109,192,48643,128,0,48722:0:0:0:0:
402,192,48801,128,0,48880:0:0:0:0:
475,192,48801,128,0,48959:0:0:0:0:
329,192,48801,1,0,0:0:0:0:
182,192,48801,1,0,0:0:0:0:
329,192,48959,1,0,0:0:0:0:
109,192,48959,128,0,49117:0:0:0:0:
182,192,49038,128,0,49117:0:0:0:0:
36,192,49117,1,0,0:0:0:0:
329,192,49117,128,0,49275:0:0:0:0:
475,192,49196,128,0,49275:0:0:0:0:
402,192,49275,1,0,0:0:0:0:
256,192,49275,128,0,49433:0:0:0:0:
109,192,49433,128,0,49591:0:0:0:0:
329,192,49433,1,0,0:0:0:0:
256,192,49591,128,0,49749:0:0:0:0:
402,192,49591,1,0,0:0:0:0:
182,192,49591,1,0,0:0:0:0:
109,192,49749,128,0,49906:0:0:0:0:
475,192,49749,1,0,0:0:0:0:
36,192,49749,1,0,0:0:0:0:
36,192,49906,128,0,50222:0:0:0:0:
329,192,49906,128,0,50064:0:0:0:0:
402,192,49906,128,0,50222:0:0:0:0:
475,192,49906,128,0,50380:0:0:0:0:
109,192,50064,128,0,50380:0:0:0:0:
182,192,50222,128,0,50538:0:0:0:0:
256,192,50380,128,0,50696:0:0:0:0:
475,192,50538,128,0,50854:0:0:0:0:
36,192,50538,128,0,50854:0:0:0:0:
402,192,50696,128,0,51012:0:0:0:0:
109,192,50696,128,0,51012:0:0:0:0:
182,192,50854,128,0,51170:0:0:0:0:
329,192,50854,128,0,51170:0:0:0:0:
475,192,51012,1,0,0:0:0:0:
36,192,51012,1,0,0:0:0:0:
256,192,51012,128,0,51327:0:0:0:0:
109,192,51170,1,0,0:0:0:0:
402,192,51170,1,0,0:0:0:0:
182,192,51327,1,0,0:0:0:0:
329,192,51327,1,0,0:0:0:0:
36,192,51485,1,0,0:0:0:0:
182,192,51485,1,0,0:0:0:0:
256,192,51485,1,0,0:0:0:0:
182,192,51643,1,0,0:0:0:0:
402,192,51643,1,0,0:0:0:0:
329,192,51643,1,0,0:0:0:0:
109,192,51801,1,0,0:0:0:0:
36,192,51801,1,0,0:0:0:0:
256,192,51801,1,0,0:0:0:0:
109,192,51959,1,0,0:0:0:0:
329,192,51959,1,0,0:0:0:0:
402,192,51959,1,0,0:0:0:0:
475,192,52117,1,0,0:0:0:0:
402,192,52117,1,0,0:0:0:0:
182,192,52117,1,0,0:0:0:0:
109,192,52117,1,0,0:0:0:0:
36,192,52433,128,0,52591:0:0:0:0:
109,192,52433,128,0,52591:0:0:0:0:
256,192,52591,128,0,52749:0:0:0:0:
182,192,52591,128,0,52749:0:0:0:0:
475,192,52749,128,0,52906:0:0:0:0:
402,192,52749,128,0,52906:0:0:0:0:
109,192,52749,1,0,0:0:0:0:
329,192,52906,128,0,53064:0:0:0:0:
256,192,52906,128,0,53064:0:0:0:0:
36,192,52906,1,0,0:0:0:0:
475,192,53064,1,0,0:0:0:0:
36,192,53064,128,0,53222:0:0:0:0:
109,192,53064,128,0,53380:0:0:0:0:
256,192,53222,128,0,53538:0:0:0:0:
402,192,53222,128,0,53380:0:0:0:0:
182,192,53380,128,0,53538:0:0:0:0:
475,192,53380,128,0,53538:0:0:0:0:
36,192,53380,1,0,0:0:0:0:
329,192,53380,128,0,53696:0:0:0:0:
36,192,53538,128,0,53696:0:0:0:0:
109,192,53538,1,0,0:0:0:0:
475,192,53696,1,0,0:0:0:0:
182,192,53696,128,0,54012:0:0:0:0:
109,192,53854,1,0,0:0:0:0:
329,192,54012,1,0,0:0:0:0:
256,192,54012,128,0,54327:0:0:0:0:
475,192,54170,1,0,0:0:0:0:
36,192,54170,1,0,0:0:0:0:
329,192,54327,1,0,0:0:0:0:
109,192,54327,1,0,0:0:0:0:
402,192,54327,128,0,54643:0:0:0:0:
182,192,54485,1,0,0:0:0:0:
256,192,54485,1,0,0:0:0:0:
182,192,54643,128,0,54959:0:0:0:0:
329,192,54643,1,0,0:0:0:0:
109,192,54801,1,0,0:0:0:0:
36,192,54801,1,0,0:0:0:0:
402,192,54959,128,0,55275:0:0:0:0:
475,192,54959,1,0,0:0:0:0:
256,192,54959,1,0,0:0:0:0:
36,192,55117,1,0,0:0:0:0:
109,192,55117,1,0,0:0:0:0:
182,192,55275,1,0,0:0:0:0:
475,192,55275,1,0,0:0:0:0:
329,192,55275,128,0,55591:0:0:0:0:
36,192,55433,1,0,0:0:0:0:
109,192,55433,1,0,0:0:0:0:
402,192,55433,1,0,0:0:0:0:
475,192,55591,1,0,0:0:0:0:
36,192,55591,1,0,0:0:0:0:
182,192,55591,1,0,0:0:0:0:
109,192,55670,1,0,0:0:0:0:
256,192,55670,1,0,0:0:0:0:
182,192,55749,1,0,0:0:0:0:
329,192,55749,1,0,0:0:0:0:
256,192,55827,1,0,0:0:0:0:
402,192,55827,1,0,0:0:0:0:
329,192,55906,1,0,0:0:0:0:
475,192,55906,1,0,0:0:0:0:
256,192,55985,1,0,0:0:0:0:
402,192,55985,1,0,0:0:0:0:
182,192,56064,1,0,0:0:0:0:
329,192,56064,1,0,0:0:0:0:
256,192,56143,1,0,0:0:0:0:
109,192,56143,1,0,0:0:0:0:
182,192,56222,1,0,0:0:0:0:
36,192,56222,128,0,56380:0:0:0:0:
402,192,56222,1,0,0:0:0:0:
182,192,56380,1,0,0:0:0:0:
256,192,56380,1,0,0:0:0:0:
329,192,56380,128,0,56538:0:0:0:0:
475,192,56538,1,0,0:0:0:0:
402,192,56538,1,0,0:0:0:0:
182,192,56538,128,0,56696:0:0:0:0:
329,192,56696,1,0,0:0:0:0:
256,192,56696,1,0,0:0:0:0:
475,192,56696,128,0,56854:0:0:0:0:
109,192,56854,128,0,57012:0:0:0:0:
402,192,56854,1,0,0:0:0:0:
182,192,56854,1,0,0:0:0:0:
329,192,57012,128,0,57170:0:0:0:0:
36,192,57012,1,0,0:0:0:0:
36,192,57170,128,0,57327:0:0:0:0:
475,192,57170,1,0,0:0:0:0:
402,192,57170,1,0,0:0:0:0:
182,192,57170,1,0,0:0:0:0:
475,192,57327,128,0,57485:0:0:0:0:
256,192,57327,1,0,0:0:0:0:
329,192,57327,1,0,0:0:0:0:
182,192,57485,1,0,0:0:0:0:
402,192,57485,1,0,0:0:0:0:
36,192,57485,1,0,0:0:0:0:
