osu file format v14

[General]
AudioFilename: audio.mp3
AudioLeadIn: 0
PreviewTime: -1
Countdown: 1
SampleSet: Soft
StackLeniency: 0.7
Mode: 0
LetterboxInBreaks: 0
WidescreenStoryboard: 0

[Editor]
DistanceSpacing: 0.1
BeatDivisor: 8
GridSize: 32
TimelineZoom: 3.399999

[Metadata]
Title:No title
TitleUnicode:No title
Artist:REOL
ArtistUnicode:REOL
Creator:kenny518646
Version:Hard
Source:https://www.youtube.com/watch?v=LfephiFN76E
Tags:REOL
BeatmapID:1491935
BeatmapSetID:705399

[Difficulty]
HPDrainRate:5
CircleSize:5
OverallDifficulty:9
ApproachRate:9
SliderMultiplier:3.59999990463257
SliderTickRate:1

[Events]
//Background and Video events
//Break Periods
//Storyboard Layer 0 (Background)
//Storyboard Layer 1 (Fail)
//Storyboard Layer 2 (Pass)
//Storyboard Layer 3 (Foreground)
//Storyboard Sound Samples

[TimingPoints]
2410,400,4,2,0,100,1,0
40260,-133.333333333333,4,2,0,100,0,0
40710,-100,4,2,0,100,0,0

[HitObjects]
256,192,2410,5,0,0:0:0:0:
384,128,2860,1,0,0:0:0:0:
160,64,3610,1,0,0:0:0:0:
64,224,4060,1,0,0:0:0:0:
256,320,4810,1,0,0:0:0:0:
416,256,5260,1,0,0:0:0:0:
320,32,6010,1,0,0:0:0:0:
224,96,6460,1,0,0:0:0:0:
96,256,7210,5,0,0:0:0:0:
160,128,7610,1,0,0:0:0:0:
224,320,8410,1,0,0:0:0:0:
352,256,8860,1,0,0:0:0:0:
416,64,9610,5,0,0:0:0:0:
128,320,10010,1,0,0:0:0:0:
128,64,10510,1,0,0:0:0:0:
256,288,10910,1,0,0:0:0:0:
320,257,11010,1,0,0:0:0:0:
353,192,11060,1,0,0:0:0:0:
62,34,11710,5,0,0:0:0:0:
97,90,11810,1,0,0:0:0:0:
147,30,11910,1,0,0:0:0:0:
172,86,12110,1,0,0:0:0:0:
226,31,12210,1,0,0:0:0:0:
245,88,12310,1,0,0:0:0:0:
301,30,12410,1,0,0:0:0:0:
387,60,12560,1,0,0:0:0:0:
410,162,12810,5,0,0:0:0:0:
392,219,12910,1,0,0:0:0:0:
325,217,13160,1,0,0:0:0:0:
269,159,13310,1,0,0:0:0:0:
182,215,13460,1,0,0:0:0:0:
109,211,13610,1,0,0:0:0:0:
37,211,13676,1,0,0:0:0:0:
395,260,14010,5,0,0:0:0:0:
320,260,14110,1,0,0:0:0:0:
248,264,14260,1,0,0:0:0:0:
139,319,14410,1,0,0:0:0:0:
66,321,14510,1,0,0:0:0:0:
29,257,14610,1,0,0:0:0:0:
94,197,14710,1,0,0:0:0:0:
32,166,14810,1,0,0:0:0:0:
25,79,14910,1,0,0:0:0:0:
143,83,15010,1,0,0:0:0:0:
223,87,15110,1,0,0:0:0:0:
299,89,15210,1,0,0:0:0:0:
375,87,15310,1,0,0:0:0:0:
440,83,15410,1,0,0:0:0:0:
437,160,15510,1,0,0:0:0:0:
354,156,15610,1,0,0:0:0:0:
286,153,15710,1,0,0:0:0:0:
219,153,15810,1,0,0:0:0:0:
148,158,15910,1,0,0:0:0:0:
88,157,16010,1,0,0:0:0:0:
40,202,16210,1,0,0:0:0:0:
477,60,16610,5,0,0:0:0:0:
417,49,16810,1,0,0:0:0:0:
348,53,16960,1,0,0:0:0:0:
288,55,17110,1,0,0:0:0:0:
225,55,17260,1,0,0:0:0:0:
165,49,17410,1,0,0:0:0:0:
102,45,17560,1,0,0:0:0:0:
32,41,17710,1,0,0:0:0:0:
48,95,17860,1,0,0:0:0:0:
63,149,18010,1,0,0:0:0:0:
82,206,18160,1,0,0:0:0:0:
101,262,18310,1,0,0:0:0:0:
124,315,18460,1,0,0:0:0:0:
191,266,18610,1,0,0:0:0:0:
240,232,18760,1,0,0:0:0:0:
294,200,18910,1,0,0:0:0:0:
339,165,19060,1,0,0:0:0:0:
383,135,19210,1,0,0:0:0:0:
443,92,19360,1,0,0:0:0:0:
378,24,19510,1,0,0:0:0:0:
314,21,19660,1,0,0:0:0:0:
247,28,19810,1,0,0:0:0:0:
185,26,19960,1,0,0:0:0:0:
123,27,20110,1,0,0:0:0:0:
71,73,20260,1,0,0:0:0:0:
43,141,20410,1,0,0:0:0:0:
49,209,20560,1,0,0:0:0:0:
89,263,20710,1,0,0:0:0:0:
141,296,20860,1,0,0:0:0:0:
208,255,21010,1,0,0:0:0:0:
271,232,21160,1,0,0:0:0:0:
196,146,21310,1,0,0:0:0:0:
256,190,21810,5,0,0:0:0:0:
293,135,21960,1,0,0:0:0:0:
358,43,22543,1,0,0:0:0:0:
471,0,22810,1,0,0:0:0:0:
471,57,22960,1,0,0:0:0:0:
474,117,23110,1,0,0:0:0:0:
472,179,23260,1,0,0:0:0:0:
477,238,23410,1,0,0:0:0:0:
479,297,23560,1,0,0:0:0:0:
478,354,23760,1,0,0:0:0:0:
257,191,24210,5,0,0:0:0:0:
211,134,24260,1,0,0:0:0:0:
140,14,24910,1,0,0:0:0:0:
18,30,25210,1,0,0:0:0:0:
19,88,25360,1,0,0:0:0:0:
20,147,25510,1,0,0:0:0:0:
21,207,25660,1,0,0:0:0:0:
21,266,25810,1,0,0:0:0:0:
22,327,25960,1,0,0:0:0:0:
20,376,26110,1,0,0:0:0:0:
290,29,26610,6,0,L|178:108,1,134.999996423721
299,96,26860,2,0,L|175:185,1,134.999996423721
306,174,27160,1,0,0:0:0:0:
256,209,27260,1,0,0:0:0:0:
202,238,27410,1,0,0:0:0:0:
335,300,27660,1,0,0:0:0:0:
450,234,27760,1,0,0:0:0:0:
415,170,27910,1,0,0:0:0:0:
366,116,28060,1,0,0:0:0:0:
301,74,28210,1,0,0:0:0:0:
228,79,28360,1,0,0:0:0:0:
106,102,28510,1,0,0:0:0:0:
24,25,28960,5,0,0:0:0:0:
154,23,29110,1,0,0:0:0:0:
275,24,29260,1,0,0:0:0:0:
392,19,29410,1,0,0:0:0:0:
512,22,29560,1,0,0:0:0:0:
512,143,29710,1,0,0:0:0:0:
512,258,29860,1,0,0:0:0:0:
511,373,30010,1,0,0:0:0:0:
390,376,30160,1,0,0:0:0:0:
272,376,30310,1,0,0:0:0:0:
150,376,30460,1,0,0:0:0:0:
29,376,30610,1,0,0:0:0:0:
30,260,30760,1,0,0:0:0:0:
31,142,30910,1,0,0:0:0:0:
148,134,31060,6,0,B|285:62|281:65,1,134.999996423721
284,24,31360,1,0,0:0:0:0:
332,123,31510,1,0,0:0:0:0:
419,271,31660,2,0,L|323:310,1,59.9999984105428
322,246,31910,1,0,0:0:0:0:
289,184,32276,6,0,L|161:292,1,119.999996821086
157,227,32510,1,0,0:0:0:0:
121,178,32660,1,0,0:0:0:0:
47,187,32860,1,0,0:0:0:0:
80,124,33160,1,0,0:0:0:0:
66,54,33460,6,0,L|211:52,1,134.999996423721
248,55,33710,1,0,0:0:0:0:
362,52,33860,1,0,0:0:0:0:
387,138,34010,1,0,0:0:0:0:
416,224,34160,1,0,0:0:0:0:
320,224,34410,1,0,0:0:0:0:
216,120,34610,6,0,L|76:209,1,134.999996423721
188,293,34960,1,0,0:0:0:0:
237,220,35160,1,0,0:0:0:0:
304,205,35310,1,0,0:0:0:0:
376,195,35460,1,0,0:0:0:0:
366,322,35743,1,0,0:0:0:0:
256,118,35910,6,0,L|134:186,1,134.999996423721
237,244,36210,1,0,0:0:0:0:
320,224,36360,1,0,0:0:0:0:
386,182,36510,1,0,0:0:0:0:
320,160,36660,1,0,0:0:0:0:
384,128,36810,1,0,0:0:0:0:
384,64,36960,1,0,0:0:0:0:
454,63,37060,6,0,L|483:194,1,134.999996423721
389,242,37410,1,0,0:0:0:0:
249,257,37560,1,0,0:0:0:0:
173,216,37710,1,0,0:0:0:0:
187,139,37860,1,0,0:0:0:0:
81,203,38010,1,0,0:0:0:0:
126,294,38160,1,0,0:0:0:0:
226,293,38260,6,0,L|379:297,1,134.999996423721
381,221,38610,1,0,0:0:0:0:
445,165,38760,1,0,0:0:0:0:
384,128,38910,1,0,0:0:0:0:
352,64,39060,1,0,0:0:0:0:
267,43,39210,1,0,0:0:0:0:
153,104,39360,1,0,0:0:0:0:
67,204,39560,1,0,0:0:0:0:
119,289,39710,1,0,0:0:0:0:
168,195,39860,1,0,0:0:0:0:
224,278,40010,1,0,0:0:0:0:
276,188,40160,1,0,0:0:0:0:
301,270,40260,2,0,L|433:236,2,135.000001573563
429,167,40710,6,0,L|277:99,1,134.999996423721
214,86,41010,1,0,0:0:0:0:
108,113,41160,1,0,0:0:0:0:
75,155,41210,1,0,0:0:0:0:
39,252,41410,2,0,L|268:303,1,224.999994039536
233,225,41760,1,0,0:0:0:0:
222,152,41910,6,0,L|361:117,1,134.999996423721
337,37,42210,1,0,0:0:0:0:
187,73,42610,1,0,0:0:0:0:
121,195,42910,1,0,0:0:0:0:
214,293,43060,6,0,L|396:196,1,179.999995231629
298,120,43410,1,0,0:0:0:0:
169,125,43660,1,0,0:0:0:0:
150,255,44010,1,0,0:0:0:0:
231,292,44110,1,0,0:0:0:0:
197,173,44260,1,0,0:0:0:0:
334,267,44410,1,0,0:0:0:0:
334,175,44560,1,0,0:0:0:0:
441,226,44660,1,0,0:0:0:0:
425,105,44943,2,0,P|297:122|164:66,1,239.999993642171
194,86,45310,2,0,P|262:113|318:122,1,119.999996821086
321,191,45510,6,0,L|162:246,1,119.999996821086
151,187,45760,1,0,0:0:0:0:
125,316,46060,1,0,0:0:0:0:
14,246,46210,1,0,0:0:0:0:
28,156,46560,1,0,0:0:0:0:
138,135,46660,1,0,0:0:0:0:
220,159,46810,1,0,0:0:0:0:
244,70,46960,1,0,0:0:0:0:
350,186,47143,1,0,0:0:0:0:
266,302,47410,1,0,0:0:0:0:
180,260,47660,5,0,0:0:0:0:
127,192,47810,2,0,L|276:120,1,134.999996423721
363,234,48110,1,0,0:0:0:0:
377,148,48260,1,0,0:0:0:0:
345,52,48410,1,0,0:0:0:0:
178,40,48610,1,0,0:0:0:0:
255,140,48860,1,0,0:0:0:0:
342,228,49060,1,0,0:0:0:0:
243,280,49210,1,0,0:0:0:0:
182,273,49360,1,0,0:0:0:0:
140,207,49560,1,0,0:0:0:0:
255,192,49810,1,0,0:0:0:0:
116,212,50160,6,0,P|225:279|291:264,1,179.999995231629
494,374,50460,2,0,B|421:81|283:12|1:32,1,674.999982118607
28,111,51310,1,0,0:0:0:0:
88,155,51460,2,0,P|215:167|491:374,1,449.999988079071
317,336,52210,1,0,0:0:0:0:
218,263,52410,1,0,0:0:0:0:
342,231,52560,1,0,0:0:0:0:
454,164,52710,1,0,0:0:0:0:
474,54,52860,6,0,B|78:52|51:127|19:358,1,629.9999833107
20,349,53710,1,0,0:0:0:0:
21,348,53860,2,0,B|471:349|471:349|470:137,1,629.9999833107
384,139,54760,1,0,0:0:0:0:
190,172,54910,1,0,0:0:0:0:
318,233,55110,1,0,0:0:0:0:
365,211,55310,1,0,0:0:0:0:
402,128,55410,1,0,0:0:0:0:
295,104,55560,1,0,0:0:0:0:
214,186,55660,1,0,0:0:0:0:
154,90,55910,1,0,0:0:0:0:
88,167,56060,1,0,0:0:0:0:
118,293,56210,1,0,0:0:0:0:
226,303,56410,1,0,0:0:0:0:
329,259,56560,1,0,0:0:0:0:
269,179,56760,1,0,0:0:0:0:
409,135,56910,1,0,0:0:0:0:
369,62,57060,1,0,0:0:0:0:
263,94,57160,1,0,0:0:0:0:
191,39,57310,1,0,0:0:0:0:
133,120,57460,1,0,0:0:0:0:
131,210,57610,1,0,0:0:0:0:
201,264,57710,1,0,0:0:0:0:
113,340,57860,1,0,0:0:0:0:
235,350,58010,1,0,0:0:0:0:
310,279,58160,1,0,0:0:0:0:
353,364,58310,1,0,0:0:0:0:
427,286,58460,1,0,0:0:0:0:
430,181,58610,1,0,0:0:0:0:
361,131,58760,1,0,0:0:0:0:
312,213,58910,1,0,0:0:0:0:
250,130,59060,1,0,0:0:0:0:
229,235,59260,2,0,B|82:218|31:93|68:14,1,314.99999165535
158,37,59760,6,0,L|333:50,1,134.999996423721
434,34,60060,2,0,B|436:350|435:350|433:350|433:350|69:347,1,674.999982118607
74,347,60910,1,0,0:0:0:0:
76,252,61060,2,0,B|380:252|380:252|380:30,1,494.999986886978
296,85,61860,1,0,0:0:0:0:
261,175,61960,1,0,0:0:0:0:
200,83,62110,1,0,0:0:0:0:
154,161,62260,1,0,0:0:0:0:
91,45,62410,6,0,B|91:307|91:307|506:308,1,674.999982118607
504,251,63310,2,0,B|504:19|504:19|58:18,1,674.999982118607
133,107,64510,1,0,0:0:0:0:
213,203,64660,1,0,0:0:0:0:
300,100,64860,1,0,0:0:0:0:
426,112,65010,1,0,0:0:0:0:
377,204,65160,1,0,0:0:0:0:
384,288,65260,1,0,0:0:0:0:
278,291,65360,1,0,0:0:0:0:
264,230,65510,1,0,0:0:0:0:
200,264,65660,1,0,0:0:0:0:
169,175,65810,1,0,0:0:0:0:
82,152,65910,1,0,0:0:0:0:
209,86,66010,1,0,0:0:0:0:
311,110,66160,1,0,0:0:0:0:
340,215,66310,1,0,0:0:0:0:
274,312,66460,1,0,0:0:0:0:
237,248,66610,1,0,0:0:0:0:
168,294,66760,1,0,0:0:0:0:
134,221,66910,1,0,0:0:0:0:
73,286,67060,1,0,0:0:0:0:
40,148,67210,1,0,0:0:0:0:
112,66,67360,1,0,0:0:0:0:
167,141,67510,1,0,0:0:0:0:
237,67,67660,1,0,0:0:0:0:
283,148,67810,1,0,0:0:0:0:
217,242,67960,1,0,0:0:0:0:
339,210,68110,1,0,0:0:0:0:
348,114,68410,1,0,0:0:0:0:
116,90,69610,5,0,0:0:0:0:
255,201,70060,1,0,0:0:0:0:
384,319,70510,1,0,0:0:0:0:
439,130,70810,1,0,0:0:0:0:
276,59,71260,1,0,0:0:0:0:
106,142,71710,1,0,0:0:0:0:
332,201,72010,1,0,0:0:0:0:
174,287,72460,1,0,0:0:0:0:
128,128,73210,1,0,0:0:0:0:
384,128,73660,1,0,0:0:0:0:
320,288,74410,1,0,0:0:0:0:
256,192,74860,1,0,0:0:0:0:
192,64,75310,1,0,0:0:0:0:
352,64,75610,1,0,0:0:0:0:
352,256,76060,1,0,0:0:0:0:
192,192,76510,1,0,0:0:0:0:
320,96,77110,1,0,0:0:0:0:
352,256,77710,1,0,0:0:0:0:
192,128,79110,6,0,P|288:64|448:64,1,269.999992847443
352,128,79710,1,0,0:0:0:0:
352,192,79860,1,0,0:0:0:0:
224,256,80310,1,0,0:0:0:0:
160,192,80460,1,0,0:0:0:0:
256,96,80910,1,0,0:0:0:0:
352,96,81060,1,0,0:0:0:0:
256,256,81510,1,0,0:0:0:0:
192,192,81660,1,0,0:0:0:0:
192,96,82110,1,0,0:0:0:0:
256,64,82260,1,0,0:0:0:0:
320,192,82710,1,0,0:0:0:0:
256,224,82860,1,0,0:0:0:0:
160,224,83010,1,0,0:0:0:0:
64,224,83260,1,0,0:0:0:0:
64,128,83460,2,0,L|448:128,1,359.999990463257
416,320,84060,5,0,0:0:0:0:
320,320,84260,1,0,0:0:0:0:
256,256,84460,1,0,0:0:0:0:
192,256,84610,2,0,L|32:256,1,134.999996423721
160,192,85060,1,0,0:0:0:0:
64,192,85260,1,0,0:0:0:0:
64,96,85410,1,0,0:0:0:0:
160,96,85510,1,0,0:0:0:0:
160,96,85560,2,0,L|352:96,1,179.999995231629
352,96,85860,1,0,0:0:0:0:
416,160,86310,1,0,0:0:0:0:
384,192,86460,1,0,0:0:0:0:
352,224,86610,1,0,0:0:0:0:
320,256,86760,1,0,0:0:0:0:
288,192,86910,1,0,0:0:0:0:
256,224,87060,1,0,0:0:0:0:
224,256,87210,1,0,0:0:0:0:
192,288,87360,1,0,0:0:0:0:
192,192,87510,1,0,0:0:0:0:
160,224,87660,1,0,0:0:0:0:
128,256,87810,1,0,0:0:0:0:
96,288,87960,1,0,0:0:0:0:
64,320,88110,1,0,0:0:0:0:
32,256,88210,2,0,L|192:96,1,224.999994039536
352,64,88710,5,0,0:0:0:0:
416,128,88860,1,0,0:0:0:0:
448,192,89110,2,0,P|320:288|192:256,1,269.999992847443
256,192,89560,1,0,0:0:0:0:
320,128,89710,1,0,0:0:0:0:
256,96,89860,1,0,0:0:0:0:
192,160,90010,1,0,0:0:0:0:
128,224,90160,1,0,0:0:0:0:
64,288,90310,1,0,0:0:0:0:
32,224,90460,1,0,0:0:0:0:
160,96,90760,5,0,0:0:0:0:
256,96,90910,1,0,0:0:0:0:
352,96,91060,1,0,0:0:0:0:
448,96,91210,1,0,0:0:0:0:
448,160,91360,1,0,0:0:0:0:
352,160,91510,1,0,0:0:0:0:
256,160,91660,1,0,0:0:0:0:
160,160,91810,1,0,0:0:0:0:
192,256,92110,1,0,0:0:0:0:
256,224,92210,1,0,0:0:0:0:
352,224,92410,1,0,0:0:0:0:
320,320,92710,1,0,0:0:0:0:
192,320,92910,1,0,0:0:0:0:
96,224,93210,5,0,0:0:0:0:
128,160,93310,1,0,0:0:0:0:
256,128,93460,1,0,0:0:0:0:
288,256,93610,1,0,0:0:0:0:
384,224,93760,1,0,0:0:0:0:
448,160,94060,1,0,0:0:0:0:
384,96,94260,1,0,0:0:0:0:
288,160,94510,1,0,0:0:0:0:
288,64,94660,1,0,0:0:0:0:
192,128,94860,1,0,0:0:0:0:
96,128,95110,1,0,0:0:0:0:
96,224,95310,1,0,0:0:0:0:
288,256,95710,5,0,0:0:0:0:
352,192,95860,1,0,0:0:0:0:
352,128,96010,2,0,P|288:128|256:160,1,89.9999976158143
160,192,96310,1,0,0:0:0:0:
96,128,96460,2,0,B|192:64|256:64|416:64,1,314.99999165535
448,96,96960,1,0,0:0:0:0:
352,192,97110,1,0,0:0:0:0:
288,160,97260,1,0,0:0:0:0:
224,192,97360,2,0,L|32:192,1,179.999995231629
64,128,97710,1,0,0:0:0:0:
96,64,98010,2,0,L|320:160,1,224.999994039536
352,192,98310,5,0,0:0:0:0:
352,288,98460,1,0,0:0:0:0:
192,256,98810,1,0,0:0:0:0:
96,160,99110,1,0,0:0:0:0:
256,128,99360,1,0,0:0:0:0:
352,224,99560,1,0,0:0:0:0:
288,256,99660,1,0,0:0:0:0:
224,192,99760,1,0,0:0:0:0:
160,96,99910,1,0,0:0:0:0:
96,192,100060,1,0,0:0:0:0:
