osu file format v14

[General]
AudioFilename: audio (2).mp3
AudioLeadIn: 0
PreviewTime: 180148
Countdown: 0
SampleSet: Normal
StackLeniency: 0.7
Mode: 1
LetterboxInBreaks: 0
WidescreenStoryboard: 0

[Editor]
DistanceSpacing: 0.9
BeatDivisor: 4
GridSize: 32
TimelineZoom: 0.7999998

[Metadata]
Title:Kamisama ni Natta Hi
TitleUnicode:神様になった日
Artist:REOL
ArtistUnicode:RΞOL
Creator:salchow
Version:Futsuu
Source:
Tags:J-pop Volta Sigma Giga-P れをる
BeatmapID:1411934
BeatmapSetID:667261

[Difficulty]
HPDrainRate:7
CircleSize:2
OverallDifficulty:4
ApproachRate:5
SliderMultiplier:1.4
SliderTickRate:1

[Events]
//Background and Video events
0,0,"61519552_p0.png",0,0
//Break Periods
//Storyboard Layer 0 (Background)
//Storyboard Layer 1 (Fail)
//Storyboard Layer 2 (Pass)
//Storyboard Layer 3 (Foreground)
//Storyboard Sound Samples

[TimingPoints]
767,618.556701030928,4,1,0,60,1,0
10663,-100,4,1,0,50,0,0
20560,-100,4,1,0,60,0,0
60148,-100,4,1,0,80,0,1
79942,-100,4,1,0,60,0,0
119529,-100,4,1,0,80,0,1
139323,-100,4,1,0,40,0,0
159736,-100,4,1,0,60,0,0
178911,618.556701030928,6,1,0,80,1,8
180148,618.556701030928,4,1,0,90,1,11045
199323,-100,4,1,0,90,0,11044
199941,-100,4,1,0,90,0,11045
219735,-100,4,1,0,50,0,0

[Colours]
Combo1 : 0,64,128
Combo2 : 128,0,64

[HitObjects]
256,188,767,5,8,0:0:0:0:
256,188,1385,1,8,0:0:0:0:
256,188,2004,1,0,0:0:0:0:
256,188,3241,1,0,0:0:0:0:
256,188,3550,1,8,0:0:0:0:
256,188,3859,1,8,0:0:0:0:
256,188,4478,1,0,0:0:0:0:
256,192,5715,1,0,0:0:0:0:
256,192,6334,1,8,0:0:0:0:
256,192,6952,1,0,0:0:0:0:
256,192,8189,1,0,0:0:0:0:
256,192,8499,1,0,0:0:0:0:
256,192,8808,1,8,0:0:0:0:
256,192,9426,1,0,0:0:0:0:
256,192,10045,1,8,0:0:0:0:
256,192,11282,1,8,0:0:0:0:
256,192,11901,1,0,0:0:0:0:
256,192,12519,1,8,0:0:0:0:
256,192,12828,1,0,0:0:0:0:
256,192,13138,1,0,0:0:0:0:
256,192,13756,1,8,0:0:0:0:
256,192,14375,1,0,0:0:0:0:
256,192,14993,1,8,0:0:0:0:
256,192,15612,1,0,0:0:0:0:
256,192,15921,1,0,0:0:0:0:
256,192,16230,1,8,0:0:0:0:
256,192,16849,1,0,0:0:0:0:
256,192,17468,1,8,0:0:0:0:
256,192,18086,1,0,0:0:0:0:
256,192,18396,1,0,0:0:0:0:
256,192,18705,1,8,0:0:0:0:
256,192,19323,1,0,0:0:0:0:
256,192,20560,1,12,0:0:0:0:
256,192,21179,1,8,0:0:0:0:
256,192,21488,1,8,0:0:0:0:
256,192,21797,1,0,0:0:0:0:
256,192,22416,1,8,0:0:0:0:
256,192,23035,1,0,0:0:0:0:
256,192,23653,1,8,0:0:0:0:
256,192,23962,1,0,0:0:0:0:
256,192,24272,1,8,0:0:0:0:
256,192,25509,1,8,0:0:0:0:
256,192,26128,1,0,0:0:0:0:
256,192,26746,1,0,0:0:0:0:
256,192,27055,1,8,0:0:0:0:
256,192,27364,1,8,0:0:0:0:
256,192,27983,1,0,0:0:0:0:
256,192,28602,1,8,0:0:0:0:
256,192,29220,1,0,0:0:0:0:
249,196,30457,1,0,0:0:0:0:
256,192,31076,1,8,0:0:0:0:
256,192,31694,1,0,0:0:0:0:
256,192,32004,1,0,0:0:0:0:
256,192,32313,1,8,0:0:0:0:
256,192,32932,1,0,0:0:0:0:
256,192,33550,1,8,0:0:0:0:
256,192,34169,1,0,0:0:0:0:
256,192,34478,1,8,0:0:0:0:
256,192,34787,1,8,0:0:0:0:
256,192,35406,1,0,0:0:0:0:
256,192,36643,1,0,0:0:0:0:
256,192,37261,1,8,0:0:0:0:
256,192,37571,1,0,0:0:0:0:
256,192,37880,1,0,0:0:0:0:
256,192,38498,1,8,0:0:0:0:
256,192,39117,1,0,0:0:0:0:
256,192,40354,1,8,0:0:0:0:
248,190,40973,1,0,0:0:0:0:
256,192,41592,1,8,0:0:0:0:
256,192,41901,1,0,0:0:0:0:
256,192,42210,1,8,0:0:0:0:
256,192,42829,1,0,0:0:0:0:
256,192,43447,1,8,0:0:0:0:
256,192,43756,1,0,0:0:0:0:
256,192,44066,1,0,0:0:0:0:
256,192,44684,1,8,0:0:0:0:
256,192,45303,1,0,0:0:0:0:
256,192,45922,1,8,0:0:0:0:
256,192,46231,1,8,0:0:0:0:
256,192,47159,1,8,0:0:0:0:
256,192,47468,1,8,0:0:0:0:
256,192,48396,1,8,0:0:0:0:
256,192,49014,1,0,0:0:0:0:
256,192,49323,1,8,0:0:0:0:
256,192,49632,1,8,0:0:0:0:
256,192,50251,1,0,0:0:0:0:
256,192,51488,1,8,0:0:0:0:
256,192,51797,1,0,0:0:0:0:
256,192,52107,1,8,0:0:0:0:
256,192,52726,1,0,0:0:0:0:
256,192,53344,1,8,0:0:0:0:
256,192,53962,1,0,0:0:0:0:
256,192,54272,1,8,0:0:0:0:
256,192,54581,1,8,0:0:0:0:
256,192,55199,1,0,0:0:0:0:
256,192,55818,1,8,0:0:0:0:
256,192,56127,1,0,0:0:0:0:
256,192,56437,1,8,0:0:0:0:
256,192,57056,1,0,0:0:0:0:
256,192,57365,1,0,0:0:0:0:
256,192,58293,1,0,0:0:0:0:
256,192,58911,1,8,0:0:0:0:
256,192,60148,1,4,0:0:0:0:
256,192,60457,1,0,0:0:0:0:
256,192,60767,1,8,0:0:0:0:
256,192,61386,1,0,0:0:0:0:
256,192,62004,1,8,0:0:0:0:
256,192,62622,1,8,0:0:0:0:
256,192,62932,1,0,0:0:0:0:
256,192,63241,1,8,0:0:0:0:
256,192,63550,1,8,0:0:0:0:
256,192,63860,1,0,0:0:0:0:
256,192,64478,1,0,0:0:0:0:
256,192,64788,1,0,0:0:0:0:
256,192,65096,1,8,0:0:0:0:
256,192,65715,1,0,0:0:0:0:
256,192,66334,1,8,0:0:0:0:
256,192,66953,1,0,0:0:0:0:
256,192,67262,1,0,0:0:0:0:
256,192,67571,1,8,0:0:0:0:
256,192,68189,1,0,0:0:0:0:
256,192,68808,1,8,0:0:0:0:
256,192,69427,1,0,0:0:0:0:
256,192,69736,1,8,0:0:0:0:
256,192,70045,1,0,0:0:0:0:
256,192,70663,1,8,0:0:0:0:
256,192,71282,1,8,0:0:0:0:
256,192,71592,1,0,0:0:0:0:
256,192,71901,1,8,0:0:0:0:
256,192,72520,1,0,0:0:0:0:
256,192,73138,1,8,0:0:0:0:
256,192,73447,1,0,0:0:0:0:
256,192,73757,1,8,0:0:0:0:
256,192,74065,1,8,0:0:0:0:
256,192,74375,1,0,0:0:0:0:
256,192,74994,1,8,0:0:0:0:
246,190,75612,1,0,0:0:0:0:
256,192,76231,1,8,0:0:0:0:
256,192,77468,1,0,0:0:0:0:
256,192,77777,1,8,0:0:0:0:
256,192,78086,1,0,0:0:0:0:
256,192,78705,1,8,0:0:0:0:
256,192,79942,1,0,0:0:0:0:
256,192,80560,1,8,0:0:0:0:
256,192,81179,1,8,0:0:0:0:
256,192,81489,1,0,0:0:0:0:
256,192,81797,1,8,0:0:0:0:
256,192,82416,1,0,0:0:0:0:
256,192,83035,1,8,0:0:0:0:
256,192,83654,1,0,0:0:0:0:
256,192,84891,1,0,0:0:0:0:
256,192,85200,1,8,0:0:0:0:
256,192,85509,1,0,0:0:0:0:
256,192,86128,1,0,0:0:0:0:
256,192,86746,1,8,0:0:0:0:
256,192,87365,1,0,0:0:0:0:
256,192,87983,1,0,0:0:0:0:
256,192,88602,1,8,0:0:0:0:
256,192,89839,1,0,0:0:0:0:
256,192,90149,1,8,0:0:0:0:
256,192,90458,1,0,0:0:0:0:
256,192,91076,1,8,0:0:0:0:
256,192,92313,1,8,0:0:0:0:
256,192,92622,1,0,0:0:0:0:
256,192,92931,1,8,0:0:0:0:
256,192,93550,1,0,0:0:0:0:
256,192,94788,1,0,0:0:0:0:
256,192,95406,1,8,0:0:0:0:
256,192,96025,1,0,0:0:0:0:
256,192,96644,1,8,0:0:0:0:
256,192,96952,1,0,0:0:0:0:
256,192,97261,1,8,0:0:0:0:
256,192,97881,1,0,0:0:0:0:
256,192,98498,1,8,0:0:0:0:
256,192,99736,1,8,0:0:0:0:
256,192,100046,1,8,0:0:0:0:
256,192,100354,1,0,0:0:0:0:
256,192,100973,1,0,0:0:0:0:
256,192,101591,1,8,0:0:0:0:
256,192,102211,1,8,0:0:0:0:
256,192,102520,1,0,0:0:0:0:
256,192,102829,1,8,0:0:0:0:
256,192,103448,1,0,0:0:0:0:
256,192,104066,1,8,0:0:0:0:
256,192,104684,1,0,0:0:0:0:
256,192,104994,1,8,0:0:0:0:
256,192,105303,1,0,0:0:0:0:
256,192,105922,1,8,0:0:0:0:
256,192,107159,1,0,0:0:0:0:
256,192,107468,1,0,0:0:0:0:
256,192,107778,1,8,0:0:0:0:
256,192,108396,1,8,0:0:0:0:
256,192,109633,1,8,0:0:0:0:
256,192,109943,1,8,0:0:0:0:
256,192,110252,1,0,0:0:0:0:
256,192,110870,1,0,0:0:0:0:
256,192,111488,1,8,0:0:0:0:
256,192,112108,1,8,0:0:0:0:
256,192,112417,1,0,0:0:0:0:
256,192,112726,1,8,0:0:0:0:
256,192,113345,1,0,0:0:0:0:
256,192,114582,1,8,0:0:0:0:
256,192,114890,1,8,0:0:0:0:
256,192,115200,1,0,0:0:0:0:
256,192,115819,1,0,0:0:0:0:
256,192,116437,1,8,0:0:0:0:
256,192,117056,1,0,0:0:0:0:
256,192,117674,1,0,0:0:0:0:
256,192,118292,1,8,0:0:0:0:
256,192,119529,1,4,0:0:0:0:
256,192,119838,1,0,0:0:0:0:
256,192,120148,1,8,0:0:0:0:
256,192,120767,1,8,0:0:0:0:
256,192,121385,1,0,0:0:0:0:
256,192,122003,1,8,0:0:0:0:
256,192,122313,1,0,0:0:0:0:
256,192,122622,1,8,0:0:0:0:
256,192,122931,1,8,0:0:0:0:
256,192,123241,1,0,0:0:0:0:
256,192,123859,1,0,0:0:0:0:
256,192,124169,1,0,0:0:0:0:
256,192,124477,1,8,0:0:0:0:
256,192,125096,1,8,0:0:0:0:
256,192,125715,1,0,0:0:0:0:
256,192,126334,1,0,0:0:0:0:
256,192,126643,1,0,0:0:0:0:
256,192,126952,1,8,0:0:0:0:
256,192,127570,1,8,0:0:0:0:
256,192,128189,1,0,0:0:0:0:
256,192,128808,1,0,0:0:0:0:
256,192,129117,1,8,0:0:0:0:
256,192,129426,1,0,0:0:0:0:
256,192,130044,1,8,0:0:0:0:
256,192,130663,1,8,0:0:0:0:
256,192,130973,1,0,0:0:0:0:
256,192,131282,1,8,0:0:0:0:
256,192,131901,1,0,0:0:0:0:
256,192,132519,1,8,0:0:0:0:
256,192,132828,1,0,0:0:0:0:
256,192,133138,1,8,0:0:0:0:
256,192,133447,1,8,0:0:0:0:
256,192,133756,1,0,0:0:0:0:
256,192,134375,1,8,0:0:0:0:
256,192,134993,1,0,0:0:0:0:
256,192,135612,1,8,0:0:0:0:
256,192,136849,1,0,0:0:0:0:
256,192,137158,1,8,0:0:0:0:
256,192,137467,1,0,0:0:0:0:
256,192,138086,1,8,0:0:0:0:
256,192,139942,1,12,0:0:0:0:
256,192,140561,5,0,0:0:0:0:
256,192,141797,1,0,0:0:0:0:
256,192,143036,1,0,0:0:0:0:
256,192,143653,1,8,0:0:0:0:
256,192,144273,1,0,0:0:0:0:
256,192,145510,1,0,0:0:0:0:
256,192,146747,1,0,0:0:0:0:
256,192,147364,1,8,0:0:0:0:
256,192,147984,1,0,0:0:0:0:
256,192,149220,1,0,0:0:0:0:
256,192,150458,1,0,0:0:0:0:
256,192,151076,1,8,0:0:0:0:
256,192,151694,1,0,0:0:0:0:
256,192,152931,1,0,0:0:0:0:
256,192,154170,1,0,0:0:0:0:
256,192,154787,1,8,0:0:0:0:
256,192,155407,1,0,0:0:0:0:
256,192,156644,1,0,0:0:0:0:
256,192,157881,1,0,0:0:0:0:
256,192,158498,1,8,0:0:0:0:
256,192,159118,1,0,0:0:0:0:
256,192,159426,1,0,0:0:0:0:
256,192,159736,1,12,0:0:0:0:
256,192,160355,1,0,0:0:0:0:
256,192,160973,1,8,0:0:0:0:
256,192,161591,1,8,0:0:0:0:
256,192,161902,1,0,0:0:0:0:
256,192,162210,1,8,0:0:0:0:
256,192,162828,1,0,0:0:0:0:
256,192,164065,1,0,0:0:0:0:
256,192,164376,1,0,0:0:0:0:
256,192,164684,1,8,0:0:0:0:
256,192,165304,1,0,0:0:0:0:
256,192,165922,1,8,0:0:0:0:
256,192,166541,1,0,0:0:0:0:
256,192,167158,1,0,0:0:0:0:
256,192,167778,1,8,0:0:0:0:
256,192,169015,1,0,0:0:0:0:
256,192,169323,1,0,0:0:0:0:
256,192,169632,1,8,0:0:0:0:
256,192,170252,1,0,0:0:0:0:
256,192,170870,1,8,0:0:0:0:
256,192,171488,1,8,0:0:0:0:
256,192,171797,1,0,0:0:0:0:
256,192,172107,1,8,0:0:0:0:
256,192,172725,1,0,0:0:0:0:
256,192,173962,1,8,0:0:0:0:
256,192,174582,1,8,0:0:0:0:
256,192,175199,1,0,0:0:0:0:
256,192,176438,1,0,0:0:0:0:
256,192,177675,5,0,0:0:0:0:
256,192,180148,1,4,0:0:0:0:
256,192,180457,1,0,0:0:0:0:
256,192,180767,1,8,0:0:0:0:
256,192,181385,1,8,0:0:0:0:
256,192,182004,1,0,0:0:0:0:
256,192,182622,1,8,0:0:0:0:
256,192,182932,1,0,0:0:0:0:
256,192,183241,1,8,0:0:0:0:
256,192,183550,1,8,0:0:0:0:
256,192,183860,1,0,0:0:0:0:
256,192,184478,1,0,0:0:0:0:
256,192,184788,1,0,0:0:0:0:
256,192,185096,1,8,0:0:0:0:
256,192,185715,1,8,0:0:0:0:
256,192,186334,1,0,0:0:0:0:
256,192,186953,1,0,0:0:0:0:
256,192,187262,1,0,0:0:0:0:
256,192,187571,1,8,0:0:0:0:
263,184,188189,1,8,0:0:0:0:
256,192,188808,1,0,0:0:0:0:
256,192,189427,1,0,0:0:0:0:
256,192,189736,1,8,0:0:0:0:
256,192,190045,1,0,0:0:0:0:
256,192,190663,1,8,0:0:0:0:
256,192,191282,1,8,0:0:0:0:
256,192,191592,1,0,0:0:0:0:
256,192,191901,1,8,0:0:0:0:
256,192,192519,1,0,0:0:0:0:
256,192,193138,1,8,0:0:0:0:
256,192,193447,1,0,0:0:0:0:
256,192,193757,1,8,0:0:0:0:
256,192,194065,1,8,0:0:0:0:
256,192,194374,1,0,0:0:0:0:
256,192,194994,1,8,0:0:0:0:
256,192,195611,1,0,0:0:0:0:
256,192,196231,1,8,0:0:0:0:
256,192,197468,1,0,0:0:0:0:
256,192,197776,1,8,0:0:0:0:
256,192,198086,1,0,0:0:0:0:
256,192,198705,1,8,0:0:0:0:
256,192,199942,5,4,0:0:0:0:
256,192,200251,1,0,0:0:0:0:
256,192,200560,1,8,0:0:0:0:
256,192,201178,1,0,0:0:0:0:
256,192,201797,1,8,0:0:0:0:
256,192,202416,1,8,0:0:0:0:
256,192,202725,1,0,0:0:0:0:
256,192,203034,1,8,0:0:0:0:
256,192,203343,1,8,0:0:0:0:
256,192,203653,1,0,0:0:0:0:
256,192,204271,1,0,0:0:0:0:
256,192,204890,1,0,0:0:0:0:
256,192,205199,1,0,0:0:0:0:
256,192,205508,1,8,0:0:0:0:
256,192,206127,1,8,0:0:0:0:
256,192,206745,1,0,0:0:0:0:
256,192,207364,1,0,0:0:0:0:
256,192,207673,1,0,0:0:0:0:
256,192,207983,1,8,0:0:0:0:
256,192,208601,1,8,0:0:0:0:
256,192,209220,1,0,0:0:0:0:
256,192,209529,1,8,0:0:0:0:
256,192,209838,1,0,0:0:0:0:
256,192,210457,1,8,0:0:0:0:
256,192,211075,1,8,0:0:0:0:
256,192,211385,1,0,0:0:0:0:
256,192,211694,1,8,0:0:0:0:
256,192,212312,1,8,0:0:0:0:
256,192,212622,1,0,0:0:0:0:
256,192,212931,1,8,0:0:0:0:
256,192,213240,1,8,0:0:0:0:
256,192,213550,1,0,0:0:0:0:
256,192,214168,1,0,0:0:0:0:
256,192,214787,1,8,0:0:0:0:
256,192,215096,1,0,0:0:0:0:
256,192,216024,1,8,0:0:0:0:
256,192,216333,1,0,0:0:0:0:
256,192,217261,1,0,0:0:0:0:
256,192,217879,1,8,0:0:0:0:
256,192,218498,1,0,0:0:0:0:
256,192,219117,1,8,0:0:0:0:
256,192,219426,1,8,0:0:0:0:
256,192,219735,1,4,0:0:0:0:
256,192,220972,1,0,0:0:0:0:
256,192,221591,1,8,0:0:0:0:
256,192,222209,1,0,0:0:0:0:
256,192,223446,1,8,0:0:0:0:
256,192,224684,1,0,0:0:0:0:
256,192,225302,1,0,0:0:0:0:
256,192,225921,1,8,0:0:0:0:
256,192,226539,1,8,0:0:0:0:
256,192,227158,1,0,0:0:0:0:
256,192,228395,1,0,0:0:0:0:
256,192,229013,1,8,0:0:0:0:
256,192,229632,1,0,0:0:0:0:
256,192,230869,1,8,0:0:0:0:
256,192,232106,1,8,0:0:0:0:
256,192,232725,1,0,0:0:0:0:
256,192,233343,1,8,0:0:0:0:
256,192,234580,1,8,0:0:0:0:
256,192,235199,1,8,0:0:0:0:
256,192,235818,1,0,0:0:0:0:
256,192,236436,1,0,0:0:0:0:
256,192,237055,1,8,0:0:0:0:
256,192,238292,1,0,0:0:0:0:
256,192,239529,1,0,0:0:0:0:
256,192,239838,1,0,0:0:0:0:
256,192,240148,1,8,0:0:0:0:
256,192,240766,1,0,0:0:0:0:
