osu file format v14

[General]
AudioFilename: audio.mp3
AudioLeadIn: 0
PreviewTime: 113549
Countdown: 0
SampleSet: Soft
StackLeniency: 0.7
Mode: 0
LetterboxInBreaks: 0
WidescreenStoryboard: 0

[Editor]
Bookmarks: 51674,61049,115424,122924,130424,137924,171674,179174,186674,194174
DistanceSpacing: 1.1
BeatDivisor: 8
GridSize: 4
TimelineZoom: 2.499999

[Metadata]
Title:Give me a break Stop now
TitleUnicode:ギミアブレスタッナウ
Artist:REOL
ArtistUnicode:れをる
Creator:SnowNiNo_
Version:Ren's Hard
Source:
Tags:Σ sigma ギガ giga お菊 okiku toshitaka shinoda amana ijigen anxient akitoshi derandom otaku ren _DT3 turtle kisses
BeatmapID:1061224
BeatmapSetID:497482

[Difficulty]
HPDrainRate:5
CircleSize:3.8
OverallDifficulty:6
ApproachRate:7
SliderMultiplier:1.59999990463257
SliderTickRate:1

[Events]
//Background and Video events
0,0,"bg.jpg",0,0
//Break Periods
2,38749,45149
2,100624,107024
2,145624,146867
2,164374,169133
//Storyboard Layer 0 (Background)
//Storyboard Layer 1 (Fail)
//Storyboard Layer 2 (Pass)
//Storyboard Layer 3 (Foreground)
//Storyboard Sound Samples

[TimingPoints]
1049,468.75,4,2,2,40,1,0
7845,-100,4,1,0,60,0,0
8549,-100,4,2,1,60,0,0
38549,-100,4,2,20,60,0,0
38607,-100,4,2,1,40,0,0
46049,-117.647058823529,4,2,1,60,0,0
53549,-83.3333333333333,4,2,3,80,0,1
54955,-100,4,2,3,80,0,1
55424,-83.3333333333333,4,2,3,80,0,1
56830,-100,4,2,3,80,0,1
57299,-83.3333333333333,4,2,3,80,0,1
58705,-100,4,2,3,80,0,1
59174,-83.3333333333333,4,2,3,80,0,1
62455,-100,4,2,3,80,0,1
62924,-83.3333333333333,4,2,3,80,0,1
64330,-100,4,2,3,80,0,1
64799,-83.3333333333333,4,2,3,80,0,1
66205,-100,4,2,3,80,0,1
66674,-83.3333333333333,4,2,3,80,0,1
68549,-125,4,2,0,80,0,0
70424,-111.111111111111,4,2,2,60,0,0
77924,-100,4,2,2,60,0,0
78392,-125,4,2,2,60,0,0
78861,-100,4,2,2,60,0,0
79330,-125,4,2,2,60,0,0
79799,-100,4,2,2,60,0,0
80267,-125,4,2,2,60,0,0
80736,-100,4,2,2,60,0,0
81205,-125,4,2,2,60,0,0
81674,-100,4,2,2,60,0,0
83549,-100,4,2,1,60,0,0
84955,-71.4285714285714,4,2,1,60,0,0
85424,-100,4,2,1,60,0,0
100658,-100,4,2,1,40,0,0
107924,-117.647058823529,4,2,1,60,0,0
115424,-80,4,2,3,80,0,1
116830,-100,4,2,3,80,0,1
117299,-80,4,2,3,80,0,1
118705,-100,4,2,3,80,0,1
119174,-80,4,2,3,80,0,1
120580,-100,4,2,3,80,0,1
122924,-80,4,2,3,80,0,1
124330,-100,4,2,3,80,0,1
124799,-80,4,2,3,80,0,1
126205,-100,4,2,3,80,0,1
126674,-80,4,2,3,80,0,1
128080,-100,4,2,3,80,0,1
128549,-80,4,2,3,80,0,1
145424,-166.666666666667,4,2,1,60,0,0
147767,-125,4,2,1,60,0,0
149174,-100,4,2,1,60,0,0
170033,-133.333333333333,4,2,1,60,0,0
171205,-66.6666666666667,4,2,1,60,0,0
171674,-76.9230769230769,4,2,1,80,0,1
171908,-100,4,2,1,80,0,1
172142,-100,4,2,3,80,0,1
173549,-76.9230769230769,4,2,3,80,0,1
176830,-100,4,2,3,80,0,1
179174,-76.9230769230769,4,2,3,80,0,1
201674,-105.263157894737,4,2,1,60,0,0
216674,-76.9230769230769,4,2,1,60,0,0

[Colours]
Combo1 : 255,255,0
Combo2 : 192,192,192
Combo3 : 128,128,128
Combo4 : 242,24,57
Combo5 : 255,128,64

[HitObjects]
172,241,1049,6,0,B|225:241|225:241|237:244|237:244|294:244,1,119.999992847443,8|0,0:0|0:0,0:0:0:0:
343,244,1517,2,0,P|344:285|361:336,1,79.9999952316285,8|8,0:0|0:0,0:0:0:0:
443,268,1986,2,0,P|442:227|425:176,1,79.9999952316285,0|8,0:0|0:0,0:0:0:0:
386,95,2455,1,8,0:0:0:0:
311,167,2689,1,0,0:0:0:0:
237,93,2924,6,0,B|160:93|160:93|123:118,1,119.999992847443,8|0,0:0|0:0,0:0:0:0:
100,163,3392,2,0,B|103:205|103:205|97:245,1,79.9999952316285,8|8,0:0|0:0,0:0:0:0:
67,342,3861,2,0,L|16:342,2,39.9999976158142,0|8|8,0:0|0:0|0:0,0:0:0:0:
166,311,4330,2,0,L|252:311,1,79.9999952316285,8|0,0:0|0:0,0:0:0:0:
342,350,4799,6,0,P|342:288|363:226,1,119.999992847443,8|0,0:0|0:0,0:0:0:0:
373,183,5267,2,0,L|276:183,1,79.9999952316285,8|8,0:0|0:0,0:0:0:0:
372,103,5736,2,0,L|469:103,1,79.9999952316285,0|8,0:0|0:0,0:0:0:0:
373,183,6205,1,8,0:0:0:0:
292,102,6440,1,0,0:0:0:0:
372,23,6674,5,8,0:0:0:0:
147,109,7845,5,0,0:0:0:0:
147,109,7963,1,0,0:0:0:0:
147,109,8080,2,0,B|147:149|147:149|155:198,1,79.9999952316285,0|0,0:0|0:0,0:0:0:0:
220,268,8549,6,0,L|125:291,1,79.9999952316285,2|0,0:0|0:0,0:0:0:0:
219,355,9017,2,0,L|314:332,1,79.9999952316285,8|0,0:0|0:0,0:0:0:0:
395,301,9486,1,2,0:0:0:0:
482,357,9720,1,0,0:0:0:0:
474,252,9955,2,0,L|476:156,1,79.9999952316285,8|0,0:0|0:0,0:0:0:0:
398,102,10424,6,0,L|297:110,2,79.9999952316285,2|0|8,0:0|0:0|0:0,0:0:0:0:
322,30,11127,1,0,0:0:0:0:
322,30,11361,2,0,L|242:36,1,79.9999952316285,2|0,0:0|0:0,0:0:0:0:
139,52,11830,1,8,0:0:0:0:
212,125,12064,1,0,0:0:0:0:
138,198,12299,6,0,P|106:275|142:348,1,159.999990463257,2|8,0:0|0:0,0:0:0:0:
209,272,13002,1,0,0:0:0:0:
138,198,13236,2,0,L|37:201,1,79.9999952316285,2|0,0:0|0:0,0:0:0:0:
57,96,13705,2,0,L|158:93,1,79.9999952316285,8|0,0:0|0:0,0:0:0:0:
226,146,14174,5,2,0:0:0:0:
138,198,14408,1,0,0:0:0:0:
224,254,14642,2,0,P|266:254|311:244,1,79.9999952316285,8|0,0:0|0:0,0:0:0:0:
394,196,15111,1,2,0:0:0:0:
449,283,15345,2,0,P|458:325|457:364,2,79.9999952316285,0|8|0,0:0|0:0|0:0,0:0:0:0:
394,196,16049,6,0,B|393:156|393:156|401:110,1,79.9999952316285,2|0,0:0|0:0,0:0:0:0:
416,71,16400,1,0,0:0:0:0:
416,71,16517,2,0,L|324:72,1,79.9999952316285,8|0,0:0|0:0,0:0:0:0:
232,82,16986,2,0,B|237:122|237:122|236:132|236:132|244:174,1,79.9999952316285,2|0,0:0|0:0,0:0:0:0:
146,202,17455,2,0,B|140:173|140:173|141:163|141:163|135:122,1,79.9999952316285,8|0,0:0|0:0,0:0:0:0:
61,49,17924,5,2,0:0:0:0:
22,145,18158,1,0,0:0:0:0:
61,241,18392,1,8,0:0:0:0:
22,337,18627,1,0,0:0:0:0:
124,321,18861,2,0,P|195:321|279:354,1,159.999990463257,2|8,0:0|0:0,0:0:0:0:
277,352,19564,1,0,0:0:0:0:
343,261,19799,6,0,B|343:197|343:197|323:131,1,119.999992847443,2|0,0:0|0:0,0:0:0:0:
298,99,20267,2,0,P|298:57|313:8,1,79.9999952316285,8|0,0:0|0:0,0:0:0:0:
398,71,20736,2,0,P|440:71|489:86,1,79.9999952316285,2|0,0:0|0:0,0:0:0:0:
426,172,21205,1,8,0:0:0:0:
326,143,21439,1,0,0:0:0:0:
231,187,21674,6,0,P|166:186|98:116,1,159.999990463257,2|8,0:0|0:0,0:0:0:0:
201,86,22377,1,0,0:0:0:0:
231,187,22611,2,0,L|236:275,1,79.9999952316285,2|0,0:0|0:0,0:0:0:0:
223,309,22963,1,0,0:0:0:0:
223,309,23080,1,8,0:0:0:0:
307,235,23314,1,0,0:0:0:0:
366,330,23549,6,0,P|441:330|485:263,1,159.999990463257,2|8,0:0|0:0,0:0:0:0:
396,208,24252,2,0,L|369:211,2,26.6666650772095
425,189,24486,2,0,P|424:145|407:92,1,79.9999952316285,2|0,0:0|0:0,0:0:0:0:
324,59,24955,2,0,P|280:60|227:77,1,79.9999952316285,8|0,0:0|0:0,0:0:0:0:
240,173,25424,5,2,0:0:0:0:
240,173,25658,1,0,0:0:0:0:
245,69,25892,2,0,P|206:59|166:59,1,79.9999952316285,8|0,0:0|0:0,0:0:0:0:
114,68,26244,1,0,0:0:0:0:
114,68,26361,2,0,L|105:27,2,39.9999976158142,2|0|0,0:0|0:0|0:0,0:0:0:0:
154,172,26830,2,0,P|106:172|59:155,1,79.9999952316285,8|0,0:0|0:0,0:0:0:0:
190,105,27299,6,0,P|223:144|181:243,1,159.999990463257,2|8,0:0|0:0,0:0:0:0:
92,274,28002,1,0,0:0:0:0:
92,274,28236,2,0,L|108:360,1,79.9999952316285,2|0,0:0|0:0,0:0:0:0:
205,316,28705,2,0,L|189:230,1,79.9999952316285,8|0,0:0|0:0,0:0:0:0:
247,150,29174,5,2,0:0:0:0:
323,219,29408,1,0,0:0:0:0:
247,150,29642,1,8,0:0:0:0:
347,121,29877,2,0,L|395:114,2,39.9999976158142,0|0|2,0:0|0:0|0:0,0:0:0:0:
247,150,30345,2,0,P|241:112|242:65,2,79.9999952316285,0|8|0,0:0|0:0|0:0,0:0:0:0:
323,220,31049,6,0,B|405:220|405:220|477:190,1,159.999990463257,2|8,0:0|0:0,0:0:0:0:
429,96,31752,2,0,L|388:96,2,26.6666650772095,0|0|0,0:0|0:0|0:0,0:0:0:0:
463,96,31986,2,0,B|467:58|467:58|458:11,1,79.9999952316285,2|0,0:0|0:0,0:0:0:0:
327,36,32455,2,0,B|321:75|321:75|330:120,1,79.9999952316285,8|0,0:0|0:0,0:0:0:0:
323,219,32924,5,2,0:0:0:0:
418,177,33158,2,0,P|458:171|499:179,1,79.9999952316285,0|8,0:0|0:0,0:0:0:0:
457,275,33627,1,0,0:0:0:0:
457,275,33744,1,0,0:0:0:0:
457,275,33861,2,0,L|461:319,2,39.9999976158142,2|0|0,0:0|0:0|0:0,0:0:0:0:
418,177,34330,2,0,P|418:135|448:88,1,79.9999952316285,8|0,0:0|0:0,0:0:0:0:
346,46,34799,6,0,P|316:75|261:87,1,79.9999952316285,2|0,0:0|0:0,0:0:0:0:
178,106,35267,2,0,P|140:119|112:147,1,79.9999952316285,8|0,0:0|0:0,0:0:0:0:
104,251,35736,1,2,0:0:0:0:
183,184,35970,1,0,0:0:0:0:
237,272,36205,2,0,L|335:272,1,79.9999952316285,8|0,0:0|0:0,0:0:0:0:
396,192,36674,6,0,L|385:104,1,79.9999952316285,2|0,0:0|0:0,0:0:0:0:
307,192,37142,2,0,L|318:280,1,79.9999952316285,8|0,0:0|0:0,0:0:0:0:
396,192,37611,2,0,P|362:123|292:102,1,119.999992847443,2|0,0:0|0:0,0:0:0:0:
269,100,38080,2,0,B|263:62|263:62|266:16,1,79.9999952316285,8|0,0:0|0:0,0:0:0:0:
395,50,38549,5,4,0:0:0:0:
207,106,46049,6,0,P|170:161|170:238,1,135.999994487762,2|8,0:0|0:0,0:0:0:0:
300,202,46986,2,0,P|337:147|337:70,1,135.999994487762,2|8,0:0|0:0,0:0:0:0:
207,106,47924,6,0,B|340:79,1,135.999994487762,2|8,0:0|0:0,0:0:0:0:
300,202,48861,2,0,B|167:229,1,135.999994487762,2|8,0:0|0:0,0:0:0:0:
51,155,49799,6,0,B|56:223|56:223|43:303,1,135.999994487762,2|8,0:0|0:0,0:0:0:0:
166,229,50736,2,0,B|161:161|161:161|174:81,1,135.999994487762,2|8,0:0|0:0,0:0:0:0:
328,177,51674,5,2,0:0:0:0:
171,94,53080,1,0,0:0:0:0:
171,94,53549,6,0,P|114:94|66:219,1,191.999982696534,4|0,0:0|0:0,0:0:0:0:
78,315,54252,1,2,0:0:0:0:
78,315,54369,1,0,0:0:0:0:
78,315,54486,2,0,P|129:316|178:340,1,95.9999913482669,2|0,0:0|0:0,0:0:0:0:
271,312,54955,6,0,B|268:278|268:278|273:263|273:263|267:250|267:250|275:226|265:190,1,119.999992847443,10|0,0:0|0:0,0:0:0:0:
260,137,55424,6,0,P|334:137|412:48,1,191.999982696534,4|2,0:0|0:0,0:0:0:0:
298,25,56127,1,0,0:0:0:0:
260,137,56361,2,0,P|260:181|280:234,1,95.9999913482669,2|0,0:0|0:0,0:0:0:0:
313,327,56830,6,0,B|277:333|259:327|259:327|241:334|241:334|219:329|187:336,1,119.999992847443,10|0,0:0|0:0,0:0:0:0:
137,336,57299,6,0,B|88:328|40:344|40:344|61:312|52:250,1,191.999982696534,4|2,0:0|0:0,0:0:0:0:
23,141,58002,1,0,0:0:0:0:
130,181,58236,2,0,P|179:181|222:158,1,95.9999913482669,2|0,0:0|0:0,0:0:0:0:
268,99,58588,1,0,0:0:0:0:
268,99,58705,6,0,B|265:151|265:151|268:161|268:161|262:250,1,119.999992847443,10|0,0:0|0:0,0:0:0:0:
258,276,59174,6,0,L|204:280,2,47.9999956741335,4|0|0,0:0|0:0|0:0,0:0:0:0:
371,255,59642,1,2,0:0:0:0:
422,151,59877,1,0,0:0:0:0:
483,248,60111,2,0,B|483:298|483:298|472:356,1,95.9999913482669,2|0,0:0|0:0,0:0:0:0:
418,361,60463,1,0,0:0:0:0:
418,361,60580,1,10,0:0:0:0:
371,255,60814,1,0,0:0:0:0:
266,340,61049,6,0,P|199:341|149:234,1,191.999982696534,4|2,0:0|0:0,0:0:0:0:
220,138,61752,1,0,0:0:0:0:
220,138,61869,1,0,0:0:0:0:
220,138,61986,1,2,0:0:0:0:
228,262,62220,1,0,0:0:0:0:
316,207,62455,6,0,B|351:208|351:208|368:204|368:204|388:209|388:209|408:204|408:204|436:208,1,119.999992847443,10|0,0:0|0:0,0:0:0:0:
486,218,62924,6,0,B|471:124|471:124|483:27,1,191.999982696534,4|2,0:0|0:0,0:0:0:0:
364,69,63627,1,0,0:0:0:0:
364,69,63744,1,0,0:0:0:0:
364,69,63861,2,0,P|311:77|264:71,1,95.9999913482669,2|0,0:0|0:0,0:0:0:0:
170,39,64330,6,0,B|170:91|170:91|165:106|165:106|167:159,1,119.999992847443,10|0,0:0|0:0,0:0:0:0:
166,211,64799,6,0,B|218:201|218:201|248:206|248:206|299:188|366:217,1,191.999982696534,4|2,0:0|0:0,0:0:0:0:
466,267,65502,1,0,0:0:0:0:
362,336,65736,1,2,0:0:0:0:
354,212,65970,1,0,0:0:0:0:
266,282,66205,6,0,B|233:288|233:288|211:284|211:284|180:296|134:286,1,119.999992847443,10|0,0:0|0:0,0:0:0:0:
94,285,66674,5,4,0:0:0:0:
166,211,66908,1,0,0:0:0:0:
60,211,67142,1,2,0:0:0:0:
136,137,67377,1,0,0:0:0:0:
30,137,67611,2,0,P|30:89|117:42,1,143.9999870224,2|0,0:0|0:0,0:0:0:0:
151,45,68080,2,0,P|199:50|255:42,1,95.9999913482669,10|0,0:0|0:0,0:0:0:0:
350,36,68549,6,0,L|346:179,1,127.999992370606,2|2,0:0|0:0,0:0:0:0:
382,239,69252,1,2,0:0:0:0:
429,173,69486,2,0,L|430:128,2,31.9999980926514,2|2|2,0:0|0:0|0:0,0:0:0:0:
465,247,69955,2,0,B|473:299|473:299|466:347,1,95.9999942779542,2|0,0:0|0:0,0:0:0:0:
421,355,70424,6,0,L|322:355,1,71.9999935112002,8|0,0:0|0:0,0:0:0:0:
273,312,70892,2,0,P|234:312|195:326,1,71.9999935112002,8|8,0:0|0:0,0:0:0:0:
119,345,71361,2,0,P|76:345|36:322,1,71.9999935112002,0|8,0:0|0:0,0:0:0:0:
101,266,71830,1,8,0:0:0:0:
101,266,72064,1,0,0:0:0:0:
54,184,72299,6,0,B|51:146|51:146|58:104,1,71.9999935112002,8|0,0:0|0:0,0:0:0:0:
123,58,72767,2,0,B|161:55|161:55|203:62,1,71.9999935112002,8|8,0:0|0:0,0:0:0:0:
273,95,73236,2,0,B|306:100|306:100|344:97,1,71.9999935112002,0|8,0:0|0:0,0:0:0:0:
428,75,73705,1,8,0:0:0:0:
428,75,73939,1,0,0:0:0:0:
473,157,74174,6,0,L|479:258,1,71.9999935112002,8|0,0:0|0:0,0:0:0:0:
483,271,74525,1,0,0:0:0:0:
483,271,74642,2,0,L|399:274,1,71.9999935112002,8|8,0:0|0:0,0:0:0:0:
330,240,75111,2,0,L|331:191,2,35.9999967556001,0|0|8,0:0|0:0|0:0,0:0:0:0:
301,321,75580,2,0,L|208:315,1,71.9999935112002,8|0,0:0|0:0,0:0:0:0:
142,280,76049,5,8,0:0:0:0:
142,280,76166,2,0,P|139:244|144:206,1,71.9999935112002,0|0,0:0|0:0,0:0:0:0:
143,208,76517,2,0,P|146:161|139:119,1,71.9999935112002,8|8,0:0|0:0,0:0:0:0:
117,53,76986,2,0,L|63:60,3,35.9999967556001,0|8|8|0,0:0|0:0|0:0|0:0,0:0:0:0:
45,82,77455,2,0,B|41:121|41:121|48:165,1,71.9999935112002,8|0,0:0|0:0,0:0:0:0:
57,249,77924,6,0,L|147:255,1,79.9999952316285,8|0,0:0|0:0,0:0:0:0:
197,183,78392,6,0,L|111:178,1,63.9999961853028,8|8,0:0|0:0,0:0:0:0:
215,260,78861,6,0,L|305:266,1,79.9999952316285,0|8,0:0|0:0,0:0:0:0:
348,194,79330,6,0,L|262:189,1,63.9999961853028,8|0,0:0|0:0,0:0:0:0:
373,269,79799,6,0,L|463:275,1,79.9999952316285,8|0,0:0|0:0,0:0:0:0:
479,197,80267,6,0,P|479:160|467:119,1,63.9999961853028,8|8,0:0|0:0,0:0:0:0:
390,55,80736,6,0,L|300:49,1,79.9999952316285,0|8,0:0|0:0,0:0:0:0:
277,127,81205,6,0,P|277:164|289:205,1,63.9999961853028,8|0,0:0|0:0,0:0:0:0:
298,293,81674,6,0,L|203:302,1,79.9999952316285,8|0,0:0|0:0,0:0:0:0:
129,265,82142,2,0,L|120:170,1,79.9999952316285,8|8,0:0|0:0,0:0:0:0:
111,89,82611,1,0,0:0:0:0:
111,89,82845,1,8,0:0:0:0:
197,131,83080,2,0,L|279:126,1,79.9999952316285,8|0,0:0|0:0,0:0:0:0:
377,75,83549,6,0,P|360:135|383:191,1,119.999992847443,8|0,0:0|0:0,0:0:0:0:
396,227,84017,2,0,P|402:269|399:314,1,79.9999952316285,0|0,0:0|0:0,0:0:0:0:
300,274,84486,1,4,0:3:0:0:
300,274,84603,1,4,0:3:0:0:
300,274,84720,1,4,0:3:0:0:
206,336,84955,6,0,B|128:336|128:336|156:312,1,111.999989906311,0|0,0:0|0:0,0:0:0:0:
201,230,85424,6,0,P|201:168|126:99,1,159.999990463257,2|8,0:0|0:0,0:0:0:0:
109,196,86127,1,0,0:0:0:0:
201,230,86361,2,0,L|288:228,1,79.9999952316285,2|0,0:0|0:0,0:0:0:0:
330,310,86830,2,0,L|243:312,1,79.9999952316285,8|0,0:0|0:0,0:0:0:0:
153,317,87299,5,2,0:0:0:0:
60,340,87533,1,0,0:0:0:0:
60,340,87767,2,0,B|56:297|56:297|59:253,1,79.9999952316285,8|0,0:0|0:0,0:0:0:0:
83,167,88236,2,0,B|87:124|87:124|84:80,1,79.9999952316285,2|0,0:0|0:0,0:0:0:0:
155,21,88705,1,8,0:0:0:0:
201,105,88939,1,0,0:0:0:0:
269,36,89174,6,0,B|346:36|346:36|431:75,1,159.999990463257,2|8,0:0|0:0,0:0:0:0:
489,138,89877,1,0,0:0:0:0:
421,205,90111,2,0,B|345:239|345:239|268:239,1,159.999990463257,2|8,0:0|0:0,0:0:0:0:
172,239,90814,1,0,0:0:0:0:
79,213,91049,6,0,P|79:179|54:120,1,79.9999952316285,2|0,0:0|0:0,0:0:0:0:
144,83,91517,2,0,P|168:107|227:131,1,79.9999952316285,8|0,0:0|0:0,0:0:0:0:
226,32,91986,1,2,0:0:0:0:
298,94,92220,2,0,L|348:93,2,39.9999976158142,0|0|8,0:0|0:0|0:0,0:0:0:0:
208,127,92689,1,0,0:0:0:0:
276,195,92924,6,0,P|276:238|264:276,1,79.9999952316285,2|0,0:0|0:0,0:0:0:0:
212,353,93392,2,0,P|169:353|131:365,1,79.9999952316285,8|0,0:0|0:0,0:0:0:0:
53,310,93861,1,2,0:0:0:0:
53,310,94095,1,0,0:0:0:0:
126,247,94330,2,0,P|126:202|108:155,1,79.9999952316285,8|0,0:0|0:0,0:0:0:0:
64,87,94799,5,2,0:0:0:0:
159,87,95033,1,0,0:0:0:0:
242,40,95267,2,0,P|285:40|320:55,1,79.9999952316285,8|0,0:0|0:0,0:0:0:0:
389,118,95736,1,2,0:0:0:0:
389,118,95853,1,0,0:0:0:0:
389,118,95970,1,0,0:0:0:0:
311,174,96205,2,0,P|311:221|328:266,1,79.9999952316285,8|0,0:0|0:0,0:0:0:0:
356,341,96674,6,0,L|260:350,1,79.9999952316285,2|0,0:0|0:0,0:0:0:0:
186,316,97142,2,0,L|178:236,1,79.9999952316285,8|0,0:0|0:0,0:0:0:0:
246,168,97611,1,2,0:0:0:0:
178,100,97845,1,0,0:0:0:0:
246,31,98080,2,0,B|287:28|287:28|337:33,1,79.9999952316285,8|0,0:0|0:0,0:0:0:0:
413,72,98549,5,2,0:0:0:0:
478,141,98783,1,0,0:0:0:0:
413,210,99017,1,8,0:0:0:0:
478,279,99252,1,0,0:0:0:0:
413,348,99486,2,0,P|354:348|285:326,1,119.999992847443,2|0,0:0|0:0,0:0:0:0:
249,315,99955,2,0,P|206:307|160:307,1,79.9999952316285,8|0,0:0|0:0,0:0:0:0:
52,334,100424,5,2,0:0:0:0:
198,98,107924,6,0,B|198:165|198:165|215:233,1,135.999994487762,2|8,0:0|0:0,0:0:0:0:
350,221,108861,2,0,B|350:154|350:154|333:86,1,135.999994487762,2|8,0:0|0:0,0:0:0:0:
198,98,109799,6,0,L|341:87,1,135.999994487762,2|8,0:0|0:0,0:0:0:0:
350,221,110736,2,0,L|207:232,1,135.999994487762,2|8,0:0|0:0,0:0:0:0:
80,260,111674,6,0,P|80:193|122:131,1,135.999994487762,2|8,0:0|0:0,0:0:0:0:
214,231,112611,2,0,P|214:298|172:360,1,135.999994487762,2|8,0:0|0:0,0:0:0:0:
115,136,113549,5,2,0:0:0:0:
398,231,114955,1,0,0:0:0:0:
398,231,115424,6,0,P|398:153|300:78,1,199.999988079071,4|2,0:0|0:0,0:0:0:0:
284,196,116127,1,2,0:0:0:0:
284,196,116244,1,0,0:0:0:0:
284,196,116361,2,0,L|293:300,1,99.9999940395356,2|0,0:0|0:0,0:0:0:0:
199,342,116830,6,0,B|120:341|120:341|76:326,1,119.999992847443,10|0,0:0|0:0,0:0:0:0:
50,294,117299,6,0,B|50:194|50:194|80:82,1,199.999988079071,4|2,0:0|0:0,0:0:0:0:
179,35,118002,1,0,0:0:0:0:
179,35,118119,1,0,0:0:0:0:
179,35,118236,2,0,L|185:143,1,99.9999940395356,2|0,0:0|0:0,0:0:0:0:
238,224,118705,6,0,B|297:224|297:224|305:219|305:219|368:219,1,119.999992847443,10|0,0:0|0:0,0:0:0:0:
406,219,119174,6,0,B|367:128|436:128|394:18,1,199.999988079071,4|2,0:0|0:0,0:0:0:0:
279,82,119877,2,0,L|268:147,1,49.9999970197678,0|0,0:0|0:0,0:0:0:0:
300,206,120111,2,0,P|258:178|206:186,1,99.9999940395356,2|0,0:0|0:0,0:0:0:0:
100,210,120580,6,0,B|93:176|93:176|99:158|99:158|86:131|98:83,1,119.999992847443,10|0,0:0|0:0,0:0:0:0:
94,36,121049,6,0,L|39:35,2,39.9999976158142,4|0|0,0:0|0:0|0:0,0:0:0:0:
205,44,121517,1,2,0:0:0:0:
284,123,121752,1,0,0:0:0:0:
371,53,121986,2,0,P|395:112|375:191,1,119.999992847443,2|0,0:0|0:0,0:0:0:0:
375,221,122455,2,0,P|368:260|380:304,1,79.9999952316285,10|0,0:0|0:0,0:0:0:0:
501,257,122924,6,0,L|288:266,1,199.999988079071,4|2,0:0|0:0,0:0:0:0:
179,312,123627,1,0,0:0:0:0:
179,312,123744,1,0,0:0:0:0:
179,312,123861,2,0,P|168:262|179:208,1,99.9999940395356,2|0,0:0|0:0,0:0:0:0:
188,111,124330,6,0,P|259:111|308:152,1,119.999992847443,10|0,0:0|0:0,0:0:0:0:
323,203,124799,6,0,B|341:50|341:50|383:115,1,199.999988079071,4|2,0:0|0:0,0:0:0:0:
457,181,125502,1,0,0:0:0:0:
457,181,125619,1,0,0:0:0:0:
457,181,125736,2,0,L|446:281,1,99.9999940395356,2|0,0:0|0:0,0:0:0:0:
349,338,126205,6,0,B|287:338|287:338|225:353,1,119.999992847443,10|0,0:0|0:0,0:0:0:0:
181,360,126674,6,0,B|165:262|165:262|184:156,1,199.999988079071,4|2,0:0|0:0,0:0:0:0:
223,39,127377,1,0,0:0:0:0:
223,39,127494,1,0,0:0:0:0:
223,39,127611,2,0,P|173:39|120:76,1,99.9999940395356,2|0,0:0|0:0,0:0:0:0:
96,170,128080,6,0,L|69:294,1,119.999992847443,10|0,0:0|0:0,0:0:0:0:
59,336,128549,5,4,0:0:0:0:
178,326,128783,1,0,0:0:0:0:
297,316,129017,1,2,0:0:0:0:
416,306,129252,1,0,0:0:0:0:
345,209,129486,2,0,B|345:138|345:138|389:64,1,149.999991059303,2|0,0:0|0:0,0:0:0:0:
419,32,129955,1,10,0:0:0:0:
480,110,130189,1,0,0:0:0:0:
304,58,130424,6,0,B|249:58|249:58|214:63|214:63|159:47|98:71,1,199.999988079071,4|2,0:0|0:0,0:0:0:0:
37,176,131127,1,0,0:0:0:0:
37,176,131244,1,0,0:0:0:0:
37,176,131361,1,2,0:0:0:0:
161,138,131595,1,0,0:0:0:0:
223,252,131830,2,0,P|232:301|223:355,1,99.9999940395356,10|0,0:0|0:0,0:0:0:0:
103,302,132299,5,4,0:0:0:0:
223,252,132533,1,0,0:0:0:0:
161,138,132767,2,0,B|155:89|155:89|165:35,1,99.9999940395356,2|0,0:0|0:0,0:0:0:0:
294,39,133236,2,0,B|300:91|300:91|290:142,1,99.9999940395356,2|0,0:0|0:0,0:0:0:0:
223,252,133705,1,10,0:0:0:0:
337,313,133939,1,0,0:0:0:0:
337,313,134056,1,0,0:0:0:0:
337,313,134174,6,0,L|443:305,2,99.9999940395356,4|0|2,0:0|0:0|0:0,0:0:0:0:
223,252,134877,1,0,0:0:0:0:
109,313,135111,2,0,L|3:305,1,99.9999940395356,2|0,0:0|0:0,0:0:0:0:
106,218,135580,1,10,0:0:0:0:
185,320,135814,1,0,0:0:0:0:
273,224,136049,5,4,0:0:0:0:
273,224,136166,1,0,0:0:0:0:
273,224,136283,1,0,0:0:0:0:
194,121,136517,2,0,P|194:68|217:15,1,99.9999940395356,2|0,0:0|0:0,0:0:0:0:
320,95,136986,2,0,B|368:105|425:91|425:91|422:140,1,149.999991059303,2|0,0:0|0:0,0:0:0:0:
420,180,137455,2,0,B|420:232|420:232|431:285,1,99.9999940395356,10|0,0:0|0:0,0:0:0:0:
299,331,137924,6,0,B|196:296|208:348|99:317,1,199.999988079071,4|2,0:0|0:0,0:0:0:0:
33,206,138627,1,0,0:0:0:0:
33,206,138744,1,0,0:0:0:0:
33,206,138861,2,0,P|19:160|43:100,1,99.9999940395356,2|0,0:0|0:0,0:0:0:0:
141,38,139330,1,10,0:0:0:0:
96,159,139564,1,0,0:0:0:0:
222,126,139799,6,0,B|272:116|272:116|327:116,2,99.9999940395356,4|0|2,0:0|0:0|0:0,0:0:0:0:
154,237,140502,1,0,0:0:0:0:
154,237,140619,1,0,0:0:0:0:
154,237,140736,2,0,L|262:237,1,99.9999940395356,2|0,0:0|0:0,0:0:0:0:
384,228,141205,1,10,0:0:0:0:
321,116,141439,1,0,0:0:0:0:
254,237,141674,6,0,P|254:283|275:338,1,99.9999940395356,4|0,0:0|0:0,0:0:0:0:
402,324,142142,2,0,P|402:278|381:223,1,99.9999940395356,2|0,0:0|0:0,0:0:0:0:
321,116,142611,1,2,0:0:0:0:
448,139,142845,1,0,0:0:0:0:
317,142,143080,1,10,0:0:0:0:
452,113,143314,1,0,0:0:0:0:
346,36,143549,6,0,B|297:36|297:36|228:50,1,99.9999940395356,4|0,0:0|0:0,0:0:0:0:
124,90,144017,1,2,0:0:0:0:
124,90,144252,1,0,0:0:0:0:
229,165,144486,2,0,P|267:231|239:300,1,149.999991059303,2|0,0:0|0:0,0:0:0:0:
224,336,144955,2,0,L|342:337,1,99.9999940395356,10|0,0:0|0:0,0:0:0:0:
435,270,145424,5,4,0:0:0:0:
435,270,147767,5,0,0:0:0:0:
425,242,148236,1,0,0:0:0:0:
415,214,148705,2,0,P|406:176|410:134,1,63.9999961853028,0|0,0:0|0:0,0:0:0:0:
419,115,149056,1,0,0:0:0:0:
419,115,149174,6,0,L|293:122,1,119.999992847443,2|0,0:0|0:0,0:0:0:0:
251,125,149642,1,0,0:0:0:0:
170,177,149877,1,0,0:0:0:0:
170,177,149994,1,0,0:0:0:0:
170,177,150111,2,0,P|170:219|183:262,1,79.9999952316285,8|0,0:0|0:0,0:0:0:0:
241,329,150580,1,0,0:0:0:0:
270,322,150697,1,0,0:0:0:0:
300,320,150814,1,0,0:0:0:0:
330,322,150931,1,0,0:0:0:0:
359,329,151049,6,0,L|443:326,1,79.9999952316285,2|0,0:0|0:0,0:0:0:0:
444,230,151517,2,0,L|360:233,1,79.9999952316285,0|0,0:0|0:0,0:0:0:0:
269,212,151986,1,8,0:0:0:0:
338,145,152220,1,0,0:0:0:0:
338,145,152338,1,0,0:0:0:0:
338,145,152455,2,0,L|329:92,1,39.9999976158142,0|0,0:0|0:0,0:0:0:0:
398,68,152689,2,0,L|407:121,1,39.9999976158142,0|0,0:0|0:0,0:0:0:0:
445,171,152924,6,0,P|453:217|450:263,1,79.9999952316285,2|0,0:0|0:0,0:0:0:0:
441,296,153275,1,0,0:0:0:0:
441,296,153392,2,0,L|353:299,1,79.9999952316285,0|0,0:0|0:0,0:0:0:0:
276,252,153861,2,0,L|196:254,1,79.9999952316285,8|0,0:0|0:0,0:0:0:0:
99,253,154330,2,0,L|110:173,1,79.9999952316285,8|0,0:0|0:0,0:0:0:0:
157,62,154799,6,0,B|220:58|220:58|287:64,1,119.999992847443,2|0,0:0|0:0,0:0:0:0:
324,68,155267,1,0,0:0:0:0:
422,103,155502,1,0,0:0:0:0:
431,131,155619,1,0,0:0:0:0:
435,161,155736,1,8,0:0:0:0:
432,190,155853,1,0,0:0:0:0:
423,219,155970,1,0,0:0:0:0:
362,303,156205,2,0,P|307:304|234:315,1,119.999992847443
203,316,156674,6,0,P|162:316|95:336,1,79.9999952316285,2|0,0:0|0:0,0:0:0:0:
22,347,157142,2,0,L|30:260,1,79.9999952316285,0|0,0:0|0:0,0:0:0:0:
70,171,157611,1,8,0:0:0:0:
99,178,157728,1,0,0:0:0:0:
128,181,157845,1,0,0:0:0:0:
158,178,157962,1,0,0:0:0:0:
187,171,158079,1,0,0:0:0:0:
248,86,158314,1,0,0:0:0:0:
331,147,158549,6,0,B|339:188|339:188|339:230,1,79.9999952316285,2|0,0:0|0:0,0:0:0:0:
346,277,158900,1,0,0:0:0:0:
346,277,159017,2,0,P|307:277|263:306,1,79.9999952316285
189,360,159486,1,0,0:0:0:0:
103,326,159720,1,0,0:0:0:0:
103,326,159837,1,0,0:0:0:0:
103,326,159955,2,0,L|107:280,3,39.9999976158142
108,233,160424,6,0,L|191:216,1,79.9999952316285,2|0,0:0|0:0,0:0:0:0:
232,125,160892,2,0,L|148:141,1,79.9999952316285
56,102,161361,2,0,L|45:57,2,39.9999976158142,8|0|0,0:0|0:0|0:0,0:0:0:0:
88,201,161830,1,0,0:0:0:0:
88,201,161947,1,0,0:0:0:0:
88,201,162064,1,0,0:0:0:0:
194,219,162299,5,2,0:0:0:0:
194,219,162416,2,0,P|233:213|277:220,1,79.9999952316285,0|0,0:0|0:0,0:0:0:0:
301,226,162767,2,0,L|348:225,3,39.9999976158142
385,230,163236,2,0,B|385:292|385:292|416:358,1,119.999992847443,8|0,0:0|0:0,0:0:0:0:
433,372,163705,1,0,0:0:0:0:
496,279,163939,1,0,0:0:0:0:
380,144,164174,5,2,0:0:0:0:
132,210,170033,5,0,0:0:0:0:
368,126,171205,1,0,0:0:0:0:
368,126,171674,6,0,P|274:126|236:246,1,207.999978080751,4|2,0:0|0:0,0:0:0:0:
288,339,172377,1,0,0:0:0:0:
288,339,172494,1,0,0:0:0:0:
288,339,172611,1,2,0:0:0:0:
322,208,172845,1,0,0:0:0:0:
215,263,173080,6,0,B|155:263|155:263|76:245,1,119.999992847443,10|0,0:0|0:0,0:0:0:0:
50,238,173549,6,0,B|44:192|44:192|52:140|52:140|37:95|55:27,1,207.999978080751,4|2,0:0|0:0,0:0:0:0:
176,88,174252,1,0,0:0:0:0:
176,88,174369,1,0,0:0:0:0:
176,88,174486,2,0,P|234:88|276:55,1,103.999989040375,2|0,0:0|0:0,0:0:0:0:
405,62,174955,2,0,P|448:89|499:87,1,103.999989040375,10|0,0:0|0:0,0:0:0:0:
339,108,175424,6,0,B|339:213|339:213|373:331,1,207.999978080751,4|2,0:0|0:0,0:0:0:0:
443,212,176127,1,0,0:0:0:0:
443,212,176244,1,0,0:0:0:0:
443,212,176361,2,0,P|397:205|337:213,1,103.999989040375,2|0,0:0|0:0,0:0:0:0:
222,234,176830,6,0,B|188:239|188:239|173:238|173:238|150:241|129:238|129:238|89:248,1,119.999992847443,10|0,0:0|0:0,0:0:0:0:
56,255,177299,6,0,L|44:209,2,39.9999976158142,4|0|0,0:0|0:0|0:0,0:0:0:0:
150,329,177767,1,2,0:0:0:0:
222,234,178002,1,0,0:0:0:0:
291,331,178236,2,0,L|418:331,1,119.999992847443,2|0,0:0|0:0,0:0:0:0:
459,331,178705,2,0,P|452:291|460:240,1,79.9999952316285,10|0,0:0|0:0,0:0:0:0:
473,117,179174,6,0,B|387:117|387:117|363:133|363:133|261:133,1,207.999978080751,4|2,0:0|0:0,0:0:0:0:
141,90,179877,1,0,0:0:0:0:
141,90,179994,1,0,0:0:0:0:
141,90,180111,2,0,L|150:195,1,103.999989040375,2|0,0:0|0:0,0:0:0:0:
80,310,180580,1,10,0:0:0:0:
212,285,180814,1,0,0:0:0:0:
212,285,180931,1,0,0:0:0:0:
212,285,181049,6,0,B|271:276|271:276|313:283|313:283|358:267|433:290,1,207.999978080751,4|2,0:0|0:0,0:0:0:0:
318,192,181752,1,0,0:0:0:0:
318,192,181869,1,0,0:0:0:0:
318,192,181986,2,0,P|317:138|348:84,1,103.999989040375,2|0,0:0|0:0,0:0:0:0:
450,171,182455,2,0,L|461:277,1,103.999989040375,10|0,0:0|0:0,0:0:0:0:
449,314,182806,1,0,0:0:0:0:
449,314,182924,6,0,B|382:309|382:309|324:343|244:317,1,207.999978080751,4|2,0:0|0:0,0:0:0:0:
119,268,183627,1,0,0:0:0:0:
119,268,183744,1,0,0:0:0:0:
119,268,183861,2,0,L|110:376,1,103.999989040375,2|0,0:0|0:0,0:0:0:0:
235,319,184330,1,10,0:0:0:0:
299,200,184564,2,0,L|292:147,1,51.9999945201877,0|0,0:0|0:0,0:0:0:0:
219,107,184799,6,0,P|285:141|264:52,1,207.999978080751,4|2,0:0|0:0,0:0:0:0:
133,52,185502,1,0,0:0:0:0:
49,158,185736,2,0,P|44:211|57:263,1,103.999989040375,2|0,0:0|0:0,0:0:0:0:
54,301,186088,1,0,0:0:0:0:
50,342,186205,1,10,0:0:0:0:
166,298,186439,1,0,0:0:0:0:
289,354,186674,6,0,L|501:338,1,207.999978080751,4|2,0:0|0:0,0:0:0:0:
377,273,187377,1,0,0:0:0:0:
377,273,187494,1,0,0:0:0:0:
377,273,187611,2,0,L|257:283,1,103.999989040375,2|0,0:0|0:0,0:0:0:0:
199,168,188080,2,0,L|321:157,1,103.999989040375,10|0,0:0|0:0,0:0:0:0:
437,147,188549,5,4,0:0:0:0:
360,35,188783,1,0,0:0:0:0:
302,158,189017,1,2,0:0:0:0:
225,46,189251,1,0,0:0:0:0:
225,46,189369,1,0,0:0:0:0:
225,46,189486,2,0,L|119:54,1,103.999989040375,2|0,0:0|0:0,0:0:0:0:
64,177,189955,2,0,L|186:168,1,103.999989040375,10|0,0:0|0:0,0:0:0:0:
214,172,190306,1,0,0:0:0:0:
214,172,190424,6,0,L|206:280,2,103.999989040375,4|0|2,0:0|0:0|0:0,0:0:0:0:
298,65,191127,1,0,0:0:0:0:
361,184,191361,2,0,L|353:292,1,103.999989040375,2|0,0:0|0:0,0:0:0:0:
483,251,191830,1,10,0:0:0:0:
361,184,192064,1,0,0:0:0:0:
248,259,192299,5,4,0:0:0:0:
248,259,192416,1,0,0:0:0:0:
248,259,192533,2,0,L|219:148,2,103.999989040375,0|2|0,0:0|0:0|0:0,0:0:0:0:
324,344,193236,2,0,P|260:300|164:311,1,155.999983560563,2|0,0:0|0:0,0:0:0:0:
138,313,193705,2,0,B|130:264|130:264|136:205,1,103.999989040375,10|0,0:0|0:0,0:0:0:0:
238,122,194174,6,0,P|154:122|82:24,1,207.999978080751,4|2,0:0|0:0,0:0:0:0:
194,20,194877,1,0,0:0:0:0:
238,122,195111,2,0,P|243:172|241:228,1,103.999989040375,2|0,0:0|0:0,0:0:0:0:
216,337,195580,2,0,P|264:329|321:336,1,103.999989040375,10|0,0:0|0:0,0:0:0:0:
363,344,195931,1,0,0:0:0:0:
363,344,196049,6,0,P|411:352|468:345,2,103.999989040375,4|0|2,0:0|0:0|0:0,0:0:0:0:
413,217,196752,1,0,0:0:0:0:
413,217,196869,1,0,0:0:0:0:
413,217,196986,1,2,0:0:0:0:
282,251,197220,1,0,0:0:0:0:
321,121,197455,2,0,P|321:79|295:17,1,103.999989040375,10|0,0:0|0:0,0:0:0:0:
189,102,197924,6,0,L|74:111,1,103.999989040375,4|0,0:0|0:0,0:0:0:0:
178,242,198392,2,0,L|281:250,1,103.999989040375,2|0,0:0|0:0,0:0:0:0:
392,172,198861,1,2,0:0:0:0:
406,306,199095,1,0,0:0:0:0:
392,172,199330,1,10,0:0:0:0:
281,250,199564,1,0,0:0:0:0:
392,172,199799,5,4,0:0:0:0:
270,113,200033,2,0,B|222:109|222:109|162:116,2,103.999989040375,0|2|0,0:0|0:0|0:0,0:0:0:0:
150,197,200736,2,0,P|95:155|106:57,1,155.999983560563,2|0,0:0|0:0,0:0:0:0:
116,37,201205,2,0,B|168:45|168:45|224:38,1,103.999989040375,10|0,0:0|0:0,0:0:0:0:
317,32,201674,6,0,P|339:104|317:180,1,151.999986881257,4|8,0:0|0:0,0:0:0:0:
299,273,202377,2,0,P|371:265|457:279,1,151.999986881257,0|0,0:0|0:0,0:0:0:0:
449,276,203080,1,8,0:0:0:0:
420,182,203314,1,0,0:0:0:0:
319,176,203549,6,0,P|233:176|184:123,1,151.999986881257,8|8,0:0|0:0,0:0:0:0:
276,87,204252,1,0,0:0:0:0:
186,45,204486,2,0,L|125:24,2,37.9999967203142,8|0|0,0:0|0:0|0:0,0:0:0:0:
276,87,204955,1,8,0:0:0:0:
188,132,205189,1,0,0:0:0:0:
94,164,205424,6,0,B|106:212|106:212|105:281,1,113.999990160942,8|0,0:0|0:0,0:0:0:0:
103,325,205892,2,0,P|142:319|196:331,1,75.9999934406283,8|0,0:0|0:0,0:0:0:0:
275,339,206361,1,8,0:0:0:0:
275,339,206478,1,0,0:0:0:0:
275,339,206595,1,0,0:0:0:0:
238,246,206830,2,0,P|233:207|240:162,1,75.9999934406283,8|0,0:0|0:0,0:0:0:0:
288,86,207299,5,8,0:0:0:0:
306,89,207416,1,0,0:0:0:0:
325,92,207533,1,0,0:0:0:0:
421,115,207767,2,0,L|429:205,1,75.9999934406283,8|0,0:0|0:0,0:0:0:0:
393,283,208236,1,8,0:0:0:0:
364,277,208353,1,0,0:0:0:0:
336,277,208470,1,0,0:0:0:0:
308,281,208587,1,0,0:0:0:0:
280,289,208704,1,8,0:0:0:0:
199,232,208939,1,0,0:0:0:0:
140,312,209174,6,0,P|65:312|18:240,1,151.999986881257,8|8,0:0|0:0,0:0:0:0:
66,167,209877,2,0,P|141:163|223:169,1,151.999986881257,0|0,0:0|0:0,0:0:0:0:
315,183,210580,1,8,0:0:0:0:
258,102,210814,1,0,0:0:0:0:
345,55,211049,6,0,B|423:46|423:46|496:59,1,151.999986881257,8|8,0:0|0:0,0:0:0:0:
422,125,211752,1,0,0:0:0:0:
485,200,211986,1,8,0:0:0:0:
485,200,212103,1,0,0:0:0:0:
485,200,212220,1,0,0:0:0:0:
396,244,212455,2,0,L|313:251,1,75.9999934406283,8|0,0:0|0:0,0:0:0:0:
248,318,212924,6,0,P|225:270|245:186,1,113.999990160942,8|0,0:0|0:0,0:0:0:0:
241,161,213392,2,0,L|143:166,1,75.9999934406283,8|0,0:0|0:0,0:0:0:0:
67,177,213861,1,8,0:0:0:0:
69,196,213978,1,0,0:0:0:0:
71,215,214095,1,0,0:0:0:0:
169,241,214330,2,0,L|165:165,1,75.9999934406283,8|0,0:0|0:0,0:0:0:0:
153,58,214799,5,8,0:0:0:0:
247,106,215033,2,0,B|285:114|285:114|336:114,2,75.9999934406283,0|8|0,0:0|0:0|0:0,0:0:0:0:
329,38,215736,1,8,0:0:0:0:
357,40,215853,1,0,0:0:0:0:
385,42,215970,1,0,0:0:0:0:
414,44,216087,1,0,0:0:0:0:
442,46,216204,1,8,0:0:0:0:
397,143,216439,1,0,0:0:0:0:
442,236,216674,6,0,P|405:312|360:238,1,207.999978080751,4|0,0:0|0:0,0:0:0:0:
