osu file format v14

[General]
AudioFilename: audio.mp3
AudioLeadIn: 0
PreviewTime: 113549
Countdown: 0
SampleSet: Soft
StackLeniency: 0.3
Mode: 0
LetterboxInBreaks: 0
WidescreenStoryboard: 0

[Editor]
Bookmarks: 51674,61049,115424,122924,130424,137924,171674,179174,186674,194174,201674,209174,216674
DistanceSpacing: 1.4
BeatDivisor: 4
GridSize: 32
TimelineZoom: 2.599999

[Metadata]
Title:Give me a break Stop now
TitleUnicode:ギミアブレスタッナウ
Artist:REOL
ArtistUnicode:れをる
Creator:SnowNiNo_
Version:Anxient's Insane
Source:
Tags:Σ sigma ギガ giga お菊 okiku toshitaka shinoda amana ijigen anxient akitoshi derandom otaku ren _DT3 turtle kisses
BeatmapID:1060005
BeatmapSetID:497482

[Difficulty]
HPDrainRate:5
CircleSize:5
OverallDifficulty:7
ApproachRate:9
SliderMultiplier:1.99999990463257
SliderTickRate:1

[Events]
//Background and Video events
0,0,"bg.jpg",0,0
//Break Periods
2,38749,45374
2,145623,147092
2,164374,169358
//Storyboard Layer 0 (Background)
//Storyboard Layer 1 (Fail)
//Storyboard Layer 2 (Pass)
//Storyboard Layer 3 (Foreground)
//Storyboard Sound Samples

[TimingPoints]
1049,468.75,4,2,2,40,1,0
7845,-100,4,1,0,60,0,0
8549,-100,4,2,1,60,0,0
38549,-100,4,2,20,60,0,0
38607,-100,4,2,1,40,0,0
46049,-100,4,2,1,60,0,0
53549,-100,4,2,3,80,0,1
68549,-100,4,2,4,80,0,0
70424,-100,4,2,2,60,0,0
83549,-100,4,2,1,60,0,0
100658,-100,4,2,1,40,0,0
107924,-100,4,2,1,60,0,0
115424,-100,4,2,3,80,0,1
145424,-100,4,2,1,60,0,0
147767,-133.333333333333,4,2,1,60,0,0
149174,-100,4,2,1,60,0,0
171674,-100,4,2,1,80,0,1
172142,-100,4,2,3,80,0,1
201674,-100,4,2,1,60,0,0
216674,-166.666666666667,4,2,1,60,0,0

[Colours]
Combo1 : 255,255,0
Combo2 : 192,192,192
Combo3 : 128,128,128
Combo4 : 242,24,57
Combo5 : 255,128,64

[HitObjects]
148,2,1049,6,0,P|158:69|149:126,1,99.9999952316284,8|0,0:0|0:0,0:0:0:0:
107,152,1400,1,0,0:0:0:0:
107,152,1517,2,0,L|218:142,1,99.9999952316284,8|8,0:0|0:0,0:0:0:0:
147,271,1986,2,0,L|36:261,1,99.9999952316284,0|8,0:0|0:0,0:0:0:0:
47,262,2455,1,8,0:0:0:0:
47,262,2689,2,0,P|51:310|49:322,1,49.9999976158143
112,177,2924,22,0,L|211:185,1,99.9999952316284,8|0,0:0|0:0,0:0:0:0:
264,238,3275,1,0,0:0:0:0:
264,238,3392,2,0,L|363:229,1,99.9999952316284,8|8,0:0|0:0,0:0:0:0:
417,102,3861,5,0,0:0:0:0:
417,102,3978,1,8,0:0:0:0:
417,102,4095,1,8,0:0:0:0:
353,150,4330,1,8,0:0:0:0:
427,181,4565,1,0,0:0:0:0:
425,2,4799,54,0,L|416:101,1,99.9999952316284,8|0,0:0|0:0,0:0:0:0:
353,150,5150,1,0,0:0:0:0:
353,150,5267,2,0,L|253:158,1,99.9999952316284,8|8,0:0|0:0,0:0:0:0:
191,32,5736,2,0,L|290:40,2,99.9999952316284,0|8|8,0:0|0:0|0:0,0:0:0:0:
191,32,6439,1,0,0:0:0:0:
112,177,6674,5,8,0:0:0:0:
112,177,7845,2,0,L|107:226,1,49.9999976158143,0|0,0:0|0:0,0:0:0:0:
120,107,8080,2,0,L|219:98,1,99.9999952316284,0|0,0:0|0:0,0:0:0:0:
368,84,8549,5,2,0:0:0:0:
323,162,8783,1,0,0:0:0:0:
476,119,9017,2,0,L|467:19,1,99.9999952316284,8|0,0:0|0:0,0:0:0:0:
488,228,9486,2,0,L|388:219,1,99.9999952316284,2|0,0:0|0:0,0:0:0:0:
368,84,9955,1,8,0:0:0:0:
501,137,10189,1,0,0:0:0:0:
323,162,10424,6,0,P|304:219|320:272,1,99.9999952316285,2|0,0:0|0:0,0:0:0:0:
280,319,10775,1,0,0:0:0:0:
280,319,10892,2,0,L|180:327,1,99.9999952316284,8|0,0:0|0:0,0:0:0:0:
104,199,11244,1,0,0:0:0:0:
112,177,11361,6,0,L|120:276,1,99.9999952316284,2|0,0:0|0:0,0:0:0:0:
102,86,11830,2,0,L|201:77,1,99.9999952316284,8|0,0:0|0:0,0:0:0:0:
19,96,12299,1,2,0:0:0:0:
307,89,12767,5,8,0:0:0:0:
352,167,13001,1,0,0:0:0:0:
199,124,13235,2,0,L|207:24,1,99.9999952316284,2|0,0:0|0:0,0:0:0:0:
248,175,13705,2,0,P|191:195|136:159,1,99.9999952316285,8|0,0:0|0:0,0:0:0:0:
307,89,14174,6,0,L|406:97,1,99.9999952316284,2|0,0:0|0:0,0:0:0:0:
461,54,14525,1,0,0:0:0:0:
461,54,14642,1,8,0:0:0:0:
445,181,14877,5,0,0:0:0:0:
450,205,14994,1,0,0:0:0:0:
455,229,15111,1,2,0:0:0:0:
352,167,15345,5,0,0:0:0:0:
357,191,15462,1,0,0:0:0:0:
362,215,15580,2,0,L|262:206,1,99.9999952316284,8|0,0:0|0:0,0:0:0:0:
395,310,16049,6,0,L|295:301,1,99.9999952316284,2|0,0:0|0:0,0:0:0:0:
226,292,16400,1,0,0:0:0:0:
156,283,16517,2,0,L|147:183,1,99.9999952316284,8|0,0:0|0:0,0:0:0:0:
135,17,16986,5,2,0:0:0:0:
135,17,17220,1,0,0:0:0:0:
65,118,17455,2,0,L|56:217,1,99.9999952316284,8|0,0:0|0:0,0:0:0:0:
151,101,17924,6,0,L|250:92,1,99.9999952316284,2|0,0:0|0:0,0:0:0:0:
269,75,18275,1,0,0:0:0:0:
288,58,18392,1,8,0:0:0:0:
423,99,18627,1,0,0:0:0:0:
320,194,18861,6,0,L|311:293,1,99.9999952316284,2|0,0:0|0:0,0:0:0:0:
301,363,19213,1,0,0:0:0:0:
366,338,19330,2,0,P|422:330|466:346,1,99.9999952316285,8|0,0:0|0:0,0:0:0:0:
244,313,19799,6,0,P|188:321|144:305,1,99.9999952316285,2|0,0:0|0:0,0:0:0:0:
73,182,20267,5,8,0:0:0:0:
62,261,20502,1,0,0:0:0:0:
52,340,20736,2,0,P|107:325|138:265,1,99.9999952316285,2|0,0:0|0:0,0:0:0:0:
73,182,21205,5,8,0:0:0:0:
231,161,21440,1,0,0:0:0:0:
101,178,21674,6,0,L|109:78,1,99.9999952316284,2|0,0:0|0:0,0:0:0:0:
128,70,22025,1,0,0:0:0:0:
146,61,22142,1,8,0:0:0:0:
182,227,22377,1,0,0:0:0:0:
230,76,22611,6,0,L|329:67,1,99.9999952316284,2|0,0:0|0:0,0:0:0:0:
401,103,22963,1,0,0:0:0:0:
472,66,23080,2,0,P|482:117|448:168,1,99.9999952316285,8|0,0:0|0:0,0:0:0:0:
335,237,23549,6,0,L|326:138,1,99.9999952316284,2|0,0:0|0:0,0:0:0:0:
347,332,24017,2,0,L|248:341,1,99.9999952316284,8|0,0:0|0:0,0:0:0:0:
251,324,24330,1,0,0:0:0:0:
254,307,24408,1,0,0:0:0:0:
258,290,24486,2,0,P|200:306|139:298,1,99.9999952316285,2|0,0:0|0:0,0:0:0:0:
193,179,24955,1,8,0:0:0:0:
193,179,25189,1,0,0:0:0:0:
73,251,25424,6,0,L|82:350,1,99.9999952316284,2|0,0:0|0:0,0:0:0:0:
65,168,25892,2,0,L|56:69,1,99.9999952316284,8|0,0:0|0:0,0:0:0:0:
79,65,26244,1,0,0:0:0:0:
104,63,26361,2,0,L|153:58,1,49.9999976158143,2|0,0:0|0:0,0:0:0:0:
172,241,26595,2,0,L|73:250,2,99.9999952316284,0|8|0,0:0|0:0|0:0,0:0:0:0:
262,136,27299,5,2,0:0:0:0:
262,136,27767,5,8,0:0:0:0:
339,156,28002,1,0,0:0:0:0:
415,177,28236,2,0,L|519:203,1,99.9999952316285,2|0,0:0|0:0,0:0:0:0:
359,79,28705,5,8,0:0:0:0:
339,156,28940,1,0,0:0:0:0:
318,232,29174,2,0,L|292:336,1,99.9999952316285,2|0,0:0|0:0,0:0:0:0:
181,341,29642,2,0,L|82:350,1,99.9999952316284,8|0,0:0|0:0,0:0:0:0:
63,186,29994,1,0,0:0:0:0:
98,161,30111,6,0,L|89:260,1,99.9999952316284,2|0,0:0|0:0,0:0:0:0:
176,141,30580,1,8,0:0:0:0:
20,181,30814,1,0,0:0:0:0:
163,267,31049,6,0,L|262:276,1,99.9999952316284,2|0,0:0|0:0,0:0:0:0:
361,227,31517,1,8,0:0:0:0:
383,336,31752,1,0,0:0:0:0:
385,349,31830,1,0,0:0:0:0:
387,362,31908,1,0,0:0:0:0:
389,374,31986,6,0,L|488:383,1,99.9999952316284,2|0,0:0|0:0,0:0:0:0:
460,236,32455,2,0,L|361:227,1,99.9999952316284,8|0,0:0|0:0,0:0:0:0:
262,276,32924,5,2,0:0:0:0:
262,276,33158,1,0,0:0:0:0:
316,121,33392,2,0,L|415:130,1,99.9999952316284,8|0,0:0|0:0,0:0:0:0:
459,74,33744,1,0,0:0:0:0:
459,74,33861,6,0,P|464:32|463:6,1,49.9999976158143,2|0,0:0|0:0,0:0:0:0:
485,145,34095,2,0,P|483:169|479:194,1,49.9999976158143,0|0,0:0|0:0,0:0:0:0:
391,40,34330,2,0,L|292:31,1,99.9999952316284,8|0,0:0|0:0,0:0:0:0:
137,129,34799,6,0,L|236:120,1,99.9999952316284,2|0,0:0|0:0,0:0:0:0:
81,69,35150,1,0,0:0:0:0:
71,85,35267,2,0,P|60:142|91:198,1,99.9999952316285,8|0,0:0|0:0,0:0:0:0:
135,289,35736,6,0,L|36:298,1,99.9999952316284,2|0,0:0|0:0,0:0:0:0:
150,149,36205,2,0,L|249:158,1,99.9999952316284,8|0,0:0|0:0,0:0:0:0:
408,173,36674,5,2,0:0:0:0:
428,49,36908,2,0,P|433:7|432:-19,1,49.9999976158143,0|0,0:0|0:0,0:0:0:0:
381,192,37142,5,8,0:0:0:0:
500,102,37377,2,0,P|511:61|514:35,1,49.9999976158143,0|0,0:0|0:0,0:0:0:0:
324,7,37611,6,0,L|333:106,1,99.9999952316284,2|0,0:0|0:0,0:0:0:0:
408,173,37963,1,0,0:0:0:0:
381,192,38080,2,0,L|372:291,1,99.9999952316284,8|0,0:0|0:0,0:0:0:0:
506,256,38549,5,4,0:0:0:0:
214,37,46049,5,2,0:0:0:0:
84,4,46517,1,8,0:0:0:0:
237,44,46986,5,2,0:0:0:0:
121,112,47455,2,0,L|130:211,1,99.9999952316284,8|0,0:0|0:0,0:0:0:0:
247,280,47924,6,0,L|256:181,1,99.9999952316284,2|0,0:0|0:0,0:0:0:0:
256,180,48392,1,8,0:0:0:0:
325,220,48627,1,0,0:0:0:0:
235,370,48861,6,0,L|85:383,1,149.999992847443,2|0,0:0|0:0,0:0:0:0:
64,369,49330,2,0,L|73:270,1,99.9999952316284,8|0,0:0|0:0,0:0:0:0:
256,180,49799,5,2,0:0:0:0:
156,240,50033,2,0,L|151:289,1,49.9999976158143,0|0,0:0|0:0,0:0:0:0:
167,110,50267,2,0,L|266:101,1,99.9999952316284,8|0,0:0|0:0,0:0:0:0:
398,134,50736,2,0,L|389:35,1,99.9999952316284,2|0,0:0|0:0,0:0:0:0:
361,151,51205,2,0,L|370:52,1,99.9999952316284,8|0,0:0|0:0,0:0:0:0:
394,260,51674,5,2,0:0:0:0:
394,260,53549,6,0,L|295:269,1,99.9999952316284,4|0,0:0|0:0,0:0:0:0:
231,125,54017,2,0,L|181:120,1,49.9999976158143,0|0,0:0|0:0,0:0:0:0:
296,180,54252,2,0,L|345:184,1,49.9999976158143,0|0,0:0|0:0,0:0:0:0:
219,214,54486,2,0,L|210:313,1,99.9999952316284,2|0,0:0|0:0,0:0:0:0:
102,206,54955,5,10,0:0:0:0:
99,230,55072,1,0,0:0:0:0:
97,255,55189,1,0,0:0:0:0:
115,89,55424,6,0,L|214:80,1,99.9999952316284,4|0,0:0|0:0,0:0:0:0:
379,67,55892,1,2,0:0:0:0:
299,139,56127,1,0,0:0:0:0:
303,163,56244,1,0,0:0:0:0:
308,187,56361,2,0,L|407:196,1,99.9999952316284,2|0,0:0|0:0,0:0:0:0:
403,220,56713,1,0,0:0:0:0:
398,244,56830,6,0,L|406:333,1,49.9999976158143,10|0,0:0|0:0,0:0:0:0:
502,148,57064,2,0,L|497:98,1,49.9999976158143,0|0,0:0|0:0,0:0:0:0:
407,196,57299,6,0,L|308:187,1,99.9999952316284,4|0,0:0|0:0,0:0:0:0:
492,335,57767,2,0,L|483:236,1,99.9999952316284,2|0,0:0|0:0,0:0:0:0:
324,280,58236,2,0,L|315:379,1,99.9999952316284,2|0,0:0|0:0,0:0:0:0:
343,368,58588,1,0,0:0:0:0:
371,357,58705,1,10,0:0:0:0:
386,173,58939,1,0,0:0:0:0:
302,299,59174,37,4,0:0:0:0:
252,294,59291,1,0,0:0:0:0:
202,289,59408,1,0,0:0:0:0:
357,192,59642,6,0,L|258:183,1,99.9999952316285,2|0,0:0|0:0,0:0:0:0:
151,239,59994,1,0,0:0:0:0:
138,253,60111,2,0,P|130:302|164:353,1,99.9999952316285,2|0,0:0|0:0,0:0:0:0:
202,289,60463,1,0,0:0:0:0:
184,173,60580,2,0,L|85:164,1,99.9999952316285,10|0,0:0|0:0,0:0:0:0:
237,38,61049,6,0,L|336:47,1,99.9999952316285,4|0,0:0|0:0,0:0:0:0:
502,62,61517,2,0,L|507:112,1,49.9999976158143,2|0,0:0|0:0,0:0:0:0:
398,144,61752,2,0,L|393:194,1,49.9999976158143
485,301,61986,6,0,L|476:202,1,99.9999952316285,2|0,0:0|0:0,0:0:0:0:
408,221,62338,1,0,0:0:0:0:
340,240,62455,2,0,L|349:339,1,99.9999952316285,10|0,0:0|0:0,0:0:0:0:
314,131,62924,6,0,L|215:140,1,99.9999952316285,4|0,0:0|0:0,0:0:0:0:
32,124,63392,1,2,0:0:0:0:
95,187,63627,2,0,P|98:228|94:252,1,49.9999976158143,0|0,0:0|0:0,0:0:0:0:
118,99,63861,2,0,P|106:50|108:0,1,99.9999952316285,2|0,0:0|0:0,0:0:0:0:
181,213,64330,6,0,L|280:204,1,99.9999952316285,10|0,0:0|0:0,0:0:0:0:
276,273,64681,1,0,0:0:0:0:
271,343,64799,6,0,L|370:352,1,99.9999952316285,4|0,0:0|0:0,0:0:0:0:
485,271,65267,2,0,L|494:172,1,99.9999952316285,2|0,0:0|0:0,0:0:0:0:
448,117,65619,1,0,0:0:0:0:
423,182,65736,2,0,L|414:281,1,99.9999952316285,2|0,0:0|0:0,0:0:0:0:
305,206,66205,2,0,L|206:197,1,99.9999952316285,10|0,0:0|0:0,0:0:0:0:
266,36,66674,5,4,0:0:0:0:
216,174,66908,1,0,0:0:0:0:
111,127,67142,5,2,0:0:0:0:
161,264,67377,2,0,L|158:315,1,49.9999976158143,0|0,0:0|0:0,0:0:0:0:
206,197,67611,2,0,L|305:206,1,99.9999952316285,2|0,0:0|0:0,0:0:0:0:
365,170,67963,1,0,0:0:0:0:
365,170,68080,2,0,P|375:223|347:264,1,99.9999952316285,10|0,0:0|0:0,0:0:0:0:
351,260,68549,5,2,0:0:0:0:
510,231,69017,5,2,0:0:0:0:
510,231,69252,1,2,0:0:0:0:
510,231,69486,1,2,0:0:0:0:
495,233,69603,1,2,0:0:0:0:
480,235,69720,1,2,0:0:0:0:
413,353,69955,2,0,L|512:362,1,99.9999952316285,2|0,0:0|0:0,0:0:0:0:
354,260,70424,6,0,L|255:269,1,99.9999952316285,8|0,0:0|0:0,0:0:0:0:
133,336,70892,2,0,L|232:345,1,99.9999952316285,8|8,0:0|0:0,0:0:0:0:
254,269,71244,1,0,0:0:0:0:
276,193,71361,6,0,L|271:143,2,49.9999976158143,0|0|8,0:0|0:0|0:0,0:0:0:0:
154,259,71830,2,0,L|163:160,1,99.9999952316285,8|0,0:0|0:0,0:0:0:0:
113,5,72299,6,0,L|104:104,1,99.9999952316285,8|0,0:0|0:0,0:0:0:0:
163,159,72650,1,0,0:0:0:0:
163,159,72767,2,0,L|212:154,1,49.9999976158143,8|0,0:0|0:0,0:0:0:0:
224,23,73002,2,0,L|273:18,1,49.9999976158143,8|0,0:0|0:0,0:0:0:0:
389,9,73236,6,0,L|393:58,2,49.9999976158143,0|8|8,0:0|0:0|0:0,0:0:0:0:
403,138,73705,2,0,L|394:237,1,99.9999952316285,8|0,0:0|0:0,0:0:0:0:
212,154,74174,6,0,L|311:145,1,99.9999952316285,8|0,0:0|0:0,0:0:0:0:
403,138,74525,1,0,0:0:0:0:
403,138,74642,2,0,L|394:237,1,99.9999952316285,8|8,0:0|0:0,0:0:0:0:
297,316,74994,1,0,0:0:0:0:
282,327,75111,6,0,L|274:247,1,49.9999976158143
397,362,75345,2,0,L|406:263,2,99.9999952316285,8|8|0,0:0|0:0|0:0,0:0:0:0:
274,241,76049,5,8,0:0:0:0:
243,266,76166,2,0,L|144:275,1,99.9999952316285,0|0,0:0|0:0,0:0:0:0:
112,249,76517,2,0,L|42:242,2,49.9999976158143,8|0|8,0:0|0:0|0:0,0:0:0:0:
129,42,76986,5,0,0:0:0:0:
126,66,77103,1,8,0:0:0:0:
124,91,77220,1,8,0:0:0:0:
23,24,77455,6,0,L|32:123,1,99.9999952316285,8|0,0:0|0:0,0:0:0:0:
210,73,77924,5,8,0:0:0:0:
210,73,78158,1,0,0:0:0:0:
349,65,78392,2,0,L|358:164,1,99.9999952316285,8|8,0:0|0:0,0:0:0:0:
467,89,78861,5,0,0:0:0:0:
467,89,79095,1,8,0:0:0:0:
328,81,79329,2,0,L|319:180,1,99.9999952316285,8|0,0:0|0:0,0:0:0:0:
236,101,79799,5,8,0:0:0:0:
236,101,80033,1,0,0:0:0:0:
348,95,80267,2,0,L|357:197,1,99.9999952316285,8|8,0:0|0:0,0:0:0:0:
442,114,80736,5,0,0:0:0:0:
442,114,80970,1,8,0:0:0:0:
331,107,81204,2,0,L|320:225,1,99.9999952316285,8|0,0:0|0:0,0:0:0:0:
466,328,81674,6,0,L|456:228,1,99.9999952316285,8|0,0:0|0:0,0:0:0:0:
356,194,82025,1,0,0:0:0:0:
321,206,82142,2,0,L|331:306,1,99.9999952316285,8|8,0:0|0:0,0:0:0:0:
307,115,82611,2,0,L|207:125,2,99.9999952316285,0|8|8,0:0|0:0|0:0,0:0:0:0:
307,115,83314,1,0,0:0:0:0:
101,139,83549,5,8,0:0:0:0:
170,8,83900,5,0,0:0:0:0:
167,32,84017,1,0,0:0:0:0:
41,22,84252,1,0,0:0:0:0:
101,139,84486,5,4,0:3:0:0:
104,163,84603,1,4,0:3:0:0:
106,188,84720,1,4,0:3:0:0:
164,56,84955,5,0,0:0:0:0:
116,286,85424,6,0,L|216:296,1,99.9999952316285,2|0,0:0|0:0,0:0:0:0:
32,246,85892,1,8,0:0:0:0:
106,188,86127,2,0,L|169:194,2,33.3333317438762
162,372,86361,6,0,L|62:362,1,99.9999952316285,2|0,0:0|0:0,0:0:0:0:
239,298,86830,2,0,P|248:246|241:196,1,99.9999952316285,8|0,0:0|0:0,0:0:0:0:
164,56,87299,5,2,0:0:0:0:
325,83,87533,1,0,0:0:0:0:
161,92,87767,1,8,0:0:0:0:
347,82,88002,2,0,L|437:91,1,49.9999976158143,0|0,0:0|0:0,0:0:0:0:
244,72,88236,6,0,L|234:172,1,99.9999952316285,2|0,0:0|0:0,0:0:0:0:
302,186,88588,1,0,0:0:0:0:
370,200,88705,2,0,L|360:300,1,99.9999952316285,8|0,0:0|0:0,0:0:0:0:
250,384,89174,6,0,L|350:374,1,99.9999952316285,2|0,0:0|0:0,0:0:0:0:
448,364,89642,1,8,0:0:0:0:
448,364,89877,1,0,0:0:0:0:
233,375,90111,6,0,L|333:365,1,99.9999952316285,2|0,0:0|0:0,0:0:0:0:
431,355,90579,1,8,0:0:0:0:
431,355,90814,1,0,0:0:0:0:
370,200,91049,5,2,0:0:0:0:
333,365,91283,1,0,0:0:0:0:
303,367,91400,1,0,0:0:0:0:
273,370,91517,1,8,0:0:0:0:
425,276,91752,2,0,L|515:285,1,49.9999976158143,0|0,0:0|0:0,0:0:0:0:
338,288,91986,6,0,L|238:298,1,99.9999952316285,2|0,0:0|0:0,0:0:0:0:
229,228,92338,1,0,0:0:0:0:
220,158,92455,2,0,L|120:148,1,99.9999952316285,8|0,0:0|0:0,0:0:0:0:
16,251,92924,6,0,L|6:351,1,99.9999952316285,2|0,0:0|0:0,0:0:0:0:
27,157,93392,1,8,0:0:0:0:
128,270,93627,2,0,L|177:274,2,33.3333317438762
220,158,93861,6,0,L|120:148,1,99.9999952316285,2|0,0:0|0:0,0:0:0:0:
128,270,94330,1,8,0:0:0:0:
180,77,94564,1,0,0:0:0:0:
229,228,94799,6,0,L|329:238,1,99.9999952316285,2|0,0:0|0:0,0:0:0:0:
350,61,95267,2,0,L|250:71,1,99.9999952316285,8|0,0:0|0:0,0:0:0:0:
256,139,95619,1,0,0:0:0:0:
263,209,95736,6,0,L|312:204,1,49.9999976158143,2|0,0:0|0:0,0:0:0:0:
298,338,95970,2,0,L|248:333,1,49.9999976158143,0|0,0:0|0:0,0:0:0:0:
363,278,96205,2,0,L|463:288,1,99.9999952316285,8|0,0:0|0:0,0:0:0:0:
215,330,96674,6,0,L|115:320,1,99.9999952316285,2|0,0:0|0:0,0:0:0:0:
121,252,97026,1,0,0:0:0:0:
128,182,97142,1,8,0:0:0:0:
111,351,97377,1,0,0:0:0:0:
58,211,97611,6,0,L|48:111,1,99.9999952316285,2|0,0:0|0:0,0:0:0:0:
206,148,98080,2,0,L|196:248,1,99.9999952316285,8|0,0:0|0:0,0:0:0:0:
140,43,98549,5,2,0:0:0:0:
283,116,98783,1,0,0:0:0:0:
286,140,98900,1,0,0:0:0:0:
288,165,99017,1,8,0:0:0:0:
220,12,99252,5,0,0:0:0:0:
223,36,99369,1,0,0:0:0:0:
225,61,99486,1,2,0:0:0:0:
363,84,99720,2,0,L|356:14,1,49.9999976158143,0|0,0:0|0:0,0:0:0:0:
374,184,99955,2,0,L|364:284,1,99.9999952316285,8|0,0:0|0:0,0:0:0:0:
468,125,100424,5,2,0:0:0:0:
288,165,101595,5,0,0:0:0:0:
244,222,101830,2,0,P|218:180|225:132,1,99.9999952316285,8|0,0:0|0:0,0:0:0:0:
225,131,102299,1,0,0:0:0:0:
225,131,102767,6,0,L|203:348,1,199.999990463257,8|0,0:0|0:0,0:0:0:0:
205,330,103705,1,8,0:0:0:0:
205,330,104174,1,0,0:0:0:0:
116,240,104408,6,0,L|216:230,2,99.9999952316285,0|8|0,0:0|0:0|0:0,0:0:0:0:
44,185,105111,2,0,L|54:85,2,99.9999952316285
32,274,105814,2,0,L|42:374,2,99.9999952316285
125,141,106517,6,0,L|225:131,1,99.9999952316285,8|0,0:0|0:0,0:0:0:0:
224,131,106986,2,0,L|324:141,1,99.9999952316285,0|0,0:0|0:0,0:0:0:0:
224,39,107455,1,8,0:0:0:0:
215,230,107924,5,2,0:0:0:0:
125,141,108392,1,8,0:0:0:0:
242,252,108861,6,0,L|342:262,1,99.9999952316285,2|0,0:0|0:0,0:0:0:0:
423,223,109330,2,0,P|431:279|411:320,2,99.9999952316285,8|0|2,0:0|0:0|0:0,0:0:0:0:
423,223,110033,1,0,0:0:0:0:
348,173,110267,2,0,P|329:127|338:78,1,99.9999952316285,8|0,0:0|0:0,0:0:0:0:
400,13,110736,6,0,L|500:23,1,99.9999952316285,2|0,0:0|0:0,0:0:0:0:
495,37,111088,1,0,0:0:0:0:
492,51,111205,2,0,L|502:151,1,99.9999952316285,8|0,0:0|0:0,0:0:0:0:
338,78,111674,6,0,L|238:88,1,99.9999952316285,2|0,0:0|0:0,0:0:0:0:
166,141,112142,2,0,L|66:131,1,99.9999952316285,8|0,0:0|0:0,0:0:0:0:
247,178,112611,2,0,P|258:229|245:278,2,99.9999952316285,2|0|8,0:0|0:0|0:0,0:0:0:0:
247,178,113314,1,0,0:0:0:0:
276,2,113549,1,2,0:0:0:0:
276,2,114955,5,0,0:0:0:0:
246,274,115424,6,0,L|147:283,1,99.9999952316284,4|0,0:0|0:0,0:0:0:0:
64,225,115892,2,0,P|57:183|62:153,1,49.9999976158143,2|0,0:0|0:0,0:0:0:0:
53,320,116127,2,0,P|52:344|46:369,1,49.9999976158143,0|0,0:0|0:0,0:0:0:0:
135,191,116361,6,0,L|234:182,1,99.9999952316284,2|0,0:0|0:0,0:0:0:0:
299,135,116713,1,0,0:0:0:0:
299,135,116830,2,0,P|313:84|285:39,1,99.9999952316285,10|0,0:0|0:0,0:0:0:0:
445,101,117299,6,0,L|454:200,1,99.9999952316284,4|0,0:0|0:0,0:0:0:0:
289,234,117767,2,0,L|298:135,1,99.9999952316284,2|0,0:0|0:0,0:0:0:0:
298,134,118119,1,0,0:0:0:0:
378,144,118236,6,0,L|369:243,1,99.9999952316284,2|0,0:0|0:0,0:0:0:0:
278,307,118705,1,10,0:0:0:0:
281,341,118822,1,0,0:0:0:0:
284,376,118939,2,0,L|333:380,1,49.9999976158143,0|0,0:0|0:0,0:0:0:0:
169,348,119174,6,0,L|70:357,1,99.9999952316284,4|0,0:0|0:0,0:0:0:0:
103,190,119642,1,2,0:0:0:0:
196,225,119877,2,0,L|245:229,1,49.9999976158143,0|0,0:0|0:0,0:0:0:0:
41,233,120111,6,0,P|28:178|57:129,1,99.9999952316285,2|0,0:0|0:0,0:0:0:0:
45,140,120463,1,0,0:0:0:0:
117,105,120580,2,0,P|122:67|111:35,1,49.9999976158143,10|0,0:0|0:0,0:0:0:0:
119,55,120814,1,0,0:0:0:0:
255,97,121049,6,0,L|304:101,1,49.9999976158143,4|0,0:0|0:0,0:0:0:0:
451,65,121283,2,0,P|427:107|444:153,2,99.9999952316285,0|2|0,0:0|0:0|0:0,0:0:0:0:
495,113,121869,1,0,0:0:0:0:
393,193,121986,6,0,L|402:292,1,99.9999952316284,2|0,0:0|0:0,0:0:0:0:
354,342,122338,2,0,P|399:362|445:347,1,99.9999952316285,2|0,0:0|0:0,0:0:0:0:
470,287,122689,2,0,L|465:237,1,49.9999976158143,2|0,0:0|0:0,0:0:0:0:
292,276,122924,6,0,P|243:254|185:286,1,99.9999952316285,4|0,0:0|0:0,0:0:0:0:
138,332,123392,2,0,L|39:323,1,99.9999952316285,2|0,0:0|0:0,0:0:0:0:
29,252,123744,1,0,0:0:0:0:
20,182,123861,1,2,0:0:0:0:
257,155,124095,6,0,L|248:254,1,99.9999952316284,0|10,0:0|0:0,0:0:0:0:
266,74,124564,2,0,L|315:78,1,49.9999976158143,0|0,0:0|0:0,0:0:0:0:
191,111,124799,6,0,L|92:120,1,99.9999952316284,4|0,0:0|0:0,0:0:0:0:
148,245,125267,2,0,L|247:254,1,99.9999952316284,2|0,0:0|0:0,0:0:0:0:
247,254,125619,1,0,0:0:0:0:
331,266,125736,6,0,L|340:167,1,99.9999952316284,2|0,0:0|0:0,0:0:0:0:
282,329,126205,6,0,L|277:378,1,49.9999976158143,10|0,0:0|0:0,0:0:0:0:
401,278,126439,2,0,L|405:228,1,49.9999976158143,0|0,0:0|0:0,0:0:0:0:
415,87,126674,6,0,L|316:78,1,99.9999952316284,4|0,0:0|0:0,0:0:0:0:
161,133,127142,2,0,L|152:34,1,99.9999952316284,2|0,0:0|0:0,0:0:0:0:
234,55,127494,1,0,0:0:0:0:
315,77,127611,2,0,L|306:176,1,99.9999952316284,2|0,0:0|0:0,0:0:0:0:
136,219,128080,6,0,L|128:139,1,49.9999976158143,10|0,0:0|0:0,0:0:0:0:
232,253,128314,2,0,L|223:352,1,99.9999952316284,0|4,0:0|0:0,0:0:0:0:
305,176,128783,5,0,0:0:0:0:
400,230,129017,2,0,P|415:178|396:121,1,99.9999952316285,2|0,0:0|0:0,0:0:0:0:
388,114,129369,1,0,0:0:0:0:
367,99,129486,6,0,L|268:90,1,99.9999952316284,2|0,0:0|0:0,0:0:0:0:
195,115,129838,1,0,0:0:0:0:
195,115,129955,2,0,P|195:66|225:27,1,99.9999952316285,10|0,0:0|0:0,0:0:0:0:
232,253,130424,5,4,0:0:0:0:
502,190,130892,5,2,0:0:0:0:
406,244,131127,2,0,P|353:227|326:195,1,49.9999976158143,0|0,0:0|0:0,0:0:0:0:
406,134,131361,2,0,L|415:35,2,99.9999952316284,2|0|10,0:0|0:0|0:0,0:0:0:0:
384,342,132299,5,4,0:0:0:0:
358,230,132533,1,0,0:0:0:0:
316,380,132767,1,2,0:0:0:0:
368,194,133002,2,0,L|372:141,1,49.9999976158143,0|0,0:0|0:0,0:0:0:0:
267,273,133236,2,0,L|168:282,2,99.9999952316284,2|0|10,0:0|0:0|0:0,0:0:0:0:
89,289,133939,1,0,0:0:0:0:
86,313,134056,1,0,0:0:0:0:
83,337,134174,5,4,0:0:0:0:
123,212,134408,1,0,0:0:0:0:
61,95,134642,2,0,P|18:129|-1:181,1,99.9999952316285,2|0,0:0|0:0,0:0:0:0:
162,120,135111,2,0,L|171:21,1,99.9999952316284,2|0,0:0|0:0,0:0:0:0:
171,20,135463,1,0,0:0:0:0:
248,54,135580,2,0,L|239:153,1,99.9999952316284,10|0,0:0|0:0,0:0:0:0:
375,94,136049,5,4,0:0:0:0:
373,118,136166,1,0,0:0:0:0:
371,143,136283,1,0,0:0:0:0:
364,288,136517,6,0,L|463:279,1,99.9999952316284,2|0,0:0|0:0,0:0:0:0:
305,240,136986,2,0,P|291:300|318:345,1,99.9999952316285,2|0,0:0|0:0,0:0:0:0:
306,332,137338,1,0,0:0:0:0:
243,382,137455,2,0,L|144:373,1,99.9999952316284,10|0,0:0|0:0,0:0:0:0:
0,356,137924,5,4,0:0:0:0:
110,109,138392,5,2,0:0:0:0:
27,145,138627,2,0,P|19:103|30:69,1,49.9999976158143,0|0,0:0|0:0,0:0:0:0:
97,201,138861,2,0,L|196:210,1,99.9999952316284,2|0,0:0|0:0,0:0:0:0:
211,223,139213,1,0,0:0:0:0:
225,236,139330,2,0,L|324:227,1,99.9999952316284,10|0,0:0|0:0,0:0:0:0:
243,45,139799,5,4,0:0:0:0:
234,136,140033,2,0,L|225:235,1,99.9999952316284,0|2,0:0|0:0,0:0:0:0:
318,98,140502,2,0,L|367:102,1,49.9999976158143,0|0,0:0|0:0,0:0:0:0:
420,148,140736,2,0,P|438:99|413:48,2,99.9999952316285,2|0|10,0:0|0:0|0:0,0:0:0:0:
420,148,141439,1,0,0:0:0:0:
408,328,141674,6,0,L|309:337,1,99.9999952316284,4|0,0:0|0:0,0:0:0:0:
461,283,142142,2,0,P|477:329|459:374,2,99.9999952316285,2|0|2,0:0|0:0|0:0,0:0:0:0:
394,259,142728,1,0,0:0:0:0:
446,213,142845,1,0,0:0:0:0:
336,135,143080,2,0,L|327:234,1,99.9999952316284,10|0,0:0|0:0,0:0:0:0:
162,138,143549,6,0,L|153:39,1,99.9999952316284,4|0,0:0|0:0,0:0:0:0:
242,85,144017,1,2,0:0:0:0:
67,126,144252,1,0,0:0:0:0:
191,168,144486,6,0,L|182:267,1,99.9999952316284,2|0,0:0|0:0,0:0:0:0:
124,307,144838,1,0,0:0:0:0:
124,307,144955,2,0,P|170:338|222:324,2,99.9999952316285,10|0|4,0:0|0:0|0:0,0:0:0:0:
191,168,147767,6,0,L|176:326,2,149.999998569489,0|0|0,0:0|0:0|0:0,0:0:0:0:
204,7,148939,2,0,L|207:46,1,37.4999996423721,0|0,0:0|0:0,0:0:0:0:
311,122,149174,6,0,L|414:130,1,99.9999952316285,2|0,0:0|0:0,0:0:0:0:
410,130,149525,1,0,0:0:0:0:
494,142,149642,2,0,L|502:241,1,99.9999952316285,0|0,0:0|0:0,0:0:0:0:
502,241,149994,1,0,0:0:0:0:
343,313,150111,6,0,L|351:213,1,99.9999952316285,8|0,0:0|0:0,0:0:0:0:
483,315,150580,6,0,L|487:364,1,49.9999976158143,0|0,0:0|0:0,0:0:0:0:
416,330,150814,2,0,L|420:379,1,49.9999976158143,0|0,0:0|0:0,0:0:0:0:
261,253,151049,6,0,L|157:261,1,99.9999952316285,2|0,0:0|0:0,0:0:0:0:
161,261,151400,1,0,0:0:0:0:
85,227,151517,2,0,P|79:276|101:321,1,99.9999952316285,0|0,0:0|0:0,0:0:0:0:
101,321,151869,1,0,0:0:0:0:
155,171,151986,6,0,L|163:67,1,99.9999952316285,8|0,0:0|0:0,0:0:0:0:
163,71,152337,1,0,0:0:0:0:
257,133,152455,5,0,0:0:0:0:
61,109,152689,1,0,0:0:0:0:
257,133,152924,6,0,L|360:141,1,99.9999952316285,2|0,0:0|0:0,0:0:0:0:
356,141,153275,1,0,0:0:0:0:
432,103,153392,2,0,P|444:67|443:34,1,49.9999976158143,0|0,0:0|0:0,0:0:0:0:
444,55,153627,1,0,0:0:0:0:
433,187,153861,6,0,L|440:280,2,49.9999976158143,8|0|0,0:0|0:0|0:0,0:0:0:0:
261,253,154330,2,0,L|256:302,2,49.9999976158143,0|0|0,0:0|0:0|0:0,0:0:0:0:
450,351,154799,6,0,L|350:359,1,99.9999952316285,2|0,0:0|0:0,0:0:0:0:
350,359,155150,1,0,0:0:0:0:
256,302,155267,2,0,L|156:293,1,99.9999952316285
156,293,155618,1,0,0:0:0:0:
35,286,155736,6,0,L|39:335,1,49.9999976158143,8|0,0:0|0:0,0:0:0:0:
105,193,155970,2,0,L|109:143,1,49.9999976158143,0|0,0:0|0:0,0:0:0:0:
156,293,156205,2,0,L|256:302,1,99.9999952316285,0|0,0:0|0:0,0:0:0:0:
306,137,156674,5,2,0:0:0:0:
306,137,156791,1,0,0:0:0:0:
306,137,156908,2,0,L|256:141,1,49.9999976158143,0|0,0:0|0:0,0:0:0:0:
136,151,157142,2,0,L|145:51,1,99.9999952316285
144,51,157494,1,0,0:0:0:0:
224,49,157611,6,0,L|294:43,1,49.9999976158143,8|0,0:0|0:0,0:0:0:0:
422,72,157845,2,0,L|352:65,1,49.9999976158143,0|0,0:0|0:0,0:0:0:0:
306,137,158080,2,0,L|297:237,1,99.9999952316285
297,236,158431,1,0,0:0:0:0:
406,200,158549,6,0,P|412:255|385:315,1,99.9999952316285,2|0,0:0|0:0,0:0:0:0:
397,296,158900,1,0,0:0:0:0:
321,383,159017,2,0,L|314:313,1,49.9999976158143,0|0,0:0|0:0,0:0:0:0:
301,186,159252,2,0,L|297:236,1,49.9999976158143,0|0,0:0|0:0,0:0:0:0:
126,308,159486,6,0,L|226:299,1,99.9999952316285,8|0,0:0|0:0,0:0:0:0:
225,299,159838,1,0,0:0:0:0:
174,218,159955,1,0,0:0:0:0:
159,213,160072,1,0,0:0:0:0:
159,198,160189,1,0,0:0:0:0:
174,193,160306,1,0,0:0:0:0:
182,205,160424,6,0,L|173:105,1,99.9999952316285,2|0,0:0|0:0,0:0:0:0:
173,105,160775,1,0,0:0:0:0:
55,150,160892,6,0,L|64:50,1,99.9999952316285,0|0,0:0|0:0,0:0:0:0:
63,50,161243,1,0,0:0:0:0:
141,4,161361,6,0,L|191:0,1,49.9999976158143,8|0,0:0|0:0,0:0:0:0:
327,74,161595,2,0,L|277:69,1,49.9999976158143,0|0,0:0|0:0,0:0:0:0:
153,30,161830,6,0,L|203:25,1,49.9999976158143,0|0,0:0|0:0,0:0:0:0:
315,100,162064,2,0,L|265:95,1,49.9999976158143,0|0,0:0|0:0,0:0:0:0:
432,48,162299,6,0,L|423:148,2,66.6666634877523,2|0|0,0:0|0:0|0:0,0:0:0:0:
315,100,162767,6,0,L|320:166,2,66.6666634877523,0|0|0,0:0|0:0|0:0,0:0:0:0:
432,236,163236,6,0,L|332:245,1,99.9999952316285,8|0,0:0|0:0,0:0:0:0:
267,283,163588,2,0,L|167:274,1,99.9999952316285,0|0,0:0|0:0,0:0:0:0:
335,319,163939,2,0,L|339:369,1,49.9999976158143,0|0,0:0|0:0,0:0:0:0:
224,180,164174,5,2,0:0:0:0:
102,71,170033,5,0,0:0:0:0:
263,79,170267,2,0,L|272:179,1,99.9999952316285,0|0,0:0|0:0,0:0:0:0:
183,268,170736,6,0,L|283:277,1,99.9999952316285,0|0,0:0|0:0,0:0:0:0:
83,259,171205,1,0,0:0:0:0:
372,220,171674,6,0,L|472:211,1,99.9999952316285,4|0,0:0|0:0,0:0:0:0:
369,320,172142,2,0,L|429:314,1,49.9999976158143
282,276,172377,2,0,L|232:271,1,49.9999976158143,0|0,0:0|0:0,0:0:0:0:
372,220,172611,2,0,L|381:120,1,99.9999952316285,2|0,0:0|0:0,0:0:0:0:
263,79,173080,5,10,0:0:0:0:
264,98,173197,1,0,0:0:0:0:
266,118,173314,2,0,L|216:113,1,49.9999976158143,0|0,0:0|0:0,0:0:0:0:
70,98,173549,6,0,L|79:198,1,99.9999952316285,4|0,0:0|0:0,0:0:0:0:
69,382,174017,5,2,0:0:0:0:
13,298,174252,1,0,0:0:0:0:
20,285,174369,1,0,0:0:0:0:
27,272,174486,2,0,L|127:281,1,99.9999952316285,2|0,0:0|0:0,0:0:0:0:
182,332,174838,1,0,0:0:0:0:
237,281,174955,2,0,P|246:232|234:181,1,99.9999952316285,10|0,0:0|0:0,0:0:0:0:
464,254,175424,6,0,L|364:245,1,99.9999952316285,4|0,0:0|0:0,0:0:0:0:
505,349,175892,1,2,0:0:0:0:
455,344,176009,1,0,0:0:0:0:
405,340,176126,1,0,0:0:0:0:
473,164,176361,5,2,0:0:0:0:
364,245,176595,2,0,L|294:238,1,49.9999976158143,0|0,0:0|0:0,0:0:0:0:
306,68,176830,2,0,L|406:77,1,99.9999952316285,10|0,0:0|0:0,0:0:0:0:
228,152,177299,5,4,0:0:0:0:
203,154,177416,1,0,0:0:0:0:
178,156,177533,1,0,0:0:0:0:
37,69,177767,6,0,L|28:169,1,99.9999952316285,2|0,0:0|0:0,0:0:0:0:
86,208,178119,1,0,0:0:0:0:
143,247,178236,2,0,L|134:347,1,99.9999952316285,2|0,0:0|0:0,0:0:0:0:
131,371,178588,2,0,L|231:362,1,99.9999952316285,2|0,0:0|0:0,0:0:0:0:
314,240,178939,2,0,L|264:235,1,49.9999976158143,2|0,0:0|0:0,0:0:0:0:
339,350,179174,6,0,L|439:341,1,99.9999952316285,4|0,0:0|0:0,0:0:0:0:
455,161,179642,2,0,L|450:210,1,49.9999976158143,2|0,0:0|0:0,0:0:0:0:
507,260,179877,2,0,L|502:309,1,49.9999976158143,0|0,0:0|0:0,0:0:0:0:
467,83,180111,6,0,L|367:92,1,99.9999952316285,2|0,0:0|0:0,0:0:0:0:
304,49,180463,1,0,0:0:0:0:
298,123,180580,2,0,P|291:178|311:241,1,99.9999952316285,10|0,0:0|0:0,0:0:0:0:
300,220,180931,1,0,0:0:0:0:
202,137,181049,6,0,L|193:37,1,99.9999952316285,4|0,0:0|0:0,0:0:0:0:
46,70,181517,2,0,L|37:170,1,99.9999952316285,2|0,0:0|0:0,0:0:0:0:
110,185,181869,1,0,0:0:0:0:
184,200,181986,2,0,L|175:300,1,99.9999952316285,2|0,0:0|0:0,0:0:0:0:
175,299,182338,1,0,0:0:0:0:
65,347,182455,6,0,L|58:277,1,49.9999976158143,10|0,0:0|0:0,0:0:0:0:
174,319,182689,2,0,L|179:369,1,49.9999976158143,0|0,0:0|0:0,0:0:0:0:
291,319,182924,6,0,L|300:219,1,99.9999952316285,4|0,0:0|0:0,0:0:0:0:
363,81,183392,6,0,L|314:77,1,49.9999976158143,2|0,0:0|0:0,0:0:0:0:
416,168,183627,2,0,L|366:163,1,49.9999976158143,0|0,0:0|0:0,0:0:0:0:
512,76,183861,6,0,L|504:176,1,99.9999952316285,2|0,0:0|0:0,0:0:0:0:
460,230,184213,1,0,0:0:0:0:
417,285,184330,2,0,L|421:334,1,49.9999976158143,10|0,0:0|0:0,0:0:0:0:
291,319,184564,2,0,L|295:368,1,49.9999976158143,0|0,0:0|0:0,0:0:0:0:
331,190,184799,6,0,L|231:181,1,99.9999952316285,4|0,0:0|0:0,0:0:0:0:
174,319,185267,1,2,0:0:0:0:
246,147,185502,1,0,0:0:0:0:
211,153,185619,1,0,0:0:0:0:
176,160,185736,5,2,0:0:0:0:
331,190,185970,1,0,0:0:0:0:
149,230,186205,5,10,0:0:0:0:
306,218,186439,1,0,0:0:0:0:
97,171,186674,6,0,P|68:232|94:289,1,99.9999952316285,4|0,0:0|0:0,0:0:0:0:
211,153,187142,2,0,L|207:104,1,49.9999976158143,2|0,0:0|0:0,0:0:0:0:
149,230,187377,2,0,L|153:279,1,49.9999976158143,0|0,0:0|0:0,0:0:0:0:
163,376,187611,6,0,L|263:385,1,99.9999952316285,2|0,0:0|0:0,0:0:0:0:
262,384,187963,1,0,0:0:0:0:
343,257,188080,2,0,L|243:248,1,99.9999952316285,10|0,0:0|0:0,0:0:0:0:
455,354,188549,5,4,0:0:0:0:
485,199,188783,1,0,0:0:0:0:
427,329,189018,5,2,0:0:0:0:
415,172,189252,2,0,L|366:168,1,49.9999976158143,0|0,0:0|0:0,0:0:0:0:
243,248,189486,6,0,L|343:257,1,99.9999952316285,2|0,0:0|0:0,0:0:0:0:
402,89,189955,2,0,L|302:80,1,99.9999952316285,10|0,0:0|0:0,0:0:0:0:
302,80,190306,1,0,0:0:0:0:
211,153,190424,6,0,L|111:162,1,99.9999952316285,4|0,0:0|0:0,0:0:0:0:
20,271,190892,1,2,0:0:0:0:
59,274,191009,1,0,0:0:0:0:
99,277,191126,1,0,0:0:0:0:
111,162,191361,6,0,L|102:62,1,99.9999952316285,2|0,0:0|0:0,0:0:0:0:
102,62,191713,1,0,0:0:0:0:
211,153,191830,2,0,L|202:253,1,99.9999952316285,10|0,0:0|0:0,0:0:0:0:
176,367,192299,6,0,L|225:371,1,49.9999976158143,4|0,0:0|0:0,0:0:0:0:
225,371,192533,1,0,0:0:0:0:
99,277,192767,2,0,L|-1:286,1,99.9999952316285,2|0,0:0|0:0,0:0:0:0:
202,252,193236,6,0,L|302:261,1,99.9999952316285,2|0,0:0|0:0,0:0:0:0:
362,309,193588,2,0,P|379:262|364:215,1,99.9999952316285
293,337,193939,2,0,P|297:361|308:383,1,49.9999976158143,0|0,0:0|0:0,0:0:0:0:
465,263,194174,6,0,L|456:163,1,99.9999952316285,4|0,0:0|0:0,0:0:0:0:
302,80,194642,2,0,L|293:180,1,99.9999952316285,2|0,0:0|0:0,0:0:0:0:
293,179,194994,1,0,0:0:0:0:
202,252,195111,6,0,L|196:312,1,49.9999976158143,2|0,0:0|0:0,0:0:0:0:
137,156,195345,2,0,L|131:216,1,49.9999976158143,0|0,0:0|0:0,0:0:0:0:
197,73,195580,2,0,P|150:56|101:62,1,99.9999952316285,10|0,0:0|0:0,0:0:0:0:
302,80,196049,6,0,L|402:71,1,99.9999952316285,4|0,0:0|0:0,0:0:0:0:
456,163,196517,1,2,0:0:0:0:
504,63,196752,2,0,L|508:13,1,49.9999976158143,0|0,0:0|0:0,0:0:0:0:
456,163,196986,6,0,L|465:263,1,99.9999952316285,2|0,0:0|0:0,0:0:0:0:
403,306,197338,1,0,0:0:0:0:
334,276,197455,2,0,L|325:176,1,99.9999952316285,10|0,0:0|0:0,0:0:0:0:
325,176,197806,1,0,0:0:0:0:
340,353,197924,6,0,L|240:344,1,99.9999952316285,4|0,0:0|0:0,0:0:0:0:
47,384,198392,6,0,L|147:375,1,99.9999952316285,2|0,0:0|0:0,0:0:0:0:
162,306,198744,1,0,0:0:0:0:
177,237,198861,2,0,L|168:137,1,99.9999952316285,2|0,0:0|0:0,0:0:0:0:
29,206,199213,1,0,0:0:0:0:
29,206,199330,2,0,L|20:306,1,99.9999952316285,10|0,0:0|0:0,0:0:0:0:
37,106,199799,5,4,0:0:0:0:
168,137,200033,1,0,0:0:0:0:
47,33,200267,5,2,0:0:0:0:
177,103,200501,1,0,0:0:0:0:
201,99,200619,1,0,0:0:0:0:
225,96,200736,6,0,P|231:164|187:206,1,99.9999952316285,2|0,0:0|0:0,0:0:0:0:
238,287,201088,2,0,L|338:296,1,99.9999952316285,2|0,0:0|0:0,0:0:0:0:
152,254,201439,2,0,L|102:258,1,49.9999976158143,2|0,0:0|0:0,0:0:0:0:
215,188,201674,6,0,L|315:197,1,99.9999952316285,4|0,0:0|0:0,0:0:0:0:
396,257,202142,2,0,P|402:325|358:367,2,99.9999952316285,8|0|8,0:0|0:0|0:0,0:0:0:0:
396,257,202845,1,0,0:0:0:0:
414,240,202963,1,0,0:0:0:0:
432,223,203080,2,0,L|423:123,1,99.9999952316285,8|0,0:0|0:0,0:0:0:0:
273,92,203549,6,0,L|264:192,1,99.9999952316285,8|0,0:0|0:0,0:0:0:0:
207,29,204017,5,8,0:0:0:0:
358,61,204252,1,0,0:0:0:0:
181,113,204486,6,0,L|131:117,1,49.9999976158143,8|0,0:0|0:0,0:0:0:0:
8,55,204720,2,0,L|58:59,1,49.9999976158143,0|0,0:0|0:0,0:0:0:0:
22,149,204955,2,0,L|13:249,1,99.9999952316285,8|0,0:0|0:0,0:0:0:0:
177,328,205424,6,0,L|168:228,1,99.9999952316285,8|0,0:0|0:0,0:0:0:0:
168,228,205775,1,0,0:0:0:0:
264,192,205892,2,0,L|273:92,1,99.9999952316285,8|0,0:0|0:0,0:0:0:0:
257,283,206361,6,0,L|327:289,1,49.9999976158143,8|0,0:0|0:0,0:0:0:0:
306,287,206595,1,0,0:0:0:0:
512,272,206830,6,0,L|412:281,1,99.9999952316285,8|0,0:0|0:0,0:0:0:0:
492,105,207299,5,8,0:0:0:0:
467,102,207416,1,0,0:0:0:0:
442,100,207533,2,0,L|451:200,2,99.9999952316285,0|8|0,0:0|0:0|0:0,0:0:0:0:
512,272,208236,6,0,L|412:281,1,99.9999952316285,8|0,0:0|0:0,0:0:0:0:
412,280,208588,1,0,0:0:0:0:
263,191,208705,6,0,L|363:200,1,99.9999952316285,8|0,0:0|0:0,0:0:0:0:
300,365,209174,6,0,L|200:374,1,99.9999952316285,8|0,0:0|0:0,0:0:0:0:
168,228,209642,1,8,0:0:0:0:
90,275,209877,2,0,P|76:215|97:171,1,99.9999952316285,0|8,0:0|0:0,0:0:0:0:
118,350,210345,6,0,L|48:356,1,49.9999976158143,0|0,0:0|0:0,0:0:0:0:
168,228,210580,1,8,0:0:0:0:
197,230,210697,1,0,0:0:0:0:
227,233,210814,2,0,L|220:163,1,49.9999976158143,0|0,0:0|0:0,0:0:0:0:
209,44,211049,6,0,L|109:53,1,99.9999952316285,8|0,0:0|0:0,0:0:0:0:
268,116,211517,2,0,L|368:125,1,99.9999952316285,8|0,0:0|0:0,0:0:0:0:
222,183,211986,6,0,L|172:187,1,49.9999976158143,8|0,0:0|0:0,0:0:0:0:
209,44,212220,2,0,L|258:39,1,49.9999976158143,0|0,0:0|0:0,0:0:0:0:
435,28,212455,2,0,L|444:128,1,99.9999952316285,8|0,0:0|0:0,0:0:0:0:
311,193,212924,6,0,L|302:293,1,99.9999952316285,8|0,0:0|0:0,0:0:0:0:
302,292,213275,1,0,0:0:0:0:
358,341,213392,2,0,L|458:332,1,99.9999952316285,8|0,0:0|0:0,0:0:0:0:
289,371,213861,6,0,L|239:375,1,49.9999976158143,8|0,0:0|0:0,0:0:0:0:
227,210,214095,2,0,L|177:214,1,49.9999976158143,0|0,0:0|0:0,0:0:0:0:
77,223,214330,5,10,0:0:0:0:
112,54,214564,1,0,0:0:0:0:
175,194,214799,6,0,L|75:203,1,99.9999952316285,8|0,0:0|0:0,0:0:0:0:
139,366,215267,2,0,L|239:375,1,99.9999952316285,8|0,0:0|0:0,0:0:0:0:
316,227,215736,6,0,P|320:171|299:127,1,99.9999952316285,8|0,0:0|0:0,0:0:0:0:
343,60,216088,1,0,0:0:0:0:
361,54,216205,2,0,P|340:100|302:131,1,99.9999952316285,8|0,0:0|0:0,0:0:0:0:
222,63,216674,6,0,B|185:103|198:157|198:157|218:138,1,119.999990615845
