osu file format v14

[General]
AudioFilename: audio.mp3
AudioLeadIn: 0
PreviewTime: 51506
Countdown: 0
SampleSet: Soft
StackLeniency: 0.7
Mode: 0
LetterboxInBreaks: 0
WidescreenStoryboard: 0

[Editor]
Bookmarks: 38147,53147,68147,100022,115022,130022,145022,163772,171272,201272
DistanceSpacing: 1.3
BeatDivisor: 4
GridSize: 4
TimelineZoom: 1.3

[Metadata]
Title:Give me a break Stop now
TitleUnicode:ギミアブレスタッナウ
Artist:REOL
ArtistUnicode:れをる
Creator:Chaoslitz
Version:Stella's Normal
Source:
Tags:Σ Sigma ギガ giga お菊 okiku Toshitaka Shinoda Amana Ijigen MinG3012 Streliteela DreaM117er [_Drop_] Irreversible
BeatmapID:1066087
BeatmapSetID:497483

[Difficulty]
HPDrainRate:4
CircleSize:3.5
OverallDifficulty:4
ApproachRate:5
SliderMultiplier:1.2
SliderTickRate:1

[Events]
//Background and Video events
0,0,"bg.jpg",0,0
Video,-316,"opto.flv"
//Break Periods
2,163972,169397
//Storyboard Layer 0 (Background)
//Storyboard Layer 1 (Fail)
//Storyboard Layer 2 (Pass)
//Storyboard Layer 3 (Foreground)
//Storyboard Sound Samples

[TimingPoints]
647,468.75,4,2,1,60,1,0
2287,-100,4,2,1,60,0,0
2522,-100,4,2,1,60,0,0
3283,-100,4,2,1,10,0,0
3459,-100,4,2,1,60,0,0
6037,-100,4,2,1,60,0,0
6272,-100,4,2,1,60,0,0
6740,-100,4,2,1,60,0,0
6975,-100,4,2,1,60,0,0
7443,-100,4,2,1,60,0,0
8147,-100,4,2,1,70,0,0
19397,-100,4,2,1,70,0,0
23147,-100,4,2,1,70,0,0
38147,-100,4,2,1,50,0,0
38381,-100,4,2,2,50,0,0
39377,-100,4,2,2,10,0,0
39553,-100,4,2,2,50,0,0
45647,-100,4,2,1,60,0,0
46877,-100,4,2,1,10,0,0
47053,-100,4,2,1,60,0,0
51272,-100,4,2,1,60,0,0
52209,-100,4,2,1,60,0,0
52678,-100,4,2,1,60,0,0
53147,-90.9090909090909,4,2,1,80,0,1
54553,-90.9090909090909,4,2,2,80,0,1
55022,-90.9090909090909,4,2,1,80,0,1
56428,-90.9090909090909,4,2,2,80,0,1
56897,-90.9090909090909,4,2,1,80,0,1
58303,-90.9090909090909,4,2,2,80,0,1
58772,-90.9090909090909,4,2,2,70,0,1
59240,-90.9090909090909,4,2,1,80,0,1
59709,-90.9090909090909,4,2,1,80,0,1
60178,-90.9090909090909,4,2,1,80,0,1
60412,-90.9090909090909,4,2,1,80,0,1
60647,-90.9090909090909,4,2,1,80,0,1
62053,-90.9090909090909,4,2,2,80,0,1
62522,-90.9090909090909,4,2,1,80,0,1
63928,-90.9090909090909,4,2,2,80,0,1
64397,-90.9090909090909,4,2,1,80,0,1
65803,-90.9090909090909,4,2,2,80,0,1
66272,-90.9090909090909,4,2,1,80,0,1
66506,-90.9090909090909,4,2,1,80,0,1
67209,-90.9090909090909,4,2,1,80,0,1
67678,-90.9090909090909,4,2,1,80,0,1
67912,-90.9090909090909,4,2,1,80,0,1
68147,-100,4,2,1,50,0,0
69553,-100,4,2,1,60,0,0
70022,-100,4,2,1,70,0,0
71897,-100,4,2,1,70,0,0
72131,-100,4,2,1,70,0,0
73596,-100,4,2,1,10,0,0
73772,-100,4,2,1,70,0,0
74006,-100,4,2,1,70,0,0
75412,-100,4,2,1,70,0,0
75647,-100,4,2,1,70,0,0
76701,-100,4,2,1,70,0,0
77287,-100,4,2,1,70,0,0
77522,-100,4,2,1,70,0,0
77990,-100,4,2,1,70,0,0
78459,-100,4,2,1,70,0,0
78928,-100,4,2,1,70,0,0
79397,-100,4,2,1,70,0,0
79865,-100,4,2,1,70,0,0
80334,-100,4,2,1,70,0,0
80803,-100,4,2,1,70,0,0
81037,-100,4,2,1,70,0,0
81272,-100,4,2,1,70,0,0
83147,-100,4,2,1,70,0,0
84553,-100,4,2,1,70,0,0
85022,-100,4,2,1,70,0,0
100022,-100,4,2,1,50,0,0
100490,-100,4,2,2,50,0,0
101252,-100,4,2,2,10,0,0
101428,-100,4,2,2,50,0,0
101486,-100,4,2,2,10,0,0
101662,-100,4,2,2,50,0,0
107522,-100,4,2,1,60,0,0
108752,-100,4,2,1,10,0,0
108928,-100,4,2,1,60,0,0
108986,-100,4,2,1,10,0,0
109162,-100,4,2,1,60,0,0
113147,-100,4,2,1,60,0,0
114084,-100,4,2,1,60,0,0
114553,-100,4,2,1,60,0,0
115022,-90.9090909090909,4,2,1,80,0,1
116428,-90.9090909090909,4,2,2,80,0,1
116897,-90.9090909090909,4,2,1,80,0,1
118303,-90.9090909090909,4,2,2,80,0,1
118772,-90.9090909090909,4,2,1,80,0,1
120178,-90.9090909090909,4,2,2,80,0,1
120647,-90.9090909090909,4,2,2,70,0,1
121115,-90.9090909090909,4,2,1,80,0,1
121584,-90.9090909090909,4,2,1,80,0,1
122053,-90.9090909090909,4,2,1,80,0,1
122287,-90.9090909090909,4,2,1,80,0,1
122522,-90.9090909090909,4,2,1,80,0,1
123928,-90.9090909090909,4,2,2,80,0,1
124397,-90.9090909090909,4,2,1,80,0,1
125803,-90.9090909090909,4,2,2,80,0,1
126272,-90.9090909090909,4,2,1,80,0,1
127678,-90.9090909090909,4,2,2,80,0,1
128147,-90.9090909090909,4,2,1,80,0,1
128381,-90.9090909090909,4,2,1,80,0,1
129084,-90.9090909090909,4,2,1,80,0,1
129553,-90.9090909090909,4,2,1,80,0,1
129787,-90.9090909090909,4,2,1,80,0,1
130022,-90.9090909090909,4,2,1,80,0,1
131428,-90.9090909090909,4,2,2,80,0,1
131897,-90.9090909090909,4,2,1,80,0,1
133303,-90.9090909090909,4,2,2,80,0,1
133772,-90.9090909090909,4,2,1,80,0,1
135178,-90.9090909090909,4,2,2,80,0,1
135647,-90.9090909090909,4,2,2,70,0,1
136115,-90.9090909090909,4,2,1,80,0,1
136584,-90.9090909090909,4,2,1,80,0,1
137053,-90.9090909090909,4,2,1,80,0,1
137287,-90.9090909090909,4,2,1,80,0,1
137522,-90.9090909090909,4,2,1,80,0,1
138928,-90.9090909090909,4,2,2,80,0,1
139397,-90.9090909090909,4,2,1,80,0,1
140803,-90.9090909090909,4,2,2,80,0,1
141272,-90.9090909090909,4,2,1,80,0,1
142678,-90.9090909090909,4,2,2,80,0,1
143147,-90.9090909090909,4,2,1,80,0,1
143381,-90.9090909090909,4,2,1,80,0,1
144084,-90.9090909090909,4,2,1,80,0,1
144553,-90.9090909090909,4,2,1,80,0,1
144787,-90.9090909090909,4,2,1,80,0,1
145022,-133.333333333333,4,2,1,50,0,0
146428,-133.333333333333,4,2,1,10,0,0
148772,-100,4,2,1,60,0,0
149709,-100,4,2,3,60,0,0
149826,-100,4,2,1,60,0,0
149943,-100,4,2,1,60,0,0
151584,-100,4,2,3,60,0,0
151701,-100,4,2,1,60,0,0
152053,-100,4,2,1,60,0,0
152287,-100,4,2,2,60,0,0
152522,-100,4,2,1,60,0,0
153459,-100,4,2,3,60,0,0
153576,-100,4,2,1,60,0,0
155334,-100,4,2,3,60,0,0
155451,-100,4,2,1,60,0,0
155803,-100,4,2,2,60,0,0
156037,-100,4,2,1,60,0,0
156272,-100,4,2,1,70,0,0
157209,-100,4,2,3,70,0,0
157326,-100,4,2,1,70,0,0
159084,-100,4,2,3,70,0,0
159201,-100,4,2,1,70,0,0
160959,-100,4,2,3,70,0,0
161076,-100,4,2,1,70,0,0
162834,-100,4,2,3,70,0,0
162951,-100,4,2,1,70,0,0
163303,-100,4,2,1,70,0,0
163772,-100,4,2,2,70,0,0
164709,-100,4,2,3,70,0,0
164826,-100,4,2,1,70,0,0
166584,-100,4,2,3,70,0,0
166701,-100,4,2,1,70,0,0
168459,-100,4,2,3,70,0,0
168576,-100,4,2,1,70,0,0
170334,-100,4,2,1,70,0,0
170803,-100,4,2,1,70,0,0
171272,-90.9090909090909,4,2,1,80,0,1
172678,-90.9090909090909,4,2,2,80,0,1
173147,-90.9090909090909,4,2,1,80,0,1
174318,-90.9090909090909,4,2,1,80,0,1
174553,-90.9090909090909,4,2,2,80,0,1
175022,-90.9090909090909,4,2,1,80,0,1
176428,-90.9090909090909,4,2,2,80,0,1
176897,-90.9090909090909,4,2,2,70,0,1
177365,-90.9090909090909,4,2,1,80,0,1
177834,-90.9090909090909,4,2,1,80,0,1
178303,-90.9090909090909,4,2,1,80,0,1
178537,-90.9090909090909,4,2,1,80,0,1
178772,-90.9090909090909,4,2,1,80,0,1
180178,-90.9090909090909,4,2,2,80,0,1
180647,-90.9090909090909,4,2,1,80,0,1
182053,-90.9090909090909,4,2,2,80,0,1
182522,-90.9090909090909,4,2,1,80,0,1
183928,-90.9090909090909,4,2,2,80,0,1
184162,-90.9090909090909,4,2,1,80,0,1
184631,-90.9090909090909,4,2,1,80,0,1
186037,-90.9090909090909,4,2,1,80,0,1
186154,-90.9090909090909,4,2,1,80,0,1
186272,-90.9090909090909,4,2,1,80,0,1
187678,-90.9090909090909,4,2,2,80,0,1
188147,-90.9090909090909,4,2,1,80,0,1
189553,-90.9090909090909,4,2,2,80,0,1
190022,-90.9090909090909,4,2,1,80,0,1
191428,-90.9090909090909,4,2,2,80,0,1
191897,-90.9090909090909,4,2,2,70,0,1
192365,-90.9090909090909,4,2,1,80,0,1
192834,-90.9090909090909,4,2,1,80,0,1
193186,-90.9090909090909,4,2,1,80,0,1
193303,-90.9090909090909,4,2,1,80,0,1
193537,-90.9090909090909,4,2,1,80,0,1
193772,-90.9090909090909,4,2,1,80,0,1
195178,-90.9090909090909,4,2,2,80,0,1
195647,-90.9090909090909,4,2,1,80,0,1
197053,-90.9090909090909,4,2,2,80,0,1
197522,-90.9090909090909,4,2,1,80,0,1
198928,-90.9090909090909,4,2,2,80,0,1
199397,-90.9090909090909,4,2,1,80,0,1
199631,-90.9090909090909,4,2,1,80,0,1
200334,-90.9090909090909,4,2,1,80,0,1
200803,-90.9090909090909,4,2,1,80,0,1
201037,-90.9090909090909,4,2,1,80,0,1
201272,-100,4,2,1,60,0,0
206897,-100,4,2,2,60,0,0
207365,-100,4,2,1,60,0,0
207834,-100,4,2,1,60,0,0
208772,-100,4,2,1,60,0,0
215334,-100,4,2,1,60,0,0
215803,-100,4,2,1,60,0,0
216740,-100,4,2,1,10,0,0

[Colours]
Combo1 : 0,106,106
Combo2 : 192,192,192
Combo3 : 234,74,134
Combo4 : 130,130,130

[HitObjects]
256,192,647,5,8,0:0:0:0:
183,40,1115,2,0,P|149:49|120:59,1,60,0|8,0:0|0:0,0:0:0:0:
168,129,1584,2,0,P|134:138|105:148,1,60,0|0,0:0|0:0,0:0:0:0:
150,219,2053,2,0,P|116:228|87:238,2,60,8|2|8,0:0|0:0|0:0,0:0:0:0:
314,181,2990,6,0,P|348:190|377:200,1,60,0|8,0:0|0:0,0:0:0:0:
329,270,3459,2,0,P|363:279|392:289,1,60,0|8,0:0|0:0,0:0:0:0:
347,360,3928,2,0,P|381:369|410:379,2,60,8|0|8,0:0|0:0|0:0,0:0:0:0:
458,234,4865,6,0,P|452:186|450:164,1,60,2|10,0:0|0:0,0:0:0:0:
367,183,5334,2,0,P|361:135|359:113,1,60,0|0,0:0|0:0,0:0:0:0:
277,140,5803,2,0,P|271:92|269:70,2,60,8|2|0,0:0|0:0|3:0,0:0:0:0:
244,217,6506,6,0,B|206:245|163:225|163:225|136:250,1,120,0|8,0:0|0:0,0:0:0:0:
138,248,7561,2,0,P|108:217|108:169,1,90,0|0,0:0|3:0,0:0:0:0:
126,90,8147,5,4,0:0:0:0:
293,118,8615,1,8,0:0:0:0:
269,284,9084,1,4,0:1:0:0:
269,284,9318,2,0,L|261:347,2,60,0|8|0,0:0|0:0|0:0,0:0:0:0:
281,200,10022,5,4,0:1:0:0:
397,79,10490,2,0,P|404:121|407:139,2,60,8|0|4,0:0|0:0|0:1,0:0:0:0:
400,247,11428,2,0,P|348:258|331:260,1,60,8|0,0:0|0:0,0:0:0:0:
281,200,11897,5,4,0:1:0:0:
136,115,12365,2,0,P|165:111|205:105,1,60,10|2,0:0|0:0,0:0:0:0:
265,59,12834,2,0,P|278:90|277:118,1,60,4|2,0:1|0:0,0:0:0:0:
281,200,13303,2,0,P|268:231|269:259,1,60,8|0,0:0|0:0,0:0:0:0:
283,339,13772,6,0,P|234:332|215:330,1,60,4|0,0:1|0:0,0:0:0:0:
162,272,14240,2,0,P|113:279|94:281,1,60,10|2,0:0|0:0,0:0:0:0:
57,351,14709,1,4,0:1:0:0:
39,183,15178,2,0,P|36:143|33:115,1,60,8|0,0:0|0:0,0:0:0:0:
25,39,15647,5,4,0:0:0:0:
188,74,16115,1,8,0:0:0:0:
350,118,16584,2,0,P|345:155|340:182,1,60,4|0,0:1|0:0,0:0:0:0:
274,229,17053,2,0,P|277:258|283:288,1,60,8|0,0:0|0:0,0:0:0:0:
353,334,17522,6,0,P|388:326|422:323,2,60,4|0|8,0:1|0:0|0:0,0:0:0:0:
188,366,18459,1,4,0:1:0:0:
353,334,18928,2,0,P|388:326|422:323,1,60,8|0,0:0|0:0,0:0:0:0:
488,359,19397,5,4,0:0:0:0:
410,213,19865,1,10,0:0:0:0:
339,261,20100,1,2,0:0:0:0:
335,177,20334,2,0,P|332:136|323:102,2,60,4|0|8,0:1|0:0|0:0,0:0:0:0:
263,221,21037,1,0,0:0:0:0:
181,200,21272,6,0,P|146:192|112:189,1,60,4|0,0:1|0:0,0:0:0:0:
66,126,21740,2,0,L|74:83,2,30,8|0|2,0:0|0:0|0:0,0:0:0:0:
39,205,22209,2,0,P|51:252|55:282,1,60,4|0,0:1|3:0,0:0:0:0:
54,347,22678,1,8,0:0:0:0:
206,276,23147,5,4,0:0:0:0:
351,363,23615,1,8,0:0:0:0:
351,363,23850,2,0,P|387:357|414:352,1,60,0|4,0:0|0:1,0:0:0:0:
490,317,24318,2,0,P|488:346|489:376,2,60,0|8|0,0:0|0:0|0:0,0:0:0:0:
421,265,25022,6,0,B|417:229|411:200,1,60,4|0,0:1|0:0,0:0:0:0:
395,123,25490,1,8,0:0:0:0:
257,26,25959,1,4,0:1:0:0:
239,107,26193,2,0,B|234:130|230:166,2,60,0|8|0,0:0|0:0|0:0,0:0:0:0:
257,26,26897,5,4,0:1:0:0:
328,177,27365,1,10,0:0:0:0:
273,241,27600,2,0,P|246:247|212:251,1,60,2|4,0:0|0:1,0:0:0:0:
380,270,28303,1,8,0:0:0:0:
325,334,28538,2,0,P|298:340|264:344,1,60,0|4,0:0|0:1,0:0:0:0:
183,330,29006,6,0,P|159:326|124:326,2,60,0|10|2,0:0|0:0|0:0,0:0:0:0:
213,250,29709,2,0,P|220:213|219:184,1,60,4|0,0:1|0:0,0:0:0:0:
138,167,30178,2,0,P|137:196|131:226,1,60,8|0,0:0|0:0,0:0:0:0:
59,269,30647,5,4,0:0:0:0:
27,104,31115,1,8,0:0:0:0:
179,33,31584,1,4,0:1:0:0:
179,33,31818,2,0,P|214:38|249:48,2,60,0|8|0,0:0|0:0|0:0,0:0:0:0:
115,88,32522,6,0,P|85:95|56:99,1,60,4|0,0:1|0:0,0:0:0:0:
72,18,32990,1,8,0:0:0:0:
101,181,33459,1,4,0:1:0:0:
183,167,33693,2,0,P|229:159|248:157,2,60,0|8|0,0:0|0:0|0:0,0:0:0:0:
101,181,34397,6,0,P|74:237|90:308,1,120,4|10,0:1|0:0,0:0:0:0:
233,364,35334,2,0,P|260:308|244:237,1,120,4|8,0:1|0:0,0:0:0:0:
90,297,36272,6,0,P|128:292|159:292,1,60,4|0,0:1|0:0,0:0:0:0:
186,216,36740,2,0,P|215:216|245:219,1,60,8|2,0:0|0:0,0:0:0:0:
285,293,37209,2,0,P|333:327|417:251,1,180,4|0,0:1|0:0,0:0:0:0:
433,180,38147,5,4,0:0:0:0:
368,25,38615,1,8,0:2:0:0:
226,115,39084,2,0,P|231:156|235:179,1,60,0|2,0:0|0:0,0:0:0:0:
298,234,39553,2,0,P|290:263|285:292,2,60,8|2|0,0:0|0:0|0:0,0:0:0:0:
292,66,40490,6,0,P|243:31|175:50,1,120,8|0,0:0|0:0,0:0:0:0:
41,126,41428,1,10,0:0:0:0:
173,230,41897,5,0,0:0:0:0:
85,373,42365,2,0,P|127:362|158:361,1,60,10|2,0:0|0:0,0:0:0:0:
225,341,42834,2,0,P|238:307|238:278,1,60,2|0,0:0|0:0,0:0:0:0:
173,230,43303,2,0,P|163:192|163:163,1,60,10|2,0:0|0:0,0:0:0:0:
292,66,44006,5,0,0:0:0:0:
292,66,44240,2,0,P|346:74|364:75,1,60,8|2,0:0|0:0,0:0:0:0:
418,130,44709,2,0,P|427:167|422:199,1,60,0|0,0:0|0:0,0:0:0:0:
403,274,45178,1,8,0:0:0:0:
237,301,45647,5,4,0:1:0:0:
237,301,45881,2,0,P|231:263|231:233,2,60,0|8|0,0:0|0:0|0:0,0:0:0:0:
304,351,46584,2,0,P|364:356|397:294,1,120,4|8,0:1|0:0,0:0:0:0:
413,229,47287,1,2,0:0:0:0:
383,150,47522,5,4,0:1:0:0:
237,66,47990,2,0,P|226:102|223:136,1,60,8|0,0:0|0:0,0:0:0:0:
217,208,48459,1,4,0:1:0:0:
147,161,48693,2,0,P|108:163|79:167,2,60,0|10|0,0:0|0:0|0:0,0:0:0:0:
217,208,49397,5,4,0:1:0:0:
117,73,49865,1,8,0:0:0:0:
25,213,50334,2,0,P|46:233|81:239,1,60,2|2,0:0|0:0,0:0:0:0:
158,217,50803,2,0,P|186:208|217:208,1,60,8|0,0:0|0:0,0:0:0:0:
289,250,51272,5,8,0:1:0:0:
289,250,52678,2,0,L|282:323,1,60,8|0,0:0|0:0,0:0:0:0:
351,359,53147,6,0,P|405:338|403:258,1,132.00000402832,4|4,0:0|0:1,0:0:0:0:
376,192,53850,1,2,0:3:0:0:
376,192,54084,2,0,B|339:187|339:187|302:206,1,66.0000020141602,4|2,0:1|0:3,0:0:0:0:
262,130,54553,2,0,P|265:67|323:41,1,132.00000402832,4|4,0:1|0:1,0:0:0:0:
469,128,55490,6,0,P|437:134|403:117,1,66.0000020141602,4|2,0:1|0:3,0:0:0:0:
386,32,55959,2,0,P|350:42|309:37,1,66.0000020141602,4|2,0:1|0:3,0:0:0:0:
256,96,56428,2,0,P|219:147|156:136,1,132.00000402832,4|4,0:1|0:1,0:0:0:0:
35,16,57365,6,0,P|53:46|59:79,1,66.0000020141602,4|2,0:1|0:3,0:0:0:0:
75,160,57834,2,0,P|65:205|50:235,1,66.0000020141602,4|2,0:1|0:3,0:0:0:0:
7,293,58303,2,0,P|61:310|128:271,1,132.00000402832,4|2,0:1|0:1,0:0:0:0:
281,339,59240,6,0,P|231:341|207:347,1,66.0000020141602,4|0,0:1|0:0,0:0:0:0:
205,259,59709,2,0,P|237:253|270:253,1,66.0000020141602,0|0,3:0|0:1,0:0:0:0:
348,288,60178,1,8,0:0:0:0:
374,118,60647,6,0,P|420:163|394:232,1,132.00000402832,4|4,0:0|0:1,0:0:0:0:
348,288,61350,2,0,P|345:329|345:355,2,66.0000020141602,2|4|2,0:3|0:1|0:3,0:0:0:0:
284,229,62053,2,0,P|218:209|166:252,1,132.00000402832,4|4,0:1|0:1,0:0:0:0:
48,115,62990,6,0,P|80:125|120:125,1,66.0000020141602,4|2,0:1|0:3,0:0:0:0:
160,54,63459,2,0,P|192:44|232:44,1,66.0000020141602,4|2,0:1|0:3,0:0:0:0:
291,97,63928,2,0,P|315:159|276:213,1,132.00000402832,4|4,0:1|0:1,0:0:0:0:
204,363,64865,6,0,P|189:333|186:296,1,66.0000020141602,4|2,0:1|0:3,0:0:0:0:
175,215,65334,2,0,P|180:177|199:148,1,66.0000020141602,4|2,0:1|0:3,0:0:0:0:
266,107,65803,2,0,P|324:104|368:173,1,132.00000402832,4|4,0:1|0:1,0:0:0:0:
266,296,66740,5,4,0:1:0:0:
103,243,67209,1,0,3:0:0:0:
103,71,67678,1,8,0:0:0:0:
266,19,68147,5,4,0:0:0:0:
266,19,68615,2,0,P|272:51|277:80,1,60,2|2,0:0|0:0,0:0:0:0:
351,116,69084,2,0,L|345:160,2,30,0|0|0,0:0|0:0|0:0,0:0:0:0:
417,64,69553,1,0,0:0:0:0:
442,230,70022,5,8,0:0:0:0:
442,230,70490,2,0,B|408:233|376:223,1,60,0|0,3:0|3:0,0:0:0:0:
315,276,70959,2,0,L|318:317,2,30,2|0|2,0:0|0:0|0:0,0:0:0:0:
241,234,71428,2,0,P|245:187|250:155,1,60,2|2,0:0|0:0,0:0:0:0:
264,92,71897,5,8,0:0:0:0:
103,41,72365,2,0,P|109:87|111:114,1,60,0|0,3:0|3:0,0:0:0:0:
132,181,72834,2,0,L|128:221,2,30,2|0|2,0:0|0:0|0:0,0:0:0:0:
49,162,73303,2,0,P|43:200|39:231,1,60,2|2,0:0|0:0,0:0:0:0:
55,304,73772,5,2,0:0:0:0:
213,358,74240,2,0,P|259:350|283:350,1,60,0|0,3:0|3:0,0:0:0:0:
312,275,74709,2,0,L|307:237,2,30,2|0|0,0:0|0:0|0:0,0:0:0:0:
389,308,75178,2,0,P|384:350|382:375,1,60,2|0,0:0|0:0,0:0:0:0:
466,357,75647,6,0,P|484:298|452:242,1,120,0|0,3:0|3:0,0:0:0:0:
329,141,76584,2,0,L|323:188,2,30,0|0|2,0:0|0:0|0:0,0:0:0:0:
276,75,77053,2,0,P|243:74|211:93,1,60,2|0,0:0|0:0,0:0:0:0:
206,168,77522,5,2,0:0:0:0:
122,160,77756,2,0,P|77:156|53:155,2,60,2|0|0,0:0|3:0|3:0,0:0:0:0:
206,168,78459,1,2,0:0:0:0:
194,251,78693,2,0,P|190:296|189:320,2,60,2|0|0,0:0|3:0|0:0,0:0:0:0:
206,168,79397,5,2,0:0:0:0:
288,181,79631,2,0,P|333:185|357:186,2,60,2|0|0,0:0|3:0|3:0,0:0:0:0:
206,168,80334,1,2,0:0:0:0:
219,85,80568,2,0,P|223:40|224:16,2,60,2|2|0,0:0|0:0|3:0,0:0:0:0:
206,168,81272,6,0,P|214:203|216:237,1,60,0|0,3:0|0:0,0:0:0:0:
225,310,81740,1,2,0:0:0:0:
146,340,81975,2,0,P|107:348|77:345,2,60,2|0|0,0:0|0:0|0:0,0:0:0:0:
225,310,82678,2,0,P|266:309|294:317,1,60,0|0,3:0|0:0,0:0:0:0:
359,351,83147,5,6,0:0:0:0:
359,351,83615,2,0,L|371:283,1,60,2|2,0:0|0:3,0:0:0:0:
310,232,84084,2,0,L|304:189,2,30,8|4|4,0:3|0:3|0:3,0:0:0:0:
284,313,84553,2,0,P|254:307|225:310,1,60,8|0,0:3|0:0,0:0:0:0:
224,310,85022,6,0,P|196:343|118:329,1,120,4|8,0:0|0:0,0:0:0:0:
61,179,85959,2,0,P|94:169|128:169,1,60,4|0,0:1|0:0,0:0:0:0:
199,194,86428,2,0,P|232:207|268:204,1,60,8|0,0:0|0:0,0:0:0:0:
330,167,86897,6,0,P|341:129|334:94,1,60,4|0,0:1|0:0,0:0:0:0:
282,46,87365,1,8,0:0:0:0:
199,194,87834,2,0,B|204:245|208:264,1,60,4|0,0:1|0:0,0:0:0:0:
196,337,88303,2,0,P|231:330|265:329,1,60,8|0,0:0|0:0,0:0:0:0:
337,348,88772,5,4,0:1:0:0:
363,182,89240,2,0,P|359:141|352:118,1,60,10|2,0:0|0:0,0:0:0:0:
321,45,89709,1,4,0:1:0:0:
444,159,90178,2,0,P|440:118|433:95,1,60,8|0,0:0|0:0,0:0:0:0:
402,22,90647,5,4,0:1:0:0:
321,45,90881,2,0,P|284:53|254:53,2,60,0|10|2,0:0|0:0|0:0,0:0:0:0:
335,128,91584,2,0,P|305:135|275:136,1,60,4|0,0:1|0:0,0:0:0:0:
292,219,92053,2,0,P|321:217|351:210,1,60,8|0,0:0|0:0,0:0:0:0:
418,160,92522,5,4,0:0:0:0:
401,326,92990,1,8,0:0:0:0:
418,160,93459,2,0,P|430:197|432:230,2,60,4|0|8,0:1|0:0|0:0,0:0:0:0:
384,82,94162,1,0,0:0:0:0:
316,32,94397,5,4,0:1:0:0:
159,91,94865,1,8,0:0:0:0:
176,258,95334,2,0,P|165:229|161:200,1,60,4|0,0:1|0:0,0:0:0:0:
81,224,95803,2,0,P|85:253|95:281,1,60,8|0,0:0|0:0,0:0:0:0:
136,355,96272,5,4,0:1:0:0:
274,260,96740,1,10,0:0:0:0:
179,122,97209,1,4,0:1:0:0:
41,217,97678,1,8,0:0:0:0:
201,265,98147,6,0,P|239:259|269:261,1,60,4|0,0:1|0:0,0:0:0:0:
309,328,98615,2,0,P|338:335|371:335,1,60,8|2,0:0|0:0,0:0:0:0:
437,288,99084,2,0,P|462:244|437:177,1,120,4|8,0:1|0:0,0:0:0:0:
383,23,100022,5,4,0:0:0:0:
324,83,100256,2,0,P|329:117|332:152,2,60,0|8|0,0:0|0:2|0:0,0:0:0:0:
253,36,100959,1,0,0:0:0:0:
246,119,101193,2,0,P|216:117|186:112,2,60,2|8|2,0:0|0:0|0:0,0:0:0:0:
395,41,102131,5,0,0:0:0:0:
440,111,102365,2,0,P|468:163|458:224,1,120,8|0,0:0|0:0,0:0:0:0:
325,323,103303,2,0,P|293:274|304:211,1,120,10|0,0:0|0:0,0:0:0:0:
301,215,104240,6,0,P|264:222|234:227,1,60,10|2,0:0|0:0,0:0:0:0:
220,307,104709,2,0,P|244:335|263:359,1,60,2|0,0:0|0:0,0:0:0:0:
341,337,105178,2,0,P|353:301|364:272,1,60,10|2,0:0|0:0,0:0:0:0:
284,130,105881,6,0,P|247:137|217:142,2,60,0|8|2,0:0|0:0|0:0,0:0:0:0:
288,46,106584,2,0,P|236:27|187:67,1,120,0|8,0:0|0:0,0:0:0:0:
72,185,107522,5,4,0:1:0:0:
181,312,107990,1,8,0:0:0:0:
331,235,108459,2,0,P|327:194|323:168,1,60,4|2,0:1|0:0,0:0:0:0:
393,127,108928,2,0,P|396:88|398:63,2,60,8|2|4,0:0|0:0|0:1,0:0:0:0:
401,294,109865,6,0,P|357:329|294:319,1,120,8|4,0:0|0:1,0:0:0:0:
176,202,110803,2,0,P|210:194|246:191,1,60,10|0,0:0|0:0,0:0:0:0:
318,179,111272,5,4,0:1:0:0:
198,61,111740,2,0,P|148:55|127:53,1,60,8|2,0:0|0:0,0:0:0:0:
55,37,112209,2,0,P|60:75|58:115,1,60,2|2,0:0|0:0,0:0:0:0:
35,177,112678,2,0,P|85:183|106:185,1,60,8|0,0:0|0:0,0:0:0:0:
176,202,113147,5,8,0:1:0:0:
176,202,114553,2,0,P|182:251|183:268,1,60,8|0,0:0|0:0,0:0:0:0:
134,333,115022,6,0,P|199:347|255:301,1,132.00000402832,4|4,0:0|0:1,0:0:0:0:
294,237,115725,1,2,0:3:0:0:
294,237,115959,2,0,P|328:238|361:244,1,66.0000020141602,4|2,0:1|0:3,0:0:0:0:
377,328,116428,2,0,P|432:366|495:343,1,132.00000402832,4|4,0:1|0:1,0:0:0:0:
490,176,117365,6,0,P|454:181|421:191,1,66.0000020141602,4|2,0:1|0:3,0:0:0:0:
402,106,117834,2,0,P|433:97|466:92,1,66.0000020141602,4|2,0:1|0:3,0:0:0:0:
470,6,118303,2,0,P|402:-4|354:37,1,132.00000402832,4|4,0:1|0:1,0:0:0:0:
314,200,119240,6,0,P|278:228|242:232,1,66.0000020141602,4|2,0:1|0:3,0:0:0:0:
174,213,119709,2,0,P|146:177|142:141,1,66.0000020141602,4|2,0:1|0:3,0:0:0:0:
139,71,120178,2,0,P|186:28|257:28,1,132.00000402832,4|2,0:1|0:1,0:0:0:0:
363,156,121115,6,0,P|354:206|350:226,1,66.0000020141602,4|0,0:1|0:0,0:0:0:0:
308,295,121584,2,0,B|282:271|250:276|250:276|222:313|173:306,1,132.00000402832,0|8,3:0|0:0,0:0:0:0:
101,296,122287,1,4,0:1:0:0:
101,296,122522,6,0,P|94:212|89:147,1,132.00000402832,4|4,0:0|0:1,0:0:0:0:
152,105,123225,2,0,P|155:62|157:36,2,66.0000020141602,2|4|2,0:3|0:1|0:3,0:0:0:0:
203,174,123928,2,0,P|251:208|318:189,1,132.00000402832,4|4,0:1|0:1,0:0:0:0:
428,320,124865,6,0,P|391:318|357:341,1,66.0000020141602,4|2,0:1|0:3,0:0:0:0:
287,295,125334,2,0,P|250:293|216:316,1,66.0000020141602,4|2,0:1|0:3,0:0:0:0:
147,268,125803,2,0,P|86:254|33:304,1,132.00000402832,4|4,0:1|0:1,0:0:0:0:
100,136,126740,6,0,P|131:150|168:147,1,66.0000020141602,4|2,0:1|0:3,0:0:0:0:
230,96,127209,2,0,P|261:110|298:107,1,66.0000020141602,4|2,0:1|0:3,0:0:0:0:
370,72,127678,2,0,P|376:130|383:205,1,132.00000402832,4|4,0:1|0:1,0:0:0:0:
299,353,128615,6,0,P|302:316|308:279,1,66.0000020141602,4|0,0:1|0:0,0:0:0:0:
263,213,129084,2,0,P|203:192|147:243,1,132.00000402832,0|8,3:0|0:0,0:0:0:0:
21,341,130022,6,0,P|74:334|157:327,1,132.00000402832,4|4,0:0|0:1,0:0:0:0:
220,274,130725,1,2,0:3:0:0:
220,274,130959,2,0,P|270:281|294:285,2,66.0000020141602,4|2|4,0:1|0:3|0:1,0:0:0:0:
370,356,131897,5,4,0:1:0:0:
380,184,132365,2,0,P|378:138|370:114,1,66.0000020141602,0|2,0:0|0:3,0:0:0:0:
289,95,132834,2,0,P|291:141|299:165,2,66.0000020141602,4|2|4,0:1|0:3|0:1,0:0:0:0:
455,49,133772,5,4,0:1:0:0:
501,213,134240,1,4,0:1:0:0:
334,256,134709,2,0,P|297:267|261:266,1,66.0000020141602,4|2,0:1|0:3,0:0:0:0:
204,211,135178,2,0,P|167:200|131:201,1,66.0000020141602,4|2,0:1|0:3,0:0:0:0:
64,240,135647,6,0,L|55:281,2,33.0000010070801,2|2|2,0:1|0:1|0:1,0:0:0:0:
61,154,136115,2,0,P|55:108|48:82,1,66.0000020141602,4|0,0:1|0:0,0:0:0:0:
104,22,136584,2,0,P|168:17|226:58,1,132.00000402832,0|8,3:0|0:0,0:0:0:0:
139,199,137522,5,4,0:0:0:0:
139,199,137990,2,0,P|193:192|220:191,1,66.0000020141602,4|2,0:1|0:3,0:0:0:0:
252,262,138459,2,0,P|306:255|333:254,2,66.0000020141602,4|2|4,0:1|0:3|0:1,0:0:0:0:
430,311,139397,6,0,P|444:247|413:176,1,132.00000402832,4|0,0:1|0:0,0:0:0:0:
305,59,140334,2,0,P|300:91|299:124,1,66.0000020141602,4|2,0:1|0:3,0:0:0:0:
236,183,140803,2,0,P|198:176|165:171,1,66.0000020141602,4|2,0:1|0:3,0:0:0:0:
84,174,141272,5,4,0:1:0:0:
220,277,141740,1,4,0:1:0:0:
299,124,142209,2,0,P|299:91|305:59,1,66.0000020141602,4|2,0:1|0:3,0:0:0:0:
222,33,142678,2,0,P|214:63|212:103,1,66.0000020141602,4|2,0:1|0:3,0:0:0:0:
233,181,143147,6,0,P|286:213|352:191,1,132.00000402832,4|4,0:1|0:1,0:0:0:0:
469,320,144084,2,0,P|433:318|405:338,1,66.0000020141602,0|0,3:0|0:0,0:0:0:0:
329,300,144553,2,0,P|293:298|265:318,1,66.0000020141602,8|4,0:0|0:1,0:0:0:0:
191,274,145022,6,0,P|124:238|143:364,1,270.000010299683,4|0,0:0|0:0,0:0:0:0:
131,364,148772,6,0,P|197:358|254:354,1,120,4|2,0:1|0:0,0:0:0:0:
293,281,149475,1,0,0:0:0:0:
368,316,149709,2,0,P|377:350|375:382,2,60,0|0|0,0:0|0:0|0:0,0:0:0:0:
272,177,150647,6,0,P|273:140|281:102,1,60,4|0,0:1|0:0,0:0:0:0:
343,66,151115,2,0,P|396:76|421:139,1,120,2|0,0:0|0:0,0:0:0:0:
379,204,151818,1,0,0:0:0:0:
299,232,152053,2,0,P|264:227|233:226,1,60,2|2,0:0|0:1,0:0:0:0:
228,309,152522,6,0,P|262:313|287:315,2,60,4|0|2,0:1|0:0|0:0,0:0:0:0:
67,360,153459,2,0,P|83:304|61:238,1,120,0|0,0:0|0:0,0:0:0:0:
12,181,154162,1,2,0:0:0:0:
12,181,154397,6,0,P|17:128|25:48,1,120,4|2,0:1|0:0,0:0:0:0:
185,17,155334,2,0,P|193:58|197:87,1,60,0|2,0:0|0:0,0:0:0:0:
209,159,155803,1,2,0:1:0:0:
181,324,156272,6,0,P|238:298|299:309,1,120,4|2,0:1|0:0,0:0:0:0:
451,362,157209,2,0,P|459:336|458:293,1,60,0|2,0:0|0:0,0:0:0:0:
405,238,157678,2,0,P|397:212|398:169,1,60,2|2,0:0|0:0,0:0:0:0:
431,102,158147,5,4,0:1:0:0:
276,36,158615,1,2,0:0:0:0:
286,203,159084,2,0,P|254:196|220:199,1,60,0|2,0:0|0:0,0:0:0:0:
170,260,159553,2,0,P|138:267|104:264,1,60,0|0,0:0|0:0,0:0:0:0:
38,222,160022,5,4,0:1:0:0:
81,60,160490,1,2,0:0:0:0:
244,103,160959,1,0,0:0:0:0:
200,265,161428,1,2,0:0:0:0:
156,103,161897,5,4,0:1:0:0:
319,60,162365,1,2,0:0:0:0:
362,222,162834,2,0,P|356:256|355:291,2,60,0|0|8,0:0|0:0|0:0,0:0:0:0:
429,171,163537,1,4,0:1:0:0:
480,237,163772,5,4,0:0:0:0:
323,145,170803,6,0,P|318:186|315:209,1,60,8|0,0:0|0:0,0:0:0:0:
385,254,171272,6,0,P|419:307|393:375,1,132.00000402832,4|4,0:0|0:1,0:0:0:0:
315,349,171975,1,2,0:3:0:0:
315,349,172209,2,0,P|274:353|245:360,1,66.0000020141602,4|2,0:1|0:3,0:0:0:0:
198,289,172678,2,0,P|177:228|211:174,1,132.00000402832,4|4,0:1|0:1,0:0:0:0:
353,79,173615,6,0,P|395:85|433:99,2,66.0000020141602,4|2|4,0:1|0:3|0:1,0:0:0:0:
294,15,174318,2,0,P|257:18|214:35,1,66.0000020141602,2|4,0:3|0:1,0:0:0:0:
181,97,174787,1,2,0:3:0:0:
181,97,175022,6,0,P|121:114|65:79,1,132.00000402832,4|4,0:1|0:1,0:0:0:0:
174,211,175959,2,0,P|218:198|247:197,1,66.0000020141602,4|2,0:1|0:3,0:0:0:0:
301,254,176428,2,0,P|365:272|416:236,1,132.00000402832,4|2,0:1|0:1,0:0:0:0:
447,68,177365,5,4,0:1:0:0:
281,113,177834,1,0,3:0:0:0:
252,282,178303,2,0,P|248:326|247:347,1,66.0000020141602,8|4,0:0|0:1,0:0:0:0:
163,369,178772,6,0,P|94:377|48:333,1,132.00000402832,4|4,0:0|0:1,0:0:0:0:
43,252,179475,2,0,P|47:212|57:176,1,66.0000020141602,2|4,0:3|0:1,0:0:0:0:
139,198,179943,2,0,P|131:230|128:262,2,66.0000020141602,2|4|2,0:3|0:1|0:3,0:0:0:0:
184,124,180647,6,0,P|250:115|295:159,1,132.00000402832,4|4,0:1|0:1,0:0:0:0:
339,230,181350,2,0,P|375:229|412:213,1,66.0000020141602,2|4,0:3|0:1,0:0:0:0:
421,302,181818,2,0,P|390:312|357:313,2,66.0000020141602,2|4|2,0:3|0:1|0:3,0:0:0:0:
492,253,182522,6,0,P|497:190|450:135,1,132.00000402832,4|4,0:1|0:1,0:0:0:0:
382,94,183225,2,0,P|381:59|395:24,1,66.0000020141602,2|4,0:3|0:1,0:0:0:0:
306,17,183693,2,0,P|295:48|296:80,2,66.0000020141602,2|4|2,0:3|0:1|0:3,0:0:0:0:
221,0,184397,6,0,P|209:63|217:142,1,132.00000402832,4|4,0:0|0:1,0:0:0:0:
236,213,185100,1,0,0:0:0:0:
152,192,185334,2,0,P|84:189|19:219,1,132.00000402832,0|8,3:0|0:0,0:0:0:0:
117,359,186272,5,4,0:0:0:0:
117,359,186740,2,0,P|165:352|188:348,1,66.0000020141602,4|2,0:1|0:3,0:0:0:0:
226,276,187209,2,0,P|263:279|299:285,1,66.0000020141602,4|2,0:1|0:3,0:0:0:0:
340,354,187678,2,0,P|396:374|444:324,1,132.00000402832,4|4,0:1|0:1,0:0:0:0:
459,157,188615,6,0,P|420:160|383:168,1,66.0000020141602,0|2,0:0|0:3,0:0:0:0:
339,98,189084,2,0,P|300:101|263:109,1,66.0000020141602,4|2,0:1|0:3,0:0:0:0:
229,32,189553,2,0,P|169:37|96:52,1,132.00000402832,4|4,0:1|0:1,0:0:0:0:
45,214,190490,6,0,P|48:251|57:286,1,66.0000020141602,4|2,0:1|0:3,0:0:0:0:
31,361,190959,2,0,P|68:358|103:349,1,66.0000020141602,4|2,0:1|0:3,0:0:0:0:
180,366,191428,2,0,P|177:329|168:294,1,66.0000020141602,4|2,0:1|0:3,0:0:0:0:
130,224,191897,6,0,B|183:211|183:211|209:229|209:229|262:218,1,132.00000402832,2|4,0:1|0:1,0:0:0:0:
306,287,192600,1,0,0:0:0:0:
385,254,192834,2,0,P|390:213|384:180,1,66.0000020141602,0|0,3:0|0:0,0:0:0:0:
313,142,193303,2,0,P|308:101|314:68,1,66.0000020141602,8|4,0:0|0:1,0:0:0:0:
385,32,193772,6,0,P|452:38|491:91,1,132.00000402832,4|4,0:0|0:1,0:0:0:0:
485,172,194475,1,2,0:3:0:0:
485,172,194709,2,0,P|480:210|467:238,2,66.0000020141602,4|2|4,0:1|0:3|0:1,0:0:0:0:
315,143,195647,5,4,0:1:0:0:
321,228,195881,2,0,P|326:266|339:294,2,66.0000020141602,0|0|2,0:0|0:0|0:3,0:0:0:0:
243,190,196584,2,0,P|232:227|231:258,1,66.0000020141602,4|2,0:1|0:3,0:0:0:0:
236,340,197053,2,0,P|199:329|168:328,1,66.0000020141602,4|2,0:1|0:3,0:0:0:0:
86,335,197522,6,0,P|97:298|98:267,1,66.0000020141602,4|0,0:1|0:0,0:0:0:0:
91,185,197990,2,0,P|128:196|159:197,1,66.0000020141602,4|2,0:1|0:3,0:0:0:0:
171,112,198459,2,0,P|138:109|106:99,1,66.0000020141602,4|2,0:1|0:3,0:0:0:0:
125,15,198928,2,0,P|162:26|193:27,1,66.0000020141602,4|2,0:1|0:3,0:0:0:0:
254,82,199397,5,4,0:1:0:0:
254,82,199631,2,0,B|265:136|265:136|248:158|248:158|260:225,1,132.00000402832,2|0,0:0|0:0,0:0:0:0:
236,290,200334,2,0,P|279:282|317:280,1,66.0000020141602,0|0,3:0|0:0,0:0:0:0:
381,310,200803,1,8,0:0:0:0:
420,146,201272,5,4,0:0:0:0:
420,146,201740,2,0,P|393:136|356:141,1,60,0|2,0:0|0:0,0:0:0:0:
301,196,202209,2,0,P|274:186|237:191,1,60,0|2,0:0|0:0,0:0:0:0:
173,235,202678,2,0,P|146:225|109:230,1,60,2|0,0:0|0:0,0:0:0:0:
35,253,203147,5,2,0:0:0:0:
35,253,203615,2,0,P|62:243|99:248,1,60,0|2,0:0|0:0,0:0:0:0:
154,303,204084,2,0,P|181:293|218:298,1,60,0|2,0:0|0:0,0:0:0:0:
282,342,204553,2,0,P|309:332|346:337,1,60,2|0,0:0|0:0,0:0:0:0:
417,365,205022,5,2,0:0:0:0:
417,365,205490,2,0,P|423:328|417:300,1,60,2|0,0:0|0:0,0:0:0:0:
355,250,205959,2,0,L|322:246,2,30,0|0|2,0:0|0:0|0:0,0:0:0:0:
432,217,206428,2,0,P|438:180|432:152,1,60,2|0,0:0|0:0,0:0:0:0:
391,85,206897,6,0,P|331:72|279:103,1,120,2|2,0:1|0:0,0:0:0:0:
237,170,207600,1,0,0:0:0:0:
159,136,207834,2,0,P|150:80|146:16,1,120,2|0,0:0|3:0,0:0:0:0:
41,149,208772,5,2,0:0:0:0:
41,149,209240,2,0,P|37:191|33:215,1,60,0|2,0:0|0:0,0:0:0:0:
118,205,209709,2,0,P|114:247|110:271,1,60,0|2,0:0|0:0,0:0:0:0:
195,257,210178,2,0,P|191:299|187:323,1,60,2|0,0:0|0:0,0:0:0:0:
256,365,210647,5,2,0:0:0:0:
314,207,211115,2,0,P|309:177|307:147,1,60,2|2,0:0|0:0,0:0:0:0:
389,163,211584,2,0,P|384:133|382:103,1,60,0|2,0:0|0:0,0:0:0:0:
465,118,212053,2,0,P|460:88|458:58,1,60,2|0,0:0|0:0,0:0:0:0:
387,13,212522,5,2,0:0:0:0:
387,13,212990,2,0,P|354:12|319:31,1,60,2|0,0:0|0:0,0:0:0:0:
279,90,213459,2,0,L|277:124,2,30,0|0|2,0:0|0:0|0:0,0:0:0:0:
210,41,213928,2,0,P|177:40|142:59,1,60,2|0,0:0|3:0,0:0:0:0:
73,78,214397,5,0,0:0:0:0:
73,78,214631,2,0,B|60:124|60:124|97:137|125:176|104:217|68:234,1,180,2|2,0:0|0:0,0:0:0:0:
190,353,215803,1,0,3:0:0:0:
250,200,216272,6,0,B|274:175|274:175|312:211|361:206,1,120
