osu file format v14

[General]
AudioFilename: audio.mp3
AudioLeadIn: 0
PreviewTime: 51506
Countdown: 0
SampleSet: Soft
StackLeniency: 0.7
Mode: 0
LetterboxInBreaks: 0
WidescreenStoryboard: 0

[Editor]
DistanceSpacing: 0.5
BeatDivisor: 8
GridSize: 4
TimelineZoom: 1.3

[Metadata]
Title:Give me a break Stop now
TitleUnicode:ギミアブレスタッナウ
Artist:REOL
ArtistUnicode:れをる
Creator:Chaoslitz
Version:Paranoia
Source:
Tags:Σ Sigma ギガ giga お菊 okiku Toshitaka Shinoda Amana Ijigen MinG3012 Streliteela DreaM117er [_Drop_] Irreversible
BeatmapID:1058919
BeatmapSetID:497483

[Difficulty]
HPDrainRate:6
CircleSize:4.5
OverallDifficulty:8
ApproachRate:9
SliderMultiplier:1.8
SliderTickRate:1

[Events]
//Background and Video events
0,0,"bg.jpg",0,0
Video,-316,"opto.flv"
//Break Periods
//Storyboard Layer 0 (Background)
//Storyboard Layer 1 (Fail)
//Storyboard Layer 2 (Pass)
//Storyboard Layer 3 (Foreground)
//Storyboard Sound Samples

[TimingPoints]
647,468.75,4,2,1,60,1,0
647,-111.111111111111,4,2,1,60,0,0
2287,-100,4,2,1,60,0,0
2522,-111.111111111111,4,2,1,60,0,0
3283,-111.111111111111,4,2,1,10,0,0
3459,-111.111111111111,4,2,1,60,0,0
6037,-100,4,2,1,60,0,0
6272,-111.111111111111,4,2,1,60,0,0
6740,-133.333333333333,4,2,1,60,0,0
6975,-66.6666666666667,4,2,1,60,0,0
7443,-100,4,2,1,60,0,0
8147,-100,4,2,1,70,0,0
19397,-83.3333333333333,4,2,1,70,0,0
23147,-100,4,2,1,70,0,0
38147,-125,4,2,1,50,0,0
38381,-125,4,2,2,50,0,0
39377,-125,4,2,2,10,0,0
39553,-125,4,2,2,50,0,0
39787,-100,4,2,2,50,0,0
40022,-125,4,2,2,50,0,0
43537,-100,4,2,2,50,0,0
43772,-125,4,2,2,50,0,0
45647,-111.111111111111,4,2,1,60,0,0
46877,-111.111111111111,4,2,1,10,0,0
47053,-111.111111111111,4,2,1,60,0,0
47287,-100,4,2,1,60,0,0
47522,-111.111111111111,4,2,1,60,0,0
51272,-133.333333333333,4,2,1,60,0,0
52209,-66.6666666666667,4,2,1,60,0,0
52678,-133.333333333333,4,2,1,60,0,0
53147,-76.9230769230769,4,2,1,80,0,1
54553,-66.6666666666667,4,2,2,80,0,1
55022,-76.9230769230769,4,2,1,80,0,1
56428,-66.6666666666667,4,2,2,80,0,1
56897,-76.9230769230769,4,2,1,80,0,1
58303,-66.6666666666667,4,2,2,80,0,1
58772,-66.6666666666667,4,2,2,70,0,1
59240,-66.6666666666667,4,2,1,80,0,1
59709,-58.8235294117647,4,2,1,80,0,1
60178,-133.333333333333,4,2,1,80,0,1
60412,-100,4,2,1,80,0,1
60647,-76.9230769230769,4,2,1,80,0,1
62053,-76.9230769230769,4,2,2,80,0,1
62522,-76.9230769230769,4,2,1,80,0,1
63928,-66.6666666666667,4,2,2,80,0,1
64397,-76.9230769230769,4,2,1,80,0,1
65803,-66.6666666666667,4,2,2,80,0,1
66272,-76.9230769230769,4,2,1,80,0,1
66506,-66.6666666666667,4,2,1,80,0,1
67209,-58.8235294117647,4,2,1,80,0,1
67678,-133.333333333333,4,2,1,80,0,1
67912,-100,4,2,1,80,0,1
68147,-133.333333333333,4,2,1,50,0,0
69553,-111.111111111111,4,2,1,60,0,0
70022,-100,4,2,1,70,0,0
71897,-76.9230769230769,4,2,1,70,0,0
72131,-100,4,2,1,70,0,0
73596,-100,4,2,1,10,0,0
73772,-76.9230769230769,4,2,1,70,0,0
74006,-100,4,2,1,70,0,0
75412,-133.333333333333,4,2,1,70,0,0
75647,-100,4,2,1,70,0,0
76701,-76.9230769230769,4,2,1,70,0,0
77287,-133.333333333333,4,2,1,70,0,0
77522,-100,4,2,1,70,0,0
77990,-133.333333333333,4,2,1,70,0,0
78459,-100,4,2,1,70,0,0
78928,-133.333333333333,4,2,1,70,0,0
79397,-100,4,2,1,70,0,0
79865,-133.333333333333,4,2,1,70,0,0
80334,-100,4,2,1,70,0,0
80803,-76.9230769230769,4,2,1,70,0,0
81037,-133.333333333333,4,2,1,70,0,0
81272,-100,4,2,1,70,0,0
83147,-66.6666666666667,4,2,1,70,0,0
84553,-50,4,2,1,70,0,0
85022,-100,4,2,1,70,0,0
100022,-125,4,2,1,50,0,0
100490,-125,4,2,2,50,0,0
101252,-125,4,2,2,10,0,0
101428,-125,4,2,2,50,0,0
101486,-125,4,2,2,10,0,0
101662,-125,4,2,2,50,0,0
107522,-111.111111111111,4,2,1,60,0,0
108752,-111.111111111111,4,2,1,10,0,0
108928,-111.111111111111,4,2,1,60,0,0
108986,-111.111111111111,4,2,1,10,0,0
109162,-111.111111111111,4,2,1,60,0,0
113147,-133.333333333333,4,2,1,60,0,0
114084,-66.6666666666667,4,2,1,60,0,0
114553,-133.333333333333,4,2,1,60,0,0
115022,-76.9230769230769,4,2,1,80,0,1
116428,-66.6666666666667,4,2,2,80,0,1
116897,-76.9230769230769,4,2,1,80,0,1
118303,-66.6666666666667,4,2,2,80,0,1
118772,-76.9230769230769,4,2,1,80,0,1
120178,-66.6666666666667,4,2,2,80,0,1
120647,-66.6666666666667,4,2,2,70,0,1
121115,-66.6666666666667,4,2,1,80,0,1
121584,-58.8235294117647,4,2,1,80,0,1
122053,-133.333333333333,4,2,1,80,0,1
122287,-100,4,2,1,80,0,1
122522,-76.9230769230769,4,2,1,80,0,1
123928,-66.6666666666667,4,2,2,80,0,1
124397,-76.9230769230769,4,2,1,80,0,1
125803,-66.6666666666667,4,2,2,80,0,1
126272,-76.9230769230769,4,2,1,80,0,1
127678,-66.6666666666667,4,2,2,80,0,1
128147,-76.9230769230769,4,2,1,80,0,1
128381,-66.6666666666667,4,2,1,80,0,1
129084,-58.8235294117647,4,2,1,80,0,1
129553,-133.333333333333,4,2,1,80,0,1
129787,-100,4,2,1,80,0,1
129904,-100,4,2,1,80,0,0
130022,-76.9230769230769,4,2,1,80,0,1
131428,-76.9230769230769,4,2,2,80,0,1
131897,-76.9230769230769,4,2,1,80,0,1
133303,-76.9230769230769,4,2,2,80,0,1
133772,-76.9230769230769,4,2,1,80,0,1
135178,-76.9230769230769,4,2,2,80,0,1
135647,-66.6666666666667,4,2,2,70,0,1
136115,-66.6666666666667,4,2,1,80,0,1
136584,-58.8235294117647,4,2,1,80,0,1
137053,-133.333333333333,4,2,1,80,0,1
137287,-100,4,2,1,80,0,1
137522,-76.9230769230769,4,2,1,80,0,1
138928,-76.9230769230769,4,2,2,80,0,1
139397,-76.9230769230769,4,2,1,80,0,1
140803,-76.9230769230769,4,2,2,80,0,1
141272,-76.9230769230769,4,2,1,80,0,1
142678,-76.9230769230769,4,2,2,80,0,1
143147,-76.9230769230769,4,2,1,80,0,1
143381,-66.6666666666667,4,2,1,80,0,1
144084,-58.8235294117647,4,2,1,80,0,1
144553,-133.333333333333,4,2,1,80,0,1
144787,-100,4,2,1,80,0,1
145022,-200,4,2,1,50,0,0
146428,-200,4,2,1,20,0,0
148772,-100,4,2,1,60,0,0
149709,-76.9230769230769,4,2,3,60,0,0
149826,-76.9230769230769,4,2,1,60,0,0
149943,-100,4,2,1,60,0,0
151584,-100,4,2,3,60,0,0
151701,-100,4,2,1,60,0,0
152053,-66.6666666666667,4,2,1,60,0,0
152287,-50,4,2,2,60,0,0
152522,-100,4,2,1,60,0,0
153459,-100,4,2,3,60,0,0
153576,-100,4,2,1,60,0,0
155334,-100,4,2,3,60,0,0
155451,-100,4,2,1,60,0,0
155803,-66.6666666666667,4,2,2,60,0,0
156037,-100,4,2,1,60,0,0
156272,-100,4,2,1,70,0,0
157209,-100,4,2,3,70,0,0
157326,-100,4,2,1,70,0,0
159084,-100,4,2,3,70,0,0
159201,-100,4,2,1,70,0,0
160959,-100,4,2,3,70,0,0
161076,-100,4,2,1,70,0,0
162834,-100,4,2,3,70,0,0
162951,-100,4,2,1,70,0,0
163303,-76.9230769230769,4,2,1,70,0,0
163772,-133.333333333333,4,2,2,70,0,0
164709,-133.333333333333,4,2,3,70,0,0
164826,-133.333333333333,4,2,1,70,0,0
166584,-133.333333333333,4,2,3,70,0,0
166701,-133.333333333333,4,2,1,70,0,0
168459,-133.333333333333,4,2,3,70,0,0
168576,-133.333333333333,4,2,1,70,0,0
170334,-66.6666666666667,4,2,1,70,0,0
170803,-133.333333333333,4,2,1,70,0,0
171272,-76.9230769230769,4,2,1,80,0,1
172678,-66.6666666666667,4,2,2,80,0,1
173147,-76.9230769230769,4,2,1,80,0,1
174318,-66.6666666666667,4,2,1,80,0,1
174553,-66.6666666666667,4,2,2,80,0,1
175022,-76.9230769230769,4,2,1,80,0,1
176428,-66.6666666666667,4,2,2,80,0,1
176897,-66.6666666666667,4,2,2,70,0,1
177365,-66.6666666666667,4,2,1,80,0,1
177834,-58.8235294117647,4,2,1,80,0,1
178303,-133.333333333333,4,2,1,80,0,1
178537,-100,4,2,1,80,0,1
178772,-76.9230769230769,4,2,1,80,0,1
180178,-66.6666666666667,4,2,2,80,0,1
180647,-76.9230769230769,4,2,1,80,0,1
182053,-66.6666666666667,4,2,2,80,0,1
182522,-76.9230769230769,4,2,1,80,0,1
183928,-66.6666666666667,4,2,2,80,0,1
184162,-58.8235294117647,4,2,1,80,0,1
184631,-66.6666666666667,4,2,1,80,0,1
186037,-100,4,2,1,80,0,1
186154,-100,4,2,1,80,0,0
186272,-76.9230769230769,4,2,1,80,0,1
187678,-76.9230769230769,4,2,2,80,0,1
188147,-76.9230769230769,4,2,1,80,0,1
189553,-76.9230769230769,4,2,2,80,0,1
190022,-76.9230769230769,4,2,1,80,0,1
191428,-76.9230769230769,4,2,2,80,0,1
191897,-66.6666666666667,4,2,2,70,0,1
192365,-58.8235294117647,4,2,1,80,0,1
192834,-58.8235294117647,4,2,1,80,0,1
193186,-133.333333333333,4,2,1,80,0,1
193303,-133.333333333333,4,2,1,80,0,1
193537,-100,4,2,1,80,0,1
193772,-76.9230769230769,4,2,1,80,0,1
195178,-76.9230769230769,4,2,2,80,0,1
195647,-76.9230769230769,4,2,1,80,0,1
197053,-76.9230769230769,4,2,2,80,0,1
197522,-76.9230769230769,4,2,1,80,0,1
198928,-76.9230769230769,4,2,2,80,0,1
199397,-76.9230769230769,4,2,1,80,0,1
199631,-58.8235294117647,4,2,1,80,0,1
200334,-58.8235294117647,4,2,1,80,0,1
200803,-133.333333333333,4,2,1,80,0,1
201037,-100,4,2,1,80,0,1
201272,-100,4,2,1,60,0,0
206897,-100,4,2,2,60,0,0
207365,-100,4,2,1,60,0,0
207834,-76.9230769230769,4,2,1,60,0,0
208772,-100,4,2,1,60,0,0
215334,-76.9230769230769,4,2,1,60,0,0
215803,-133.333333333333,4,2,1,60,0,0
216740,-133.333333333333,4,2,1,10,0,0

[Colours]
Combo1 : 0,106,106
Combo2 : 192,192,192
Combo3 : 234,74,134
Combo4 : 130,130,130

[HitObjects]
65,324,647,6,0,P|122:338|172:307,1,121.499996292114,8|0,0:0|0:0,0:0:0:0:
189,279,1115,2,0,P|232:283|265:268,1,80.9999975280763,0|8,0:0|0:0,0:0:0:0:
215,195,1584,1,0,0:0:0:0:
215,195,1818,1,0,0:0:0:0:
110,255,2053,1,8,0:0:0:0:
25,148,2287,6,0,P|31:176|37:212,1,45,2|0,0:0|0:0,0:0:0:0:
110,255,2522,6,0,P|113:215|116:175,1,80.9999975280763,8|0,0:0|0:0,0:0:0:0:
119,158,2814,1,0,0:0:0:0:
120,141,2873,2,0,L|110:101,1,40.4999987640381,0|0,3:0|0:0,0:0:0:0:
215,195,3225,2,0,L|218:163,1,20.2499993820191,8|0,0:0|0:0,0:0:0:0:
277,11,3459,2,0,L|270:52,1,40.4999987640381,0|0,0:0|3:0,0:0:0:0:
191,76,3693,1,8,0:0:0:0:
294,135,3928,1,8,0:0:0:0:
317,213,4162,1,0,0:0:0:0:
354,71,4397,6,0,P|420:68|459:110,1,121.499996292114,8|0,0:0|0:0,0:0:0:0:
472,132,4865,2,0,P|467:172|463:212,1,80.9999975280763,2|10,0:0|0:0,0:0:0:0:
411,332,5334,1,0,0:0:0:0:
411,332,5569,1,0,0:0:0:0:
317,213,5803,1,8,0:0:0:0:
446,234,6037,6,0,P|425:242|402:243,1,45,2|0,0:0|0:0,0:0:0:0:
317,213,6272,6,0,P|291:219|264:213,1,40.4999987640381,0|0,3:0|0:0,0:0:0:0:
205,187,6506,1,0,0:0:0:0:
178,205,6584,2,0,L|175:225,3,13.4999995880127,2|0|0|0,0:0|0:0|0:0|0:0,0:0:0:0:
167,233,6740,6,0,P|151:237|135:238,1,33.7500012874604,2|0,0:0|0:0,0:0:0:0:
33,239,6975,6,0,P|72:238|119:270,1,67.5000025749208,8|0,0:0|0:0,0:0:0:0:
172,364,7443,1,0,3:0:0:0:
172,364,7561,1,0,0:0:0:0:
172,364,7678,2,0,P|177:353|180:342,1,22.5,8|0,0:0|0:0,0:0:0:0:
202,229,7912,2,0,P|203:240|205:251,1,22.5,0|0,3:0|0:0,0:0:0:0:
270,376,8147,5,4,0:0:0:0:
290,294,8381,1,0,0:0:0:0:
233,156,8615,1,8,0:0:0:0:
315,176,8849,1,0,0:0:0:0:
260,25,9084,1,4,0:1:0:0:
327,69,9318,2,0,L|340:165,2,90,0|8|0,0:0|0:0|0:0,0:0:0:0:
479,96,10022,5,4,0:1:0:0:
396,28,10256,1,0,0:0:0:0:
396,28,10373,1,0,0:0:0:0:
396,28,10490,1,8,0:0:0:0:
340,190,10725,1,0,0:0:0:0:
340,190,10842,1,0,0:0:0:0:
340,190,10959,2,0,P|381:198|422:175,1,90,4|0,0:1|0:0,0:0:0:0:
370,120,11311,1,0,0:0:0:0:
349,110,11428,2,0,P|326:109|305:116,1,45,8|0,0:0|0:0,0:0:0:0:
219,215,11662,2,0,P|223:237|227:261,1,45,0|0,0:0|0:0,0:0:0:0:
184,130,11897,6,0,P|140:122|95:117,1,90,4|0,0:1|0:0,0:0:0:0:
25,147,12248,1,0,0:0:0:0:
14,165,12365,2,0,P|14:188|21:209,1,45,10|0,0:0|0:0,0:0:0:0:
76,276,12600,1,2,0:0:0:0:
151,42,12834,1,4,0:1:0:0:
151,42,13068,1,2,0:0:0:0:
153,207,13303,2,0,P|197:210|237:192,1,90,8|0,0:0|0:0,0:0:0:0:
370,120,13772,6,0,P|365:164|360:209,1,90,4|0,0:1|0:0,0:0:0:0:
366,240,14123,1,2,0:0:0:0:
366,240,14240,2,0,P|390:235|431:233,1,45,10|0,0:0|0:0,0:0:0:0:
316,307,14475,1,2,0:0:0:0:
316,307,14592,1,0,0:0:0:0:
316,307,14709,2,0,P|266:287|209:288,1,90,4|2,0:1|0:0,0:0:0:0:
157,324,15061,1,0,0:0:0:0:
165,345,15178,2,0,P|121:334|76:326,1,90,8|0,0:0|0:0,0:0:0:0:
5,174,15647,6,0,P|30:173|50:165,1,45,4|0,0:0|0:0,0:0:0:0:
118,115,15881,2,0,P|121:89|122:67,1,45
162,191,16115,1,8,0:0:0:0:
312,130,16350,1,0,0:0:0:0:
162,191,16584,2,0,P|180:194|201:201,1,22.5,4|0,0:1|0:0,0:0:0:0:
285,242,16818,1,0,0:0:0:0:
219,26,17053,1,8,0:0:0:0:
210,108,17287,1,0,0:0:0:0:
399,92,17522,5,4,0:1:0:0:
339,41,17756,2,0,P|320:80|327:124,1,90,0|8,0:0|0:0,0:0:0:0:
384,217,18225,1,0,0:0:0:0:
384,217,18342,1,0,0:0:0:0:
384,217,18459,2,0,P|428:210|473:205,1,90,4|0,0:1|0:0,0:0:0:0:
507,286,18811,1,0,0:0:0:0:
481,303,18928,2,0,P|463:303|432:292,1,45,8|0,0:0|0:0,0:0:0:0:
352,368,19162,2,0,P|357:346|360:323,1,45,0|0,0:0|0:0,0:0:0:0:
383,216,19397,6,0,P|339:287|258:271,1,161.999995056153,4|0,0:0|0:0,0:0:0:0:
249,260,19865,1,10,0:0:0:0:
342,141,20100,1,2,0:0:0:0:
176,174,20334,6,0,P|137:100|192:38,1,161.999995056153,4|0,0:1|0:0,0:0:0:0:
206,35,20802,1,8,0:0:0:0:
262,175,21037,1,0,0:0:0:0:
195,331,21272,6,0,P|115:336|35:349,1,161.999995056153,4|0,0:1|0:0,0:0:0:0:
17,328,21740,2,0,P|22:287|26:258,1,53.9999983520508,8|0,0:0|0:0,0:0:0:0:
64,207,21975,1,2,0:0:0:0:
49,36,22209,1,4,0:1:0:0:
209,109,22443,1,0,3:0:0:0:
185,122,22561,1,0,0:0:0:0:
163,137,22678,2,0,P|109:126|56:119,1,107.999996704102,8|0,0:0|0:0,0:0:0:0:
131,250,23147,6,0,P|178:256|215:239,1,90,4|0,0:0|0:0,0:0:0:0:
259,175,23498,1,0,0:0:0:0:
259,175,23615,1,8,0:0:0:0:
385,335,23850,1,0,0:0:0:0:
370,339,23928,1,0,0:0:0:0:
355,343,24006,1,0,0:0:0:0:
341,347,24084,2,0,P|336:292|331:241,1,90,4|0,0:1|0:0,0:0:0:0:
230,92,24553,1,8,0:0:0:0:
316,107,24787,1,0,0:0:0:0:
146,112,25022,5,4,0:1:0:0:
169,27,25256,1,0,0:0:0:0:
343,112,25490,1,8,0:0:0:0:
156,200,25725,2,0,P|145:220|135:245,1,45,0|0,0:0|0:0,0:0:0:0:
208,260,25959,2,0,P|202:283|200:305,1,45,4|0,0:1|0:0,0:0:0:0:
279,296,26193,1,0,0:0:0:0:
279,296,26311,1,0,0:0:0:0:
279,296,26428,2,0,P|280:329|291:360,1,45,8|0,0:0|0:0,0:0:0:0:
357,378,26662,2,0,P|386:374|421:373,1,45,0|0,0:0|0:0,0:0:0:0:
504,240,26897,6,0,L|414:231,1,90,4|0,0:1|0:0,0:0:0:0:
337,223,27248,1,0,0:0:0:0:
337,223,27365,1,10,0:0:0:0:
381,153,27600,1,2,0:0:0:0:
368,304,27834,2,0,L|278:295,1,90,4|2,0:1|0:0,0:0:0:0:
113,276,28303,1,8,0:0:0:0:
170,354,28537,1,0,0:0:0:0:
236,207,28772,6,0,P|242:163|229:120,1,90,4|0,0:1|0:0,0:0:0:0:
152,108,29123,1,0,0:0:0:0:
140,88,29240,2,0,P|144:60|146:32,1,45,10|0,0:0|0:0,0:0:0:0:
59,120,29475,2,0,P|55:92|53:64,1,45,2|0,0:0|0:0,0:0:0:0:
115,185,29709,5,4,0:1:0:0:
223,38,29943,1,0,0:0:0:0:
244,45,30061,1,0,0:0:0:0:
265,52,30178,2,0,P|317:46|366:42,1,90,8|0,0:0|0:0,0:0:0:0:
461,161,30647,6,0,P|423:183|379:176,1,90,4|0,0:0|0:0,0:0:0:0:
318,124,30998,1,0,0:0:0:0:
318,124,31115,1,8,0:0:0:0:
192,195,31350,1,0,0:0:0:0:
207,199,31428,1,0,0:0:0:0:
222,203,31506,1,0,0:0:0:0:
236,207,31584,2,0,P|240:251|244:296,1,90,4|0,0:1|0:0,0:0:0:0:
111,368,32053,1,8,0:0:0:0:
41,313,32287,1,0,0:0:0:0:
161,268,32522,5,4,0:1:0:0:
19,232,32756,2,0,P|22:202|24:178,1,45,0|0,0:0|0:0,0:0:0:0:
172,111,32990,2,0,L|83:127,1,90,8|0,0:0|0:0,0:0:0:0:
10,60,33342,1,0,0:0:0:0:
32,55,33459,2,0,L|80:46,1,45,4|0,0:1|0:0,0:0:0:0:
153,33,33693,2,0,L|201:24,1,45,0|0,0:0|0:0,0:0:0:0:
256,96,33928,1,8,0:0:0:0:
314,24,34162,1,0,0:0:0:0:
432,124,34397,6,0,P|442:170|417:213,1,90,4|0,0:1|0:0,0:0:0:0:
344,235,34748,1,0,0:0:0:0:
324,224,34865,2,0,P|330:190|333:165,1,45,10|0,0:0|0:0,0:0:0:0:
341,100,35100,1,2,0:0:0:0:
408,296,35334,1,4,0:1:0:0:
435,370,35568,2,0,L|488:357,1,45,2|0,0:0|0:0,0:0:0:0:
359,359,35803,1,8,0:0:0:0:
256,192,36037,1,0,0:0:0:0:
153,359,36272,5,4,0:1:0:0:
64,192,36506,1,0,0:0:0:0:
64,192,36623,1,0,0:0:0:0:
64,192,36740,2,0,P|113:187|166:181,1,90,8|2,0:0|0:0,0:0:0:0:
233,108,37209,1,4,0:1:0:0:
254,274,37443,1,2,0:0:0:0:
219,270,37560,1,0,0:0:0:0:
183,266,37677,1,8,0:0:0:0:
92,282,37912,1,0,0:0:0:0:
137,78,38147,5,4,0:0:0:0:
218,115,38381,2,0,P|224:148|230:189,1,72,0|8,0:0|0:2,0:0:0:0:
219,270,38850,1,0,0:0:0:0:
312,198,39084,1,0,0:0:0:0:
305,282,39318,2,0,L|310:310,1,18,2|0,0:0|0:0,0:0:0:0:
322,377,39553,1,8,0:0:0:0:
402,316,39787,6,0,B|423:318|423:318|450:303,1,45,2|0,0:0|0:0,0:0:0:0:
406,235,40022,5,0,0:0:0:0:
323,108,40256,1,0,0:0:0:0:
323,108,40373,1,0,0:0:0:0:
323,108,40490,2,0,P|364:102|407:98,1,72,8|0,0:0|0:0,0:0:0:0:
469,168,40959,2,0,P|493:201|492:248,1,72,0|0,0:0|0:0,0:0:0:0:
495,242,41311,1,0,0:0:0:0:
492,252,41428,1,10,0:0:0:0:
420,336,41662,1,0,0:0:0:0:
406,235,41897,5,0,0:0:0:0:
322,377,42131,1,0,0:0:0:0:
322,377,42248,1,0,0:0:0:0:
322,377,42365,1,10,0:0:0:0:
224,295,42600,1,2,0:0:0:0:
333,194,42834,1,2,0:0:0:0:
329,277,43068,1,0,0:0:0:0:
226,208,43303,2,0,L|223:187,3,12,10|0|0|0,0:0|0:0|0:0|0:0,0:0:0:0:
221,180,43537,6,0,L|168:172,1,45,2|0,0:0|0:0,0:0:0:0:
127,242,43772,6,0,P|132:258|139:285,1,36
118,354,44006,1,0,0:0:0:0:
9,258,44240,2,0,P|2:225|14:189,1,72,8|2,0:0|0:0,0:0:0:0:
150,117,44709,1,0,0:0:0:0:
111,235,44943,2,0,L|70:229,1,36,0|0,0:0|0:0,0:0:0:0:
0,81,45178,2,0,P|40:53|96:62,1,108,8|0,0:0|0:0,0:0:0:0:
150,117,45647,5,4,0:1:0:0:
208,253,45881,1,0,0:0:0:0:
208,253,45998,1,0,0:0:0:0:
208,253,46115,2,0,P|261:244|303:241,1,80.9999975280763,8|0,0:0|0:0,0:0:0:0:
375,236,46584,1,4,0:1:0:0:
284,331,46818,2,0,L|289:361,1,20.2499993820191,2|0,0:0|0:0,0:0:0:0:
288,241,47053,1,8,0:0:0:0:
448,268,47287,6,0,B|455:247|455:247|452:221,1,45,2|0,0:0|0:0,0:0:0:0:
389,120,47522,5,4,0:1:0:0:
372,323,47756,1,0,0:0:0:0:
377,333,47873,1,0,0:0:0:0:
384,342,47990,2,0,P|421:366|467:362,1,80.9999975280763,8|0,0:0|0:0,0:0:0:0:
512,313,48342,1,0,0:0:0:0:
512,313,48459,1,4,0:1:0:0:
428,192,48693,2,0,P|403:194|381:199,1,40.4999987640381,0|0,0:0|0:0,0:0:0:0:
288,241,48928,1,10,0:0:0:0:
174,144,49162,2,0,P|197:146|219:157,1,40.4999987640381,0|0,0:0|0:0,0:0:0:0:
292,253,49397,5,4,0:1:0:0:
206,72,49631,1,0,0:0:0:0:
217,66,49748,1,0,0:0:0:0:
228,61,49865,2,0,P|277:56|326:49,1,80.9999975280763,8|2,0:0|0:0,0:0:0:0:
410,85,50334,1,2,0:0:0:0:
377,183,50568,1,2,0:0:0:0:
266,269,50803,1,8,0:0:0:0:
98,237,51037,1,0,0:0:0:0:
245,367,51272,6,0,L|265:370,1,16.8750006437302,8|0,0:1|0:0,0:0:0:0:
495,263,51506,1,2,2:0:0:0:
428,370,51740,1,0,2:0:0:0:
338,342,51975,1,0,2:0:0:0:
463,81,52209,6,0,P|372:50|326:138,1,202.500007724762,2|0,0:0|0:0,0:0:0:0:
332,140,52678,6,0,P|290:113|235:121,1,101.250003862381,8|0,0:0|0:0,0:0:0:0:
177,174,53147,6,0,P|127:191|62:149,1,116.999994644165,4|0,0:0|0:0,0:0:0:0:
36,98,53498,1,0,0:0:0:0:
78,34,53615,2,0,P|112:29|143:23,1,58.4999973220826,4|0,0:1|2:0,0:0:0:0:
261,39,53850,1,2,0:3:0:0:
232,34,53967,1,0,0:0:0:0:
130,112,54084,2,0,P|164:107|195:101,1,58.4999973220826,4|0,0:1|2:0,0:0:0:0:
310,123,54318,1,2,0:3:0:0:
281,118,54435,1,0,0:0:0:0:
170,194,54553,6,0,P|197:202|239:198,1,67.5000025749208,4|0,0:1|0:0,0:0:0:0:
381,249,54787,2,0,P|350:235|316:238,1,67.5000025749208,2|0,0:3|0:0,0:0:0:0:
126,288,55022,6,0,P|181:305|239:300,1,116.999994644165,4|0,0:1|0:0,0:0:0:0:
289,363,55373,1,0,0:0:0:0:
356,328,55490,2,0,P|380:332|415:347,1,58.4999973220826,4|0,0:1|0:0,0:0:0:0:
472,255,55725,1,2,0:3:0:0:
445,266,55842,1,0,0:0:0:0:
299,198,55959,2,0,P|322:204|356:222,1,58.4999973220826,4|0,0:1|0:0,0:0:0:0:
419,135,56194,1,2,0:3:0:0:
392,143,56311,1,0,0:0:0:0:
256,104,56428,6,0,P|261:59|264:34,1,67.5000025749208,4|0,0:1|0:0,0:0:0:0:
157,205,56662,1,2,0:3:0:0:
92,158,56779,1,2,0:3:0:0:
157,77,56897,6,0,P|164:139|170:199,1,116.999994644165,4|0,0:1|0:0,0:0:0:0:
223,249,57248,1,0,0:0:0:0:
154,287,57365,2,0,P|124:290|96:296,1,58.4999973220826,4|0,0:1|0:0,0:0:0:0:
220,332,57600,1,2,0:3:0:0:
226,360,57717,1,0,0:0:0:0:
309,246,57834,2,0,P|312:276|318:304,1,58.4999973220826,4|0,0:1|0:0,0:0:0:0:
354,180,58068,1,2,0:3:0:0:
382,174,58186,1,0,0:0:0:0:
258,155,58303,6,0,P|245:125|245:90,1,67.5000025749208,4|0,0:1|0:0,0:0:0:0:
471,53,58537,2,0,P|483:84|481:117,1,67.5000025749208,2|0,0:3|0:0,0:0:0:0:
320,44,58772,6,0,L|287:34,1,33.7500012874604,2|0,0:1|0:0,0:0:0:0:
393,31,58889,2,0,L|417:7,1,33.7500012874604,2|0,0:1|0:0,0:0:0:0:
368,101,59006,2,0,L|376:133,1,33.7500012874604,2|0,0:1|0:0,0:0:0:0:
512,261,59240,2,0,L|373:249,1,135.000005149842,4|0,0:1|0:0,0:0:0:0:
361,263,59592,1,0,0:0:0:0:
273,332,59709,6,0,L|287:159,1,153.000002918243,0|0,3:0|0:1,0:0:0:0:
194,124,60061,1,0,0:0:0:0:
178,146,60178,6,0,P|182:168|193:194,1,33.7500012874604,8|0,0:0|0:0,0:0:0:0:
250,57,60412,6,0,P|230:46|208:40,1,45,4|0,0:1|0:0,0:0:0:0:
3,92,60647,6,0,P|59:80|112:103,1,116.999994644165,4|0,0:0|0:0,0:0:0:0:
178,146,60998,1,0,0:0:0:0:
109,183,61115,2,0,P|104:212|98:257,1,58.4999973220826,4|0,0:1|0:0,0:0:0:0:
201,288,61350,1,2,0:3:0:0:
172,291,61467,1,0,0:0:0:0:
298,371,61584,2,0,P|293:342|287:297,1,58.4999973220826,4|0,0:1|0:0,0:0:0:0:
385,249,61819,1,2,0:3:0:0:
356,246,61936,1,0,0:0:0:0:
327,243,62053,5,4,0:1:0:0:
320,167,62170,1,0,0:0:0:0:
396,160,62287,1,2,0:3:0:0:
402,236,62404,1,0,0:0:0:0:
327,243,62522,6,0,P|269:236|210:230,1,116.999994644165,4|0,0:1|0:0,0:0:0:0:
142,197,62873,1,0,0:0:0:0:
80,247,62990,2,0,P|57:243|20:240,1,58.4999973220826,4|0,0:1|0:0,0:0:0:0:
0,127,63225,1,2,0:3:0:0:
29,124,63342,1,0,0:0:0:0:
179,50,63459,2,0,P|156:54|119:57,1,58.4999973220826,4|0,0:1|0:0,0:0:0:0:
99,170,63694,1,2,0:3:0:0:
128,173,63811,1,0,0:0:0:0:
217,128,63928,6,0,P|213:85|209:56,1,67.5000025749208,4|0,0:1|0:0,0:0:0:0:
210,230,64162,1,2,0:3:0:0:
147,275,64279,1,2,0:3:0:0:
217,357,64397,6,0,P|222:304|228:233,1,116.999994644165,4|0,0:1|0:0,0:0:0:0:
279,180,64748,1,0,0:0:0:0:
354,201,64865,2,0,P|362:230|358:258,1,58.4999973220826,4|0,0:1|0:0,0:0:0:0:
307,346,65100,1,2,0:3:0:0:
302,317,65217,1,0,0:0:0:0:
393,356,65334,2,0,P|427:360|475:371,1,58.4999973220826,4|0,0:1|0:0,0:0:0:0:
501,274,65568,1,2,0:3:0:0:
471,278,65685,1,0,0:0:0:0:
360,190,65803,6,0,P|394:181|433:184,1,67.5000025749208,4|0,0:1|0:0,0:0:0:0:
281,142,66037,2,0,P|247:140|216:127,1,67.5000025749208,2|0,0:3|0:0,0:0:0:0:
345,85,66272,6,0,P|377:86|403:95,1,58.4999973220826,4|0,0:1|0:0,0:0:0:0:
227,240,66506,6,0,P|193:241|159:246,1,67.5000025749208,2|0,0:0|0:0,0:0:0:0:
304,302,66740,2,0,P|309:335|314:368,1,67.5000025749208,4|0,0:1|0:0,0:0:0:0:
237,173,66975,2,0,P|231:206|226:239,1,67.5000025749208,0|0,0:0|0:0,0:0:0:0:
387,295,67209,6,0,P|440:244|431:171,1,153.000002918243,0|0,3:0|0:0,0:0:0:0:
320,201,67561,1,0,0:0:0:0:
334,223,67678,6,0,P|355:220|373:215,1,33.7500012874604,8|0,0:0|0:0,0:0:0:0:
237,173,67912,6,0,L|179:165,1,45,4|0,0:1|0:0,0:0:0:0:
356,103,68147,6,0,L|501:83,1,135.000005149842,4|2,0:0|0:0,0:0:0:0:
327,24,68850,1,2,0:0:0:0:
252,154,69084,1,0,0:0:0:0:
218,149,69201,1,0,0:0:0:0:
185,144,69318,1,0,0:0:0:0:
151,139,69436,2,0,L|134:149,1,16.8750006437302,0|0,3:0|3:0,0:0:0:0:
138,122,69553,6,0,P|128:97|128:76,1,40.4999987640381,0|0,0:0|0:0,0:0:0:0:
199,25,69787,2,0,P|207:43|209:63,1,40.4999987640381,0|0,0:0|0:0,0:0:0:0:
126,226,70022,6,0,P|103:224|85:212,1,45,8|0,0:0|0:0,0:0:0:0:
167,299,70256,2,0,P|194:299|219:292,1,45,0|0,0:0|0:0,0:0:0:0:
233,288,70432,1,0,0:0:0:0:
254,291,70490,2,0,P|281:291|306:284,1,45,0|0,3:0|0:0,0:0:0:0:
223,158,70725,1,0,3:0:0:0:
223,158,70842,1,0,0:0:0:0:
223,158,70959,6,0,L|226:202,2,45,2|0|2,0:0|0:0|0:0,0:0:0:0:
372,323,71428,2,0,P|385:341|393:368,1,45,2|0,0:0|0:0,0:0:0:0:
412,248,71662,2,0,P|430:260|447:283,1,45,2|0,0:0|0:0,0:0:0:0:
357,144,71897,6,0,P|328:137|299:131,1,58.4999973220826,8|0,0:0|0:0,0:0:0:0:
409,76,72131,6,0,P|387:55|369:41,1,45,0|0,0:0|0:0,0:0:0:0:
357,31,72307,1,0,0:0:0:0:
336,22,72365,2,0,P|307:25|291:26,1,45,0|0,3:0|0:0,0:0:0:0:
164,86,72600,1,0,3:0:0:0:
164,86,72717,1,0,0:0:0:0:
164,86,72834,6,0,L|119:81,2,45,2|0|2,0:0|0:0|0:0,0:0:0:0:
298,259,73303,2,0,P|300:236|304:214,1,45,2|0,0:0|0:0,0:0:0:0:
265,119,73537,2,0,L|268:141,1,22.5,2|0,0:0|0:0,0:0:0:0:
244,334,73772,6,0,P|215:338|187:328,1,58.4999973220826,2|0,0:0|0:0,0:0:0:0:
62,307,74006,5,0,0:0:0:0:
83,301,74123,1,0,0:0:0:0:
104,294,74240,2,0,L|112:383,1,90,0|0,3:0|3:0,0:0:0:0:
171,248,74592,1,0,0:0:0:0:
171,248,74709,2,0,L|176:201,1,45,2|0,0:0|0:0,0:0:0:0:
129,128,74943,2,0,P|106:128|85:134,1,45,0|0,0:0|0:0,0:0:0:0:
201,78,75178,2,0,P|226:88|255:88,1,45,2|0,0:0|0:0,0:0:0:0:
311,69,75412,6,0,P|294:68|277:73,1,33.7500012874604,0|0,0:0|0:0,0:0:0:0:
250,200,75647,5,0,3:0:0:0:
250,200,75764,2,0,L|381:187,1,90,0|0,0:0|0:0,0:0:0:0:
399,243,76115,2,0,L|452:248,1,45,0|0,3:0|0:0,0:0:0:0:
494,325,76350,2,0,L|449:320,1,45,0|0,3:0|0:0,0:0:0:0:
431,319,76584,1,0,0:0:0:0:
379,374,76700,1,0,0:0:0:0:
308,349,76818,6,0,L|249:344,1,58.4999973220826,2|0,0:0|0:0,0:0:0:0:
132,319,77053,2,0,P|144:345|148:374,1,58.4999973220826,2|0,0:0|0:0,0:0:0:0:
171,203,77287,6,0,P|164:218|161:235,1,33.7500012874604,0|0,0:0|0:0,0:0:0:0:
106,137,77522,6,0,P|83:141|61:143,1,45,2|0,0:0|0:0,0:0:0:0:
61,61,77756,2,0,P|38:57|16:52,1,45,2|0,0:0|0:0,0:0:0:0:
205,70,77990,6,0,P|195:83|181:93,1,33.7500012874604,0|0,3:0|0:0,0:0:0:0:
185,52,78225,2,0,P|169:59|153:60,1,33.7500012874604,0|0,3:0|0:0,0:0:0:0:
406,137,78459,6,0,P|428:141|450:143,1,45,2|0,0:0|0:0,0:0:0:0:
451,61,78693,2,0,P|473:57|495:52,1,45,2|0,0:0|0:0,0:0:0:0:
307,70,78928,6,0,P|316:83|330:93,1,33.7500012874604,0|0,3:0|0:0,0:0:0:0:
327,52,79162,2,0,P|342:59|358:60,1,33.7500012874604,0|0,0:0|0:0,0:0:0:0:
187,214,79397,6,0,L|180:272,1,45,2|0,0:0|0:0,0:0:0:0:
265,242,79631,2,0,L|258:300,1,45,2|0,0:0|0:0,0:0:0:0:
134,337,79865,6,0,L|140:373,1,33.7500012874604,0|0,3:0|0:0,0:0:0:0:
163,342,80100,2,0,L|169:378,1,33.7500012874604,0|0,3:0|0:0,0:0:0:0:
339,270,80334,5,2,0:0:0:0:
335,297,80451,1,0,0:0:0:0:
331,324,80568,2,0,L|338:370,1,45,2|0,0:0|0:0,0:0:0:0:
381,198,80803,6,0,P|409:196|436:208,1,58.4999973220826,2|0,0:0|0:0,0:0:0:0:
512,276,81037,6,0,P|496:281|479:281,1,33.7500012874604,0|0,3:0|0:0,0:0:0:0:
319,146,81272,5,0,3:0:0:0:
466,44,81506,1,0,0:0:0:0:
466,44,81623,1,0,0:0:0:0:
466,44,81740,2,0,P|468:66|470:88,1,45,2|0,0:0|0:0,0:0:0:0:
421,177,81975,2,0,P|423:199|425:221,1,45,2|0,0:0|0:0,0:0:0:0:
376,303,82209,1,0,0:0:0:0:
351,70,82443,1,0,0:0:0:0:
204,198,82678,2,0,P|232:195|269:190,1,45,0|0,3:0|0:0,0:0:0:0:
342,179,82912,2,0,L|339:201,3,22.5,0|0|0|0,0:0|0:0|0:0|0:0,0:0:0:0:
331,237,83147,6,0,P|301:288|330:367,1,135.000005149842,6|0,0:0|0:0,0:0:0:0:
493,309,83498,1,2,0:0:0:0:
493,309,83615,2,0,B|462:304|462:304|427:314|427:314|394:307,1,101.250003862381,2|0,0:0|0:0,0:0:0:0:
376,303,83850,2,0,P|392:324|398:365,1,67.5000025749208,2|0,0:3|0:0,0:0:0:0:
423,235,84084,5,8,0:3:0:0:
416,161,84201,1,4,0:3:0:0:
409,87,84318,1,4,0:3:0:0:
409,87,84553,6,0,B|342:131|268:94|254:17|288:-16|337:-4|336:73,1,270,8|0,0:3|0:0,0:0:0:0:
271,116,85022,6,0,P|226:109|182:101,1,90,4|0,0:0|0:0,0:0:0:0:
101,310,85490,1,8,0:0:0:0:
19,179,85725,1,0,0:0:0:0:
34,183,85803,1,0,0:0:0:0:
49,187,85881,1,0,0:0:0:0:
63,191,85959,2,0,P|109:187|153:184,1,90,4|0,0:1|0:0,0:0:0:0:
264,273,86428,1,8,0:0:0:0:
251,372,86662,1,0,0:0:0:0:
152,184,86897,5,4,0:1:0:0:
136,271,87131,2,0,P|158:267|180:266,1,45,0|0,0:0|0:0,0:0:0:0:
264,273,87365,1,8,0:0:0:0:
223,100,87600,1,0,0:0:0:0:
223,100,87717,1,0,0:0:0:0:
223,100,87834,2,0,P|230:150|237:200,1,90,4|0,0:1|0:0,0:0:0:0:
316,209,88186,1,0,0:0:0:0:
316,209,88303,2,0,P|336:218|358:219,1,45,8|0,0:0|0:0,0:0:0:0:
359,141,88537,2,0,P|381:142|402:136,1,45,0|0,0:0|0:0,0:0:0:0:
284,47,88772,6,0,P|247:22|202:20,1,90,4|0,0:1|0:0,0:0:0:0:
147,78,89123,1,0,0:0:0:0:
147,78,89240,1,10,0:0:0:0:
156,227,89475,1,2,0:0:0:0:
0,128,89709,1,4,0:1:0:0:
82,133,89943,1,2,0:0:0:0:
3,280,90178,2,0,L|92:286,1,90,8|0,0:0|0:0,0:0:0:0:
234,278,90647,6,0,L|242:367,1,90,4|0,0:1|0:0,0:0:0:0:
322,378,90998,1,0,0:0:0:0:
322,378,91115,2,0,L|314:318,1,45,10|0,0:0|0:0,0:0:0:0:
394,351,91350,2,0,L|386:291,1,45,2|0,0:0|0:0,0:0:0:0:
373,183,91584,1,4,0:1:0:0:
161,308,91818,1,0,0:0:0:0:
154,287,91936,1,0,0:0:0:0:
147,266,92053,2,0,P|153:214|157:165,1,90,8|0,0:0|0:0,0:0:0:0:
44,39,92522,6,0,P|50:68|54:95,1,45,4|0,0:0|0:0,0:0:0:0:
132,19,92756,2,0,P|135:41|140:63,1,45,0|0,0:0|0:0,0:0:0:0:
18,165,92990,1,8,0:0:0:0:
213,111,93225,1,0,0:0:0:0:
220,124,93303,1,0,0:0:0:0:
228,137,93381,1,0,0:0:0:0:
235,150,93459,2,0,P|231:194|225:239,1,90,4|0,0:1|0:0,0:0:0:0:
301,88,93928,1,8,0:0:0:0:
322,176,94162,1,0,0:0:0:0:
229,318,94397,6,0,P|206:317|186:308,1,45,4|0,0:1|0:0,0:0:0:0:
303,279,94631,2,0,P|332:276|362:274,1,45,0|0,0:0|0:0,0:0:0:0:
225,239,94865,1,8,0:0:0:0:
334,368,95100,2,0,P|363:365|393:363,1,45,0|0,0:0|0:0,0:0:0:0:
483,298,95334,1,4,0:1:0:0:
459,294,95451,1,0,0:0:0:0:
437,291,95568,2,0,P|434:262|432:232,1,45,0|0,0:0|0:0,0:0:0:0:
364,141,95803,2,0,P|362:163|359:185,1,45,8|0,0:0|0:0,0:0:0:0:
347,274,96037,1,0,0:0:0:0:
504,209,96272,6,0,P|499:151|495:103,1,90,4|0,0:1|0:0,0:0:0:0:
489,38,96623,1,0,0:0:0:0:
489,38,96740,1,10,0:0:0:0:
408,20,96975,1,2,0:0:0:0:
349,181,97209,1,4,0:1:0:0:
431,170,97444,1,2,0:0:0:0:
289,69,97678,1,8,0:0:0:0:
255,280,97912,1,0,0:0:0:0:
481,237,98147,5,4,0:1:0:0:
349,372,98381,1,0,0:0:0:0:
349,372,98498,1,0,0:0:0:0:
349,372,98615,2,0,P|344:321|340:277,1,90,8|2,0:0|0:0,0:0:0:0:
267,145,99084,1,4,0:1:0:0:
186,289,99318,1,2,0:0:0:0:
221,291,99435,1,0,0:0:0:0:
255,280,99552,1,8,0:0:0:0:
211,210,99787,1,0,0:0:0:0:
231,375,100022,5,4,0:0:0:0:
317,337,100256,2,0,P|334:305|335:269,1,72,0|8,0:0|0:0,0:0:0:0:
298,185,100725,1,0,0:0:0:0:
211,211,100959,1,0,0:0:0:0:
143,149,101193,2,0,L|149:119,1,18,2|0,0:0|0:0,0:0:0:0:
131,239,101428,2,0,L|105:249,1,18,8|0,0:0|0:0,0:0:0:0:
10,205,101662,2,0,B|29:200|29:200|45:200,1,36,2|0,0:0|0:0,0:0:0:0:
38,282,101897,5,0,0:0:0:0:
63,115,102131,1,0,0:0:0:0:
63,115,102248,1,0,0:0:0:0:
63,115,102365,2,0,L|53:43,1,72,8|0,0:0|0:0,0:0:0:0:
143,149,102834,2,0,L|214:139,1,72,0|0,0:0|0:0,0:0:0:0:
225,138,103186,1,0,0:0:0:0:
235,136,103303,1,10,0:0:0:0:
324,182,103537,1,0,0:0:0:0:
311,271,103772,5,0,0:0:0:0:
480,205,104006,2,0,L|398:195,1,72,0|10,0:0|0:0,0:0:0:0:
324,182,104475,1,2,0:0:0:0:
376,361,104709,1,2,0:0:0:0:
394,285,104943,1,0,0:0:0:0:
298,374,105178,2,0,L|288:322,1,36,10|0,0:0|0:0,0:0:0:0:
229,279,105412,2,0,L|210:229,1,36,2|0,0:0|0:0,0:0:0:0:
152,188,105647,5,0,0:0:0:0:
65,345,105881,1,0,0:0:0:0:
148,370,106115,1,8,0:0:0:0:
218,314,106350,1,2,0:0:0:0:
45,254,106584,1,0,0:0:0:0:
229,163,106818,1,0,0:0:0:0:
229,163,106936,1,0,0:0:0:0:
229,163,107053,2,0,P|233:128|223:94,1,72,8|0,0:0|0:0,0:0:0:0:
158,43,107404,1,0,0:0:0:0:
148,50,107522,6,0,P|107:44|61:39,1,80.9999975280763,4|0,0:1|0:0,0:0:0:0:
151,135,107990,1,8,0:0:0:0:
223,93,108225,1,0,0:0:0:0:
201,238,108459,1,4,0:1:0:0:
305,114,108693,2,0,L|300:77,1,20.2499993820191,2|0,0:0|0:0,0:0:0:0:
370,186,108928,2,0,L|407:192,1,20.2499993820191,8|0,0:0|0:0,0:0:0:0:
424,94,109162,2,0,B|405:91|405:91|386:98,1,40.4999987640381,2|0,0:0|0:0,0:0:0:0:
286,205,109397,5,4,0:1:0:0:
352,339,109631,1,0,0:0:0:0:
352,339,109748,1,0,0:0:0:0:
352,339,109865,2,0,P|393:345|429:329,1,80.9999975280763,8|0,0:0|0:0,0:0:0:0:
267,381,110334,2,0,P|272:328|276:292,1,80.9999975280763,4|0,0:1|0:0,0:0:0:0:
286,218,110686,1,0,0:0:0:0:
305,211,110803,2,0,P|301:170|296:130,1,80.9999975280763,10|0,0:0|0:0,0:0:0:0:
382,264,111272,5,4,0:1:0:0:
425,63,111506,1,0,0:0:0:0:
425,63,111623,1,0,0:0:0:0:
425,63,111740,2,0,L|384:58,1,40.4999987640381,8|0,0:0|0:0,0:0:0:0:
306,49,111975,1,2,0:0:0:0:
154,110,112209,5,2,0:0:0:0:
187,208,112443,1,2,0:0:0:0:
200,34,112678,1,8,0:0:0:0:
142,290,112912,1,0,0:0:0:0:
312,134,113147,6,0,L|286:127,1,16.8750006437302,8|0,0:1|0:0,0:0:0:0:
59,191,113381,1,2,2:0:0:0:
48,304,113615,1,0,2:0:0:0:
106,377,113850,1,0,2:0:0:0:
387,254,114084,6,0,P|411:194|311:134,1,202.500007724762,2|0,0:0|0:0,0:0:0:0:
296,142,114553,6,0,P|272:179|288:245,1,101.250003862381,8|0,0:0|0:0,0:0:0:0:
321,308,115022,6,0,P|368:339|424:329,1,116.999994644165,4|0,0:0|0:0,0:0:0:0:
486,283,115373,1,0,0:0:0:0:
447,217,115490,2,0,P|450:186|454:156,1,58.4999973220826,4|0,0:1|2:0,0:0:0:0:
407,61,115725,1,2,0:3:0:0:
411,90,115842,1,0,0:0:0:0:
341,198,115959,2,0,P|310:195|280:191,1,58.4999973220826,4|0,0:1|2:0,0:0:0:0:
189,87,116194,1,2,0:3:0:0:
218,83,116311,1,0,0:0:0:0:
302,38,116428,6,0,P|313:70|309:105,1,67.5000025749208,4|0,0:1|0:0,0:0:0:0:
115,131,116662,2,0,P|104:99|108:64,1,67.5000025749208,2|0,0:3|0:0,0:0:0:0:
312,12,116897,6,0,P|332:66|322:122,1,116.999994644165,4|0,0:1|0:0,0:0:0:0:
282,191,117248,1,0,0:0:0:0:
209,213,117365,2,0,P|179:207|146:203,1,58.4999973220826,4|0,0:1|0:0,0:0:0:0:
269,293,117600,1,2,0:3:0:0:
273,322,117717,1,0,0:0:0:0:
175,363,117834,2,0,P|160:337|157:308,1,58.4999973220826,4|0,0:1|0:0,0:0:0:0:
209,213,118068,1,2,0:3:0:0:
205,242,118186,1,0,0:0:0:0:
75,328,118303,6,0,P|77:294|88:263,1,67.5000025749208,4|0,0:1|0:0,0:0:0:0:
205,107,118537,1,2,0:3:0:0:
273,153,118654,1,2,0:3:0:0:
205,242,118772,6,0,P|199:183|195:126,1,116.999994644165,4|0,0:1|0:0,0:0:0:0:
218,55,119123,1,0,0:0:0:0:
291,75,119240,2,0,P|317:86|336:108,1,58.4999973220826,4|0,0:1|0:0,0:0:0:0:
318,216,119475,1,2,0:3:0:0:
290,223,119592,1,0,0:0:0:0:
385,169,119709,2,0,P|397:195|398:224,1,58.4999973220826,4|0,0:1|0:0,0:0:0:0:
336,312,119944,1,2,0:3:0:0:
307,308,120061,1,0,0:0:0:0:
417,299,120178,6,0,P|416:332|401:361,1,67.5000025749208,4|0,0:1|0:0,0:0:0:0:
205,242,120412,2,0,P|201:206|198:171,1,67.5000025749208,2|0,0:3|0:0,0:0:0:0:
55,335,120647,6,0,L|24:347,1,33.7500012874604,2|0,0:1|0:0,0:0:0:0:
95,273,120764,2,0,L|100:239,1,33.7500012874604,2|0,0:1|0:0,0:0:0:0:
127,340,120881,2,0,L|154:360,1,33.7500012874604,2|0,0:1|0:0,0:0:0:0:
33,130,121115,2,0,P|97:143|149:103,1,135.000005149842,4|0,0:1|0:0,0:0:0:0:
159,84,121467,1,0,0:0:0:0:
273,153,121584,6,0,B|323:149|323:149|369:167|369:167|424:162,1,153.000002918243,0|0,3:0|0:1,0:0:0:0:
486,88,121936,1,0,0:0:0:0:
465,69,122053,6,0,P|450:62|432:60,1,33.7500012874604,8|0,0:0|0:0,0:0:0:0:
344,185,122287,6,0,P|347:207|349:229,1,45,4|0,0:1|0:0,0:0:0:0:
189,349,122522,6,0,P|132:352|90:313,1,116.999994644165,4|0,0:0|0:0,0:0:0:0:
78,239,122873,1,0,0:0:0:0:
102,166,122990,2,0,P|100:137|96:108,1,58.4999973220826,4|0,0:1|0:0,0:0:0:0:
172,29,123225,1,2,0:3:0:0:
169,57,123342,1,0,0:0:0:0:
205,154,123459,2,0,P|231:166|259:166,1,58.4999973220826,4|0,0:1|0:0,0:0:0:0:
334,106,123693,1,2,0:3:0:0:
331,76,123810,1,0,0:0:0:0:
253,12,123928,6,0,P|251:41|247:83,1,67.5000025749208,4|0,0:1|0:0,0:0:0:0:
422,162,124162,2,0,P|418:128|416:94,1,67.5000025749208,2|0,0:3|0:0,0:0:0:0:
312,233,124397,6,0,P|370:238|428:245,1,116.999994644165,4|0,0:1|0:0,0:0:0:0:
476,308,124748,1,0,0:0:0:0:
420,358,124865,2,0,P|391:359|366:346,1,58.4999973220826,4|0,0:1|0:0,0:0:0:0:
315,257,125100,1,2,0:3:0:0:
318,285,125217,1,0,0:0:0:0:
240,378,125334,2,0,P|244:349|247:313,1,58.4999973220826,4|0,0:1|0:0,0:0:0:0:
226,205,125568,1,2,0:3:0:0:
229,233,125685,1,0,0:0:0:0:
164,314,125803,6,0,P|131:314|97:319,1,67.5000025749208,4|0,0:1|0:0,0:0:0:0:
67,182,126037,1,2,0:3:0:0:
6,235,126154,1,2,0:3:0:0:
71,326,126272,6,0,P|76:268|81:210,1,116.999994644165,4|0,0:1|0:0,0:0:0:0:
150,176,126623,1,0,0:0:0:0:
116,98,126740,2,0,P|113:73|108:30,1,58.4999973220826,4|0,0:1|0:0,0:0:0:0:
197,108,126975,1,2,0:3:0:0:
225,101,127092,1,0,0:0:0:0:
326,136,127209,2,0,P|328:165|315:198,1,58.4999973220826,4|0,0:1|0:0,0:0:0:0:
297,55,127443,1,2,0:3:0:0:
293,22,127560,1,0,0:0:0:0:
398,90,127678,6,0,P|434:97|486:105,1,67.5000025749208,4|0,0:1|0:0,0:0:0:0:
308,216,127912,2,0,P|301:252|293:304,1,67.5000025749208,2|0,0:3|0:0,0:0:0:0:
446,181,128147,6,0,P|474:177|504:173,1,58.4999973220826,4|0,0:1|0:0,0:0:0:0:
381,318,128381,6,0,P|348:309|315:303,1,67.5000025749208,2|0,0:0|0:0,0:0:0:0:
466,274,128615,2,0,P|471:310|476:354,1,67.5000025749208,4|0,0:1|0:0,0:0:0:0:
360,224,128850,2,0,P|354:187|349:143,1,67.5000025749208,0|0,0:0|0:0,0:0:0:0:
252,365,129084,6,0,P|179:337|194:252,1,153.000002918243,0|0,3:0|0:0,0:0:0:0:
276,228,129436,1,0,0:0:0:0:
254,206,129553,6,0,P|226:200|196:193,1,33.7500012874604,8|0,0:0|0:0,0:0:0:0:
80,325,129787,6,0,P|83:351|85:385,1,45,4|0,0:1|0:0,0:0:0:0:
135,197,130022,6,0,B|71:192|17:221|17:221|43:207|62:181,1,175.499991966248,4|0,0:0|0:0,0:0:0:0:
107,110,130490,2,0,P|115:84|114:51,1,58.4999973220826,4|0,0:1|0:0,0:0:0:0:
29,37,130725,1,2,0:3:0:0:
34,66,130842,1,0,0:0:0:0:
118,117,130959,2,0,P|147:116|174:126,1,58.4999973220826,4|0,0:1|0:0,0:0:0:0:
280,89,131193,1,2,0:3:0:0:
251,94,131310,1,0,0:0:0:0:
213,204,131428,2,0,P|208:234|204:266,1,58.4999973220826,4|0,0:1|0:0,0:0:0:0:
300,179,131662,1,2,0:3:0:0:
300,179,131779,1,2,0:3:0:0:
362,240,131897,6,0,P|395:241|428:230,1,58.4999973220826,4|0,0:1|0:0,0:0:0:0:
491,199,132131,1,0,0:0:0:0:
299,300,132365,2,0,P|303:336|306:371,1,58.4999973220826,0|0,0:0|0:0,0:0:0:0:
237,240,132600,1,2,0:3:0:0:
208,235,132717,1,0,0:0:0:0:
160,329,132834,2,0,P|188:331|218:322,1,58.4999973220826,4|0,0:1|0:0,0:0:0:0:
319,223,133068,1,2,0:3:0:0:
321,193,133185,1,0,0:0:0:0:
285,86,133303,2,0,P|256:83|226:92,1,58.4999973220826,4|0,0:1|0:0,0:0:0:0:
146,179,133537,1,2,0:3:0:0:
146,179,133654,1,2,0:3:0:0:
69,140,133772,6,0,L|60:23,1,116.999994644165,4|0,0:1|0:0,0:0:0:0:
135,35,134123,1,0,0:0:0:0:
135,35,134240,2,0,L|141:105,1,58.4999973220826,4|0,0:1|0:0,0:0:0:0:
215,41,134475,1,2,0:3:0:0:
217,68,134592,1,0,0:0:0:0:
181,167,134709,2,0,P|177:195|173:228,1,58.4999973220826,4|0,0:1|0:0,0:0:0:0:
263,137,134943,1,2,0:3:0:0:
290,135,135061,1,0,0:0:0:0:
372,201,135178,2,0,P|403:194|436:192,1,58.4999973220826,4|0,0:1|0:0,0:0:0:0:
412,277,135412,2,0,P|442:281|475:292,1,58.4999973220826,2|0,0:3|0:0,0:0:0:0:
241,309,135647,6,0,L|208:318,1,33.7500012874604,2|0,0:1|0:0,0:0:0:0:
288,251,135764,2,0,L|294:218,1,33.7500012874604,2|0,0:1|0:0,0:0:0:0:
314,319,135881,2,0,L|337:342,1,33.7500012874604,2|0,0:1|0:0,0:0:0:0:
121,329,136115,2,0,P|82:275|95:209,1,135.000005149842,4|0,0:1|0:0,0:0:0:0:
108,194,136467,1,0,0:0:0:0:
179,90,136584,6,0,B|282:80|282:80|326:107,1,153.000002918243,0|0,3:0|0:0,0:0:0:0:
400,200,136936,1,0,0:0:0:0:
420,182,137053,6,0,P|423:157|427:131,1,33.7500012874604,8|0,0:0|0:0,0:0:0:0:
401,22,137287,6,0,P|400:46|396:79,1,45,4|0,0:1|0:0,0:0:0:0:
283,283,137522,6,0,B|273:158|273:158|300:200,1,175.499991966248,4|0,0:0|0:0,0:0:0:0:
363,273,137990,2,0,P|389:283|418:279,1,58.4999973220826,4|0,0:1|0:0,0:0:0:0:
430,204,138225,1,2,0:3:0:0:
400,200,138342,1,0,0:0:0:0:
496,260,138459,2,0,P|492:296|489:327,1,58.4999973220826,4|0,0:1|0:0,0:0:0:0:
411,369,138693,1,2,0:3:0:0:
381,365,138810,1,0,0:0:0:0:
288,320,138928,2,0,P|292:351|295:386,1,58.4999973220826,4|0,0:1|0:0,0:0:0:0:
203,275,139162,1,2,0:3:0:0:
203,275,139279,1,2,0:3:0:0:
127,323,139397,6,0,P|97:324|70:315,1,58.4999973220826,4|0,0:1|0:0,0:0:0:0:
0,273,139631,1,0,0:0:0:0:
170,149,139865,2,0,P|167:178|163:207,1,58.4999973220826,0|0,0:0|0:0,0:0:0:0:
246,112,140100,1,2,0:3:0:0:
250,141,140217,1,0,0:0:0:0:
178,64,140334,2,0,P|141:55|111:50,1,58.4999973220826,4|0,0:1|0:0,0:0:0:0:
252,28,140568,1,2,0:3:0:0:
280,22,140685,1,0,0:0:0:0:
342,89,140803,2,0,P|343:118|334:145,1,58.4999973220826,4|0,0:1|0:0,0:0:0:0:
231,262,141037,1,2,0:3:0:0:
231,262,141154,1,2,0:3:0:0:
301,300,141272,6,0,P|359:295|433:291,1,116.999994644165,4|0,0:1|0:0,0:0:0:0:
485,243,141623,1,0,0:0:0:0:
485,243,141740,2,0,P|488:205|491:176,1,58.4999973220826,4|0,0:1|0:0,0:0:0:0:
415,115,141975,1,2,0:3:0:0:
418,144,142092,1,0,0:0:0:0:
350,217,142209,2,0,P|322:221|294:211,1,58.4999973220826,4|0,0:1|0:0,0:0:0:0:
217,143,142443,1,2,0:3:0:0:
245,138,142560,1,0,0:0:0:0:
333,124,142678,2,0,P|329:86|323:42,1,58.4999973220826,4|0,0:1|0:0,0:0:0:0:
414,86,142912,2,0,P|419:48|425:4,1,58.4999973220826,2|0,0:3|0:0,0:0:0:0:
273,234,143147,6,0,P|239:229|197:225,1,58.4999973220826,4|0,0:1|0:0,0:0:0:0:
352,305,143381,6,0,P|355:338|358:372,1,67.5000025749208,2|0,0:0|0:0,0:0:0:0:
387,196,143615,2,0,P|418:184|451:188,1,67.5000025749208,4|0,0:1|0:0,0:0:0:0:
503,340,143850,2,0,P|469:340|440:325,1,67.5000025749208,0|0,0:0|0:0,0:0:0:0:
221,329,144084,6,0,P|292:349|352:305,1,153.000002918243,0|0,3:0|0:0,0:0:0:0:
387,196,144436,1,0,0:0:0:0:
376,171,144553,6,0,P|377:154|380:137,1,33.7500012874604,8|0,0:0|0:0,0:0:0:0:
278,267,144787,6,0,P|274:237|268:205,1,45,4|0,0:1|0:0,0:0:0:0:
140,94,145022,6,0,B|218:117|253:48|253:48|233:81|243:140|313:105|295:61,1,270,4|0,0:0|0:0,0:0:0:0:
88,192,147365,5,2,0:0:0:0:
200,192,147834,1,2,0:0:0:0:
312,192,148303,1,2,0:0:0:0:
400,192,148537,1,0,0:0:0:0:
412,192,148654,1,0,0:0:0:0:
424,192,148772,6,0,P|417:236|411:281,1,90,4|0,0:1|0:0,0:0:0:0:
399,360,149123,1,0,0:0:0:0:
386,365,149240,2,0,P|343:368|291:374,1,90,2|0,0:0|0:0,0:0:0:0:
233,315,149592,1,0,0:0:0:0:
252,296,149709,6,0,L|322:285,1,58.4999973220826,0|0,0:0|0:0,0:0:0:0:
214,220,149943,6,0,L|258:212,1,45,0|0,0:0|0:0,0:0:0:0:
147,349,150178,1,0,0:0:0:0:
150,327,150295,1,0,0:0:0:0:
103,266,150412,1,2,0:0:0:0:
106,244,150529,1,0,0:0:0:0:
59,181,150647,6,0,L|73:73,1,90,4|0,0:1|0:0,0:0:0:0:
128,32,150998,1,0,0:0:0:0:
141,24,151115,2,0,P|184:18|224:38,1,90,2|0,0:0|0:0,0:0:0:0:
272,110,151467,1,0,0:0:0:0:
267,129,151584,2,0,P|311:121|356:117,1,90,0|0,0:0|0:0,0:0:0:0:
429,148,151936,1,0,0:0:0:0:
440,165,152053,6,0,P|443:198|428:228,1,67.5000025749208,2|0,0:0|0:0,0:0:0:0:
359,374,152287,6,0,P|376:331|369:286,1,90,2|0,0:1|0:0,0:0:0:0:
277,215,152522,5,4,0:1:0:0:
255,212,152639,1,0,0:0:0:0:
194,259,152756,1,0,0:0:0:0:
172,256,152873,1,0,0:0:0:0:
113,306,152990,2,0,L|61:299,1,45,2|0,0:0|0:0,0:0:0:0:
170,364,153225,2,0,L|214:370,1,45,0|0,0:0|0:0,0:0:0:0:
97,227,153459,5,0,0:0:0:0:
94,205,153576,1,0,0:0:0:0:
141,144,153693,1,2,0:0:0:0:
138,122,153810,1,0,0:0:0:0:
166,50,153928,2,0,P|188:49|209:57,1,45,0|0,0:0|0:0,0:0:0:0:
345,96,154162,2,0,P|322:95|301:103,1,45,2|0,0:0|0:0,0:0:0:0:
173,221,154397,6,0,L|270:212,1,90,4|0,0:1|0:0,0:0:0:0:
320,272,154748,1,0,0:0:0:0:
320,272,154865,2,0,L|311:369,1,90,2|0,0:0|0:0,0:0:0:0:
395,371,155217,1,0,0:0:0:0:
409,374,155334,2,0,P|435:367|449:354,1,45,0|0,0:0|0:0,0:0:0:0:
395,243,155568,2,0,P|399:271|401:304,1,45,2|0,0:0|0:0,0:0:0:0:
506,195,155803,6,0,P|477:177|444:179,1,67.5000025749208,2|0,0:1|0:0,0:0:0:0:
329,136,156037,6,0,P|351:134|372:141,1,45,0|0,3:0|0:0,0:0:0:0:
382,36,156272,5,4,0:1:0:0:
385,58,156389,1,0,0:0:0:0:
310,34,156506,1,0,0:0:0:0:
313,56,156623,1,0,0:0:0:0:
236,31,156740,2,0,P|245:89|252:132,1,90,2|0,0:0|0:0,0:0:0:0:
211,195,157092,1,0,0:0:0:0:
211,195,157209,6,0,P|188:196|168:187,1,45,0|0,0:0|0:0,0:0:0:0:
254,269,157443,2,0,P|277:265|310:261,1,45,2|0,0:0|0:0,0:0:0:0:
181,328,157678,2,0,P|178:354|175:394,1,45,2|0,0:0|0:0,0:0:0:0:
107,280,157912,2,0,P|104:248|101:222,1,45,2|0,0:0|0:0,0:0:0:0:
93,219,158088,1,0,0:0:0:0:
93,219,158147,6,0,P|97:172|101:125,1,90,4|0,0:1|0:0,0:0:0:0:
169,84,158498,1,0,0:0:0:0:
170,70,158615,2,0,L|162:17,1,45,2|0,0:0|0:0,0:0:0:0:
241,104,158850,1,0,0:0:0:0:
246,81,158967,1,0,0:0:0:0:
313,130,159084,6,0,L|325:75,1,45,0|0,0:0|0:0,0:0:0:0:
386,156,159318,2,0,L|398:101,1,45,2|0,0:0|0:0,0:0:0:0:
327,214,159553,1,0,0:0:0:0:
305,211,159670,1,2,0:0:0:0:
340,291,159787,1,0,0:0:0:0:
319,288,159904,1,0,0:0:0:0:
351,369,160021,6,0,P|293:360|250:353,1,90,4|0,0:1|0:0,0:0:0:0:
182,308,160373,1,0,0:0:0:0:
169,322,160490,2,0,L|121:330,1,45,2|0,0:0|0:0,0:0:0:0:
183,223,160725,2,0,P|205:224|225:233,1,45,0|0,0:0|0:0,0:0:0:0:
89,252,160959,6,0,P|92:229|94:207,1,45,0|0,0:0|0:0,0:0:0:0:
139,47,161193,2,0,P|142:91|147:136,1,90,2|2,0:0|0:0,0:0:0:0:
222,105,161545,1,2,0:0:0:0:
222,105,161662,2,0,L|216:56,1,45,2|0,0:0|0:0,0:0:0:0:
300,167,161897,5,4,0:1:0:0:
314,184,162014,2,0,L|370:189,1,45,0|0,0:0|0:0,0:0:0:0:
283,296,162248,1,0,0:0:0:0:
266,310,162365,2,0,L|261:366,1,45,2|0,0:0|0:0,0:0:0:0:
383,264,162600,1,0,0:0:0:0:
405,266,162717,1,0,0:0:0:0:
425,260,162834,2,0,P|460:227|461:181,1,90,0|0,0:0|0:0,0:0:0:0:
407,113,163186,1,0,3:0:0:0:
407,113,163303,6,0,P|437:107|487:100,1,58.4999973220826,8|0,0:0|0:0,0:0:0:0:
327,79,163537,2,0,P|323:50|330:21,1,58.4999973220826,4|0,0:1|0:0,0:0:0:0:
389,194,163772,6,0,P|402:254|351:316,1,135.000005149842,4|0,0:0|0:0,0:0:0:0:
264,331,164475,1,0,0:0:0:0:
155,262,164709,2,0,P|122:254|88:251,1,67.5000025749208,0|0,0:0|0:0,0:0:0:0:
222,105,165178,2,0,P|216:155|210:205,1,101.250003862381,0|0,3:0|0:0,0:0:0:0:
230,223,165647,6,0,P|285:233|329:166,1,135.000005149842,8|0,0:0|0:0,0:0:0:0:
313,60,166350,1,8,0:0:0:0:
196,123,166584,2,0,P|166:118|152:115,1,33.7500012874604
136,112,166818,1,0,3:0:0:0:
327,50,167053,2,0,P|379:45|440:38,1,101.250003862381,8|0,0:0|0:0,0:0:0:0:
450,54,167522,6,0,P|458:92|441:125,1,67.5000025749208,4|0,0:1|0:0,0:0:0:0:
443,126,167873,1,0,0:0:0:0:
437,134,167990,1,0,3:0:0:0:
499,259,168225,1,8,0:0:0:0:
309,193,168459,2,0,L|342:195,1,33.7500012874604,0|0,0:0|0:0,0:0:0:0:
369,198,168693,1,0,3:0:0:0:
447,332,168928,1,8,0:0:0:0:
291,273,169162,2,0,L|294:303,3,16.8750006437302,0|0|0|0,3:0|0:0|0:0|0:0,0:0:0:0:
295,310,169397,5,0,3:0:0:0:
345,121,169631,1,2,0:0:0:0:
443,204,169865,1,0,0:0:0:0:
419,305,170100,1,0,0:0:0:0:
141,349,170334,6,0,P|67:287|94:194,1,202.500007724762,2|0,0:0|0:0,0:0:0:0:
113,178,170803,6,0,P|128:130|105:83,1,101.250003862381,8|0,0:0|0:0,0:0:0:0:
53,29,171272,6,0,B|84:41|84:41|168:34,1,116.999994644165,4|0,0:0|0:0,0:0:0:0:
238,60,171623,1,0,0:0:0:0:
207,133,171740,2,0,P|206:163|214:190,1,58.4999973220826,4|0,0:1|2:0,0:0:0:0:
315,147,171975,1,2,0:3:0:0:
287,153,172092,1,0,0:0:0:0:
265,252,172209,2,0,P|260:287|256:318,1,58.4999973220826,4|0,0:1|2:0,0:0:0:0:
347,227,172443,1,2,0:3:0:0:
353,255,172560,1,0,0:0:0:0:
399,157,172678,6,0,P|402:122|406:89,1,67.5000025749208,4|0,0:1|0:0,0:0:0:0:
436,237,172912,2,0,P|442:272|447:305,1,67.5000025749208,2|0,0:3|0:0,0:0:0:0:
315,147,173147,6,0,P|241:152|167:159,1,116.999994644165,4|0,0:1|0:0,0:0:0:0:
125,188,173498,1,0,0:0:0:0:
60,138,173615,2,0,P|57:105|68:76,1,58.4999973220826,4|0,0:1|0:0,0:0:0:0:
155,29,173850,1,2,0:3:0:0:
125,25,173967,1,0,0:0:0:0:
218,78,174084,2,0,L|296:73,1,58.4999973220826,4|0,0:1|0:0,0:0:0:0:
155,219,174318,6,0,P|161:255|166:302,1,67.5000025749208,2|0,0:3|0:0,0:0:0:0:
357,219,174553,2,0,P|351:255|346:302,1,67.5000025749208,4|0,0:1|0:0,0:0:0:0:
200,357,174787,1,2,0:3:0:0:
246,289,174904,1,2,0:3:0:0:
335,357,175022,6,0,P|276:362|218:366,1,116.999994644165,4|0,0:1|0:0,0:0:0:0:
145,377,175373,1,0,0:0:0:0:
78,338,175490,2,0,P|64:312|62:283,1,58.4999973220826,4|0,0:1|0:0,0:0:0:0:
126,197,175725,1,2,0:3:0:0:
121,226,175842,1,0,0:0:0:0:
69,135,175959,2,0,P|40:130|11:125,1,58.4999973220826,4|0,0:1|0:0,0:0:0:0:
115,65,176193,1,2,0:3:0:0:
144,60,176310,1,0,0:0:0:0:
233,108,176428,6,0,P|237:141|226:172,1,67.5000025749208,4|0,0:1|0:0,0:0:0:0:
309,39,176662,2,0,P|342:44|375:48,1,67.5000025749208,2|0,0:3|0:0,0:0:0:0:
422,178,176897,6,0,L|434:208,1,33.7500012874604,2|0,0:1|0:0,0:0:0:0:
367,129,177014,2,0,L|332:123,1,33.7500012874604,2|0,0:1|0:0,0:0:0:0:
437,105,177131,2,0,L|457:77,1,33.7500012874604,2|0,0:1|0:0,0:0:0:0:
452,338,177365,2,0,P|407:290|339:289,1,135.000005149842,4|0,0:1|0:0,0:0:0:0:
323,305,177717,1,0,0:0:0:0:
236,368,177834,6,0,L|225:195,1,153.000002918243,0|0,3:0|0:1,0:0:0:0:
140,180,178186,1,0,0:0:0:0:
134,208,178303,6,0,P|135:232|143:262,1,33.7500012874604,8|0,0:0|0:0,0:0:0:0:
323,305,178537,6,0,P|330:283|330:261,1,45,4|0,0:1|0:0,0:0:0:0:
233,108,178772,6,0,P|174:100|116:95,1,116.999994644165,4|0,0:0|0:0,0:0:0:0:
39,91,179123,1,0,0:0:0:0:
4,161,179240,2,0,P|6:181|14:222,1,58.4999973220826,4|0,0:1|0:0,0:0:0:0:
58,313,179475,1,2,0:3:0:0:
63,285,179592,1,0,0:0:0:0:
132,371,179709,2,0,P|134:341|138:312,1,58.4999973220826,4|0,0:1|0:0,0:0:0:0:
88,204,179943,1,2,0:3:0:0:
115,216,180061,1,0,0:0:0:0:
214,282,180178,6,0,P|246:275|280:272,1,67.5000025749208,4|0,0:1|0:0,0:0:0:0:
473,299,180412,1,2,0:3:0:0:
397,316,180529,1,0,3:0:0:0:
322,335,180647,6,0,P|325:276|329:218,1,116.999994644165,4|0,0:1|0:0,0:0:0:0:
364,146,180998,1,0,0:0:0:0:
396,73,181115,2,0,P|394:41|389:14,1,58.4999973220826,4|0,0:1|0:0,0:0:0:0:
440,141,181350,1,2,0:3:0:0:
468,146,181467,1,0,0:0:0:0:
498,280,181584,2,0,P|470:289|441:287,1,58.4999973220826,4|0,0:1|0:0,0:0:0:0:
329,218,181818,1,2,0:3:0:0:
301,213,181935,1,0,0:0:0:0:
361,302,182053,6,0,P|358:332|355:371,1,67.5000025749208,4|0,0:1|0:0,0:0:0:0:
199,321,182287,1,2,0:3:0:0:
269,288,182404,1,2,0:3:0:0:
260,365,182522,6,0,P|201:369|143:374,1,116.999994644165,4|0,0:1|0:0,0:0:0:0:
66,359,182873,1,0,0:0:0:0:
121,297,182990,2,0,P|130:271|129:239,1,58.4999973220826,4|0,0:1|0:0,0:0:0:0:
19,251,183225,1,2,0:3:0:0:
47,256,183342,1,0,0:0:0:0:
131,159,183459,2,0,P|102:163|73:167,1,58.4999973220826,4|0,0:1|0:0,0:0:0:0:
205,201,183693,1,2,0:3:0:0:
210,229,183810,1,0,0:0:0:0:
249,115,183928,6,0,P|284:129|320:125,1,67.5000025749208,4|0,0:1|0:0,0:0:0:0:
374,22,184162,6,0,P|336:20|302:37,1,76.5000014591217,2|0,0:3|0:0,0:0:0:0:
292,205,184397,6,0,P|296:239|301:289,1,76.5000014591217,4|0,0:0|0:0,0:0:0:0:
427,88,184631,6,0,P|464:91|501:97,1,67.5000025749208,2|0,0:0|0:0,0:0:0:0:
450,295,184865,2,0,P|416:291|382:288,1,67.5000025749208,4|0,0:1|0:0,0:0:0:0:
352,102,185100,2,0,P|357:135|362:168,1,67.5000025749208,0|0,0:0|0:0,0:0:0:0:
338,353,185334,6,0,P|275:364|225:315,1,135.000005149842,0|0,3:0|0:0,0:0:0:0:
251,219,185686,1,0,0:0:0:0:
219,229,185803,2,0,P|185:223|152:219,1,67.5000025749208,8|0,0:0|0:0,0:0:0:0:
53,300,186037,6,0,P|76:301|97:294,1,45,4|0,0:1|0:0,0:0:0:0:
142,95,186272,6,0,B|152:220|152:220|125:178,1,175.499991966248,4|0,0:0|0:0,0:0:0:0:
56,120,186740,2,0,P|60:92|64:58,1,58.4999973220826,4|0,0:1|0:0,0:0:0:0:
134,12,186975,1,2,0:3:0:0:
164,16,187092,1,0,0:0:0:0:
264,48,187209,2,0,P|291:37|321:37,1,58.4999973220826,4|0,0:1|0:0,0:0:0:0:
222,130,187443,1,2,0:3:0:0:
224,157,187560,1,0,0:0:0:0:
311,121,187678,2,0,P|307:151|304:185,1,58.4999973220826,4|0,0:1|0:0,0:0:0:0:
385,82,187912,1,2,0:3:0:0:
385,82,188029,1,2,0:3:0:0:
382,165,188147,6,0,P|411:161|440:158,1,58.4999973220826,4|0,0:1|0:0,0:0:0:0:
512,120,188381,1,0,0:0:0:0:
358,246,188615,2,0,P|387:242|416:239,1,58.4999973220826,0|0,0:0|0:0,0:0:0:0:
508,292,188850,1,2,0:3:0:0:
481,290,188967,1,0,0:0:0:0:
388,324,189084,2,0,P|393:352|397:387,1,58.4999973220826,4|0,0:1|0:0,0:0:0:0:
335,251,189318,1,2,0:3:0:0:
337,224,189435,1,0,0:0:0:0:
266,303,189553,2,0,P|238:311|209:308,1,58.4999973220826,4|0,0:1|0:0,0:0:0:0:
65,229,189787,1,2,0:3:0:0:
65,229,189904,1,2,0:3:0:0:
26,322,190022,6,0,P|83:319|125:358,1,116.999994644165,4|0,0:1|0:0,0:0:0:0:
202,366,190373,1,0,0:0:0:0:
202,366,190490,2,0,P|205:339|209:299,1,58.4999973220826,4|0,0:1|0:0,0:0:0:0:
143,185,190725,1,2,0:3:0:0:
141,157,190842,1,0,0:0:0:0:
217,222,190959,2,0,P|251:222|290:207,1,58.4999973220826,4|0,0:1|0:0,0:0:0:0:
362,155,191193,1,2,0:3:0:0:
333,149,191310,1,0,0:0:0:0:
238,123,191428,2,0,P|245:94|249:65,1,58.4999973220826,4|0,0:1|0:0,0:0:0:0:
163,69,191662,2,0,P|166:39|168:10,1,58.4999973220826,2|0,0:3|0:0,0:0:0:0:
39,183,191897,6,0,L|11:203,1,33.7500012874604,2|0,0:1|0:0,0:0:0:0:
64,113,192014,2,0,L|60:80,1,33.7500012874604,2|0,0:1|0:0,0:0:0:0:
112,170,192131,2,0,L|142:184,1,33.7500012874604,2|0,0:1|0:0,0:0:0:0:
278,376,192365,2,0,P|284:300|290:224,1,153.000002918243,4|0,0:1|0:0,0:0:0:0:
342,132,192717,1,0,0:0:0:0:
362,120,192834,6,0,P|433:137|456:206,1,153.000002918243,0|0,3:0|0:0,0:0:0:0:
421,289,193186,1,0,0:0:0:0:
398,287,193303,6,0,P|380:282|356:277,1,33.7500012874604,8|0,0:0|0:0,0:0:0:0:
200,308,193537,6,0,P|222:303|244:300,1,45,4|0,0:1|0:0,0:0:0:0:
466,129,193772,6,0,B|461:193|490:247|490:247|476:221|450:202,1,175.499991966248,4|0,0:0|0:0,0:0:0:0:
372,198,194240,2,0,P|343:198|313:222,1,58.4999973220826,4|0,0:1|0:0,0:0:0:0:
280,303,194475,1,2,0:3:0:0:
283,332,194592,1,0,0:0:0:0:
230,225,194709,2,0,P|228:195|225:166,1,58.4999973220826,4|0,0:1|0:0,0:0:0:0:
166,284,194943,1,2,0:3:0:0:
137,287,195060,1,0,0:0:0:0:
45,300,195178,2,0,P|42:329|47:357,1,58.4999973220826,4|0,0:1|0:0,0:0:0:0:
81,214,195412,1,2,0:3:0:0:
81,214,195529,1,2,0:3:0:0:
4,171,195647,6,0,P|6:141|9:112,1,58.4999973220826,4|0,0:1|0:0,0:0:0:0:
18,31,195881,1,0,0:0:0:0:
206,87,196115,2,0,P|236:83|263:93,1,58.4999973220826,0|0,0:0|0:0,0:0:0:0:
221,194,196350,1,2,0:3:0:0:
225,166,196467,1,0,0:0:0:0:
322,150,196584,2,0,P|352:153|379:143,1,58.4999973220826,4|0,0:1|0:0,0:0:0:0:
337,43,196819,1,2,0:3:0:0:
341,71,196936,1,0,0:0:0:0:
444,92,197053,2,0,P|474:88|501:98,1,58.4999973220826,4|0,0:1|0:0,0:0:0:0:
461,188,197287,1,2,0:3:0:0:
461,188,197404,1,2,0:3:0:0:
512,255,197522,6,0,P|516:312|486:360,1,116.999994644165,4|0,0:1|0:0,0:0:0:0:
406,376,197873,1,0,0:0:0:0:
343,323,197990,2,0,P|345:294|349:258,1,58.4999973220826,4|0,0:1|0:0,0:0:0:0:
266,342,198225,1,2,0:3:0:0:
261,313,198342,1,0,0:0:0:0:
245,216,198459,2,0,P|218:226|189:225,1,58.4999973220826,4|0,0:1|0:0,0:0:0:0:
78,274,198693,1,2,0:3:0:0:
107,279,198810,1,0,0:0:0:0:
163,354,198928,2,0,P|133:355|105:361,1,58.4999973220826,4|0,0:1|0:0,0:0:0:0:
189,239,199162,2,0,P|172:214|153:192,1,58.4999973220826,2|0,0:3|0:0,0:0:0:0:
261,313,199397,6,0,P|257:342|255:371,1,58.4999973220826,4|0,0:1|0:0,0:0:0:0:
219,137,199631,6,0,P|212:94|201:51,1,76.5000014591217,2|0,0:0|0:0,0:0:0:0:
334,264,199865,2,0,P|344:305|358:347,1,76.5000014591217,4|0,0:1|0:0,0:0:0:0:
394,203,200100,2,0,P|411:242|433:281,1,76.5000014591217,0|0,0:0|0:0,0:0:0:0:
291,80,200334,6,0,P|347:128|421:102,1,153.000002918243,0|0,3:0|0:0,0:0:0:0:
479,23,200686,1,0,0:0:0:0:
498,42,200803,6,0,P|501:60|504:82,1,33.7500012874604,8|0,0:0|0:0,0:0:0:0:
394,203,201037,6,0,P|416:199|441:186,1,45,4|0,0:1|0:0,0:0:0:0:
363,56,201272,6,0,P|296:3|221:45,1,180,4|0,0:0|0:0,0:0:0:0:
196,142,201975,1,2,0:0:0:0:
123,64,202209,2,0,P|77:59|33:53,1,90,0|2,0:0|0:0,0:0:0:0:
4,122,202561,1,0,0:0:0:0:
4,122,202678,2,0,L|12:178,1,45,2|0,0:0|0:0,0:0:0:0:
66,231,202912,2,0,L|58:287,1,45
27,345,203147,6,0,P|77:316|178:383,1,180,2|0,0:0|0:0,0:0:0:0:
240,294,203850,1,2,0:0:0:0:
319,349,204084,2,0,P|341:345|363:343,2,45,0|0|2,0:0|0:0|0:0,0:0:0:0:
231,283,204553,2,0,P|230:260|234:238,1,45,2|0,0:0|0:0,0:0:0:0:
262,155,204787,2,0,P|272:135|287:118,1,45,0|0,0:0|0:0,0:0:0:0:
360,68,205022,6,0,P|424:57|475:99,1,135,2|0,0:0|0:0,0:0:0:0:
482,121,205490,2,0,P|480:167|452:201,1,90,2|0,0:0|0:0,0:0:0:0:
358,229,205959,2,0,P|336:225|313:221,2,45,0|0|2,0:0|0:0|0:0,0:0:0:0:
429,284,206428,2,0,P|453:282|489:278,1,45,2|0,0:0|0:0,0:0:0:0:
415,364,206662,2,0,P|439:362|475:358,1,45,0|0,0:0|0:0,0:0:0:0:
306,328,206897,6,0,L|285:318,1,22.5,2|0,0:1|0:0,0:0:0:0:
339,321,207014,2,0,L|356:306,1,22.5,2|0,0:1|0:0,0:0:0:0:
332,353,207131,2,0,L|336:375,1,22.5,2|0,0:1|0:0,0:0:0:0:
220,356,207365,2,0,P|210:312|225:270,1,90,2|0,0:0|0:0,0:0:0:0:
109,189,207834,6,0,P|164:200|210:167,1,116.999994644165,2|0,0:0|0:0,0:0:0:0:
252,95,208186,1,0,0:0:0:0:
252,95,208303,2,0,L|242:29,1,58.4999973220826,0|0,3:0|0:0,0:0:0:0:
330,134,208537,2,0,L|337:67,1,58.4999973220826,0|0,0:0|0:0,0:0:0:0:
279,212,208772,6,0,B|342:207|342:207|394:224|394:224|468:217,1,180,2|0,0:0|0:0,0:0:0:0:
412,142,209475,1,2,0:0:0:0:
456,218,209709,2,0,P|463:261|446:302,1,90,0|2,0:0|0:0,0:0:0:0:
351,354,210178,2,0,P|324:350|292:347,1,45,2|0,0:0|0:0,0:0:0:0:
244,287,210412,2,0,P|217:283|185:280,1,45,0|0,0:0|0:0,0:0:0:0:
124,231,210647,6,0,B|106:360|106:360|76:296,1,180,2|2,0:0|0:0,0:0:0:0:
44,214,211350,1,2,0:0:0:0:
137,150,211584,2,0,P|158:156|177:173,2,45,0|0|2,0:0|0:0|0:0,0:0:0:0:
6,89,212053,2,0,P|28:88|49:82,1,45,2|0,0:0|0:0,0:0:0:0:
121,47,212287,2,0,P|145:38|168:40,1,45,0|0,0:0|0:0,0:0:0:0:
236,76,212522,6,0,B|273:104|273:104|361:97,1,135,2|0,0:0|0:0,0:0:0:0:
383,94,212990,2,0,B|404:135|404:135|389:198,1,90,2|0,0:0|0:0,0:0:0:0:
317,275,213459,2,0,P|310:299|313:329,2,45,0|0|2,0:0|0:0|0:0,0:0:0:0:
432,249,213928,2,0,P|453:231|464:207,1,45,2|0,0:0|0:0,0:0:0:0:
386,310,214162,2,0,P|410:323|436:325,1,45,0|0,3:0|0:0,0:0:0:0:
498,291,214397,5,0,0:0:0:0:
364,194,214631,2,0,P|338:197|304:199,1,45,2|0,0:0|0:0,0:0:0:0:
246,233,214865,2,0,P|201:225|156:220,1,90,0|0,0:0|0:0,0:0:0:0:
39,277,215334,6,0,P|38:333|80:371,1,116.999994644165,2|0,0:0|0:0,0:0:0:0:
166,375,215686,1,0,0:0:0:0:
179,363,215803,6,0,P|182:337|183:313,1,33.7500012874604,0|0,3:0|0:0,0:0:0:0:
156,220,216037,2,0,P|157:236|159:253,1,33.7500012874604,4|0,0:1|0:0,0:0:0:0:
272,343,216272,6,0,P|327:355|390:299,1,135.000005149842
