osu file format v14

[General]
AudioFilename: audio.mp3
AudioLeadIn: 0
PreviewTime: 51506
Countdown: 0
SampleSet: Soft
StackLeniency: 0.7
Mode: 0
LetterboxInBreaks: 0
WidescreenStoryboard: 0

[Editor]
Bookmarks: 7053,53147,68147,112209,115022,136584,137522,216272
DistanceSpacing: 1.1
BeatDivisor: 4
GridSize: 4
TimelineZoom: 1.2

[Metadata]
Title:Give me a break Stop now
TitleUnicode:ギミアブレスタッナウ
Artist:REOL
ArtistUnicode:れをる
Creator:Chaoslitz
Version:Ming's Easy
Source:
Tags:Σ Sigma ギガ giga お菊 okiku Toshitaka Shinoda Amana Ijigen MinG3012 Streliteela DreaM117er [_Drop_] Irreversible
BeatmapID:1070622
BeatmapSetID:497483

[Difficulty]
HPDrainRate:2
CircleSize:3
OverallDifficulty:3
ApproachRate:3
SliderMultiplier:0.8
SliderTickRate:1

[Events]
//Background and Video events
0,0,"bg.jpg",0,0
Video,-316,"opto.flv"
//Break Periods
2,163972,169363
//Storyboard Layer 0 (Background)
//Storyboard Layer 1 (Fail)
//Storyboard Layer 2 (Pass)
//Storyboard Layer 3 (Foreground)
//Storyboard Sound Samples

[TimingPoints]
647,468.75,4,2,1,60,1,0
8147,-100,4,2,1,70,0,0
38147,-100,4,2,1,50,0,0
38381,-100,4,2,2,50,0,0
45647,-100,4,2,1,60,0,0
53147,-100,4,2,1,80,0,1
54553,-100,4,2,2,80,0,1
55022,-100,4,2,1,80,0,1
56428,-100,4,2,2,80,0,1
56897,-100,4,2,1,80,0,1
58303,-100,4,2,2,80,0,1
58772,-100,4,2,2,70,0,1
59240,-100,4,2,1,80,0,1
59709,-100,4,2,1,80,0,1
60178,-100,4,2,1,80,0,1
60412,-100,4,2,1,80,0,1
60647,-100,4,2,1,80,0,1
62053,-100,4,2,2,80,0,1
62522,-100,4,2,1,80,0,1
63928,-100,4,2,2,80,0,1
64397,-100,4,2,1,80,0,1
65803,-100,4,2,2,80,0,1
66272,-100,4,2,1,80,0,1
66506,-100,4,2,1,80,0,1
67209,-100,4,2,1,80,0,1
67678,-100,4,2,1,80,0,1
67912,-100,4,2,1,80,0,1
68147,-100,4,2,1,50,0,0
69553,-100,4,2,1,60,0,0
70022,-100,4,2,1,70,0,0
100022,-100,4,2,1,50,0,0
100490,-100,4,2,2,50,0,0
101428,-100,4,2,2,50,0,0
101662,-100,4,2,2,50,0,0
107522,-100,4,2,1,60,0,0
115022,-100,4,2,1,80,0,1
116428,-100,4,2,2,80,0,1
116897,-100,4,2,1,80,0,1
118303,-100,4,2,2,80,0,1
118772,-100,4,2,1,80,0,1
120178,-100,4,2,2,80,0,1
120647,-100,4,2,2,70,0,1
121115,-100,4,2,1,80,0,1
123928,-100,4,2,2,80,0,1
124397,-100,4,2,1,80,0,1
125803,-100,4,2,2,80,0,1
126272,-100,4,2,1,80,0,1
127678,-100,4,2,2,80,0,1
128147,-100,4,2,1,80,0,1
129904,-100,4,2,1,80,0,0
130022,-100,4,2,1,80,0,1
131428,-100,4,2,2,80,0,1
131897,-100,4,2,1,80,0,1
133303,-100,4,2,2,80,0,1
133772,-100,4,2,1,80,0,1
135178,-100,4,2,2,80,0,1
135647,-100,4,2,2,70,0,1
136115,-100,4,2,1,80,0,1
138928,-100,4,2,2,80,0,1
139397,-100,4,2,1,80,0,1
140803,-100,4,2,2,80,0,1
141272,-100,4,2,1,80,0,1
142678,-100,4,2,2,80,0,1
143147,-100,4,2,1,80,0,1
145022,-100,4,2,1,50,0,0
148772,-100,4,2,1,60,0,0
149709,-100,4,2,3,60,0,0
149826,-100,4,2,1,60,0,0
149943,-100,4,2,1,60,0,0
151584,-100,4,2,3,60,0,0
151701,-100,4,2,1,60,0,0
152287,-100,4,2,2,60,0,0
152522,-100,4,2,1,60,0,0
153459,-100,4,2,3,60,0,0
153576,-100,4,2,1,60,0,0
155334,-100,4,2,3,60,0,0
155451,-100,4,2,1,60,0,0
155803,-100,4,2,2,60,0,0
156037,-100,4,2,1,60,0,0
156272,-100,4,2,1,70,0,0
157209,-100,4,2,3,70,0,0
157326,-100,4,2,1,70,0,0
159084,-100,4,2,3,70,0,0
159201,-100,4,2,1,70,0,0
160959,-100,4,2,3,70,0,0
161076,-100,4,2,1,70,0,0
162834,-100,4,2,3,70,0,0
162951,-100,4,2,1,70,0,0
163772,-100,4,2,2,70,0,0
170334,-100,4,2,1,70,0,0
171272,-100,4,2,1,80,0,1
172678,-100,4,2,2,80,0,1
173147,-100,4,2,1,80,0,1
174553,-100,4,2,2,80,0,1
175022,-100,4,2,1,80,0,1
176428,-100,4,2,2,80,0,1
176897,-100,4,2,2,70,0,1
177365,-100,4,2,1,80,0,1
180178,-100,4,2,2,80,0,1
180647,-100,4,2,1,80,0,1
182053,-100,4,2,2,80,0,1
182522,-100,4,2,1,80,0,1
183928,-100,4,2,2,80,0,1
184162,-100,4,2,1,80,0,1
186154,-100,4,2,1,80,0,0
187678,-100,4,2,2,80,0,1
188147,-100,4,2,1,80,0,1
189553,-100,4,2,2,80,0,1
190022,-100,4,2,1,80,0,1
191428,-100,4,2,2,80,0,1
191897,-100,4,2,2,70,0,1
192365,-100,4,2,1,80,0,1
195178,-100,4,2,2,80,0,1
195647,-100,4,2,1,80,0,1
197053,-100,4,2,2,80,0,1
197522,-100,4,2,1,80,0,1
198928,-100,4,2,2,80,0,1
199397,-100,4,2,1,80,0,1
201272,-100,4,2,1,60,0,0
206897,-100,4,2,2,60,0,0
207365,-100,4,2,1,60,0,0
216740,-100,4,2,1,10,0,0

[Colours]
Combo1 : 0,106,106
Combo2 : 192,192,192
Combo3 : 234,74,134
Combo4 : 130,130,130

[HitObjects]
230,307,647,6,0,P|152:310|104:249,1,160,8|0,0:0|0:0,0:0:0:0:
130,165,2053,1,8,0:0:0:0:
189,231,2522,2,0,P|261:199|298:130,1,160,8|0,0:0|0:0,0:0:0:0:
298,41,3928,1,8,0:0:0:0:
222,85,4397,6,0,L|85:170,1,160,8|0,0:0|0:0,0:0:0:0:
13,219,5803,1,8,0:0:0:0:
93,257,6272,2,0,L|206:300,1,120,0|8,3:0|0:0,0:0:0:0:
205,299,8147,6,0,P|264:249|275:171,1,160,4|4,0:0|0:1,0:0:0:0:
254,85,9553,1,8,0:0:0:0:
340,102,10022,2,0,P|362:179|346:273,1,160,4|4,0:1|0:1,0:0:0:0:
325,340,11428,1,8,0:0:0:0:
412,328,11897,6,0,P|438:252|441:167,1,160,4|4,0:1|0:1,0:0:0:0:
424,86,13303,1,8,0:0:0:0:
354,139,13772,2,0,P|282:172|202:169,1,160,4|4,0:1|0:1,0:0:0:0:
139,107,15178,1,8,0:0:0:0:
77,43,15647,6,0,P|50:118|89:182,1,160,4|4,0:0|0:1,0:0:0:0:
157,237,17053,1,8,0:0:0:0:
232,282,17522,2,0,P|244:242|238:203,1,80,4|8,0:1|0:0,0:0:0:0:
169,149,18459,2,0,P|199:125|238:115,1,80,4|8,0:1|0:0,0:0:0:0:
319,151,19397,6,0,P|313:67|242:28,1,160,4|4,0:0|0:1,0:0:0:0:
170,56,20803,1,8,0:0:0:0:
88,88,21272,2,0,L|7:120,1,80,4|8,0:1|0:0,0:0:0:0:
35,202,22209,2,0,L|109:172,1,80,4|8,0:1|0:0,0:0:0:0:
192,143,23147,6,0,P|187:220|121:264,1,160,4|4,0:0|0:1,0:0:0:0:
36,281,24553,1,8,0:0:0:0:
92,348,25022,2,0,P|131:350|175:334,1,80,4|8,0:1|0:0,0:0:0:0:
242,288,25959,2,0,P|281:286|325:302,1,80,4|8,0:1|0:0,0:0:0:0:
391,350,26897,6,0,P|467:328|490:251,1,160,4|4,0:1|0:1,0:0:0:0:
445,184,28303,1,8,0:0:0:0:
405,262,28772,2,0,P|371:229|362:183,1,80,4|10,0:1|0:0,0:0:0:0:
309,125,29709,2,0,P|289:90|255:70,1,80,4|8,0:1|0:0,0:0:0:0:
171,42,30647,6,0,P|97:65|69:140,1,160,4|4,0:0|0:1,0:0:0:0:
79,224,32053,1,8,0:0:0:0:
150,172,32522,2,0,L|214:119,1,80,4|8,0:1|0:0,0:0:0:0:
278,64,33459,1,4,0:1:0:0:
330,134,33928,1,8,0:0:0:0:
265,193,34397,6,0,P|338:220|403:179,1,160,4|4,0:1|0:1,0:0:0:0:
443,99,35803,1,8,0:0:0:0:
491,172,36272,2,0,P|480:217|457:250,1,80,4|8,0:1|0:0,0:0:0:0:
391,296,37209,2,0,P|345:306|306:299,1,80,4|8,0:1|0:0,0:0:0:0:
230,271,38147,5,4,0:0:0:0:
299,217,38615,2,0,P|329:170|280:72,1,160,8|8,0:2|0:0,0:0:0:0:
238,150,40022,1,0,0:0:0:0:
185,220,40490,2,0,P|152:246|112:250,2,80,8|0|10,0:0|0:0|0:0,0:0:0:0:
144,143,41897,6,0,L|105:71,1,80,0|10,0:0|0:0,0:0:0:0:
28,114,42834,2,0,L|67:186,1,80,2|10,0:0|0:0,0:0:0:0:
111,260,43772,1,0,0:0:0:0:
157,334,44240,2,0,P|231:312|261:229,1,160,8|8,0:0|0:0,0:0:0:0:
225,161,45647,5,4,0:1:0:0:
175,88,46115,2,0,P|179:47|205:10,2,80,8|4|8,0:0|0:1|0:0,0:0:0:0:
263,82,47522,2,0,P|296:105|315:146,1,80,4|8,0:1|0:0,0:0:0:0:
320,227,48459,2,0,P|338:262|371:284,1,80,4|10,0:1|0:0,0:0:0:0:
457,300,49397,6,0,P|465:261|449:214,1,80,4|8,0:1|0:0,0:0:0:0:
396,156,50334,2,0,P|388:117|404:70,1,80,2|8,0:0|0:0,0:0:0:0:
461,17,51272,5,8,0:1:0:0:
461,17,52678,1,8,0:0:0:0:
457,105,53147,6,0,P|431:136|391:145,1,80,4|4,0:0|0:1,0:0:0:0:
384,58,54084,2,0,P|346:67|317:97,1,80,4|4,0:1|0:1,0:0:0:0:
312,183,55022,2,0,P|274:174|245:144,1,80,4|4,0:1|0:1,0:0:0:0:
236,58,55959,2,0,P|198:67|169:97,1,80,4|4,0:1|0:1,0:0:0:0:
171,183,56897,6,0,P|143:211|104:220,1,80,4|4,0:1|0:1,0:0:0:0:
16,224,57834,2,0,P|25:263|65:298,1,80,4|4,0:1|0:1,0:0:0:0:
128,334,58772,2,0,L|223:318,1,80,2|4,0:1|0:1,0:0:0:0:
293,303,59709,1,0,3:0:0:0:
274,216,60178,1,8,0:0:0:0:
188,236,60647,6,0,P|190:197|213:151,1,80,4|4,0:0|0:1,0:0:0:0:
275,105,61584,2,0,P|273:66|250:20,1,80,4|4,0:1|0:1,0:0:0:0:
171,6,62522,2,0,L|81:62,1,80,4|4,0:1|0:1,0:0:0:0:
29,96,63459,1,4,0:1:0:0:
80,167,63928,1,4,0:1:0:0:
156,122,64397,6,0,P|168:172|156:216,1,80,4|4,0:1|0:1,0:0:0:0:
118,275,65334,2,0,P|167:287|212:275,1,80,4|4,0:1|0:1,0:0:0:0:
277,250,66272,2,0,P|311:228|371:228,1,80,4|4,0:1|0:1,0:0:0:0:
435,244,67209,1,0,3:0:0:0:
452,157,67678,2,0,L|373:137,1,80,8|4,0:0|0:0,0:0:0:0:
374,137,70022,6,0,P|298:129|256:193,1,160,8|2,0:0|0:0,0:0:0:0:
288,274,71428,1,2,0:0:0:0:
200,264,71897,2,0,P|170:192|200:115,1,160,8|2,0:0|0:0,0:0:0:0:
257,54,73303,1,2,0:0:0:0:
170,37,73772,6,0,P|112:93|85:170,1,160,2|2,0:0|0:0,0:0:0:0:
84,254,75178,1,2,0:0:0:0:
161,212,75647,2,0,P|146:318|27:322,1,240,0|2,3:0|0:0,0:0:0:0:
0,242,77522,6,0,P|21:198|54:175,1,80,2|0,0:0|3:0,0:0:0:0:
116,127,78459,2,0,P|161:109|201:114,1,80,2|0,0:0|3:0,0:0:0:0:
253,175,79397,2,0,P|292:176|328:159,1,80,2|0,0:0|3:0,0:0:0:0:
400,108,80334,2,0,P|429:81|444:45,1,80,2|2,0:0|0:0,0:0:0:0:
368,0,81272,6,0,L|268:19,1,80,0|2,3:0|0:0,0:0:0:0:
205,40,82209,2,0,L|271:117,1,80,0|0,0:0|3:0,0:0:0:0:
318,164,83147,2,0,P|307:272|198:263,1,240,6|8,0:0|0:3,0:0:0:0:
156,186,85022,6,0,P|127:158|83:142,1,80,4|8,0:0|0:0,0:0:0:0:
3,134,85959,1,4,0:1:0:0:
17,47,86428,1,8,0:0:0:0:
104,57,86897,2,0,L|195:68,1,80,4|8,0:1|0:0,0:0:0:0:
270,79,87834,2,0,L|259:170,1,80,4|8,0:1|0:0,0:0:0:0:
251,246,88772,6,0,P|280:318|382:327,1,160,4|4,0:1|0:1,0:0:0:0:
437,310,90178,1,8,0:0:0:0:
370,251,90647,2,0,P|359:214|370:167,1,80,4|10,0:1|0:0,0:0:0:0:
400,92,91584,2,0,P|361:84|321:94,1,80,4|8,0:1|0:0,0:0:0:0:
276,169,92522,6,0,P|202:192|138:146,1,160,4|4,0:0|0:1,0:0:0:0:
125,60,93928,1,8,0:0:0:0:
53,111,94397,2,0,P|50:163|65:207,1,80,4|8,0:1|0:0,0:0:0:0:
97,267,95334,2,0,P|139:297|184:307,1,80,4|8,0:1|0:0,0:0:0:0:
253,317,96272,6,0,P|326:288|354:213,1,160,4|4,0:1|0:1,0:0:0:0:
302,145,97678,1,8,0:0:0:0:
257,221,98147,2,0,P|226:233|169:229,1,80,4|8,0:1|0:0,0:0:0:0:
120,166,99084,2,0,P|80:164|42:177,1,80,4|8,0:1|0:0,0:0:0:0:
1,255,100022,5,4,0:0:0:0:
88,251,100490,2,0,P|119:278|137:318,2,80,8|0|8,0:2|0:0|0:0,0:0:0:0:
42,177,101897,2,0,P|34:100|96:48,1,160,0|0,0:0|0:0,0:0:0:0:
176,28,103303,1,10,0:0:0:0:
161,114,103772,6,0,P|162:154|193:195,1,80,0|10,0:0|0:0,0:0:0:0:
264,220,104709,2,0,P|284:253|285:293,1,80,2|10,0:0|0:0,0:0:0:0:
222,355,105647,2,0,P|116:355|116:238,1,240,0|8,0:0|0:0,0:0:0:0:
168,177,107522,6,0,L|231:123,1,80,4|8,0:1|0:0,0:0:0:0:
299,177,108459,2,0,L|362:231,1,80,4|8,0:1|0:0,0:0:0:0:
431,178,109397,2,0,P|488:128|473:37,1,160,4|4,0:1|0:1,0:0:0:0:
406,2,110803,1,10,0:0:0:0:
405,92,111272,6,0,P|371:108|310:90,1,80,4|8,0:1|0:0,0:0:0:0:
278,31,112209,2,0,P|238:25|202:42,1,80,2|8,0:0|0:0,0:0:0:0:
126,85,113147,5,8,0:1:0:0:
126,85,114553,1,8,0:0:0:0:
148,169,115022,6,0,L|165:247,1,80,4|4,0:0|0:1,0:0:0:0:
250,270,115959,2,0,P|234:304|196:327,1,80,4|4,0:1|0:1,0:0:0:0:
111,313,116897,2,0,P|85:277|83:233,1,80,4|4,0:1|0:1,0:0:0:0:
134,172,117834,2,0,P|175:166|217:184,1,80,4|4,0:1|0:1,0:0:0:0:
296,200,118772,6,0,P|337:205|379:187,1,80,4|4,0:1|0:1,0:0:0:0:
442,138,119709,2,0,P|461:174|456:221,1,80,4|4,0:1|0:1,0:0:0:0:
396,273,120647,2,0,L|309:308,1,80,2|4,0:1|0:1,0:0:0:0:
240,336,121584,1,0,3:0:0:0:
210,253,122053,1,8,0:0:0:0:
292,222,122522,6,0,P|300:183|289:144,1,80,4|4,0:0|0:1,0:0:0:0:
213,100,123459,2,0,P|215:61|238:15,1,80,4|4,0:1|0:1,0:0:0:0:
317,7,124397,2,0,L|407:63,1,80,4|4,0:1|0:1,0:0:0:0:
459,91,125334,1,4,0:1:0:0:
408,162,125803,1,4,0:1:0:0:
332,117,126272,6,0,P|320:167|332:211,1,80,4|4,0:1|0:1,0:0:0:0:
370,270,127209,2,0,P|321:282|276:270,1,80,4|4,0:1|0:1,0:0:0:0:
232,212,128147,2,0,P|198:190|138:190,1,80,4|4,0:1|0:1,0:0:0:0:
73,204,129084,1,0,3:0:0:0:
56,117,129553,1,8,0:0:0:0:
142,100,130022,6,0,L|223:85,1,80,4|4,0:0|0:1,0:0:0:0:
305,63,130959,2,0,P|306:107|290:141,1,80,4|4,0:1|0:1,0:0:0:0:
222,194,131897,2,0,P|183:199|150:221,2,80,4|0|4,0:1|0:0|0:1,0:0:0:0:
303,230,133303,2,0,P|326:261|362:279,1,80,4|4,0:1|0:1,0:0:0:0:
445,251,134240,5,4,0:1:0:0:
383,187,134709,2,0,L|324:122,1,80,4|4,0:1|0:1,0:0:0:0:
309,41,135647,2,0,P|255:71|243:110,1,80,2|4,0:1|0:1,0:0:0:0:
232,171,136584,2,0,P|194:158|170:126,1,80,0|8,3:0|0:0,0:0:0:0:
121,53,137522,5,4,0:0:0:0:
74,127,137990,2,0,L|36:207,1,80,4|4,0:1|0:1,0:0:0:0:
5,280,138928,2,0,P|44:288|105:261,1,80,4|4,0:1|0:1,0:0:0:0:
157,232,139865,1,0,0:0:0:0:
221,172,140334,2,0,P|259:162|298:170,1,80,4|4,0:1|0:1,0:0:0:0:
355,237,141272,6,0,P|381:202|386:156,1,80,4|4,0:1|0:1,0:0:0:0:
340,91,142209,2,0,P|310:64|295:28,2,80,4|4|4,0:1|0:1|0:1,0:0:0:0:
428,88,143615,2,0,P|465:75|504:80,2,80,4|0|8,0:1|3:0|0:0,0:0:0:0:
387,166,145022,1,4,0:0:0:0:
387,166,148772,6,0,P|388:243|342:312,1,160,4|0,0:1|0:0,0:0:0:0:
169,335,150647,2,0,P|168:256|212:190,1,160,4|0,0:1|0:0,0:0:0:0:
356,89,152522,6,0,P|302:33|224:17,1,160,4|0,0:1|0:0,0:0:0:0:
79,118,154397,2,0,P|133:174|211:189,1,160,4|0,0:1|0:0,0:0:0:0:
384,158,156272,6,0,P|447:205|444:284,1,160,4|0,0:1|0:0,0:0:0:0:
303,383,158147,2,0,P|240:336|243:257,1,160,4|0,0:1|0:0,0:0:0:0:
351,123,160022,6,0,L|343:290,1,160,4|0,0:1|0:0,0:0:0:0:
178,343,161897,2,0,L|185:183,1,160,4|0,0:1|0:0,0:0:0:0:
304,53,163772,5,4,0:0:0:0:
278,33,170803,5,8,0:0:0:0:
258,118,171272,2,0,L|249:197,1,80,4|4,0:0|0:1,0:0:0:0:
289,277,172209,2,0,P|321:253|335:203,1,80,4|4,0:1|0:1,0:0:0:0:
361,131,173147,2,0,P|398:152|422:189,1,80,4|4,0:1|0:1,0:0:0:0:
414,270,174084,2,0,P|441:311|493:323,1,80,4|4,0:1|0:1,0:0:0:0:
498,239,175022,6,0,L|504:157,1,80,4|4,0:1|0:1,0:0:0:0:
510,71,175959,2,0,L|430:65,1,80,4|4,0:1|0:1,0:0:0:0:
342,59,176897,2,0,L|276:126,1,80,2|4,0:1|0:1,0:0:0:0:
218,172,177834,1,0,3:0:0:0:
279,234,178303,1,8,0:0:0:0:
347,178,178772,6,0,P|367:215|363:260,1,80,4|4,0:0|0:1,0:0:0:0:
311,321,179709,2,0,P|273:330|231:313,1,80,4|4,0:1|0:1,0:0:0:0:
202,234,180647,2,0,P|195:195|168:166,2,80,4|4|4,0:1|0:1|0:1,0:0:0:0:
149,304,182053,2,0,L|90:362,1,80,4|4,0:1|0:1,0:0:0:0:
15,316,182990,6,0,P|17:278|54:225,1,80,4|4,0:1|0:1,0:0:0:0:
103,184,183928,1,4,0:1:0:0:
119,97,184397,2,0,P|182:143|184:221,1,160,4|0,0:0|3:0,0:0:0:0:
149,300,185803,1,8,0:0:0:0:
236,296,186272,6,0,P|265:257|276:208,1,80,4|4,0:0|0:1,0:0:0:0:
277,139,187209,2,0,P|293:102|338:74,1,80,4|4,0:1|0:1,0:0:0:0:
388,17,188147,2,0,P|409:52|410:93,1,80,4|0,0:1|0:0,0:0:0:0:
433,175,189084,2,0,P|392:175|356:156,1,80,4|4,0:1|0:1,0:0:0:0:
323,78,190022,6,0,P|282:77|246:96,1,80,4|4,0:1|0:1,0:0:0:0:
174,142,190959,1,4,0:1:0:0:
223,215,191428,1,4,0:1:0:0:
299,171,191897,2,0,P|311:218|300:266,1,80,2|4,0:1|0:1,0:0:0:0:
250,316,192834,2,0,P|285:336|343:328,1,80,0|8,3:0|0:0,0:0:0:0:
408,309,193772,6,0,L|431:219,1,80,4|4,0:0|0:1,0:0:0:0:
446,145,194709,1,4,0:1:0:0:
359,127,195178,1,4,0:1:0:0:
340,213,195647,2,0,P|301:198|276:162,1,80,4|0,0:1|0:0,0:0:0:0:
254,83,196584,2,0,P|229:52|192:38,1,80,4|4,0:1|0:1,0:0:0:0:
104,34,197522,6,0,P|111:78|148:117,1,80,4|4,0:1|0:1,0:0:0:0:
209,146,198459,2,0,P|185:178|150:194,1,80,4|4,0:1|0:1,0:0:0:0:
62,208,199397,2,0,L|101:300,1,80,4|4,0:1|0:1,0:0:0:0:
127,362,200334,1,0,3:0:0:0:
208,328,200803,1,8,0:0:0:0:
171,247,201272,6,0,P|197:142|304:166,1,240,4|2,0:0|0:0,0:0:0:0:
301,253,203147,2,0,P|390:187|338:84,1,240,2|2,0:0|0:0,0:0:0:0:
258,64,205022,6,0,P|168:129|220:232,1,240,2|2,0:0|0:0,0:0:0:0:
254,151,206897,1,2,0:1:0:0:
304,222,207365,2,0,P|332:191|342:141,2,80,2|2|0,0:0|0:0|3:0,0:0:0:0:
216,232,208772,6,0,P|289:309|389:248,1,240,2|2,0:0|0:0,0:0:0:0:
367,163,210647,2,0,P|468:197|455:317,1,240,2|2,0:0|0:0,0:0:0:0:
375,340,212522,6,0,L|142:286,1,240,2|2,0:0|0:0,0:0:0:0:
76,225,214397,2,0,P|54:261|56:317,2,80,0|0|2,0:0|0:0|0:0,0:0:0:0:
134,158,215803,1,0,3:0:0:0:
199,214,216272,1,0,0:0:0:0:
