osu file format v14

[General]
AudioFilename: audio.mp3
AudioLeadIn: 0
PreviewTime: 51506
Countdown: 0
SampleSet: Soft
StackLeniency: 0.7
Mode: 0
LetterboxInBreaks: 0
WidescreenStoryboard: 0

[Editor]
Bookmarks: 216272
DistanceSpacing: 1
BeatDivisor: 4
GridSize: 4
TimelineZoom: 1.3

[Metadata]
Title:Give me a break Stop now
TitleUnicode:ギミアブレスタッナウ
Artist:REOL
ArtistUnicode:れをる
Creator:Chaoslitz
Version:Drop's Light Insane
Source:
Tags:Σ Sigma ギガ giga お菊 okiku Toshitaka Shinoda Amana Ijigen MinG3012 Streliteela DreaM117er [_Drop_] Irreversible
BeatmapID:1070621
BeatmapSetID:497483

[Difficulty]
HPDrainRate:5
CircleSize:4
OverallDifficulty:7
ApproachRate:8
SliderMultiplier:1.6
SliderTickRate:1

[Events]
//Background and Video events
0,0,"bg.jpg",0,0
Video,-316,"opto.flv"
//Break Periods
2,38347,44897
2,70221,82162
2,100222,106772
//Storyboard Layer 0 (Background)
//Storyboard Layer 1 (Fail)
//Storyboard Layer 2 (Pass)
//Storyboard Layer 3 (Foreground)
//Storyboard Sound Samples

[TimingPoints]
647,468.75,4,2,1,60,1,0
647,-83.3333333333333,4,2,1,60,0,0
1115,-125,4,2,1,60,0,0
2287,-125,4,2,1,60,0,0
2522,-125,4,2,1,60,0,0
3459,-125,4,2,1,60,0,0
4397,-83.3333333333333,4,2,1,60,0,0
4865,-125,4,2,1,60,0,0
6037,-100,4,2,1,60,0,0
8147,-100,4,2,1,70,0,0
38147,-125,4,2,1,50,0,0
45647,-125,4,2,1,60,0,0
52678,-200,4,2,1,60,0,0
53147,-83.3333333333333,4,2,1,80,0,1
54553,-71.4285714285714,4,2,2,80,0,1
55022,-83.3333333333333,4,2,1,80,0,1
56428,-71.4285714285714,4,2,2,80,0,1
56897,-83.3333333333333,4,2,1,80,0,1
58303,-71.4285714285714,4,2,2,80,0,1
58772,-83.3333333333333,4,2,2,70,0,1
59240,-83.3333333333333,4,2,1,80,0,1
60178,-71.4285714285714,4,2,1,80,0,1
60412,-100,4,2,1,80,0,1
60647,-83.3333333333333,4,2,1,80,0,1
62053,-71.4285714285714,4,2,2,80,0,1
62522,-83.3333333333333,4,2,1,80,0,1
63928,-71.4285714285714,4,2,2,80,0,1
64397,-83.3333333333333,4,2,1,80,0,1
65803,-71.4285714285714,4,2,2,80,0,1
66272,-83.3333333333333,4,2,1,80,0,1
67678,-71.4285714285714,4,2,1,80,0,1
68147,-125,4,2,1,50,0,0
69553,-200,4,2,1,60,0,0
70022,-125,4,2,1,70,0,0
83147,-83.3333333333333,4,2,1,70,0,0
84553,-50,4,2,1,70,0,0
85022,-66.6666666666667,4,2,1,70,0,0
85490,-100,4,2,1,70,0,0
100022,-125,4,2,1,50,0,0
107522,-125,4,2,1,60,0,0
113147,-100,4,2,1,60,0,0
114553,-200,4,2,1,60,0,0
115022,-83.3333333333333,4,2,1,80,0,1
116428,-71.4285714285714,4,2,2,80,0,1
116897,-83.3333333333333,4,2,1,80,0,1
118303,-71.4285714285714,4,2,2,80,0,1
118772,-83.3333333333333,4,2,1,80,0,1
120178,-71.4285714285714,4,2,2,80,0,1
120647,-83.3333333333333,4,2,2,70,0,1
121115,-83.3333333333333,4,2,1,80,0,1
122053,-71.4285714285714,4,2,1,80,0,1
122522,-83.3333333333333,4,2,1,80,0,1
123928,-71.4285714285714,4,2,2,80,0,1
124397,-83.3333333333333,4,2,1,80,0,1
125803,-71.4285714285714,4,2,2,80,0,1
126272,-83.3333333333333,4,2,1,80,0,1
127678,-71.4285714285714,4,2,2,80,0,1
128147,-83.3333333333333,4,2,1,80,0,1
129553,-71.4285714285714,4,2,1,80,0,0
130022,-83.3333333333333,4,2,1,80,0,1
131428,-71.4285714285714,4,2,2,80,0,1
131897,-83.3333333333333,4,2,1,80,0,1
133303,-71.4285714285714,4,2,2,80,0,1
133772,-83.3333333333333,4,2,1,80,0,1
135178,-71.4285714285714,4,2,2,80,0,1
135647,-83.3333333333333,4,2,2,70,0,1
136115,-83.3333333333333,4,2,2,80,0,1
137053,-71.4285714285714,4,2,1,80,0,1
137522,-83.3333333333333,4,2,1,80,0,1
138928,-71.4285714285714,4,2,2,80,0,1
139397,-83.3333333333333,4,2,1,80,0,1
140803,-71.4285714285714,4,2,2,80,0,1
141272,-83.3333333333333,4,2,1,80,0,1
142678,-71.4285714285714,4,2,2,80,0,1
143147,-83.3333333333333,4,2,1,80,0,1
144553,-71.4285714285714,4,2,1,80,0,1
145022,-200,4,2,1,50,0,0
147365,-111.111111111111,4,2,1,100,0,0
148772,-111.111111111111,4,2,1,60,0,0
149709,-111.111111111111,4,2,3,60,0,0
149943,-111.111111111111,4,2,1,60,0,0
151584,-111.111111111111,4,2,3,60,0,0
151701,-111.111111111111,4,2,1,60,0,0
152053,-111.111111111111,4,2,1,60,0,0
152287,-111.111111111111,4,2,2,60,0,0
152522,-111.111111111111,4,2,1,60,0,0
153459,-111.111111111111,4,2,3,60,0,0
153576,-111.111111111111,4,2,1,60,0,0
155334,-111.111111111111,4,2,3,60,0,0
155451,-111.111111111111,4,2,1,60,0,0
155803,-76.9230769230769,4,2,2,60,0,0
156272,-111.111111111111,4,2,1,70,0,0
157209,-111.111111111111,4,2,3,70,0,0
157326,-111.111111111111,4,2,1,70,0,0
159084,-111.111111111111,4,2,3,70,0,0
159201,-111.111111111111,4,2,1,70,0,0
160959,-111.111111111111,4,2,3,70,0,0
161076,-111.111111111111,4,2,1,70,0,0
162834,-111.111111111111,4,2,3,70,0,0
162951,-111.111111111111,4,2,1,70,0,0
163303,-111.111111111111,4,2,1,70,0,0
163772,-111.111111111111,4,2,2,70,0,0
164709,-100,4,2,3,70,0,0
164826,-100,4,2,1,70,0,0
166584,-100,4,2,3,70,0,0
166701,-100,4,2,1,70,0,0
168459,-100,4,2,3,70,0,0
168576,-100,4,2,1,70,0,0
170334,-100,4,2,1,70,0,0
170803,-200,4,2,1,70,0,0
171272,-83.3333333333333,4,2,1,80,0,1
172678,-62.5,4,2,2,80,0,1
173147,-83.3333333333333,4,2,1,80,0,1
174318,-100,4,2,1,80,0,1
174553,-62.5,4,2,2,80,0,1
175022,-83.3333333333333,4,2,1,80,0,1
176428,-62.5,4,2,2,80,0,1
176897,-83.3333333333333,4,2,2,70,0,1
177365,-83.3333333333333,4,2,1,80,0,1
178303,-62.5,4,2,1,80,0,1
178772,-83.3333333333333,4,2,1,80,0,1
180178,-62.5,4,2,2,80,0,1
180647,-83.3333333333333,4,2,1,80,0,1
182053,-62.5,4,2,2,80,0,1
182522,-83.3333333333333,4,2,1,80,0,1
183928,-62.5,4,2,2,80,0,1
184397,-83.3333333333333,4,2,1,80,0,1
184631,-83.3333333333333,4,2,1,80,0,1
185803,-62.5,4,2,1,80,0,0
186272,-83.3333333333333,4,2,1,80,0,1
187678,-62.5,4,2,2,80,0,1
188147,-83.3333333333333,4,2,1,80,0,1
189553,-62.5,4,2,2,80,0,1
190022,-83.3333333333333,4,2,1,80,0,1
191428,-62.5,4,2,2,80,0,1
191897,-83.3333333333333,4,2,2,70,0,1
192365,-83.3333333333333,4,2,2,80,0,1
193303,-62.5,4,2,1,80,0,1
193772,-83.3333333333333,4,2,1,80,0,1
195178,-62.5,4,2,2,80,0,1
195647,-83.3333333333333,4,2,1,80,0,1
197053,-62.5,4,2,2,80,0,1
197522,-83.3333333333333,4,2,1,80,0,1
198928,-62.5,4,2,2,80,0,1
199397,-83.3333333333333,4,2,1,80,0,1
200803,-62.5,4,2,1,80,0,1
201037,-62.5,4,2,1,80,0,1
201272,-100,4,2,1,60,0,0
206897,-100,4,2,2,60,0,0
207365,-100,4,2,1,60,0,0
207834,-100,4,2,1,60,0,0
208772,-100,4,2,1,60,0,0
215334,-100,4,2,1,60,0,0
215803,-100,4,2,1,60,0,0

[Colours]
Combo1 : 0,106,106
Combo2 : 192,192,192
Combo3 : 234,74,134
Combo4 : 130,130,130

[HitObjects]
151,202,647,6,0,P|157:146|144:36,1,143.999995605469,8|0,0:0|0:0,0:0:0:0:
132,36,1115,1,0,0:0:0:0:
268,96,1350,1,8,0:0:0:0:
80,148,1584,2,0,L|12:144,1,64,0|0,0:0|0:0,0:0:0:0:
136,272,2053,2,0,L|204:268,1,64,8|2,0:0|0:0,0:0:0:0:
304,216,2522,6,0,L|298:316,1,96,8|0,0:0|3:0,0:0:0:0:
296,336,2990,1,0,0:0:0:0:
384,364,3225,1,8,0:0:0:0:
452,256,3459,1,0,0:0:0:0:
452,256,3576,1,0,3:0:0:0:
452,256,3693,2,0,L|448:192,2,64,8|8|0,0:0|0:0|0:0,0:0:0:0:
416,112,4397,6,0,P|357:157|276:124,1,143.999995605469,8|0,0:0|0:0,0:0:0:0:
272,119,4865,2,0,P|278:167|276:196,1,64,2|10,0:0|0:0,0:0:0:0:
156,108,5334,2,0,P|156:76|161:44,1,64,0|0,0:0|0:0,0:0:0:0:
196,216,5803,1,8,0:0:0:0:
168,308,6037,1,2,0:0:0:0:
16,232,6272,5,0,3:0:0:0:
24,244,7443,5,0,3:0:0:0:
24,244,7561,1,0,0:0:0:0:
24,244,7678,1,0,0:0:0:0:
144,232,7912,1,0,0:0:0:0:
144,232,8029,1,0,0:0:0:0:
144,232,8147,6,0,P|156:278|152:324,1,80,4|0,0:0|0:0,0:0:0:0:
48,156,8615,2,0,L|52:76,1,80,8|0,0:0|0:0,0:0:0:0:
272,132,9084,1,4,0:1:0:0:
124,96,9318,1,0,0:0:0:0:
244,52,9553,2,0,P|288:49|346:80,1,80,8|0,0:0|0:0,0:0:0:0:
476,64,10022,6,0,P|456:103|400:138,1,80,4|0,0:1|0:0,0:0:0:0:
349,258,10490,2,0,P|324:221|322:155,1,80,8|0,0:0|0:0,0:0:0:0:
330,151,10842,1,0,0:0:0:0:
356,124,10959,1,4,0:1:0:0:
440,260,11193,1,0,0:0:0:0:
426,295,11311,1,0,0:0:0:0:
408,328,11428,2,0,L|296:332,1,80,8|0,0:0|0:0,0:0:0:0:
96,244,11897,6,0,B|200:260|148:220|264:240,1,160,4|10,0:1|0:0,0:0:0:0:
208,312,12600,1,2,0:0:0:0:
141,170,12834,2,0,P|135:120|144:80,1,80,4|2,0:1|0:0,0:0:0:0:
312,140,13303,2,0,P|317:179|311:218,1,80,8|0,0:0|0:0,0:0:0:0:
240,52,13772,6,0,L|388:44,1,120,4|2,0:1|0:0,0:0:0:0:
380,28,14240,2,0,L|385:121,1,80,10|2,0:0|0:0,0:0:0:0:
396,128,14592,1,0,0:0:0:0:
407,148,14709,2,0,L|401:241,1,80,4|2,0:1|0:0,0:0:0:0:
391,248,15061,1,0,0:0:0:0:
380,268,15178,2,0,P|345:250|298:250,1,80,8|0,0:0|0:0,0:0:0:0:
104,344,15647,6,0,P|143:342|179:324,1,80,4|0,0:0|0:0,0:0:0:0:
192,304,15998,1,0,0:0:0:0:
196,280,16115,2,0,L|188:192,1,80,8|0,0:0|0:0,0:0:0:0:
128,80,16584,2,0,L|120:159,1,80,4|0,0:1|0:0,0:0:0:0:
212,80,17053,1,8,0:0:0:0:
36,144,17287,1,0,0:0:0:0:
188,200,17522,6,0,L|267:192,1,80,4|0,0:1|0:0,0:0:0:0:
460,116,17990,2,0,P|426:106|380:108,1,80,8|0,0:0|0:0,0:0:0:0:
360,128,18342,1,0,0:0:0:0:
344,152,18459,2,0,B|325:257|365:205|349:309,1,160,4|8,0:1|0:0,0:0:0:0:
424,192,19162,1,0,0:0:0:0:
276,272,19397,6,0,B|216:268|216:268|172:280|172:280|100:276,1,160,4|10,0:0|0:0,0:0:0:0:
52,180,20100,1,2,0:0:0:0:
128,124,20334,2,0,P|143:160|142:200,1,80,4|0,0:1|0:0,0:0:0:0:
228,80,20803,2,0,L|220:0,1,80,8|0,0:0|0:0,0:0:0:0:
304,172,21272,6,0,L|286:344,1,160,4|8,0:1|0:0,0:0:0:0:
365,375,21975,1,0,0:0:0:0:
444,252,22209,2,0,P|404:226|347:227,1,80,4|0,0:1|3:0,0:0:0:0:
372,221,22561,1,0,0:0:0:0:
372,221,22678,1,8,0:0:0:0:
216,272,22912,1,0,0:0:0:0:
440,332,23147,6,0,P|479:325|520:216,1,160,4|8,0:0|0:0,0:0:0:0:
428,132,23850,2,0,L|424:92,2,26.6666666666667
428,132,24084,2,0,B|388:124|388:124|348:140,1,80,4|0,0:1|0:0,0:0:0:0:
367,258,24553,2,0,B|407:266|407:266|447:250,1,80,8|0,0:0|0:0,0:0:0:0:
264,332,25022,5,4,0:1:0:0:
264,332,25256,2,0,L|172:324,1,80,0|8,0:0|0:0,0:0:0:0:
111,252,25725,2,0,P|118:230|116:200,1,40,0|0,0:0|0:0,0:0:0:0:
36,176,25959,2,0,P|36:195|43:214,1,40,4|0,0:1|0:0,0:0:0:0:
108,132,26193,2,0,L|101:52,1,80,0|8,0:0|0:0,0:0:0:0:
0,96,26662,1,0,0:0:0:0:
186,171,26897,6,0,P|256:163|360:162,1,160,4|10,0:1|0:0,0:0:0:0:
416,88,27600,1,2,0:0:0:0:
448,200,27834,2,0,L|441:279,1,80,4|2,0:1|0:0,0:0:0:0:
304,264,28303,2,0,L|310:343,1,80,8|0,0:0|0:0,0:0:0:0:
200,204,28772,6,0,P|143:221|57:143,1,160,4|10,0:1|0:0,0:0:0:0:
152,56,29475,1,2,0:0:0:0:
152,56,29592,1,0,0:0:0:0:
152,56,29709,2,0,P|151:109|144:152,1,80,4|0,0:1|0:0,0:0:0:0:
16,304,30178,2,0,P|11:264|11:224,1,80,8|0,0:0|0:0,0:0:0:0:
256,208,30647,6,0,B|152:192|204:232|99:213,1,160,4|8,0:0|0:0,0:0:0:0:
220,288,31350,2,0,L|216:328,2,26.6666666666667
220,288,31584,2,0,L|316:284,1,80,4|0,0:1|0:0,0:0:0:0:
288,120,32053,2,0,L|192:124,1,80,8|0,0:0|0:0,0:0:0:0:
336,32,32522,5,4,0:1:0:0:
424,96,32756,2,0,P|429:145|424:184,1,80,0|8,0:0|0:0,0:0:0:0:
308,236,33225,2,0,L|300:184,1,40,0|0,0:0|0:0,0:0:0:0:
360,296,33459,2,0,L|353:335,1,40,4|0,0:1|0:0,0:0:0:0:
248,296,33693,2,0,L|156:292,1,80,0|8,0:0|0:0,0:0:0:0:
56,324,34162,1,0,0:0:0:0:
36,172,34397,6,0,P|82:172|124:156,1,80,4|0,0:1|0:0,0:0:0:0:
204,48,34865,2,0,P|165:36|126:37,1,80,10|2,0:0|0:0,0:0:0:0:
192,232,35334,1,4,0:1:0:0:
216,144,35568,1,2,0:0:0:0:
316,48,35803,1,8,0:0:0:0:
340,136,36037,1,0,0:0:0:0:
440,232,36272,6,0,P|431:298|408:332,1,80,4|0,0:1|0:0,0:0:0:0:
408,328,36623,1,0,0:0:0:0:
385,338,36740,2,0,L|282:330,1,80,8|2,0:0|0:0,0:0:0:0:
275,329,37092,1,0,0:0:0:0:
243,326,37209,5,4,0:1:0:0:
333,210,37443,2,0,L|385:206,1,40,2|0,0:0|0:0,0:0:0:0:
232,133,37678,1,8,0:0:0:0:
288,268,37912,1,0,0:0:0:0:
325,58,38147,5,4,0:0:0:0:
300,48,45647,5,4,0:1:0:0:
204,124,46115,1,8,0:0:0:0:
408,192,46584,1,4,0:1:0:0:
390,70,47053,1,8,0:0:0:0:
229,213,47522,5,4,0:1:0:0:
343,258,47990,1,8,0:0:0:0:
176,308,48459,2,0,P|101:300|24:308,1,128,4|10,0:1|0:0,0:0:0:0:
21,182,49397,6,0,L|28:104,1,64,4|0,0:1|0:0,0:0:0:0:
136,40,49865,2,0,P|180:44|216:56,1,64,8|2,0:0|0:0,0:0:0:0:
313,87,50334,2,0,P|287:123|259:148,1,64,2|2,0:0|0:0,0:0:0:0:
184,216,50803,2,0,P|165:175|157:138,1,64,8|0,0:0|0:0,0:0:0:0:
268,16,51272,5,8,0:1:0:0:
272,32,52678,6,0,L|268:100,1,60,8|0,0:0|0:0,0:0:0:0:
244,124,53147,6,0,L|251:244,1,95.9999970703126,4|0,0:0|0:0,0:0:0:0:
352,160,53615,1,4,0:1:0:0:
164,108,53850,1,2,0:3:0:0:
164,108,53967,1,0,0:0:0:0:
164,108,54084,2,0,P|118:125|65:123,1,95.9999970703126,4|2,0:1|0:3,0:0:0:0:
48,112,54436,1,0,0:0:0:0:
25,92,54553,6,0,L|41:280,1,167.999994873047,4|0,0:1|0:0,0:0:0:0:
84,344,55022,6,0,P|128:300|110:198,1,143.999995605469,4|0,0:1|0:0,0:0:0:0:
108,200,55490,1,4,0:1:0:0:
199,333,55725,1,2,0:3:0:0:
199,333,55842,1,0,0:0:0:0:
199,333,55959,2,0,P|242:322|300:320,1,95.9999970703126,4|2,0:1|0:3,0:0:0:0:
320,332,56311,1,0,0:0:0:0:
346,344,56428,6,0,P|361:285|456:308,1,167.999994873047,4|2,0:1|0:3,0:0:0:0:
402,328,56897,6,0,L|410:184,1,143.999995605469,4|0,0:1|0:0,0:0:0:0:
414,160,57365,1,4,0:1:0:0:
312,288,57600,1,2,0:3:0:0:
312,288,57717,1,0,0:0:0:0:
312,287,57834,2,0,L|211:293,1,95.9999970703126,4|2,0:1|0:3,0:0:0:0:
180,296,58186,1,0,0:0:0:0:
143,298,58303,6,0,B|136:244|136:244|100:196|100:196|92:136,1,167.999994873047,4|0,0:1|0:0,0:0:0:0:
107,70,58772,6,2,P|134:63|174:63,1,47.9999985351563,2|2,0:1|0:1,0:0:0:0:
260,65,59006,1,2,0:1:0:0:
357,204,59240,1,4,0:1:0:0:
396,17,59475,1,0,0:0:0:0:
428,31,59592,1,0,0:0:0:0:
453,56,59709,2,0,L|451:153,1,95.9999970703126,0|0,3:0|0:1,0:0:0:0:
447,179,60061,1,0,0:0:0:0:
447,179,60178,6,0,P|386:218|443:263,1,167.999994873047,8|0,0:0|0:0,0:0:0:0:
364,316,60647,6,0,B|342:307|330:288|330:288|280:319|217:296,1,143.999995605469,4|0,0:0|0:0,0:0:0:0:
208,288,61115,1,4,0:1:0:0:
60,180,61350,1,2,0:3:0:0:
60,180,61467,1,0,0:0:0:0:
60,180,61584,2,0,L|184:176,1,95.9999970703126,4|2,0:1|0:3,0:0:0:0:
188,176,61936,1,0,0:0:0:0:
225,173,62053,6,0,B|237:47|237:47|208:84,1,167.999994873047,4|0,0:1|0:0,0:0:0:0:
160,212,62522,6,0,P|214:249|289:213,1,143.999995605469,4|0,0:1|0:0,0:0:0:0:
296,196,62990,1,4,0:1:0:0:
416,80,63225,1,2,0:3:0:0:
416,80,63342,1,0,0:0:0:0:
416,80,63459,2,0,P|368:75|316:76,1,95.9999970703126,4|2,0:1|0:3,0:0:0:0:
296,92,63811,1,0,0:0:0:0:
274,118,63928,6,0,L|460:104,1,167.999994873047,4|2,0:1|0:3,0:0:0:0:
464,88,64397,6,0,B|480:140|480:140|472:240,1,143.999995605469,4|0,0:1|0:0,0:0:0:0:
468,264,64865,1,4,0:1:0:0:
340,316,65100,1,2,0:3:0:0:
340,316,65217,1,0,0:0:0:0:
340,316,65334,2,0,P|332:265|348:224,1,95.9999970703126,4|2,0:1|0:3,0:0:0:0:
368,208,65686,1,0,0:0:0:0:
393,191,65803,6,0,B|344:189|344:189|312:198|312:198|284:186|284:186|220:184,1,167.999994873047,4|0,0:1|0:0,0:0:0:0:
192,184,66272,5,4,0:1:0:0:
40,104,66506,1,2,0:0:0:0:
208,72,66740,1,4,0:1:0:0:
128,312,66975,1,0,0:0:0:0:
128,312,67092,1,0,0:0:0:0:
128,312,67209,2,0,P|127:264|120:208,1,95.9999970703126,0|0,3:0|0:0,0:0:0:0:
112,196,67561,1,0,0:0:0:0:
98,175,67678,6,0,P|148:242|218:187,1,167.999994873047,8|0,0:0|0:0,0:0:0:0:
216,200,68147,6,0,L|208:64,1,128,4|2,0:0|0:0,0:0:0:0:
136,120,68850,1,2,0:0:0:0:
296,176,69084,1,0,0:0:0:0:
304,180,69201,1,0,0:0:0:0:
312,184,69318,1,0,0:0:0:0:
144,264,69553,6,0,P|106:255|52:256,1,80,0|8,0:0|0:0,0:0:0:0:
56,260,82912,6,0,L|60:308,1,32,0|0,0:0|0:0,0:0:0:0:
76,372,83147,6,0,P|122:347|132:255,1,143.999995605469,6|2,0:0|0:0,0:0:0:0:
72,180,83615,2,0,L|8:176,1,47.9999985351563,2|0,0:0|0:0,0:0:0:0:
108,100,83850,2,0,L|44:96,1,47.9999985351563,2|0,0:3|0:0,0:0:0:0:
192,184,84084,1,8,0:3:0:0:
215,182,84201,1,4,0:3:0:0:
240,180,84318,2,0,L|320:172,1,47.9999985351563,4|0,0:3|0:0,0:0:0:0:
432,80,84553,6,0,P|362:70|442:126,1,240,8|0,0:3|0:0,0:0:0:0:
392,113,85022,6,0,L|400:296,1,180.000006866455,4|0,0:0|0:0,0:0:0:0:
404,320,85490,5,8,0:0:0:0:
276,224,85725,2,0,L|284:180,2,26.6666666666667
276,224,85959,2,0,L|176:228,1,80,4|0,0:1|0:0,0:0:0:0:
48,128,86428,2,0,P|42:87|52:36,1,80,8|0,0:0|0:0,0:0:0:0:
156,112,86897,5,4,0:1:0:0:
28,248,87131,1,0,0:0:0:0:
28,248,87248,1,0,0:0:0:0:
28,248,87365,2,0,L|32:348,1,80,8|0,0:0|0:0,0:0:0:0:
63,344,87717,1,0,0:0:0:0:
96,356,87834,2,0,P|140:349|182:350,1,80,4|0,0:1|0:0,0:0:0:0:
320,252,88303,2,0,P|280:252|240:245,1,80,8|0,0:0|0:0,0:0:0:0:
112,160,88772,6,0,B|216:144|164:184|269:165,1,160,4|10,0:1|0:0,0:0:0:0:
344,88,89475,1,2,0:0:0:0:
428,152,89709,2,0,L|424:244,1,80,4|2,0:1|0:0,0:0:0:0:
260,256,90178,2,0,L|264:348,1,80,8|0,0:0|0:0,0:0:0:0:
360,296,90647,5,4,0:1:0:0:
176,264,90881,1,0,0:0:0:0:
176,264,90998,1,0,0:0:0:0:
176,264,91115,2,0,L|96:260,1,80,10|2,0:0|0:0,0:0:0:0:
56,180,91584,1,4,0:1:0:0:
128,344,91818,1,0,0:0:0:0:
252,216,92053,2,0,P|257:177|236:124,1,80,8|0,0:0|0:0,0:0:0:0:
160,20,92522,6,0,L|180:196,1,160,4|8,0:0|0:0,0:0:0:0:
268,268,93225,2,0,L|264:304,2,26.6666666666667
268,268,93459,2,0,P|316:272|368:240,1,80,4|0,0:1|0:0,0:0:0:0:
328,124,93928,2,0,P|280:120|228:152,1,80,8|0,0:0|0:0,0:0:0:0:
432,200,94397,5,4,0:1:0:0:
460,72,94631,1,0,0:0:0:0:
420,188,94865,2,0,L|428:284,1,80,8|0,0:0|0:0,0:0:0:0:
420,306,95217,1,0,0:0:0:0:
394,336,95334,1,4,0:1:0:0:
357,347,95451,1,0,0:0:0:0:
319,336,95568,1,0,0:0:0:0:
224,212,95803,2,0,P|266:198|315:196,1,80,8|0,0:0|0:0,0:0:0:0:
180,304,96272,6,0,L|84:296,1,80,4|0,0:1|0:0,0:0:0:0:
100,297,96623,1,0,0:0:0:0:
100,297,96740,1,10,0:0:0:0:
248,368,96975,1,2,0:0:0:0:
292,248,97209,2,0,P|289:208|272:148,1,80,4|2,0:1|0:0,0:0:0:0:
116,216,97678,1,8,0:0:0:0:
200,232,97912,1,0,0:0:0:0:
332,88,98147,6,0,P|293:78|253:75,1,80,4|0,0:1|0:0,0:0:0:0:
140,184,98615,2,0,L|148:288,1,80,8|2,0:0|0:0,0:0:0:0:
146,263,98967,1,0,0:0:0:0:
146,263,99084,5,4,0:1:0:0:
312,220,99318,2,0,L|308:284,1,40,2|0,0:0|0:0,0:0:0:0:
352,364,99553,1,8,0:0:0:0:
231,242,99787,1,0,0:0:0:0:
304,48,100022,5,4,0:0:0:0:
424,144,107522,5,4,0:1:0:0:
304,152,107990,1,8,0:0:0:0:
251,260,108459,1,4,0:1:0:0:
304,152,108927,1,8,0:0:0:0:
237,53,109397,5,4,0:1:0:0:
304,152,109865,1,8,0:0:0:0:
148,268,110334,2,0,P|140:193|148:116,1,128,4|10,0:1|0:0,0:0:0:0:
228,272,111272,6,0,L|223:342,1,64,4|0,0:1|0:0,0:0:0:0:
304,228,111740,2,0,L|293:164,1,64,8|2,0:0|0:0,0:0:0:0:
368,288,112209,2,0,L|352:350,1,64,2|2,0:0|0:0,0:0:0:0:
432,228,112678,2,0,L|411:167,1,64,8|0,0:0|0:0,0:0:0:0:
440,28,113147,5,8,0:1:0:0:
436,36,114553,6,0,L|376:32,1,60,8|0,0:0|0:0,0:0:0:0:
356,52,115022,6,0,P|312:48|240:48,1,95.9999970703126,4|0,0:0|0:0,0:0:0:0:
144,132,115490,1,4,0:1:0:0:
296,204,115725,1,2,0:3:0:0:
296,204,115842,1,0,0:0:0:0:
296,204,115959,2,0,P|343:203|391:199,1,95.9999970703126,4|2,0:1|0:3,0:0:0:0:
416,188,116311,1,0,0:0:0:0:
440,168,116428,6,0,P|480:233|432:320,1,167.999994873047,4|0,0:1|0:0,0:0:0:0:
416,324,116897,6,0,B|367:321|367:321|320:338|320:338|264:335,1,143.999995605469,4|0,0:1|0:0,0:0:0:0:
244,336,117365,1,4,0:1:0:0:
136,220,117600,1,2,0:3:0:0:
136,220,117717,1,0,0:0:0:0:
136,220,117834,2,0,B|124:176|124:176|140:128,1,95.9999970703126,4|2,0:1|0:3,0:0:0:0:
156,104,118186,1,0,0:0:0:0:
178,79,118303,6,0,P|258:106|308:36,1,167.999994873047,4|2,0:1|0:3,0:0:0:0:
236,36,118772,6,0,L|264:196,1,143.999995605469,4|0,0:1|0:0,0:0:0:0:
264,204,119240,1,4,0:1:0:0:
512,176,119475,1,2,0:3:0:0:
512,176,119592,1,0,0:0:0:0:
512,176,119709,2,0,L|394:155,1,95.9999970703126,4|2,0:1|0:3,0:0:0:0:
388,168,120061,1,0,0:0:0:0:
354,177,120178,6,0,B|288:168|288:168|240:176|240:176|168:164,1,167.999994873047,4|0,0:1|0:0,0:0:0:0:
108,120,120647,6,0,L|104:64,1,47.9999985351563,2|2,0:1|0:1,0:0:0:0:
200,24,120881,1,2,0:1:0:0:
168,244,121115,1,4,0:1:0:0:
0,188,121350,1,0,0:0:0:0:
23,185,121467,1,0,0:0:0:0:
47,182,121584,2,0,P|66:231|56:292,1,95.9999970703126,0|0,3:0|0:1,0:0:0:0:
48,296,121936,1,0,0:0:0:0:
20,311,122053,6,0,B|152:304|152:304|88:344,1,167.999994873047,8|0,0:0|0:0,0:0:0:0:
156,228,122522,6,0,P|215:258|212:352,1,143.999995605469,4|0,0:0|0:0,0:0:0:0:
212,352,122990,1,4,0:1:0:0:
80,144,123225,1,2,0:3:0:0:
80,144,123342,1,0,0:0:0:0:
80,144,123459,2,0,L|175:140,1,95.9999970703126,4|2,0:1|0:3,0:0:0:0:
208,136,123811,1,0,0:0:0:0:
245,132,123928,6,0,B|376:120|376:120|332:104,1,167.999994873047,4|0,0:1|0:0,0:0:0:0:
312,96,124397,6,0,L|328:260,1,143.999995605469,4|0,0:1|0:0,0:0:0:0:
332,264,124865,1,4,0:1:0:0:
236,344,125100,1,2,0:3:0:0:
236,344,125217,1,0,0:0:0:0:
236,344,125334,2,0,P|192:324|132:336,1,95.9999970703126,4|2,0:1|0:3,0:0:0:0:
120,348,125686,1,0,0:0:0:0:
102,380,125803,6,0,B|78:334|78:334|94:170,1,167.999994873047,4|2,0:1|0:3,0:0:0:0:
40,152,126272,6,0,P|90:136|170:220,1,143.999995605469,4|0,0:1|0:0,0:0:0:0:
168,208,126740,1,4,0:1:0:0:
300,144,126975,1,2,0:3:0:0:
300,144,127092,1,0,0:0:0:0:
300,144,127209,2,0,P|312:92|288:28,1,95.9999970703126,4|2,0:1|0:3,0:0:0:0:
280,24,127561,1,0,0:0:0:0:
280,24,127678,6,0,L|292:220,1,167.999994873047,4|0,0:1|0:0,0:0:0:0:
292,220,128147,5,4,0:1:0:0:
408,140,128381,1,2,0:0:0:0:
168,96,128615,1,4,0:1:0:0:
244,284,128850,1,0,0:0:0:0:
244,284,128967,1,0,0:0:0:0:
244,284,129084,2,0,P|300:300|360:268,1,95.9999970703126,0|0,3:0|0:0,0:0:0:0:
292,224,129436,1,0,0:0:0:0:
292,224,129553,6,0,P|216:214|180:325,1,167.999994873047,8|0,0:0|0:0,0:0:0:0:
244,284,130022,6,0,B|236:236|236:236|252:192|252:192|244:144,1,143.999995605469,4|0,0:0|0:0,0:0:0:0:
236,112,130490,1,4,0:1:0:0:
376,24,130725,1,2,0:3:0:0:
376,24,130842,1,0,0:0:0:0:
376,24,130959,2,0,B|392:72|392:72|380:120,1,95.9999970703126,4|2,0:1|0:3,0:0:0:0:
416,184,131311,1,0,0:0:0:0:
408,216,131428,6,0,P|352:188|272:268,1,167.999994873047,4|2,0:1|0:3,0:0:0:0:
216,308,131897,6,0,L|52:300,1,143.999995605469,4|0,0:1|0:0,0:0:0:0:
40,296,132365,1,0,0:0:0:0:
132,152,132600,1,2,0:3:0:0:
132,152,132717,1,0,0:0:0:0:
132,152,132834,2,0,P|168:188|172:248,1,95.9999970703126,4|2,0:1|0:3,0:0:0:0:
216,300,133186,1,0,0:0:0:0:
208,320,133303,6,0,P|184:264|264:184,1,167.999994873047,4|2,0:1|0:3,0:0:0:0:
272,192,133772,6,0,B|392:184|392:184|356:168,1,143.999995605469,4|0,0:1|0:0,0:0:0:0:
352,164,134240,1,4,0:1:0:0:
180,272,134475,1,2,0:3:0:0:
180,272,134592,1,0,0:0:0:0:
180,272,134709,2,0,B|60:264,1,95.9999970703126,4|2,0:1|0:3,0:0:0:0:
0,312,135061,1,0,0:0:0:0:
4,284,135178,6,0,L|16:108,1,167.999994873047,4|0,0:1|0:0,0:0:0:0:
76,56,135647,6,0,P|93:92|93:126,1,47.9999985351563,2|2,0:1|0:1,0:0:0:0:
140,208,135881,1,2,0:1:0:0:
312,72,136115,1,4,0:1:0:0:
168,4,136350,1,0,0:0:0:0:
168,4,136467,1,0,0:0:0:0:
168,4,136584,2,0,L|172:108,1,95.9999970703126,0|0,3:0|0:0,0:0:0:0:
136,172,136936,1,0,0:0:0:0:
140,208,137053,6,0,P|224:200|336:208,1,167.999994873047,8|0,0:0|0:0,0:0:0:0:
348,276,137522,6,0,P|384:224|352:136,1,143.999995605469,4|0,0:0|0:0,0:0:0:0:
344,136,137990,1,4,0:1:0:0:
296,328,138225,1,2,0:3:0:0:
296,328,138342,1,0,0:0:0:0:
296,328,138459,2,0,P|340:352|392:340,1,95.9999970703126,4|2,0:1|0:3,0:0:0:0:
348,276,138811,1,0,0:0:0:0:
348,276,138928,6,0,L|176:272,1,167.999994873047,4|2,0:1|0:3,0:0:0:0:
124,376,139397,6,0,B|128:328|128:328|108:280|108:280|112:232,1,143.999995605469,4|0,0:1|0:0,0:0:0:0:
116,212,139865,1,0,0:0:0:0:
196,100,140100,1,2,0:3:0:0:
196,100,140217,1,0,0:0:0:0:
196,100,140334,2,0,P|232:124|304:108,1,95.9999970703126,4|2,0:1|0:3,0:0:0:0:
348,80,140686,1,0,0:0:0:0:
376,92,140803,6,0,B|412:72|412:72|404:208,1,167.999994873047,4|2,0:1|0:3,0:0:0:0:
400,228,141272,6,0,B|352:244|352:244|248:232,1,143.999995605469,4|0,0:1|0:0,0:0:0:0:
228,228,141740,1,4,0:1:0:0:
72,136,141975,1,2,0:3:0:0:
72,136,142092,1,0,0:0:0:0:
72,136,142209,2,0,L|84:264,1,95.9999970703126,4|2,0:1|0:3,0:0:0:0:
156,144,142561,1,0,0:0:0:0:
164,112,142678,6,0,P|124:56|0:72,1,167.999994873047,4|0,0:1|0:0,0:0:0:0:
112,176,143147,6,0,P|158:192|223:173,1,95.9999970703126,4|2,0:1|0:0,0:0:0:0:
404,68,143615,1,4,0:1:0:0:
248,24,143850,1,0,0:0:0:0:
248,24,143967,1,0,0:0:0:0:
248,24,144084,2,0,L|260:160,1,95.9999970703126,0|0,3:0|0:0,0:0:0:0:
324,200,144436,1,0,0:0:0:0:
324,200,144553,6,0,B|316:312|316:312|280:368,1,167.999994873047,8|0,0:0|0:0,0:0:0:0:
264,368,145022,5,4,0:0:0:0:
120,168,147365,5,2,0:0:0:0:
124,144,147834,1,2,0:0:0:0:
128,120,148303,1,2,0:0:0:0:
208,48,148537,1,0,0:0:0:0:
208,48,148654,1,0,0:0:0:0:
208,48,148772,6,0,P|252:60|284:52,1,71.9999978027344,4|0,0:1|0:0,0:0:0:0:
424,124,149240,2,0,P|388:119|354:130,1,71.9999978027344,2|0,0:0|0:0,0:0:0:0:
344,144,149592,1,0,0:0:0:0:
344,144,149709,1,0,0:0:0:0:
368,336,149943,1,0,0:0:0:0:
428,252,150178,1,0,0:0:0:0:
284,228,150412,1,2,0:0:0:0:
165,345,150647,6,0,P|119:319|4:328,1,143.999995605469,4|2,0:1|0:0,0:0:0:0:
128,168,151350,1,0,0:0:0:0:
128,168,151584,2,0,P|144:217|144:259,1,71.9999978027344,0|0,0:0|0:0,0:0:0:0:
16,164,152053,2,0,P|20:128|33:94,1,71.9999978027344,2|2,0:0|0:1,0:0:0:0:
128,32,152522,6,0,B|188:28|188:28|216:40|216:40|292:32,1,143.999995605469,4|2,0:1|0:0,0:0:0:0:
440,128,153225,1,0,0:0:0:0:
283,110,153459,1,0,0:0:0:0:
370,40,153693,1,2,0:0:0:0:
352,197,153928,1,0,0:0:0:0:
232,272,154162,2,0,L|236:328,1,35.9999989013672,2|0,0:0|0:0,0:0:0:0:
236,336,154397,6,0,L|72:332,1,143.999995605469,4|2,0:1|0:0,0:0:0:0:
24,276,155100,1,0,0:0:0:0:
112,164,155334,2,0,P|128:212|112:264,1,71.9999978027344,0|2,0:0|0:0,0:0:0:0:
112,256,155686,1,0,0:0:0:0:
112,256,155803,6,0,L|116:60,1,155.999992858887,2|0,0:1|0:0,0:0:0:0:
84,32,156272,5,4,0:1:0:0:
103,50,156389,1,0,0:0:0:0:
127,61,156506,1,0,0:0:0:0:
154,66,156623,1,0,0:0:0:0:
181,62,156740,2,0,L|264:64,1,71.9999978027344,2|0,0:0|0:0,0:0:0:0:
416,32,157209,2,0,L|333:30,1,71.9999978027344,0|2,0:0|0:0,0:0:0:0:
244,164,157678,1,2,0:0:0:0:
412,208,157912,1,2,0:0:0:0:
412,208,158029,1,0,0:0:0:0:
412,208,158147,6,0,P|428:165|420:124,1,71.9999978027344,4|0,0:1|0:0,0:0:0:0:
352,160,158498,1,0,0:0:0:0:
340,196,158615,2,0,L|344:260,1,35.9999989013672,2|0,0:0|0:0,0:0:0:0:
408,352,158850,2,0,L|410:316,1,35.9999989013672,0|0,0:0|0:0,0:0:0:0:
288,292,159084,6,0,L|224:300,3,35.9999989013672
184,280,159553,2,0,L|128:276,1,35.9999989013672,0|2,0:0|0:0,0:0:0:0:
72,216,159787,2,0,L|36:218,1,35.9999989013672,0|0,0:0|0:0,0:0:0:0:
152,124,160022,6,0,P|160:169|158:223,1,71.9999978027344,4|0,0:1|0:0,0:0:0:0:
232,144,160373,1,0,0:0:0:0:
240,116,160490,2,0,P|241:80|248:44,1,71.9999978027344,2|0,0:0|0:0,0:0:0:0:
317,17,160842,1,0,0:0:0:0:
343,18,160959,1,0,0:0:0:0:
372,20,161076,2,0,L|434:22,5,35.9999989013672,2|2|2|0|0|0,0:0|0:0|0:0|0:0|0:0|0:0,0:0:0:0:
372,96,161897,6,0,L|380:180,1,71.9999978027344,4|0,0:1|0:0,0:0:0:0:
372,188,162248,1,0,0:0:0:0:
356,205,162365,2,0,P|308:219|264:208,1,71.9999978027344,2|0,0:0|0:0,0:0:0:0:
184,296,162834,2,0,L|72:280,2,107.999996704102,0|0|4,0:0|3:0|0:1,0:0:0:0:
264,352,163772,6,0,P|361:364|284:250,1,287.999991210938,4|0,0:0|0:0,0:0:0:0:
108,164,165647,6,0,B|148:120|212:116|252:148|252:148|300:188|368:188|404:156,1,320
72,360,167522,6,0,B|24:296|24:296|48:44,1,320,4|0,0:1|0:0,0:0:0:0:
68,215,169162,1,0,3:0:0:0:
68,215,169280,1,0,0:0:0:0:
68,215,169397,1,0,3:0:0:0:
68,215,170803,6,0,P|109:223|140:223,1,60,8|0,0:0|0:0,0:0:0:0:
160,205,171272,6,0,L|156:103,1,95.9999970703126,4|0,0:0|0:0,0:0:0:0:
87,22,171740,1,4,0:1:0:0:
276,28,171975,1,2,0:3:0:0:
276,28,172092,1,0,0:0:0:0:
276,28,172209,2,0,L|272:123,1,95.9999970703126,4|2,0:1|0:3,0:0:0:0:
328,180,172561,1,0,0:0:0:0:
312,204,172678,6,0,P|296:268|392:248,1,192,4|0,0:1|0:0,0:0:0:0:
340,244,173147,6,0,L|168:240,1,143.999995605469,4|0,0:1|0:0,0:0:0:0:
160,240,173615,1,4,0:1:0:0:
272,84,173850,1,2,0:3:0:0:
272,84,173967,1,0,0:0:0:0:
272,84,174084,2,0,P|304:120|312:172,1,95.9999970703126,4|2,0:1|0:3,0:0:0:0:
196,112,174436,1,0,0:0:0:0:
188,84,174553,6,0,P|203:38|340:36,1,192,4|2,0:1|0:3,0:0:0:0:
352,56,175022,6,0,L|348:216,1,143.999995605469,4|0,0:1|0:0,0:0:0:0:
344,228,175490,1,4,0:1:0:0:
248,332,175725,1,2,0:3:0:0:
248,332,175842,1,0,0:0:0:0:
248,332,175959,2,0,P|204:316|136:324,1,95.9999970703126,4|2,0:1|0:3,0:0:0:0:
84,276,176311,1,0,0:0:0:0:
56,288,176428,6,0,P|-4:244|100:220,1,192,4|0,0:1|0:0,0:0:0:0:
140,212,176897,6,0,L|144:160,1,47.9999985351563,2|2,0:1|0:1,0:0:0:0:
240,96,177131,2,0,L|236:44,1,47.9999985351563,2|0,0:1|0:0,0:0:0:0:
133,69,177365,1,4,0:1:0:0:
248,196,177600,1,0,0:0:0:0:
248,196,177717,1,0,0:0:0:0:
248,196,177834,2,0,P|298:192|360:192,1,95.9999970703126,0|0,3:0|0:1,0:0:0:0:
408,144,178186,1,0,0:0:0:0:
408,144,178303,6,0,P|418:261|416:352,1,192,8|0,0:0|0:0,0:0:0:0:
396,360,178772,6,0,L|208:352,1,143.999995605469,4|0,0:0|0:0,0:0:0:0:
228,360,179240,1,4,0:1:0:0:
80,264,179475,1,2,0:3:0:0:
80,264,179592,1,0,0:0:0:0:
80,264,179709,2,0,L|75:159,1,95.9999970703126,4|2,0:1|0:3,0:0:0:0:
56,92,180061,1,0,0:0:0:0:
88,76,180178,6,0,P|143:126|270:52,1,192,4|0,0:1|3:0,0:0:0:0:
248,76,180647,6,0,B|304:72|304:72|340:92|340:92|392:88,1,143.999995605469,4|0,0:1|0:0,0:0:0:0:
420,84,181115,1,4,0:1:0:0:
292,192,181350,1,2,0:3:0:0:
292,192,181467,1,0,0:0:0:0:
292,192,181584,2,0,P|250:208|188:188,1,95.9999970703126,4|2,0:1|0:3,0:0:0:0:
124,200,181936,1,0,0:0:0:0:
104,180,182053,6,0,P|24:180|72:264,1,192,4|2,0:1|0:3,0:0:0:0:
72,256,182522,6,0,B|80:152|80:152|64:80,1,143.999995605469,4|0,0:1|0:0,0:0:0:0:
60,84,182990,1,4,0:1:0:0:
164,232,183225,1,2,0:3:0:0:
164,232,183342,1,0,0:0:0:0:
164,232,183459,2,0,L|176:336,1,95.9999970703126,4|2,0:1|0:3,0:0:0:0:
244,360,183811,1,0,0:0:0:0:
272,340,183928,6,0,B|416:332|416:332|344:300,1,192,4|0,0:1|0:0,0:0:0:0:
348,296,184397,5,4,0:0:0:0:
389,98,184631,1,2,0:0:0:0:
440,212,184866,1,4,0:1:0:0:
239,233,185100,1,0,0:0:0:0:
265,111,185334,6,0,B|285:93|316:88|316:88|368:148|312:244,1,191.999994140625,0|8,3:0|0:0,0:0:0:0:
300,204,186272,6,0,L|304:20,1,143.999995605469,4|0,0:0|0:0,0:0:0:0:
304,28,186740,1,4,0:1:0:0:
164,176,186975,1,2,0:3:0:0:
164,176,187092,1,0,0:0:0:0:
164,176,187209,2,0,L|166:276,1,95.9999970703126,4|2,0:1|0:3,0:0:0:0:
208,336,187561,1,0,0:0:0:0:
228,320,187678,6,0,B|292:316|292:316|352:340|352:340|416:336,1,192,4|2,0:1|0:3,0:0:0:0:
441,345,188147,6,0,P|468:273|424:208,1,143.999995605469,4|0,0:1|0:0,0:0:0:0:
408,204,188615,1,0,0:0:0:0:
256,128,188850,1,2,0:3:0:0:
256,128,188967,1,0,0:0:0:0:
256,128,189084,2,0,P|240:176|256:220,1,95.9999970703126,4|2,0:1|0:3,0:0:0:0:
316,174,189436,1,0,0:0:0:0:
316,174,189553,6,0,P|325:96|222:59,1,192,4|2,0:1|0:3,0:0:0:0:
199,72,190022,6,0,L|35:68,1,143.999995605469,4|0,0:1|0:0,0:0:0:0:
23,68,190490,1,4,0:1:0:0:
88,224,190725,1,2,0:3:0:0:
88,224,190842,1,0,0:0:0:0:
88,224,190959,2,0,P|148:212|172:172,1,95.9999970703126,4|2,0:1|0:3,0:0:0:0:
224,132,191311,1,0,0:0:0:0:
220,108,191428,6,0,P|200:165|327:177,1,192,4|0,0:1|0:0,0:0:0:0:
369,196,191897,6,0,P|350:161|325:144,1,47.9999985351563,2|2,0:1|0:1,0:0:0:0:
281,65,192131,1,2,0:1:0:0:
434,132,192365,1,4,0:1:0:0:
236,168,192600,1,0,0:0:0:0:
236,168,192717,1,0,0:0:0:0:
236,168,192834,2,0,L|244:304,1,95.9999970703126,0|0,3:0|0:0,0:0:0:0:
176,304,193186,1,0,0:0:0:0:
172,276,193303,6,0,B|164:136|164:136|164:100|200:72,1,192,8|0,0:0|0:0,0:0:0:0:
212,81,193772,6,0,P|157:117|64:64,1,143.999995605469,4|0,0:0|0:0,0:0:0:0:
72,72,194240,1,4,0:1:0:0:
280,24,194475,1,2,0:3:0:0:
280,24,194592,1,0,0:0:0:0:
280,24,194709,2,0,P|288:76|276:144,1,95.9999970703126,4|2,0:1|0:3,0:0:0:0:
344,168,195061,1,0,0:0:0:0:
344,168,195178,6,0,P|396:196|400:92,1,192,4|2,0:1|0:3,0:0:0:0:
392,144,195647,6,0,L|400:328,1,143.999995605469,4|0,0:1|0:0,0:0:0:0:
404,312,196115,1,0,0:0:0:0:
248,252,196350,1,2,0:3:0:0:
248,252,196467,1,0,0:0:0:0:
248,252,196584,2,0,L|116:246,1,95.9999970703126,4|2,0:1|0:3,0:0:0:0:
84,208,196936,1,0,0:0:0:0:
68,192,197053,6,0,B|88:144|56:104|56:104|84:52|168:60,1,192,4|2,0:1|0:3,0:0:0:0:
164,40,197522,6,0,P|208:88|304:64,1,143.999995605469,4|0,0:1|0:0,0:0:0:0:
308,56,197990,1,4,0:1:0:0:
424,144,198225,1,2,0:3:0:0:
424,144,198342,1,0,0:0:0:0:
424,144,198459,2,0,L|428:44,1,95.9999970703126,4|2,0:1|0:3,0:0:0:0:
336,164,198811,1,0,0:0:0:0:
348,192,198928,6,0,B|386:258|353:331|353:331|336:288|288:280,1,192,4|0,0:1|0:0,0:0:0:0:
304,284,199397,5,4,0:1:0:0:
504,188,199631,1,2,0:0:0:0:
444,320,199865,1,4,0:1:0:0:
248,208,200100,1,0,0:0:0:0:
248,208,200217,1,0,0:0:0:0:
248,208,200334,2,0,P|191:207|120:212,1,95.9999970703126,0|0,3:0|0:0,0:0:0:0:
40,308,200686,1,0,0:0:0:0:
40,284,200803,6,0,L|28:60,1,192,8|0,0:0|0:0,0:0:0:0:
91,27,201272,6,0,P|161:12|216:80,1,160,4|0,0:0|0:0,0:0:0:0:
140,88,201975,1,2,0:0:0:0:
140,88,202443,1,2,0:0:0:0:
236,152,202678,2,0,L|332:144,1,80,2|0,0:0|0:0,0:0:0:0:
408,48,203147,5,2,0:0:0:0:
424,68,203615,2,0,L|417:147,1,80,0|2,0:0|0:0,0:0:0:0:
420,172,204318,1,2,0:0:0:0:
304,312,204553,2,0,P|260:316|216:304,1,80,2|0,0:0|0:0,0:0:0:0:
104,180,205022,6,0,P|142:171|228:180,1,120,2|0,0:0|0:0,0:0:0:0:
244,192,205490,1,0,0:0:0:0:
308,108,205725,1,0,0:0:0:0:
376,200,205959,1,0,0:0:0:0:
376,200,206076,1,0,0:0:0:0:
376,200,206193,1,2,0:0:0:0:
440,96,206428,2,0,P|448:57|443:17,1,80,2|0,0:0|0:0,0:0:0:0:
284,136,206897,6,2,L|292:212,1,40,2|2,0:1|0:1,0:0:0:0:
368,280,207131,2,2,L|372:240,1,40,2|0,0:1|0:0,0:0:0:0:
464,184,207365,1,0,0:0:0:0:
416,360,207600,1,0,0:0:0:0:
284,308,207834,2,0,P|235:276|144:288,1,120,2|0,0:0|0:0,0:0:0:0:
112,312,208303,2,0,P|164:285|199:200,1,120,0|0,3:0|0:0,0:0:0:0:
88,200,208772,6,0,L|108:384,1,160,2|0,0:0|0:0,0:0:0:0:
192,176,209475,1,2,0:0:0:0:
192,176,209943,1,2,0:0:0:0:
79,117,210178,2,0,P|39:110|0:111,1,80,2|0,0:0|0:0,0:0:0:0:
159,90,210647,6,0,P|235:74|276:8,1,160,2|2,0:0|0:0,0:0:0:0:
186,2,211350,1,2,0:0:0:0:
186,2,211818,1,2,0:0:0:0:
276,135,212053,2,0,L|380:131,1,80,2|0,0:0|0:0,0:0:0:0:
256,224,212522,6,0,L|414:217,1,120,2|0,0:0|0:0,0:0:0:0:
446,260,212990,2,0,P|455:305|440:356,1,80,2|0,0:0|0:0,0:0:0:0:
456,176,213459,1,0,0:0:0:0:
449,136,213576,1,0,0:0:0:0:
458,98,213693,1,2,0:0:0:0:
376,304,213928,2,0,L|216:296,1,160,2|0,0:0|0:0,0:0:0:0:
412,224,214631,5,2,0:0:0:0:
276,128,214865,1,0,0:0:0:0:
428,59,215099,1,0,0:0:0:0:
296,240,215334,2,0,P|247:201|175:222,1,120,2|0,0:0|0:0,0:0:0:0:
164,300,215803,2,0,P|213:339|285:318,1,120,0|0,3:0|0:0,0:0:0:0:
231,270,216272,5,0,0:0:0:0:
