osu file format v14

[General]
AudioFilename: audio.mp3
AudioLeadIn: 0
PreviewTime: 51506
Countdown: 0
SampleSet: Soft
StackLeniency: 0.7
Mode: 0
LetterboxInBreaks: 0
WidescreenStoryboard: 0

[Editor]
Bookmarks: 23147,38147,53147,70022,85022,100022,115022,130022,148772,171272,186272,201272
DistanceSpacing: 1.4
BeatDivisor: 4
GridSize: 4
TimelineZoom: 1.3

[Metadata]
Title:Give me a break Stop now
TitleUnicode:ギミアブレスタッナウ
Artist:REOL
ArtistUnicode:れをる
Creator:Chaoslitz
Version:Chaosversible's Insane
Source:
Tags:Σ Sigma ギガ giga お菊 okiku Toshitaka Shinoda Amana Ijigen MinG3012 Streliteela DreaM117er [_Drop_] Irreversible
BeatmapID:1074000
BeatmapSetID:497483

[Difficulty]
HPDrainRate:5
CircleSize:4
OverallDifficulty:7
ApproachRate:8.5
SliderMultiplier:1.7
SliderTickRate:1

[Events]
//Background and Video events
0,0,"bg.jpg",0,0
Video,-316,"opto.flv"
//Break Periods
//Storyboard Layer 0 (Background)
//Storyboard Layer 1 (Fail)
//Storyboard Layer 2 (Pass)
//Storyboard Layer 3 (Foreground)
//Storyboard Sound Samples

[TimingPoints]
647,468.75,4,2,1,60,1,0
647,-133.333333333333,4,2,1,60,0,0
8147,-100,4,2,1,70,0,0
23147,-149.253731343284,4,2,1,70,0,0
23615,-83.3333333333333,4,2,1,70,0,0
25725,-100,4,2,1,70,0,0
30647,-149.253731343284,4,2,1,70,0,0
31115,-83.3333333333333,4,2,1,70,0,0
38147,-133.333333333333,4,2,1,50,0,0
38381,-133.333333333333,4,2,2,50,0,0
39377,-133.333333333333,4,2,2,10,0,0
39553,-133.333333333333,4,2,2,50,0,0
45647,-133.333333333333,4,2,1,60,0,0
46877,-133.333333333333,4,2,1,10,0,0
47053,-133.333333333333,4,2,1,60,0,0
51272,-100,4,2,1,60,0,0
52209,-83.3333333333333,4,2,1,60,0,0
52678,-133.333333333333,4,2,1,60,0,0
53147,-66.6666666666667,4,2,1,80,0,1
54553,-117.647058823529,4,2,2,80,0,1
55022,-66.6666666666667,4,2,1,80,0,1
56428,-117.647058823529,4,2,2,80,0,1
56897,-66.6666666666667,4,2,1,80,0,1
58303,-66.6666666666667,4,2,2,80,0,1
58772,-66.6666666666667,4,2,2,70,0,1
59240,-66.6666666666667,4,2,1,80,0,1
62053,-117.647058823529,4,2,2,80,0,1
62522,-66.6666666666667,4,2,1,80,0,1
63928,-117.647058823529,4,2,2,80,0,1
64397,-66.6666666666667,4,2,1,80,0,1
65803,-66.6666666666667,4,2,2,80,0,1
66272,-66.6666666666667,4,2,1,80,0,1
67912,-100,4,2,1,80,0,1
68147,-100,4,2,1,50,0,0
69553,-100,4,2,1,60,0,0
70022,-100,4,2,1,70,0,0
71897,-83.3333333333333,4,2,1,70,0,0
72365,-100,4,2,1,70,0,0
73596,-100,4,2,1,10,0,0
73772,-83.3333333333333,4,2,1,70,0,0
74006,-100,4,2,1,70,0,0
83147,-83.3333333333333,4,2,1,70,0,0
84553,-58.8235294117647,4,2,1,70,0,0
85022,-149.253731343284,4,2,1,70,0,0
85490,-83.3333333333333,4,2,1,70,0,0
86428,-100,4,2,1,70,0,0
92522,-83.3333333333333,4,2,1,70,0,0
93928,-100,4,2,1,70,0,0
100022,-133.333333333333,4,2,1,50,0,0
100490,-133.333333333333,4,2,2,50,0,0
101252,-133.333333333333,4,2,2,10,0,0
101428,-133.333333333333,4,2,2,50,0,0
101486,-133.333333333333,4,2,2,10,0,0
101662,-133.333333333333,4,2,2,50,0,0
102717,-133.333333333333,4,2,2,5,0,0
102834,-133.333333333333,4,2,2,50,0,0
103186,-133.333333333333,4,2,2,5,0,0
103303,-133.333333333333,4,2,2,50,0,0
103654,-133.333333333333,4,2,2,5,0,0
103772,-133.333333333333,4,2,2,50,0,0
107053,-999.333333333333,4,2,2,50,0,0
107522,-999.333333333333,4,2,1,60,0,0
108752,-999.333333333333,4,2,1,10,0,0
108928,-999.333333333333,4,2,1,60,0,0
108986,-999.333333333333,4,2,1,10,0,0
109162,-999.333333333333,4,2,1,60,0,0
109865,-133.333333333333,4,2,1,60,0,0
115022,-66.6666666666667,4,2,1,80,0,1
116428,-66.6666666666667,4,2,2,80,0,1
116897,-66.6666666666667,4,2,1,80,0,1
118303,-66.6666666666667,4,2,2,80,0,1
118772,-66.6666666666667,4,2,1,80,0,1
120178,-66.6666666666667,4,2,2,80,0,1
120647,-66.6666666666667,4,2,2,70,0,1
121115,-66.6666666666667,4,2,1,80,0,1
123928,-66.6666666666667,4,2,2,80,0,1
124397,-66.6666666666667,4,2,1,80,0,1
125803,-66.6666666666667,4,2,2,80,0,1
126272,-66.6666666666667,4,2,1,80,0,1
127678,-66.6666666666667,4,2,2,80,0,1
128147,-66.6666666666667,4,2,1,80,0,1
129904,-66.6666666666667,4,2,1,80,0,0
130022,-83.3333333333333,4,2,1,80,0,1
131428,-83.3333333333333,4,2,2,80,0,1
131897,-83.3333333333333,4,2,1,80,0,1
133303,-83.3333333333333,4,2,2,80,0,1
133772,-83.3333333333333,4,2,1,80,0,1
135178,-83.3333333333333,4,2,2,80,0,1
135647,-83.3333333333333,4,2,2,70,0,1
136115,-83.3333333333333,4,2,1,80,0,1
138928,-83.3333333333333,4,2,2,80,0,1
139397,-83.3333333333333,4,2,1,80,0,1
140803,-83.3333333333333,4,2,2,80,0,1
141272,-83.3333333333333,4,2,1,80,0,1
142678,-83.3333333333333,4,2,2,80,0,1
143147,-83.3333333333333,4,2,1,80,0,1
145022,-200,4,2,1,50,0,0
146428,-200,4,2,1,20,0,0
148772,-133.333333333333,4,2,1,60,0,0
149709,-133.333333333333,4,2,3,60,0,0
149826,-133.333333333333,4,2,1,60,0,0
151584,-133.333333333333,4,2,3,60,0,0
151701,-133.333333333333,4,2,1,60,0,0
152287,-83.3333333333333,4,2,2,60,0,0
152522,-133.333333333333,4,2,1,60,0,0
153459,-133.333333333333,4,2,3,60,0,0
153576,-133.333333333333,4,2,1,60,0,0
155334,-133.333333333333,4,2,3,60,0,0
155451,-133.333333333333,4,2,1,60,0,0
155803,-83.3333333333333,4,2,2,60,0,0
156037,-100,4,2,1,60,0,0
156272,-100,4,2,1,70,0,0
157209,-100,4,2,3,70,0,0
157326,-100,4,2,1,70,0,0
159084,-100,4,2,3,70,0,0
159201,-100,4,2,1,70,0,0
160959,-100,4,2,3,70,0,0
161076,-100,4,2,1,70,0,0
162834,-100,4,2,3,70,0,0
162951,-100,4,2,1,70,0,0
163303,-83.3333333333333,4,2,1,70,0,0
163772,-133.333333333333,4,2,2,70,0,0
164709,-133.333333333333,4,2,3,70,0,0
164826,-133.333333333333,4,2,1,70,0,0
166584,-133.333333333333,4,2,3,70,0,0
166701,-133.333333333333,4,2,1,70,0,0
168459,-133.333333333333,4,2,3,70,0,0
168576,-133.333333333333,4,2,1,70,0,0
169865,-100,4,2,1,70,0,0
170334,-83.3333333333333,4,2,1,70,0,0
170803,-133.333333333333,4,2,1,70,0,0
171272,-66.6666666666667,4,2,1,80,0,1
172678,-66.6666666666667,4,2,2,80,0,1
173147,-66.6666666666667,4,2,1,80,0,1
174553,-66.6666666666667,4,2,2,80,0,1
175022,-66.6666666666667,4,2,1,80,0,1
176428,-66.6666666666667,4,2,2,80,0,1
176897,-66.6666666666667,4,2,2,70,0,1
177365,-66.6666666666667,4,2,1,80,0,1
180178,-66.6666666666667,4,2,2,80,0,1
180647,-66.6666666666667,4,2,1,80,0,1
182053,-66.6666666666667,4,2,2,80,0,1
182522,-66.6666666666667,4,2,1,80,0,1
183928,-66.6666666666667,4,2,2,80,0,1
184162,-66.6666666666667,4,2,1,80,0,1
185334,-100,4,2,1,80,0,1
185803,-133.333333333333,4,2,1,80,0,1
186037,-100,4,2,1,80,0,1
186154,-100,4,2,1,80,0,0
186272,-76.9230769230769,4,2,1,80,0,1
187678,-76.9230769230769,4,2,2,80,0,1
188147,-76.9230769230769,4,2,1,80,0,1
189553,-76.9230769230769,4,2,2,80,0,1
190022,-76.9230769230769,4,2,1,80,0,1
191428,-76.9230769230769,4,2,2,80,0,1
191897,-76.9230769230769,4,2,2,70,0,1
192365,-76.9230769230769,4,2,1,80,0,1
195178,-76.9230769230769,4,2,2,80,0,1
195647,-76.9230769230769,4,2,1,80,0,1
197053,-76.9230769230769,4,2,2,80,0,1
197522,-76.9230769230769,4,2,1,80,0,1
198928,-76.9230769230769,4,2,2,80,0,1
199397,-76.9230769230769,4,2,1,80,0,1
201037,-100,4,2,1,80,0,1
201272,-166.666666666667,4,2,1,60,0,0
206897,-166.666666666667,4,2,2,60,0,0
207365,-166.666666666667,4,2,1,60,0,0
216740,-166.666666666667,4,2,1,10,0,0

[Colours]
Combo1 : 0,106,106
Combo2 : 192,192,192
Combo3 : 234,74,134
Combo4 : 130,130,130

[HitObjects]
79,94,647,6,0,L|89:197,1,95.6250036478044,8|0,0:0|0:0,0:0:0:0:
91,214,1115,1,0,0:0:0:0:
179,176,1350,1,8,0:0:0:0:
168,269,1584,2,0,L|160:332,2,63.7500024318696,0|0|8,0:0|0:0|0:0,0:0:0:0:
266,186,2287,2,0,L|302:181,1,31.8750012159348,2|0,0:0|0:0,0:0:0:0:
422,258,2522,6,0,P|390:252|358:249,1,63.7500024318696,8|0,0:0|0:0,0:0:0:0:
349,249,2873,1,0,3:0:0:0:
339,249,2990,1,0,0:0:0:0:
255,278,3225,1,8,0:0:0:0:
323,339,3459,2,0,L|327:371,2,31.8750012159348,0|0|8,0:0|3:0|0:0,0:0:0:0:
464,279,3928,1,8,0:0:0:0:
414,360,4162,1,0,0:0:0:0:
322,211,4397,6,0,P|360:184|407:190,1,95.6250036478044,8|0,0:0|0:0,0:0:0:0:
430,200,4865,1,2,0:0:0:0:
512,137,5100,1,10,0:0:0:0:
451,24,5334,1,0,0:0:0:0:
451,24,5568,1,0,0:0:0:0:
363,14,5803,1,8,0:0:0:0:
294,95,6037,2,0,L|298:139,1,31.8750012159348,2|0,0:0|0:0,0:0:0:0:
257,207,6272,6,0,L|249:270,1,63.7500024318696,0|0,3:0|0:0,0:0:0:0:
233,356,6623,1,0,0:0:0:0:
233,356,6740,2,0,P|217:358|201:361,1,31.8750012159348,2|0,0:0|0:0,0:0:0:0:
121,334,6975,2,0,L|89:327,1,31.8750012159348,8|0,0:0|0:0,0:0:0:0:
22,270,7443,6,0,L|18:239,2,31.8750012159348,0|0|8,3:0|0:0|0:0,0:0:0:0:
84,182,7912,1,0,3:0:0:0:
248,270,8147,5,4,0:0:0:0:
255,366,8381,1,0,0:0:0:0:
340,255,8615,2,0,P|383:262|440:275,1,85,8|0,0:0|0:0,0:0:0:0:
506,236,9084,1,4,0:1:0:0:
496,324,9318,1,0,0:0:0:0:
432,182,9553,2,0,P|436:139|441:96,1,85,8|0,0:0|0:0,0:0:0:0:
355,220,10022,5,4,0:1:0:0:
372,35,10256,1,0,0:0:0:0:
372,35,10373,1,0,0:0:0:0:
372,35,10490,2,0,P|330:31|290:46,1,85,8|0,0:0|0:0,0:0:0:0:
232,106,10842,1,0,0:0:0:0:
232,106,10959,2,0,L|147:99,1,85,4|0,0:1|0:0,0:0:0:0:
134,98,11311,1,0,0:0:0:0:
121,97,11428,1,8,0:0:0:0:
171,201,11662,1,0,0:0:0:0:
45,34,11897,6,0,P|20:94|41:153,1,127.5,4|0,0:1|0:0,0:0:0:0:
64,172,12365,2,0,P|72:220|77:260,1,85,10|2,0:0|0:0,0:0:0:0:
134,98,12834,1,4,0:1:0:0:
242,128,13068,1,2,0:0:0:0:
121,97,13303,1,8,0:0:0:0:
171,201,13537,1,0,0:0:0:0:
242,36,13772,6,0,P|284:41|326:45,1,85,4|0,0:1|0:0,0:0:0:0:
339,47,14123,1,2,0:0:0:0:
351,48,14240,1,10,0:0:0:0:
445,125,14475,2,0,L|498:118,2,42.5,2|0|4,0:0|0:0|0:1,0:0:0:0:
309,203,14943,1,2,0:0:0:0:
309,203,15061,1,0,0:0:0:0:
309,203,15178,1,8,0:0:0:0:
377,278,15412,1,0,0:0:0:0:
491,135,15647,6,0,L|482:219,1,85,4|0,0:0|0:0,0:0:0:0:
464,239,15998,1,0,0:0:0:0:
464,239,16115,2,0,P|472:292|458:335,1,85,8|0,0:0|0:0,0:0:0:0:
311,358,16584,1,4,0:1:0:0:
335,184,16818,1,0,0:0:0:0:
377,278,17053,1,8,0:0:0:0:
377,278,17287,1,0,0:0:0:0:
211,337,17522,6,0,P|181:304|178:263,1,85,4|0,0:1|0:0,0:0:0:0:
182,253,17873,1,0,0:0:0:0:
188,242,17990,1,8,0:0:0:0:
307,165,18225,2,0,L|311:207,2,42.5,0|0|4,0:0|0:0|0:1,0:0:0:0:
207,41,18693,1,0,0:0:0:0:
207,41,18811,1,0,0:0:0:0:
207,41,18928,2,0,L|199:125,1,85,8|0,0:0|0:0,0:0:0:0:
315,69,19397,6,0,P|378:78|441:86,1,127.5,4|0,0:0|0:0,0:0:0:0:
476,93,19865,1,10,0:0:0:0:
492,183,20100,1,2,0:0:0:0:
331,248,20334,2,0,L|323:160,2,85,4|0|8,0:1|0:0|0:0,0:0:0:0:
410,192,21037,1,0,0:0:0:0:
364,332,21272,6,0,P|302:337|255:297,1,127.5,4|0,0:1|0:0,0:0:0:0:
232,272,21740,2,0,P|238:227|242:183,1,85,8|2,0:0|0:0,0:0:0:0:
244,174,22092,1,0,0:0:0:0:
246,161,22209,1,4,0:1:0:0:
130,237,22443,1,0,3:0:0:0:
108,240,22561,1,0,0:0:0:0:
87,243,22678,1,8,0:0:0:0:
120,340,22912,1,0,0:0:0:0:
232,272,23147,6,0,P|238:227|242:182,1,85.4249959592058,4|0,0:0|0:0,0:0:0:0:
244,174,23615,6,0,P|291:144|344:152,1,101.999996887207,8|0,0:0|0:0,0:0:0:0:
354,155,23928,1,0,0:0:0:0:
374,159,24006,1,0,0:0:0:0:
393,154,24084,1,4,0:1:0:0:
437,301,24318,5,0,0:0:0:0:
309,216,24553,1,8,0:0:0:0:
368,76,24787,1,0,0:0:0:0:
437,301,25022,5,4,0:1:0:0:
437,301,25256,1,0,0:0:0:0:
120,340,25490,1,8,0:0:0:0:
48,236,25725,6,0,P|40:212|39:185,1,42.5,0|0,0:0|0:0,0:0:0:0:
149,169,25959,2,0,P|132:187|109:202,1,42.5,4|0,0:1|0:0,0:0:0:0:
78,125,26193,1,0,0:0:0:0:
256,96,26428,1,8,0:0:0:0:
298,311,26662,1,0,0:0:0:0:
120,340,26897,2,0,P|64:344|16:344,1,85,4|0,0:1|0:0,0:0:0:0:
298,311,27365,6,0,P|354:307|402:307,1,85,10|2,0:0|0:0,0:0:0:0:
464,336,27834,1,4,0:1:0:0:
444,192,28068,1,2,0:0:0:0:
287,315,28303,6,0,P|244:311|202:310,1,85,8|0,0:0|0:0,0:0:0:0:
120,340,28772,1,4,0:1:0:0:
140,196,29006,1,0,0:0:0:0:
287,315,29240,1,10,0:0:0:0:
68,228,29475,2,0,P|59:207|60:168,1,42.5,2|0,0:0|0:0,0:0:0:0:
64,164,29709,5,4,0:1:0:0:
272,72,29943,1,0,0:0:0:0:
412,192,30178,1,8,0:0:0:0:
348,320,30412,1,0,0:0:0:0:
280,272,30647,6,0,P|274:227|270:182,1,85.4249959592058,4|0,0:0|0:0,0:0:0:0:
268,174,31115,6,0,P|221:144|168:152,1,101.999996887207,8|0,0:0|0:0,0:0:0:0:
158,155,31428,1,0,0:0:0:0:
136,160,31506,1,0,0:0:0:0:
119,154,31584,1,4,0:1:0:0:
256,56,31818,5,0,0:0:0:0:
384,265,32053,1,8,0:0:0:0:
204,220,32287,1,0,0:0:0:0:
56,356,32522,6,0,L|44:292,1,50.9999984436036,4|0,0:1|0:0,0:0:0:0:
76,368,32756,2,0,L|64:304,1,50.9999984436036,0|0,0:0|0:0,0:0:0:0:
204,220,32990,1,8,0:0:0:0:
204,220,33225,6,0,L|192:156,1,50.9999984436036,0|0,0:0|0:0,0:0:0:0:
108,144,33459,2,0,L|120:208,1,50.9999984436036,4|0,0:1|0:0,0:0:0:0:
256,56,33693,1,0,0:0:0:0:
416,172,33928,2,0,P|407:231|368:277,1,101.999996887207,8|0,0:0|0:0,0:0:0:0:
256,352,34397,6,0,P|207:315|148:310,1,101.999996887207,4|0,0:1|0:0,0:0:0:0:
32,280,34865,2,0,P|68:231|73:172,1,101.999996887207,10|2,0:0|0:0,0:0:0:0:
240,21,35334,2,0,P|288:57|347:62,1,101.999996887207,4|2,0:1|0:0,0:0:0:0:
76,192,35802,2,0,P|39:240|34:299,1,101.999996887207,8|0,0:0|0:0,0:0:0:0:
384,265,36272,5,4,0:1:0:0:
329,64,36506,1,0,0:0:0:0:
128,119,36740,1,8,0:0:0:0:
183,320,36974,1,2,0:0:0:0:
256,192,37209,1,4,0:1:0:0:
260,200,37561,5,0,0:0:0:0:
256,192,37678,1,8,0:0:0:0:
328,64,37912,1,0,0:0:0:0:
384,265,38147,5,4,0:0:0:0:
457,139,38381,2,0,P|425:133|394:128,2,63.7500024318696,0|8|0,0:0|0:2|0:0,0:0:0:0:
508,221,39084,1,0,0:0:0:0:
398,365,39318,1,2,0:0:0:0:
384,265,39553,1,8,0:0:0:0:
477,303,39787,2,0,P|490:306|508:309,1,31.8750012159348,2|0,0:0|0:0,0:0:0:0:
398,365,40022,6,0,P|366:367|334:371,1,63.7500024318696,0|0,0:0|0:0,0:0:0:0:
320,378,40373,1,0,0:0:0:0:
320,378,40490,2,0,P|274:362|227:355,1,95.6250036478044,8|0,0:0|0:0,0:0:0:0:
203,346,40959,2,0,P|187:306|194:268,1,63.7500024318696,0|0,0:0|0:0,0:0:0:0:
192,277,41311,1,0,0:0:0:0:
196,268,41428,1,10,0:0:0:0:
160,171,41662,1,0,0:0:0:0:
99,285,41897,5,0,0:0:0:0:
74,135,42131,2,0,P|80:109|82:91,2,31.8750012159348,0|0|10,0:0|0:0|0:0,0:0:0:0:
138,204,42600,1,2,0:0:0:0:
161,56,42834,2,0,P|201:52|241:47,1,63.7500024318696,2|0,0:0|0:0,0:0:0:0:
309,144,43303,2,0,P|269:140|229:135,1,63.7500024318696,10|2,0:0|0:0,0:0:0:0:
349,62,43772,5,0,0:0:0:0:
393,182,44006,2,0,P|388:213|385:245,2,63.7500024318696,0|8|2,0:0|0:0|0:0,0:0:0:0:
470,122,44709,1,0,0:0:0:0:
481,213,44943,1,0,0:0:0:0:
300,246,45178,2,0,P|305:293|309:341,1,95.6250036478044,8|0,0:0|0:0,0:0:0:0:
318,365,45647,6,0,P|351:353|383:353,1,63.7500024318696,4|0,0:1|0:0,0:0:0:0:
388,355,45998,1,0,0:0:0:0:
396,358,46115,1,8,0:0:0:0:
475,253,46350,1,0,0:0:0:0:
324,144,46584,1,4,0:1:0:0:
166,255,46818,2,0,P|189:259|211:268,1,31.8750012159348,2|0,0:0|0:0,0:0:0:0:
280,285,47053,2,0,P|306:267|321:238,1,63.7500024318696,8|2,0:0|0:0,0:0:0:0:
256,68,47522,5,4,0:1:0:0:
188,144,47756,1,0,0:0:0:0:
96,55,47990,2,0,P|64:62|33:66,1,63.7500024318696,8|0,0:0|0:0,0:0:0:0:
20,75,48342,1,0,0:0:0:0:
20,75,48459,2,0,P|18:117|34:149,1,63.7500024318696,4|0,0:1|0:0,0:0:0:0:
32,143,48811,1,0,0:0:0:0:
39,148,48928,1,10,0:0:0:0:
167,118,49162,1,0,0:0:0:0:
52,241,49397,6,0,P|55:273|58:305,1,63.7500024318696,4|0,0:1|0:0,0:0:0:0:
60,314,49748,1,0,0:0:0:0:
61,323,49865,1,8,0:0:0:0:
139,204,50100,1,2,0:0:0:0:
228,373,50334,1,2,0:0:0:0:
156,220,50568,2,0,P|191:214|218:209,2,63.7500024318696,2|8|0,0:0|0:0|0:0,0:0:0:0:
62,331,51272,6,0,P|83:334|103:338,1,42.5,8|0,0:1|0:0,0:0:0:0:
228,373,51506,5,2,2:0:0:0:
156,220,51740,2,0,P|165:252|176:310,1,85,0|0,2:0|2:0,0:0:0:0:
316,348,52209,6,0,P|376:327|382:235,1,152.999995330811,2|0,0:0|0:0,0:0:0:0:
374,237,52678,6,0,P|378:285|414:318,1,95.6250036478044,8|0,0:0|0:0,0:0:0:0:
442,191,53147,6,0,B|416:156|371:146|328:166|328:166|338:147|338:147|273:193|213:144,1,254.999992218018,4|4,0:0|0:1,0:0:0:0:
374,237,53850,1,2,0:3:0:0:
136,324,54084,1,4,0:1:0:0:
276,88,54318,1,2,0:3:0:0:
136,324,54553,6,0,P|158:299|119:226,1,108.375002067089,4|0,0:1|0:0,0:0:0:0:
72,188,55022,6,0,B|96:156|141:146|183:166|183:166|173:147|173:147|238:193|274:160,1,254.999992218018,4|4,0:1|0:1,0:0:0:0:
137,233,55725,1,2,0:3:0:0:
376,324,55959,1,4,0:1:0:0:
236,88,56193,1,2,0:3:0:0:
376,324,56428,6,0,P|354:299|393:226,1,108.375002067089,4|2,0:1|0:3,0:0:0:0:
439,188,56897,6,0,B|416:156|371:146|328:166|328:166|380:120|352:72,1,191.250007295609,4|0,0:1|0:0,0:0:0:0:
284,96,57365,2,0,P|256:28|256:16,1,63.7500024318696,4|0,0:1|0:0,0:0:0:0:
196,136,57600,2,0,P|224:68|224:56,1,63.7500024318696,2|0,0:3|0:0,0:0:0:0:
401,290,57834,2,0,P|373:222|373:210,1,63.7500024318696,4|0,0:1|0:0,0:0:0:0:
111,290,58068,2,0,P|139:222|139:210,1,63.7500024318696,2|0,0:3|0:0,0:0:0:0:
72,188,58303,6,0,B|96:156|141:146|183:166|183:166|132:120|160:72,1,191.250007295609,4|0,0:1|0:0,0:0:0:0:
204,48,58772,5,2,0:1:0:0:
256,64,58889,1,2,0:1:0:0:
308,48,59006,1,2,0:1:0:0:
440,188,59240,2,0,L|460:52,1,127.500004863739,4|0,0:1|0:0,0:0:0:0:
72,188,59709,2,0,L|53:61,1,127.500004863739,0|0,3:0|0:1,0:0:0:0:
440,188,60178,2,0,L|460:52,1,127.500004863739,8|4,0:0|0:1,0:0:0:0:
208,308,60647,6,0,B|124:356|48:328|48:328|76:304|136:316,1,255.000009727478,4|4,0:0|0:1,0:0:0:0:
104,128,61350,1,2,0:3:0:0:
208,308,61584,1,4,0:1:0:0:
104,128,61818,1,2,0:3:0:0:
360,172,62053,2,0,P|380:124|376:56,1,108.375002067089,4|0,0:1|0:0,0:0:0:0:
304,76,62522,6,0,B|388:28|464:56|464:56|436:80|376:68,1,255.000009727478,4|4,0:1|0:1,0:0:0:0:
408,256,63225,1,2,0:3:0:0:
304,76,63459,1,4,0:1:0:0:
408,256,63693,1,2,0:3:0:0:
152,212,63928,2,0,P|132:260|136:328,1,108.375002067089,4|2,0:1|0:3,0:0:0:0:
220,325,64397,6,0,B|84:341|84:341|136:313,1,191.250007295609,4|0,0:1|0:0,0:0:0:0:
256,252,64865,2,0,P|300:312|300:328,1,63.7500024318696,4|0,0:1|0:0,0:0:0:0:
398,355,65100,2,0,P|413:327|439:308,1,63.7500024318696,2|0,0:3|0:0,0:0:0:0:
228,180,65334,2,0,P|301:191|312:202,1,63.7500024318696,4|0,0:1|0:0,0:0:0:0:
464,44,65568,2,0,P|403:88|387:88,1,63.7500024318696,2|0,0:3|0:0,0:0:0:0:
208,76,65803,6,0,B|124:28|48:56|48:56|76:80|136:68,1,255.000009727478,4|4,0:1|0:1,0:0:0:0:
136,312,66506,1,2,0:0:0:0:
376,312,66740,1,4,0:1:0:0:
376,72,66975,1,0,0:0:0:0:
136,72,67209,1,0,3:0:0:0:
136,72,67678,1,8,0:0:0:0:
256,192,68147,5,4,0:0:0:0:
136,312,68498,1,0,0:0:0:0:
136,312,68615,1,2,0:0:0:0:
256,192,68850,1,2,0:0:0:0:
136,312,69084,1,0,0:0:0:0:
136,312,69201,1,0,0:0:0:0:
136,312,69318,1,0,0:0:0:0:
44,192,69553,5,0,0:0:0:0:
226,91,70022,6,0,P|272:96|323:108,1,85,8|0,0:0|0:0,0:0:0:0:
372,200,70490,2,0,P|380:253|384:303,1,85,0|0,3:0|3:0,0:0:0:0:
382,284,70842,1,0,0:0:0:0:
382,284,70959,1,2,0:0:0:0:
474,184,71193,1,2,0:0:0:0:
412,98,71428,2,0,P|419:72|423:52,1,42.5,2|0,0:0|0:0,0:0:0:0:
331,80,71662,2,0,P|336:59|341:38,1,42.5,2|0,0:0|0:0,0:0:0:0:
260,137,71897,6,0,P|210:146|160:151,1,101.999996887207,8|0,0:0|0:0,0:0:0:0:
141,168,72248,1,0,0:0:0:0:
141,168,72365,6,0,P|158:182|169:200,1,42.5,0|0,3:0|0:0,0:0:0:0:
198,290,72600,2,0,P|196:314|192:346,1,42.5,0|0,3:0|0:0,0:0:0:0:
266,229,72834,2,0,P|288:232|307:240,2,42.5,2|0|2,0:0|0:0|0:0,0:0:0:0:
111,274,73303,2,0,P|86:277|57:280,1,42.5,2|0,0:0|0:0,0:0:0:0:
0,300,73537,2,0,P|25:303|54:306,1,42.5,2|0,0:0|0:0,0:0:0:0:
139,367,73772,6,0,P|165:362|190:360,1,50.9999984436036,2|0,0:0|0:0,0:0:0:0:
287,304,74006,1,0,0:0:0:0:
287,304,74123,1,0,0:0:0:0:
287,304,74240,6,0,P|289:263|267:228,1,85,0|0,3:0|3:0,0:0:0:0:
247,217,74592,1,0,0:0:0:0:
247,217,74709,2,0,P|253:182|254:157,2,42.5,2|0|0,0:0|0:0|0:0,0:0:0:0:
326,56,75178,2,0,P|329:99|336:141,1,85,2|0,0:0|0:0,0:0:0:0:
486,236,75647,5,0,3:0:0:0:
486,236,75764,2,0,P|447:217|407:203,1,85,0|0,0:0|0:0,0:0:0:0:
389,213,76115,2,0,P|395:243|397:267,2,42.5,0|0|0,3:0|0:0|3:0,0:0:0:0:
321,337,76584,1,0,0:0:0:0:
321,337,76701,1,0,0:0:0:0:
321,337,76818,2,0,L|313:378,1,42.5,2|0,0:0|0:0,0:0:0:0:
269,236,77053,2,0,P|292:236|319:246,1,42.5,2|0,0:0|0:0,0:0:0:0:
399,281,77287,1,0,0:0:0:0:
215,311,77522,6,0,P|222:336|226:370,1,42.5,2|0,0:0|0:0,0:0:0:0:
134,326,77756,2,0,P|141:350|144:378,2,42.5,2|0|0,0:0|0:0|3:0,0:0:0:0:
143,200,78225,1,0,3:0:0:0:
71,89,78459,6,0,P|64:64|60:30,1,42.5,2|0,0:0|0:0,0:0:0:0:
152,74,78693,2,0,P|145:50|142:22,2,42.5,2|0|0,0:0|0:0|3:0,0:0:0:0:
143,200,79162,1,0,0:0:0:0:
233,41,79397,6,0,P|260:45|290:48,1,42.5,2|0,0:0|0:0,0:0:0:0:
358,85,79631,2,0,P|380:80|417:75,2,42.5,2|0|0,0:0|0:0|3:0,0:0:0:0:
240,131,80100,1,0,3:0:0:0:
370,234,80334,6,0,P|343:238|313:241,1,42.5,2|0,0:0|0:0,0:0:0:0:
245,278,80568,2,0,P|223:273|186:268,2,42.5,2|0|2,0:0|0:0|0:0,0:0:0:0:
363,324,81037,1,0,3:0:0:0:
414,160,81272,5,0,3:0:0:0:
452,306,81506,1,0,0:0:0:0:
452,306,81623,1,0,0:0:0:0:
452,306,81740,2,0,P|447:360|424:390,1,85,2|2,0:0|0:0,0:0:0:0:
274,340,82209,2,0,P|278:285|301:255,1,85,0|0,0:0|0:0,0:0:0:0:
414,160,82678,1,0,3:0:0:0:
363,324,82912,2,0,P|355:353|347:382,1,42.5,0|0,0:0|0:0,0:0:0:0:
294,261,83147,6,0,P|244:253|196:273,1,101.999996887207,6|0,0:0|0:0,0:0:0:0:
133,329,83498,1,2,0:0:0:0:
133,329,83615,2,0,P|140:358|143:382,1,50.9999984436036,2|0,0:0|0:0,0:0:0:0:
75,240,83850,2,0,P|46:248|16:252,1,50.9999984436036,2|0,0:3|0:0,0:0:0:0:
104,148,84084,1,8,0:3:0:0:
144,154,84201,1,4,0:3:0:0:
182,169,84318,1,4,0:3:0:0:
182,168,84553,6,0,P|163:82|104:148,1,216.750004134178,8|0,0:3|0:0,0:0:0:0:
181,169,85022,6,0,P|224:166|266:160,1,85.4249959592058,4|0,0:0|0:0,0:0:0:0:
281,157,85490,6,0,P|275:203|312:252,1,101.999996887207,8|0,0:0|0:0,0:0:0:0:
323,255,85803,1,0,0:0:0:0:
343,259,85881,1,0,0:0:0:0:
363,257,85959,5,4,0:1:0:0:
482,182,86193,1,0,0:0:0:0:
345,48,86428,1,8,0:0:0:0:
372,145,86662,1,0,0:0:0:0:
444,59,86897,6,0,P|401:52|360:43,1,85,4|0,0:1|0:0,0:0:0:0:
360,43,87248,1,0,0:0:0:0:
360,43,87365,1,8,0:0:0:0:
210,88,87600,2,0,P|214:67|215:45,1,42.5,0|0,0:0|0:0,0:0:0:0:
180,177,87834,2,0,P|188:218|194:260,1,85,4|0,0:1|0:0,0:0:0:0:
196,273,88186,1,0,0:0:0:0:
197,285,88303,1,8,0:0:0:0:
90,192,88537,1,0,0:0:0:0:
266,160,88772,6,0,P|277:222|284:286,1,127.5,4|0,0:1|0:0,0:0:0:0:
286,307,89240,1,10,0:0:0:0:
487,264,89475,1,2,0:0:0:0:
369,128,89709,2,0,P|363:170|360:212,1,85,4|2,0:1|0:0,0:0:0:0:
439,56,90178,1,8,0:0:0:0:
463,155,90412,1,0,0:0:0:0:
317,288,90647,6,0,P|273:242|272:180,1,127.5,4|0,0:1|0:0,0:0:0:0:
280,161,91115,2,0,P|241:174|198:173,1,85,10|2,0:0|0:0,0:0:0:0:
36,126,91584,1,4,0:1:0:0:
172,271,91818,1,0,0:0:0:0:
172,271,91936,1,0,0:0:0:0:
172,271,92053,2,0,P|176:228|179:186,1,85,8|0,0:0|0:0,0:0:0:0:
94,330,92522,6,0,P|107:350|117:377,1,50.9999984436036,4|0,0:0|0:0,0:0:0:0:
82,235,92756,2,0,P|58:234|30:226,1,50.9999984436036,0|0,0:0|0:0,0:0:0:0:
171,271,92990,2,0,P|226:263|277:290,1,101.999996887207,8|0,0:0|0:0,0:0:0:0:
286,290,93303,1,0,0:0:0:0:
305,294,93381,1,0,0:0:0:0:
325,292,93459,5,4,0:1:0:0:
431,206,93693,1,0,0:0:0:0:
261,103,93928,1,8,0:0:0:0:
308,205,94162,1,0,0:0:0:0:
211,351,94397,5,4,0:1:0:0:
325,292,94631,2,0,P|345:296|366:299,1,42.5,0|0,0:0|0:0,0:0:0:0:
448,314,94865,1,8,0:0:0:0:
356,141,95100,1,0,0:0:0:0:
259,200,95334,1,4,0:1:0:0:
259,200,95451,1,0,0:0:0:0:
259,200,95568,2,0,P|256:220|254:245,1,42.5,0|0,0:0|0:0,0:0:0:0:
181,144,95803,2,0,P|176:100|171:59,1,85,8|0,0:0|0:0,0:0:0:0:
165,233,96272,5,4,0:1:0:0:
84,121,96505,1,0,0:0:0:0:
84,121,96622,1,0,0:0:0:0:
84,121,96740,2,0,P|46:127|-4:132,1,85,10|2,0:0|0:0,0:0:0:0:
49,211,97209,1,4,0:1:0:0:
150,52,97443,1,2,0:0:0:0:
160,255,97678,1,8,0:0:0:0:
193,127,97912,1,0,0:0:0:0:
273,305,98147,6,0,P|327:298|375:294,1,85,4|0,0:1|0:0,0:0:0:0:
502,248,98615,1,8,0:0:0:0:
434,329,98850,2,0,P|429:357|421:388,1,42.5,2|0,0:0|0:0,0:0:0:0:
357,295,99084,2,0,P|351:252|347:207,1,85,4|2,0:1|0:0,0:0:0:0:
347,210,99436,1,0,0:0:0:0:
347,210,99553,1,8,0:0:0:0:
369,85,99787,1,0,0:0:0:0:
80,192,100022,5,4,0:0:0:0:
144,272,100256,2,0,L|136:344,2,63.7500024318696,0|8|0,0:0|0:0|0:0,0:0:0:0:
80,192,100959,2,0,L|88:120,1,63.7500024318696,0|2,0:0|0:0,0:0:0:0:
136,335,101428,1,8,0:0:0:0:
136,335,102131,5,0,0:0:0:0:
288,280,102365,2,0,P|332:276|408:280,1,95.6250036478044,8|0,0:0|0:0,0:0:0:0:
394,281,102834,6,0,P|436:260|432:212,1,95.6250036478044,0|0,0:0|0:0,0:0:0:0:
360,180,103303,2,0,P|318:159|322:111,1,95.6250036478044,10|0,0:0|0:0,0:0:0:0:
376,56,103772,1,0,0:0:0:0:
160,116,104006,6,0,L|88:112,2,63.7500024318696,0|10|0,0:0|0:0|0:0,0:0:0:0:
40,52,104709,1,2,0:0:0:0:
100,268,104943,1,0,0:0:0:0:
40,52,105178,1,10,0:0:0:0:
100,268,105412,1,2,0:0:0:0:
100,268,105881,5,0,0:0:0:0:
256,192,106115,2,0,L|184:188,2,63.7500024318696,8|2|0,0:0|0:0|0:0,0:0:0:0:
440,344,107053,6,0,L|454:342,1,12.7585059301926,8|0,0:0|0:0,0:0:0:0:
466,340,107522,5,4,0:1:0:0:
100,268,107990,1,8,0:0:0:0:
46,340,108459,5,4,0:1:0:0:
412,268,108927,1,8,0:0:0:0:
256,64,109397,1,4,0:1:0:0:
256,64,109631,5,0,0:0:0:0:
168,128,109865,2,0,P|156:168|160:196,1,63.7500024318696,8|0,0:0|0:0,0:0:0:0:
353,189,110334,2,0,P|355:157|344:128,1,63.7500024318696,4|0,0:1|0:0,0:0:0:0:
343,127,110686,1,0,0:0:0:0:
343,127,110803,1,10,0:0:0:0:
256,176,111037,1,0,0:0:0:0:
412,268,111272,5,4,0:1:0:0:
328,296,111506,1,0,0:0:0:0:
244,324,111740,1,8,0:0:0:0:
160,352,111974,1,2,0:0:0:0:
92,292,112209,5,2,0:0:0:0:
176,264,112443,1,2,0:0:0:0:
260,236,112677,1,8,0:0:0:0:
344,208,112911,1,0,0:0:0:0:
256,64,113147,5,8,0:1:0:0:
36,232,114553,6,0,P|21:194|57:213,1,95.6250036478044,8|0,0:0|0:0,0:0:0:0:
71,213,115022,6,0,P|127:207|197:197,1,127.500004863739,4|0,0:0|0:0,0:0:0:0:
362,162,115490,1,4,0:1:0:0:
176,310,115725,1,2,0:3:0:0:
176,310,115842,1,0,0:0:0:0:
176,310,115959,1,4,0:1:0:0:
322,364,116193,2,0,P|320:332|315:301,1,63.7500024318696,2|0,0:3|0:0,0:0:0:0:
278,181,116428,1,4,0:1:0:0:
399,254,116662,1,2,0:3:0:0:
182,339,116897,6,0,P|189:275|200:212,1,127.500004863739,4|0,0:1|0:0,0:0:0:0:
239,45,117365,1,4,0:1:0:0:
396,226,117600,1,2,0:3:0:0:
396,226,117717,1,0,0:0:0:0:
396,226,117834,1,4,0:1:0:0:
260,135,118068,2,0,P|291:132|326:125,1,63.7500024318696,2|0,0:3|0:0,0:0:0:0:
436,88,118303,1,4,0:1:0:0:
303,247,118537,1,2,0:3:0:0:
303,247,118654,1,2,0:3:0:0:
303,247,118772,6,0,P|361:317|463:291,1,191.250007295609,4|0,0:1|0:0,0:0:0:0:
473,279,119240,1,4,0:1:0:0:
436,88,119475,1,2,0:3:0:0:
436,88,119592,1,0,0:0:0:0:
436,88,119709,1,4,0:1:0:0:
260,135,119943,2,0,P|296:142|342:160,1,63.7500024318696,2|0,0:3|0:0,0:0:0:0:
393,235,120178,1,4,0:1:0:0:
272,373,120412,1,2,0:3:0:0:
178,202,120647,5,2,0:1:0:0:
173,151,120764,1,2,0:1:0:0:
168,100,120881,1,2,0:1:0:0:
70,289,121115,2,0,P|131:280|184:313,1,127.500004863739,4|0,0:1|0:0,0:0:0:0:
386,348,121584,2,0,P|324:339|271:372,1,127.500004863739,0|0,3:0|0:1,0:0:0:0:
271,372,121936,1,0,0:0:0:0:
271,372,122053,1,8,0:0:0:0:
178,202,122287,1,4,0:1:0:0:
254,78,122522,6,0,P|311:88|386:99,1,127.500004863739,4|0,0:0|0:0,0:0:0:0:
508,118,122990,1,4,0:1:0:0:
323,183,123225,1,2,0:3:0:0:
323,183,123342,1,0,0:0:0:0:
323,183,123459,1,4,0:1:0:0:
502,270,123693,2,0,P|470:273|438:279,1,63.7500024318696,2|0,0:3|0:0,0:0:0:0:
346,313,123928,1,4,0:1:0:0:
399,118,124162,1,2,0:3:0:0:
337,331,124397,6,0,P|268:316|187:305,1,127.500004863739,4|0,0:1|0:0,0:0:0:0:
62,285,124865,1,4,0:1:0:0:
292,217,125100,1,2,0:3:0:0:
292,217,125217,1,0,0:0:0:0:
292,217,125334,1,4,0:1:0:0:
180,383,125568,2,0,P|177:349|171:316,1,63.7500024318696,2|0,0:3|0:0,0:0:0:0:
148,199,125803,1,4,0:1:0:0:
0,132,126037,1,2,0:3:0:0:
0,132,126154,1,2,0:3:0:0:
0,132,126272,6,0,B|67:128|67:128|115:104|115:104|185:99,1,191.250007295609,4|0,0:1|0:0,0:0:0:0:
217,97,126740,1,4,0:1:0:0:
33,40,126975,1,2,0:3:0:0:
33,40,127092,1,0,0:0:0:0:
33,40,127209,1,4,0:1:0:0:
148,199,127443,2,0,P|154:233|159:279,1,63.7500024318696,2|0,0:3|0:0,0:0:0:0:
167,376,127678,1,4,0:1:0:0:
250,190,127912,1,2,0:3:0:0:
87,320,128147,5,4,0:1:0:0:
256,336,128381,2,0,P|262:272|272:192,1,127.500004863739,2|4,0:0|0:1,0:0:0:0:
303,76,128850,1,0,0:0:0:0:
492,170,129084,2,0,B|431:179|368:159|368:159|401:169|423:208,1,191.250007295609,0|0,3:0|0:0,0:0:0:0:
432,227,129553,2,0,P|429:289|388:336,1,127.500004863739,8|4,0:0|0:1,0:0:0:0:
216,341,130022,6,0,P|169:332|106:325,1,101.999996887207,4|0,0:0|0:0,0:0:0:0:
52,207,130490,1,4,0:1:0:0:
143,101,130725,1,2,0:3:0:0:
143,101,130842,1,0,0:0:0:0:
143,101,130959,1,4,0:1:0:0:
246,257,131193,1,2,0:3:0:0:
246,257,131311,1,0,0:0:0:0:
246,257,131428,2,0,P|300:252|359:248,1,101.999996887207,4|2,0:1|0:3,0:0:0:0:
199,177,131897,5,4,0:1:0:0:
376,53,132131,1,0,0:0:0:0:
422,156,132365,1,0,0:0:0:0:
347,248,132600,1,2,0:3:0:0:
347,248,132717,1,0,0:0:0:0:
347,248,132834,1,4,0:1:0:0:
256,63,133068,1,2,0:3:0:0:
256,63,133186,1,0,0:0:0:0:
256,63,133303,1,4,0:1:0:0:
422,156,133537,2,0,P|427:182|432:221,1,50.9999984436036,2|2,0:3|0:3,0:0:0:0:
406,360,133772,5,4,0:1:0:0:
438,219,134006,1,0,0:0:0:0:
244,283,134240,2,0,P|296:277|345:270,1,101.999996887207,4|2,0:1|0:3,0:0:0:0:
484,305,134709,1,4,0:1:0:0:
286,191,134943,1,2,0:3:0:0:
286,191,135061,1,0,0:0:0:0:
286,191,135178,1,4,0:1:0:0:
382,370,135412,1,2,0:3:0:0:
456,180,135647,5,2,0:1:0:0:
418,164,135764,1,2,0:1:0:0:
377,164,135881,1,2,0:1:0:0:
246,266,136115,2,0,P|200:288|150:282,1,101.999996887207,4|0,0:1|0:0,0:0:0:0:
5,123,136584,2,0,P|51:101|101:107,1,101.999996887207,0|0,3:0|0:0,0:0:0:0:
101,107,136936,1,0,0:0:0:0:
101,107,137053,1,8,0:0:0:0:
189,203,137287,1,4,0:1:0:0:
47,300,137522,6,0,P|54:249|61:199,1,101.999996887207,4|0,0:0|0:0,0:0:0:0:
44,52,137990,1,4,0:1:0:0:
193,178,138225,1,2,0:3:0:0:
193,178,138342,1,0,0:0:0:0:
193,178,138459,1,4,0:1:0:0:
141,12,138693,1,2,0:3:0:0:
141,12,138811,1,0,0:0:0:0:
141,12,138928,2,0,P|132:77|126:114,1,101.999996887207,4|2,0:1|0:3,0:0:0:0:
161,269,139397,6,0,P|213:272|256:246,1,101.999996887207,4|0,0:1|0:0,0:0:0:0:
320,117,139865,1,0,0:0:0:0:
446,179,140100,1,2,0:3:0:0:
446,179,140217,1,0,0:0:0:0:
446,179,140334,1,4,0:1:0:0:
341,307,140568,1,2,0:3:0:0:
341,307,140686,1,0,0:0:0:0:
341,307,140803,2,0,P|386:287|467:302,1,101.999996887207,4|2,0:1|0:3,0:0:0:0:
511,320,141154,1,2,0:3:0:0:
511,320,141272,5,4,0:1:0:0:
440,163,141506,1,0,0:0:0:0:
262,268,141740,2,0,P|256:321|295:377,1,101.999996887207,4|2,0:1|0:3,0:0:0:0:
277,362,142092,1,0,0:0:0:0:
277,362,142209,1,4,0:1:0:0:
431,299,142443,1,2,0:3:0:0:
431,299,142561,1,0,0:0:0:0:
431,299,142678,1,4,0:1:0:0:
345,197,142912,1,2,0:3:0:0:
162,301,143147,5,4,0:1:0:0:
308,377,143381,2,0,P|313:320|319:271,1,101.999996887207,2|4,0:0|0:1,0:0:0:0:
342,108,143850,1,0,0:0:0:0:
183,216,144084,2,0,P|245:175|319:189,1,152.999995330811,0|0,3:0|0:0,0:0:0:0:
345,197,144553,2,0,P|395:190|446:184,1,101.999996887207,8|4,0:0|0:1,0:0:0:0:
383,299,145022,6,0,B|321:323|266:275|266:275|224:334|150:318,1,255,4|0,0:0|0:0,0:0:0:0:
183,216,147365,1,2,0:0:0:0:
346,198,147834,1,2,0:0:0:0:
274,342,148303,1,2,0:0:0:0:
267,255,148537,1,0,0:0:0:0:
267,255,148654,1,0,0:0:0:0:
267,255,148772,5,4,0:1:0:0:
387,333,149006,1,0,0:0:0:0:
387,333,149123,1,0,0:0:0:0:
387,333,149240,2,0,P|395:288|403:249,1,63.7500024318696,2|0,0:0|0:0,0:0:0:0:
405,245,149592,1,0,0:0:0:0:
405,245,149709,2,0,P|441:232|477:237,1,63.7500024318696,0|0,0:0|0:0,0:0:0:0:
364,163,150178,1,0,0:0:0:0:
348,160,150295,1,0,0:0:0:0:
332,157,150412,1,2,0:0:0:0:
316,155,150529,1,0,0:0:0:0:
301,154,150647,6,0,P|309:106|314:68,1,63.7500024318696,4|0,0:1|0:0,0:0:0:0:
314,75,150998,1,0,0:0:0:0:
317,59,151115,1,2,0:0:0:0:
189,95,151350,2,0,P|165:99|145:102,1,31.8750012159348,0|0,0:0|0:0,0:0:0:0:
75,116,151584,1,0,0:0:0:0:
219,177,151818,1,0,0:0:0:0:
219,177,151936,1,0,0:0:0:0:
219,177,152053,2,0,P|195:181|175:184,1,31.8750012159348,2|0,0:0|0:0,0:0:0:0:
113,247,152287,6,0,P|111:273|120:296,1,50.9999984436036,2|0,0:1|0:0,0:0:0:0:
204,362,152522,5,4,0:1:0:0:
206,346,152639,1,0,0:0:0:0:
208,330,152756,1,0,0:0:0:0:
210,314,152873,1,0,0:0:0:0:
213,298,152990,2,0,L|206:263,2,31.8750012159348,2|0|0,0:0|0:0|0:0,0:0:0:0:
312,353,153459,2,0,L|355:345,1,31.8750012159348,0|0,0:0|0:0,0:0:0:0:
328,266,153693,1,2,0:0:0:0:
328,266,153811,1,0,0:0:0:0:
328,266,153928,2,0,L|371:258,2,31.8750012159348,0|0|2,0:0|0:0|0:0,0:0:0:0:
250,139,154397,6,0,P|282:145|313:150,1,63.7500024318696,4|0,0:1|0:0,0:0:0:0:
329,153,154748,1,0,0:0:0:0:
344,155,154865,1,2,0:0:0:0:
485,196,155100,2,0,L|452:200,1,31.8750012159348,0|0,0:0|0:0,0:0:0:0:
429,126,155334,2,0,L|492:119,1,63.7500024318696,0|2,0:0|0:0,0:0:0:0:
503,271,155803,6,0,L|449:278,1,50.9999984436036,2|0,0:1|0:0,0:0:0:0:
379,308,156037,6,0,P|354:301|327:298,1,42.5,0|0,3:0|0:0,0:0:0:0:
200,371,156272,5,4,0:1:0:0:
220,367,156389,1,0,0:0:0:0:
241,364,156506,1,0,0:0:0:0:
262,361,156623,1,0,0:0:0:0:
284,358,156740,2,0,L|295:216,1,127.5,2|0,0:0|0:0,0:0:0:0:
301,210,157209,2,0,L|294:142,1,42.5,0|0,0:0|0:0,0:0:0:0:
214,186,157443,2,0,L|207:118,1,42.5,2|0,0:0|0:0,0:0:0:0:
127,162,157678,2,0,L|120:94,1,42.5,2|0,0:0|0:0,0:0:0:0:
39,177,157912,1,2,0:0:0:0:
43,199,158029,2,0,L|8:193,1,21.25,0|0,0:0|0:0,0:0:0:0:
54,217,158147,6,0,P|45:258|40:300,1,85,4|0,0:1|0:0,0:0:0:0:
50,323,158498,1,0,0:0:0:0:
50,323,158615,2,0,P|81:318|121:317,1,42.5,2|0,0:0|0:0,0:0:0:0:
163,363,158850,2,0,P|184:360|205:357,1,42.5,0|0,0:0|0:0,0:0:0:0:
268,292,159084,5,0,0:0:0:0:
288,287,159201,1,0,0:0:0:0:
309,287,159318,1,2,0:0:0:0:
330,292,159435,1,0,0:0:0:0:
348,303,159553,2,0,L|354:348,1,42.5,0|2,0:0|0:0,0:0:0:0:
430,283,159787,2,0,L|436:328,1,42.5,0|0,0:0|0:0,0:0:0:0:
512,263,160022,5,4,0:1:0:0:
334,184,160256,1,0,0:0:0:0:
334,184,160373,1,0,0:0:0:0:
334,184,160490,2,0,P|354:187|375:192,1,42.5,2|0,0:0|0:0,0:0:0:0:
454,194,160725,2,0,P|433:197|412:202,1,42.5,0|0,0:0|0:0,0:0:0:0:
347,274,160959,1,0,0:0:0:0:
327,269,161076,1,0,0:0:0:0:
307,264,161193,2,0,L|252:251,1,42.5,2|0,0:0|0:0,0:0:0:0:
204,320,161428,2,0,P|211:341|211:361,1,42.5,2|2,0:0|0:0,0:0:0:0:
130,353,161662,1,2,0:0:0:0:
54,242,161897,5,4,0:1:0:0:
69,257,162014,2,0,P|119:249|163:245,1,85,0|0,0:0|0:0,0:0:0:0:
214,186,162365,1,2,0:0:0:0:
214,186,162482,2,0,P|218:143|221:101,1,85,0|0,0:0|0:0,0:0:0:0:
298,57,162834,6,0,P|340:53|378:71,1,85,0|0,0:0|0:0,0:0:0:0:
418,146,163186,1,0,3:0:0:0:
425,159,163303,6,0,L|363:170,1,50.9999984436036,8|0,0:0|0:0,0:0:0:0:
277,260,163537,2,0,L|327:251,1,50.9999984436036,4|0,0:1|0:0,0:0:0:0:
438,347,163772,6,0,B|402:386|402:386|418:235,1,191.250007295609,4|0,0:0|0:0,0:0:0:0:
425,159,164709,2,0,L|419:95,1,63.7500024318696,0|0,0:0|0:0,0:0:0:0:
325,30,165178,2,0,L|334:125,1,95.6250036478044,0|0,3:0|0:0,0:0:0:0:
337,140,165647,6,0,P|300:189|213:188,1,127.500004863739,8|0,0:0|0:0,0:0:0:0:
140,130,166350,1,8,0:0:0:0:
249,83,166584,2,0,L|254:124,2,31.8750012159348,0|0|0,0:0|0:0|3:0,0:0:0:0:
147,34,167053,2,0,L|140:130,1,95.6250036478044,8|0,0:0|0:0,0:0:0:0:
139,146,167522,6,0,P|96:137|41:162,1,95.6250036478044,4|0,0:1|0:0,0:0:0:0:
38,167,167990,1,0,3:0:0:0:
105,244,168225,1,8,0:0:0:0:
61,343,168459,2,0,L|27:336,2,31.8750012159348,0|0|0,0:0|0:0|3:0,0:0:0:0:
168,332,168928,1,8,0:0:0:0:
120,241,169162,2,0,L|105:244,4,15.9375006079674,0|0|0|0|0,3:0|0:0|0:0|0:0|3:0,0:0:0:0:
236,214,169631,5,2,0:0:0:0:
252,344,169865,2,0,L|161:330,1,85,0|0,0:0|0:0,0:0:0:0:
236,214,170334,6,0,L|396:198,1,152.999995330811,2|0,0:0|0:0,0:0:0:0:
407,195,170803,6,0,P|430:150|419:105,1,95.6250036478044,8|0,0:0|0:0,0:0:0:0:
323,45,171272,6,0,L|310:173,1,127.500004863739,4|0,0:0|0:0,0:0:0:0:
360,347,171740,1,4,0:1:0:0:
214,228,171975,1,2,0:3:0:0:
214,228,172092,1,0,0:0:0:0:
214,228,172209,1,4,0:1:0:0:
407,179,172443,2,0,P|412:210|415:242,1,63.7500024318696,2|0,0:3|0:0,0:0:0:0:
360,347,172678,2,0,P|304:350|235:282,1,127.500004863739,4|2,0:1|0:3,0:0:0:0:
214,228,173029,1,0,0:0:0:0:
214,228,173147,6,0,P|150:239|81:246,1,127.500004863739,4|0,0:1|0:0,0:0:0:0:
177,372,173615,1,4,0:1:0:0:
326,261,173850,1,2,0:3:0:0:
326,261,173967,1,0,0:0:0:0:
326,261,174084,1,4,0:1:0:0:
122,151,174318,2,0,P|87:155|52:158,1,63.7500024318696,2|0,0:3|0:0,0:0:0:0:
90,64,174553,2,0,P|55:68|20:71,1,63.7500024318696,4|0,0:1|0:0,0:0:0:0:
182,82,174787,1,2,0:3:0:0:
182,82,174904,1,2,0:3:0:0:
182,82,175022,6,0,B|267:69|267:69|321:72|362:124,1,191.250007295609,4|0,0:1|0:0,0:0:0:0:
369,147,175490,1,4,0:1:0:0:
252,313,175725,1,2,0:3:0:0:
252,313,175842,1,0,0:0:0:0:
252,313,175959,1,4,0:1:0:0:
432,252,176193,2,0,P|400:247|369:238,1,63.7500024318696,2|0,0:3|0:0,0:0:0:0:
273,157,176428,1,4,0:1:0:0:
344,320,176662,2,0,P|340:346|334:385,1,63.7500024318696,2|0,0:3|0:0,0:0:0:0:
181,367,176897,5,2,0:1:0:0:
161,320,177014,1,2,0:1:0:0:
170,270,177131,1,2,0:1:0:0:
30,180,177365,2,0,P|93:173|157:165,1,127.500004863739,4|0,0:1|0:0,0:0:0:0:
381,227,177834,2,0,P|317:219|254:211,1,127.500004863739,0|0,3:0|0:1,0:0:0:0:
254,211,178186,1,0,0:0:0:0:
254,211,178303,1,8,0:0:0:0:
82,87,178537,1,4,0:1:0:0:
82,87,178654,1,0,0:0:0:0:
82,87,178772,6,0,B|98:207|98:207|60:287,1,191.250007295609,4|0,0:0|0:0,0:0:0:0:
51,297,179240,2,0,P|119:292|175:350,1,127.500004863739,4|2,0:1|0:3,0:0:0:0:
173,343,179592,1,0,0:0:0:0:
178,361,179709,1,4,0:1:0:0:
224,225,179943,1,2,0:3:0:0:
406,284,180178,1,4,0:1:0:0:
380,287,180295,1,0,0:0:0:0:
355,291,180412,1,2,0:3:0:0:
329,295,180529,1,0,3:0:0:0:
304,299,180647,6,0,P|310:224|316:154,1,127.500004863739,4|0,0:1|0:0,0:0:0:0:
483,100,181115,2,0,P|427:71|365:80,1,127.500004863739,4|2,0:1|0:3,0:0:0:0:
365,80,181467,1,0,0:0:0:0:
365,80,181584,1,4,0:1:0:0:
409,195,181818,1,2,0:3:0:0:
264,82,182053,2,0,P|260:45|256:18,1,63.7500024318696,4|0,0:1|0:0,0:0:0:0:
192,166,182287,1,2,0:3:0:0:
192,166,182404,1,2,0:3:0:0:
192,166,182522,6,0,P|178:79|168:7,1,127.500004863739,4|0,0:1|0:0,0:0:0:0:
99,145,182990,1,4,0:1:0:0:
281,197,183225,1,2,0:3:0:0:
281,197,183342,1,0,0:0:0:0:
281,197,183459,1,4,0:1:0:0:
91,302,183693,2,0,P|116:307|156:318,1,63.7500024318696,2|0,0:3|0:0,0:0:0:0:
269,352,183928,1,4,0:1:0:0:
192,166,184162,2,0,P|189:208|202:239,1,63.7500024318696,2|0,0:3|0:0,0:0:0:0:
344,302,184397,6,0,P|375:298|418:294,1,63.7500024318696,4|0,0:0|0:0,0:0:0:0:
512,166,184631,6,0,P|456:161|383:152,1,127.500004863739,2|4,0:0|0:1,0:0:0:0:
257,104,185100,1,0,0:0:0:0:
374,17,185334,6,0,L|379:70,1,42.5,0|0,3:0|0:0,0:0:0:0:
385,152,185568,1,0,0:0:0:0:
400,343,185803,6,0,L|392:237,1,95.6250036478044,8|0,0:0|0:0,0:0:0:0:
389,235,186272,6,0,L|257:228,1,110.499994941712,4|0,0:0|0:0,0:0:0:0:
76,192,186740,2,0,P|52:136|72:64,1,110.499994941712,4|2,0:1|0:3,0:0:0:0:
88,48,187092,1,0,0:0:0:0:
128,24,187209,2,0,P|152:80|132:152,1,110.499994941712,4|2,0:1|0:3,0:0:0:0:
278,229,187678,1,4,0:1:0:0:
58,88,187912,1,2,0:3:0:0:
223,283,188147,6,0,P|303:303|352:245,1,165.749992412568,4|0,0:1|0:0,0:0:0:0:
278,229,188615,2,0,L|290:109,1,110.499994941712,0|2,0:0|0:3,0:0:0:0:
58,88,189084,2,0,L|68:197,1,110.499994941712,4|2,0:1|0:3,0:0:0:0:
68,198,189436,1,0,0:0:0:0:
68,198,189553,1,4,0:1:0:0:
278,229,189787,1,2,0:3:0:0:
424,100,190022,6,0,L|440:280,1,165.749992412568,4|0,0:1|0:0,0:0:0:0:
501,313,190490,2,0,P|441:345|389:321,1,110.499994941712,4|2,0:1|0:3,0:0:0:0:
256,262,190842,1,0,0:0:0:0:
256,262,190959,2,0,P|204:252|160:284,1,110.499994941712,4|2,0:1|0:3,0:0:0:0:
476,353,191428,2,0,P|411:374|364:342,1,110.499994941712,4|2,0:1|0:3,0:0:0:0:
145,265,191897,5,2,0:1:0:0:
194,243,192014,1,2,0:1:0:0:
244,262,192131,1,2,0:1:0:0:
448,192,192365,2,0,L|440:72,1,110.499994941712,4|0,0:1|0:0,0:0:0:0:
156,156,192834,2,0,L|148:266,1,110.499994941712,0|0,3:0|0:0,0:0:0:0:
56,52,193303,1,8,0:0:0:0:
56,52,193772,6,0,L|232:44,1,165.749992412568,4|0,0:0|0:0,0:0:0:0:
280,96,194240,2,0,P|272:184|240:200,1,110.499994941712,4|2,0:1|0:3,0:0:0:0:
96,168,194709,5,4,0:1:0:0:
315,342,194943,1,2,0:3:0:0:
356,65,195178,1,4,0:1:0:0:
356,65,195412,1,2,0:3:0:0:
261,191,195647,5,4,0:1:0:0:
404,316,195881,2,0,P|462:315|516:280,2,110.499994941712,0|0|2,0:0|0:0|0:3,0:0:0:0:
261,191,196584,1,4,0:1:0:0:
356,65,196818,1,2,0:3:0:0:
404,316,197053,1,4,0:1:0:0:
132,344,197287,1,2,0:3:0:0:
60,192,197522,6,0,P|48:112|52:40,1,110.499994941712,4|0,0:1|0:0,0:0:0:0:
144,234,197873,1,0,0:0:0:0:
144,234,197990,2,0,P|142:289|131:343,1,110.499994941712,4|2,0:1|0:3,0:0:0:0:
256,112,198459,6,0,L|320:108,1,55.2499974708558,4|0,0:1|0:0,0:0:0:0:
448,148,198693,2,0,L|384:144,1,55.2499974708558,2|0,0:3|0:0,0:0:0:0:
240,100,198928,2,0,L|304:96,1,55.2499974708558,4|0,0:1|0:0,0:0:0:0:
460,160,199162,2,0,L|396:156,1,55.2499974708558,2|0,0:3|0:0,0:0:0:0:
256,252,199397,5,4,0:1:0:0:
440,340,199631,1,2,0:0:0:0:
256,252,199865,2,0,L|380:248,1,110.499994941712,4|0,0:1|0:0,0:0:0:0:
256,132,200334,2,0,L|132:136,1,110.499994941712,0|0,3:0|0:0,0:0:0:0:
145,135,200686,1,0,0:0:0:0:
145,135,200803,1,8,0:0:0:0:
108,341,201037,1,4,0:1:0:0:
108,341,201272,6,0,P|75:285|83:233,1,101.999996887207,4|0,0:0|0:0,0:0:0:0:
124,131,201975,1,2,0:0:0:0:
207,214,202209,2,0,P|203:253|195:282,1,50.9999984436036,0|2,0:0|0:0,0:0:0:0:
284,348,202678,2,0,L|327:342,2,25.4999992218018,2|0|0,0:0|0:0|0:0,0:0:0:0:
300,248,203147,6,0,P|343:252|377:277,1,76.4999976654053,2|0,0:0|0:0,0:0:0:0:
384,284,203615,2,0,P|421:277|457:272,1,50.9999984436036,0|2,0:0|0:0,0:0:0:0:
512,187,204084,2,0,P|486:182|461:177,1,50.9999984436036,0|2,0:0|0:0,0:0:0:0:
407,79,204553,2,0,L|402:53,2,25.4999992218018,2|0|0,0:0|0:0|0:0,0:0:0:0:
309,216,205022,6,0,P|320:150|323:123,1,76.4999976654053,2|0,0:0|0:0,0:0:0:0:
319,120,205490,2,0,P|284:97|255:94,1,50.9999984436036,2|0,0:0|0:0,0:0:0:0:
166,132,205959,2,0,L|134:125,2,25.4999992218018,0|0|2,0:0|0:0|0:0,0:0:0:0:
200,264,206428,2,0,L|206:315,1,50.9999984436036,2|0,0:0|0:0,0:0:0:0:
129,210,206897,5,2,0:1:0:0:
109,207,207014,1,2,0:1:0:0:
89,204,207131,1,2,0:1:0:0:
62,340,207365,2,0,L|112:348,1,50.9999984436036,2|0,0:0|0:0,0:0:0:0:
277,368,207834,2,0,P|282:330|287:292,1,76.4999976654053,2|0,0:0|0:0,0:0:0:0:
282,272,208303,2,0,P|289:230|292:207,1,50.9999984436036,0|0,3:0|0:0,0:0:0:0:
374,312,208772,6,0,P|424:318|465:289,1,101.999996887207,2|0,0:0|0:0,0:0:0:0:
503,196,209475,1,2,0:0:0:0:
465,103,209709,2,0,P|439:101|414:94,1,50.9999984436036,0|2,0:0|0:0,0:0:0:0:
280,139,210178,2,0,P|312:141|336:149,1,50.9999984436036,2|0,0:0|0:0,0:0:0:0:
317,35,210647,6,0,P|276:41|220:48,1,76.4999976654053,2|0,0:0|0:0,0:0:0:0:
225,58,211115,2,0,L|156:47,1,50.9999984436036,2|2,0:0|0:0,0:0:0:0:
85,106,211584,2,0,L|16:95,1,50.9999984436036,0|2,0:0|0:0,0:0:0:0:
84,192,212053,2,0,L|110:188,2,25.4999992218018,2|0|0,0:0|0:0|0:0,0:0:0:0:
21,298,212522,6,0,P|58:285|116:287,1,76.4999976654053,2|0,0:0|0:0,0:0:0:0:
111,294,212990,2,0,L|121:357,1,50.9999984436036,2|0,0:0|0:0,0:0:0:0:
184,242,213459,2,0,L|189:200,2,25.4999992218018,0|0|2,0:0|0:0|0:0,0:0:0:0:
228,326,213928,1,2,0:0:0:0:
318,249,214162,1,0,3:0:0:0:
266,145,214397,5,0,0:0:0:0:
349,74,214631,2,0,L|422:65,2,50.9999984436036,2|0|0,0:0|0:0|0:0,0:0:0:0:
318,249,215334,2,0,L|391:240,1,50.9999984436036,2|0,0:0|0:0,0:0:0:0:
393,250,215686,1,0,0:0:0:0:
393,250,215803,2,0,P|386:295|384:320,1,50.9999984436036,0|4,3:0|0:1,0:0:0:0:
463,190,216272,6,0,P|421:161|370:161,1,101.999996887207,0|0,0:0|0:0,0:0:0:0:
