osu file format v14

[General]
AudioFilename: audio.mp3
AudioLeadIn: 0
PreviewTime: 51506
Countdown: 0
SampleSet: Soft
StackLeniency: 0.7
Mode: 0
LetterboxInBreaks: 0
WidescreenStoryboard: 0

[Editor]
Bookmarks: 36272,82912,208772
DistanceSpacing: 1
BeatDivisor: 4
GridSize: 4
TimelineZoom: 1.3

[Metadata]
Title:Give me a break Stop now
TitleUnicode:ギミアブレスタッナウ
Artist:REOL
ArtistUnicode:れをる
Creator:Chaoslitz
Version:117's Hard
Source:
Tags:Σ Sigma ギガ giga お菊 okiku Toshitaka Shinoda Amana Ijigen MinG3012 Streliteela DreaM117er [_Drop_] Irreversible
BeatmapID:1066086
BeatmapSetID:497483

[Difficulty]
HPDrainRate:5
CircleSize:4
OverallDifficulty:6
ApproachRate:7.6
SliderMultiplier:1.6
SliderTickRate:1

[Events]
//Background and Video events
0,0,"bg.jpg",0,0
Video,-316,"opto.flv"
//Break Periods
2,70221,82102
//Storyboard Layer 0 (Background)
//Storyboard Layer 1 (Fail)
//Storyboard Layer 2 (Pass)
//Storyboard Layer 3 (Foreground)
//Storyboard Sound Samples

[TimingPoints]
647,468.75,4,2,1,60,1,0
647,-111.111111111111,4,2,1,60,0,0
2404,-111.111111111111,4,2,1,60,0,0
2522,-111.111111111111,4,2,1,60,0,0
3283,-111.111111111111,4,2,1,10,0,0
3459,-111.111111111111,4,2,1,60,0,0
6154,-111.111111111111,4,2,1,60,0,0
6272,-111.111111111111,4,2,1,60,0,0
6506,-111.111111111111,4,2,1,60,0,0
6623,-111.111111111111,4,2,1,60,0,0
8147,-100,4,2,1,70,0,0
38147,-133.333333333333,4,2,1,50,0,0
38381,-133.333333333333,4,2,2,50,0,0
39377,-133.333333333333,4,2,2,10,0,0
39553,-133.333333333333,4,2,2,50,0,0
39904,-133.333333333333,4,2,2,50,0,0
40022,-133.333333333333,4,2,2,50,0,0
43654,-133.333333333333,4,2,2,50,0,0
43772,-133.333333333333,4,2,2,50,0,0
45647,-100,4,2,1,60,0,0
46877,-100,4,2,1,10,0,0
47053,-100,4,2,1,60,0,0
51272,-100,4,2,1,60,0,0
52209,-133.333333333333,4,2,1,60,0,0
52443,-133.333333333333,4,2,1,60,0,0
52678,-66.6666666666667,4,2,1,60,0,0
52912,-66.6666666666667,4,2,1,60,0,0
53147,-83.3333333333333,4,2,1,80,0,1
54553,-83.3333333333333,4,2,2,80,0,1
54787,-83.3333333333333,4,2,2,80,0,0
55022,-83.3333333333333,4,2,1,80,0,1
56428,-83.3333333333333,4,2,2,80,0,1
56662,-83.3333333333333,4,2,2,80,0,0
56897,-83.3333333333333,4,2,1,80,0,1
58303,-83.3333333333333,4,2,2,80,0,1
58537,-83.3333333333333,4,2,2,80,0,0
58772,-83.3333333333333,4,2,2,70,0,1
59240,-83.3333333333333,4,2,1,80,0,1
60178,-83.3333333333333,4,2,1,80,0,1
60412,-83.3333333333333,4,2,1,80,0,0
60647,-83.3333333333333,4,2,1,80,0,1
62053,-83.3333333333333,4,2,2,80,0,1
62287,-83.3333333333333,4,2,2,80,0,0
62522,-83.3333333333333,4,2,1,80,0,1
63928,-83.3333333333333,4,2,2,80,0,1
64162,-83.3333333333333,4,2,2,80,0,0
64397,-83.3333333333333,4,2,1,80,0,1
65803,-83.3333333333333,4,2,2,80,0,1
66037,-83.3333333333333,4,2,2,80,0,0
66272,-83.3333333333333,4,2,1,80,0,1
68147,-100,4,2,1,50,0,0
69553,-133.333333333333,4,2,1,60,0,0
70022,-111.111111111111,4,2,1,70,0,0
84553,-66.6666666666667,4,2,1,70,0,0
84787,-66.6666666666667,4,2,1,70,0,0
85022,-100,4,2,1,70,0,1
85080,-100,4,2,1,70,0,0
100022,-133.333333333333,4,2,1,50,0,0
100490,-133.333333333333,4,2,2,50,0,0
101252,-133.333333333333,4,2,2,10,0,0
101428,-133.333333333333,4,2,2,50,0,0
101486,-133.333333333333,4,2,2,10,0,0
101662,-133.333333333333,4,2,2,50,0,0
101779,-133.333333333333,4,2,2,50,0,0
101897,-133.333333333333,4,2,2,50,0,0
105529,-133.333333333333,4,2,2,50,0,0
105647,-133.333333333333,4,2,2,50,0,0
107522,-100,4,2,1,60,0,0
108752,-100,4,2,1,10,0,0
108928,-100,4,2,1,60,0,0
108986,-100,4,2,1,10,0,0
109162,-100,4,2,1,60,0,0
109279,-100,4,2,1,60,0,0
109397,-100,4,2,1,60,0,0
113147,-100,4,2,1,60,0,0
114084,-133.333333333333,4,2,1,60,0,0
114318,-133.333333333333,4,2,1,60,0,0
114553,-66.6666666666667,4,2,1,60,0,0
114787,-66.6666666666667,4,2,1,60,0,0
115022,-83.3333333333333,4,2,1,80,0,1
116428,-83.3333333333333,4,2,2,80,0,1
116662,-83.3333333333333,4,2,2,80,0,0
116897,-83.3333333333333,4,2,1,80,0,1
118303,-83.3333333333333,4,2,2,80,0,1
118537,-83.3333333333333,4,2,2,80,0,0
118772,-83.3333333333333,4,2,1,80,0,1
120178,-83.3333333333333,4,2,2,80,0,1
120412,-83.3333333333333,4,2,2,80,0,0
120647,-83.3333333333333,4,2,2,70,0,1
121115,-83.3333333333333,4,2,1,80,0,1
122287,-83.3333333333333,4,2,1,80,0,0
122522,-83.3333333333333,4,2,1,80,0,1
123928,-83.3333333333333,4,2,2,80,0,1
124162,-83.3333333333333,4,2,2,80,0,0
124397,-83.3333333333333,4,2,1,80,0,1
125803,-83.3333333333333,4,2,2,80,0,1
126037,-83.3333333333333,4,2,2,80,0,0
126272,-83.3333333333333,4,2,1,80,0,1
127678,-83.3333333333333,4,2,2,80,0,1
127912,-83.3333333333333,4,2,2,80,0,0
128147,-83.3333333333333,4,2,1,80,0,1
129787,-83.3333333333333,4,2,1,80,0,0
130022,-83.3333333333333,4,2,1,80,0,1
131428,-83.3333333333333,4,2,2,80,0,1
131897,-83.3333333333333,4,2,1,80,0,1
133303,-83.3333333333333,4,2,2,80,0,1
133772,-83.3333333333333,4,2,1,80,0,1
135178,-83.3333333333333,4,2,2,80,0,1
135647,-83.3333333333333,4,2,2,70,0,1
136115,-83.3333333333333,4,2,1,80,0,1
137287,-83.3333333333333,4,2,1,80,0,0
137522,-83.3333333333333,4,2,1,80,0,1
138928,-83.3333333333333,4,2,2,80,0,1
139397,-83.3333333333333,4,2,1,80,0,1
140803,-83.3333333333333,4,2,2,80,0,1
141272,-83.3333333333333,4,2,1,80,0,1
142678,-83.3333333333333,4,2,2,80,0,1
143147,-83.3333333333333,4,2,1,80,0,1
145022,-166.666666666667,4,2,1,50,0,0
146428,-166.666666666667,4,2,1,20,0,0
148772,-133.333333333333,4,2,1,60,0,0
149709,-133.333333333333,4,2,3,60,0,0
149826,-133.333333333333,4,2,1,60,0,0
151584,-133.333333333333,4,2,3,60,0,0
151701,-133.333333333333,4,2,1,60,0,0
152287,-133.333333333333,4,2,2,60,0,0
152522,-133.333333333333,4,2,1,60,0,0
153459,-133.333333333333,4,2,3,60,0,0
153576,-133.333333333333,4,2,1,60,0,0
155334,-133.333333333333,4,2,3,60,0,0
155451,-133.333333333333,4,2,1,60,0,0
155803,-133.333333333333,4,2,2,60,0,0
156037,-133.333333333333,4,2,1,60,0,0
156272,-133.333333333333,4,2,1,70,0,0
157209,-133.333333333333,4,2,3,70,0,0
157326,-133.333333333333,4,2,1,70,0,0
159084,-133.333333333333,4,2,3,70,0,0
159201,-133.333333333333,4,2,1,70,0,0
160959,-133.333333333333,4,2,3,70,0,0
161076,-133.333333333333,4,2,1,70,0,0
162834,-133.333333333333,4,2,3,70,0,0
162951,-133.333333333333,4,2,1,70,0,0
163772,-111.111111111111,4,2,2,70,0,0
164709,-111.111111111111,4,2,3,70,0,0
164826,-111.111111111111,4,2,1,70,0,0
166584,-111.111111111111,4,2,3,70,0,0
166701,-111.111111111111,4,2,1,70,0,0
168459,-111.111111111111,4,2,3,70,0,0
168576,-111.111111111111,4,2,1,70,0,0
169397,-111.111111111111,4,2,1,70,0,0
170334,-133.333333333333,4,2,1,70,0,0
170568,-133.333333333333,4,2,1,70,0,0
170803,-66.6666666666667,4,2,1,70,0,0
171037,-66.6666666666667,4,2,1,70,0,0
171272,-83.3333333333333,4,2,1,80,0,1
172678,-83.3333333333333,4,2,2,80,0,1
172912,-83.3333333333333,4,2,2,80,0,0
173147,-83.3333333333333,4,2,1,80,0,1
174553,-83.3333333333333,4,2,2,80,0,1
174787,-83.3333333333333,4,2,2,80,0,0
175022,-83.3333333333333,4,2,1,80,0,1
176428,-83.3333333333333,4,2,2,80,0,1
176662,-83.3333333333333,4,2,2,80,0,0
176897,-83.3333333333333,4,2,2,70,0,1
177365,-83.3333333333333,4,2,1,80,0,1
178537,-83.3333333333333,4,2,1,80,0,0
178772,-83.3333333333333,4,2,1,80,0,1
180178,-83.3333333333333,4,2,2,80,0,1
180412,-83.3333333333333,4,2,2,80,0,0
180647,-83.3333333333333,4,2,1,80,0,1
182053,-83.3333333333333,4,2,2,80,0,1
182287,-83.3333333333333,4,2,2,80,0,0
182522,-83.3333333333333,4,2,1,80,0,1
183928,-83.3333333333333,4,2,2,80,0,1
184162,-83.3333333333333,4,2,1,80,0,0
184397,-83.3333333333333,4,2,1,80,0,1
185334,-133.333333333333,4,2,1,80,0,0
185568,-133.333333333333,4,2,1,80,0,0
185803,-66.6666666666667,4,2,1,80,0,0
186037,-66.6666666666667,4,2,1,80,0,0
186272,-83.3333333333333,4,2,1,80,0,1
187678,-83.3333333333333,4,2,2,80,0,1
188147,-83.3333333333333,4,2,1,80,0,1
189553,-83.3333333333333,4,2,2,80,0,1
190022,-83.3333333333333,4,2,1,80,0,1
191428,-83.3333333333333,4,2,2,80,0,1
191897,-83.3333333333333,4,2,2,70,0,1
192365,-83.3333333333333,4,2,1,80,0,1
193537,-83.3333333333333,4,2,1,80,0,0
193772,-83.3333333333333,4,2,1,80,0,1
195178,-83.3333333333333,4,2,2,80,0,1
195647,-83.3333333333333,4,2,1,80,0,1
197053,-83.3333333333333,4,2,2,80,0,1
197522,-83.3333333333333,4,2,1,80,0,1
198928,-83.3333333333333,4,2,2,80,0,1
199397,-83.3333333333333,4,2,1,80,0,1
201272,-100,4,2,1,60,0,0
206897,-100,4,2,2,60,0,0
207365,-100,4,2,1,60,0,0
216272,-200,4,2,1,60,0,0
216740,-133.333333333333,4,2,1,10,0,0

[Colours]
Combo1 : 0,106,106
Combo2 : 192,192,192
Combo3 : 234,74,134
Combo4 : 130,130,130

[HitObjects]
191,133,647,6,0,P|147:127|75:110,1,107.999996704102,8|0,0:0|0:0,0:0:0:0:
44,99,1115,2,0,P|56:148|64:194,1,71.9999978027344,0|8,0:0|0:0,0:0:0:0:
66,196,1584,5,0,0:0:0:0:
72,223,1818,5,0,0:0:0:0:
78,250,2053,5,8,0:0:0:0:
84,277,2287,6,0,L|126:264,1,35.9999989013672,2|0,0:0|0:0,0:0:0:0:
161,258,2522,6,0,P|150:308|192:358,1,107.999996704102,8|0,0:0|3:0,0:0:0:0:
220,372,2990,2,0,P|255:368|292:372,1,71.9999978027344,0|8,0:0|0:0,0:0:0:0:
366,328,3459,2,0,P|375:357|375:377,2,35.9999989013672,0|0|8,0:0|3:0|0:0,0:0:0:0:
445,292,3928,2,0,P|409:296|373:292,1,71.9999978027344,8|0,0:0|0:0,0:0:0:0:
345,210,4397,6,0,P|389:204|461:187,1,107.999996704102,8|0,0:0|0:0,0:0:0:0:
489,170,4865,2,0,B|497:133|497:133|470:104,1,71.9999978027344,2|10,0:0|0:0,0:0:0:0:
452,88,5334,5,0,0:0:0:0:
430,68,5568,5,0,0:0:0:0:
408,48,5803,5,8,0:0:0:0:
385,30,6037,6,0,L|368:87,1,35.9999989013672,2|0,0:0|0:0,0:0:0:0:
363,106,6272,6,0,L|387:200,1,71.9999978027344,0|0,3:0|0:0,0:0:0:0:
394,216,6623,2,0,P|331:220|306:302,1,143.999995605469
191,356,7443,6,0,L|197:309,2,35.9999989013672,0|0|8,3:0|0:0|0:0,0:0:0:0:
104,340,7912,1,0,3:0:0:0:
16,324,8147,6,0,B|6:287|6:287|34:252,1,80,4|0,0:0|0:0,0:0:0:0:
95,194,8615,2,0,P|86:154|81:115,1,80,8|0,0:0|0:0,0:0:0:0:
132,44,9084,1,4,0:1:0:0:
81,115,9318,1,0,0:0:0:0:
2,74,9553,1,8,0:0:0:0:
81,115,9787,1,0,0:0:0:0:
132,44,10022,6,0,B|166:65|166:65|232:55,1,80,4|0,0:1|0:0,0:0:0:0:
291,41,10490,1,8,0:0:0:0:
319,124,10725,2,0,L|307:171,2,40,0|0|4,0:0|0:0|0:1,0:0:0:0:
379,60,11193,1,0,0:0:0:0:
466,74,11428,2,0,B|432:53|432:53|366:63,1,80,8|0,0:0|0:0,0:0:0:0:
352,174,11897,6,0,B|401:206|401:206|462:197,1,120,4|0,0:1|0:0,0:0:0:0:
505,191,12365,2,0,P|493:239|486:279,1,80,10|2,0:0|0:0,0:0:0:0:
420,378,12834,1,4,0:1:0:0:
402,293,13068,1,2,0:0:0:0:
383,206,13303,1,8,0:0:0:0:
364,293,13537,1,0,0:0:0:0:
352,380,13772,6,0,P|344:340|334:301,1,80,4|0,0:1|0:0,0:0:0:0:
256,264,14240,1,10,0:0:0:0:
178,301,14475,1,2,0:0:0:0:
178,301,14592,1,0,0:0:0:0:
178,301,14709,2,0,P|168:339|160:379,1,80,4|2,0:1|0:0,0:0:0:0:
256,352,15178,1,8,0:0:0:0:
256,352,15412,1,0,0:0:0:0:
178,301,15647,6,0,B|142:284|142:284|86:295,1,80,4|0,0:0|0:0,0:0:0:0:
61,307,15998,1,0,0:0:0:0:
61,307,16115,2,0,P|73:260|79:215,1,80,8|0,0:0|0:0,0:0:0:0:
11,170,16584,1,4,0:1:0:0:
69,104,16818,2,0,L|115:111,2,40,0|0|8,0:0|0:0|0:0,0:0:0:0:
35,22,17287,1,0,0:0:0:0:
69,104,17522,6,0,L|162:85,1,80,4|0,0:1|0:0,0:0:0:0:
233,70,17990,2,0,L|326:51,1,80,8|0,0:0|0:0,0:0:0:0:
355,47,18342,1,0,0:0:0:0:
355,47,18459,2,0,P|413:100|496:86,1,160,4|8,0:1|0:0,0:0:0:0:
439,19,19162,1,0,0:0:0:0:
439,19,19397,6,0,P|427:92|415:189,1,160,4|10,0:0|0:0,0:0:0:0:
512,277,20100,1,2,0:0:0:0:
512,277,20334,2,0,P|506:226|498:185,1,80,4|0,0:1|0:0,0:0:0:0:
376,338,20803,2,0,P|379:299|386:259,1,80,8|0,0:0|0:0,0:0:0:0:
416,177,21272,6,0,P|410:126|402:85,1,80,4|0,0:1|0:0,0:0:0:0:
280,238,21740,2,0,P|283:199|290:159,1,80,8|2,0:0|0:0,0:0:0:0:
317,75,22209,1,4,0:1:0:0:
207,185,22443,1,0,3:0:0:0:
207,185,22561,1,0,0:0:0:0:
207,185,22678,1,8,0:0:0:0:
291,159,22912,1,0,0:0:0:0:
227,97,23147,6,0,L|121:82,1,80,4|0,0:0|0:0,0:0:0:0:
80,29,23615,2,0,B|0:18|0:18|20:95,1,160,8|4,0:0|0:1,0:0:0:0:
93,151,24318,1,0,0:0:0:0:
148,83,24553,1,8,0:0:0:0:
80,29,24787,1,0,0:0:0:0:
20,95,25022,5,4,0:1:0:0:
93,151,25256,2,0,P|105:193|115:251,1,80,0|8,0:0|0:0,0:0:0:0:
84,312,25725,2,0,L|76:373,4,40,0|0|4|0|0,0:0|0:0|0:1|0:0|0:0,0:0:0:0:
111,228,26428,1,8,0:0:0:0:
24,244,26662,1,0,0:0:0:0:
174,295,26897,6,0,B|232:283|232:283|297:318,1,120,4|0,0:1|0:0,0:0:0:0:
322,334,27365,2,0,P|311:280|309:246,1,80,10|2,0:0|0:0,0:0:0:0:
400,286,27834,1,4,0:1:0:0:
400,286,28068,1,2,0:0:0:0:
490,309,28303,2,0,P|486:269|477:230,1,80,8|0,0:0|0:0,0:0:0:0:
419,163,28772,6,0,B|378:158|378:158|334:181,1,80,4|0,0:1|0:0,0:0:0:0:
256,236,29240,1,10,0:0:0:0:
256,148,29475,1,2,0:0:0:0:
256,145,29592,1,0,0:0:0:0:
256,142,29709,2,0,L|256:50,2,80,4|0|8,0:1|0:0|0:0,0:0:0:0:
256,236,30412,1,0,0:0:0:0:
168,175,30647,6,0,B|134:158|134:158|93:163,1,80,4|0,0:0|0:0,0:0:0:0:
118,247,31115,2,0,L|146:76,1,160,8|4,0:0|0:1,0:0:0:0:
98,13,31818,1,0,0:0:0:0:
19,53,32053,1,8,0:0:0:0:
19,53,32287,1,0,0:0:0:0:
62,129,32522,5,4,0:1:0:0:
105,205,32756,2,0,P|143:194|191:188,1,80,0|8,0:0|0:0,0:0:0:0:
256,243,33225,2,0,L|256:295,4,40,0|0|4|0|0,0:0|0:0|0:1|0:0|0:0,0:0:0:0:
329,188,33928,1,8,0:0:0:0:
256,140,34162,1,0,0:0:0:0:
298,62,34397,6,0,P|337:56|375:45,1,80,4|0,0:1|0:0,0:0:0:0:
440,105,34865,1,10,0:0:0:0:
440,105,35100,1,2,0:0:0:0:
502,166,35334,6,0,P|462:160|424:149,1,80,4|2,0:1|0:0,0:0:0:0:
360,209,35803,1,8,0:0:0:0:
360,209,36037,1,0,0:0:0:0:
384,293,36272,5,4,0:1:0:0:
448,233,36506,1,0,0:0:0:0:
424,149,36740,1,8,0:0:0:0:
340,121,36975,1,2,0:0:0:0:
273,178,37209,1,4,0:1:0:0:
190,149,37443,1,2,0:0:0:0:
190,149,37561,1,0,0:0:0:0:
190,149,37678,1,8,0:0:0:0:
258,88,37912,1,0,0:0:0:0:
190,149,38147,6,0,P|131:141|51:124,2,120.000004577637,4|8|0,0:0|0:2|0:0,0:0:0:0:
207,173,39318,5,2,0:0:0:0:
232,188,39553,5,8,0:0:0:0:
261,194,39787,6,0,L|250:246,1,30.0000011444092,2|0,0:0|0:0,0:0:0:0:
250,253,40022,6,0,P|257:293|263:332,1,60.0000022888184,0|0,0:0|0:0,0:0:0:0:
349,300,40490,2,0,B|399:332|399:332|475:321,1,120.000004577637,8|0,0:0|0:0,0:0:0:0:
418,242,41193,1,0,0:0:0:0:
433,153,41428,2,0,P|425:193|420:232,1,60.0000022888184,10|0,0:0|0:0,0:0:0:0:
332,208,41897,6,0,P|293:205|246:287,1,120.000004577637,0|10,0:0|0:0,0:0:0:0:
251,296,42600,5,2,0:0:0:0:
247,331,42834,5,2,0:0:0:0:
223,358,43068,5,0,0:0:0:0:
189,371,43303,5,10,0:0:0:0:
153,371,43537,6,0,L|111:360,1,30.0000011444092,2|0,0:0|0:0,0:0:0:0:
94,356,43772,6,0,P|103:313|112:273,1,60.0000022888184,0|0,0:0|0:0,0:0:0:0:
13,226,44240,2,0,P|42:224|71:214,1,60.0000022888184,8|2,0:0|0:0,0:0:0:0:
150,172,44709,1,0,0:0:0:0:
74,123,44943,1,0,0:0:0:0:
152,262,45178,2,0,P|180:251|209:249,1,60.0000022888184,8|0,0:0|0:0,0:0:0:0:
296,266,45647,5,4,0:1:0:0:
296,266,46115,2,0,P|287:226|281:187,1,80,8|0,0:0|0:0,0:0:0:0:
193,113,46584,2,0,B|232:120|232:120|268:100,1,80,4|2,0:1|0:0,0:0:0:0:
215,29,47053,1,8,0:0:0:0:
129,50,47287,2,0,L|75:40,1,40,2|0,0:0|0:0,0:0:0:0:
46,34,47522,6,0,P|54:73|60:112,1,80,4|0,0:1|0:0,0:0:0:0:
34,196,47990,2,0,B|20:273|20:273|110:254,1,160,8|4,0:0|0:1,0:0:0:0:
178,217,48693,1,0,0:0:0:0:
178,217,48928,2,0,P|222:225|268:234,1,80,10|0,0:0|0:0,0:0:0:0:
342,252,49397,5,4,0:1:0:0:
426,274,49631,1,0,0:0:0:0:
426,274,49748,1,0,0:0:0:0:
426,274,49865,2,0,P|382:282|336:291,1,80,8|2,0:0|0:0,0:0:0:0:
262,309,50334,1,2,0:0:0:0:
286,225,50568,1,2,0:0:0:0:
310,141,50803,1,8,0:0:0:0:
371,203,51037,1,0,0:0:0:0:
286,225,51272,5,8,0:1:0:0:
221,159,51506,2,0,P|222:120|245:74,1,80,2|0,2:0|2:0,0:0:0:0:
314,38,51975,1,0,2:0:0:0:
193,173,52209,6,0,P|159:165|119:158,1,60.0000022888184,2|0,0:0|0:0,0:0:0:0:
55,266,52678,6,0,B|111:241|111:241|190:258,1,120.000004577637,8|0,0:0|0:0,0:0:0:0:
364,304,53147,6,0,B|411:312|411:312|464:285,1,95.9999970703126,4|0,0:0|0:0,0:0:0:0:
395,214,53615,1,4,0:1:0:0:
427,123,53850,1,2,0:3:0:0:
427,123,54084,2,0,B|380:115|380:115|327:142,1,95.9999970703126,4|2,0:1|0:3,0:0:0:0:
255,187,54553,2,0,L|241:123,2,47.9999985351563,4|0|2,0:1|0:0|0:3,0:0:0:0:
148,304,55022,6,0,B|101:312|101:312|48:285,1,95.9999970703126,4|0,0:1|0:0,0:0:0:0:
117,214,55490,1,4,0:1:0:0:
85,123,55725,1,2,0:3:0:0:
85,123,55959,2,0,B|132:115|132:115|185:142,1,95.9999970703126,4|2,0:1|0:3,0:0:0:0:
257,187,56428,2,0,L|271:123,2,47.9999985351563,4|0|2,0:1|0:0|0:3,0:0:0:0:
370,304,56897,6,0,P|374:257|347:219,1,95.9999970703126,4|0,0:1|0:0,0:0:0:0:
257,187,57365,1,4,0:1:0:0:
165,218,57600,1,2,0:3:0:0:
165,218,57834,2,0,P|137:257|141:304,1,95.9999970703126,4|2,0:1|0:3,0:0:0:0:
230,337,58303,2,0,L|244:409,2,47.9999985351563,4|0|2,0:1|0:0|0:3,0:0:0:0:
256,244,58772,5,2,0:1:0:0:
256,247,58889,1,2,0:1:0:0:
256,250,59006,1,2,0:1:0:0:
334,305,59240,1,4,0:1:0:0:
428,289,59475,2,0,L|419:231,1,47.9999985351563,0|0,0:0|0:0,0:0:0:0:
414,194,59709,2,0,B|352:228|352:228|267:211,1,143.999995605469,0|0,3:0|0:0,0:0:0:0:
233,199,60178,2,0,P|255:156|253:104,1,95.9999970703126,8|4,0:0|0:1,0:0:0:0:
97,42,60647,6,0,P|105:90|116:137,1,95.9999970703126,4|0,0:0|0:0,0:0:0:0:
139,231,61115,1,4,0:1:0:0:
210,295,61350,1,2,0:3:0:0:
210,295,61584,2,0,B|257:310|257:310|304:293,1,95.9999970703126,4|2,0:1|0:3,0:0:0:0:
373,231,62053,2,0,L|391:300,2,47.9999985351563,4|0|2,0:1|0:0|0:3,0:0:0:0:
414,42,62522,6,0,P|406:90|396:137,1,95.9999970703126,4|0,0:1|0:0,0:0:0:0:
373,231,62990,1,4,0:1:0:0:
302,295,63225,1,2,0:3:0:0:
302,295,63459,2,0,B|255:310|255:310|208:293,1,95.9999970703126,4|2,0:1|0:3,0:0:0:0:
139,231,63928,2,0,L|121:300,2,47.9999985351563,4|0|2,0:1|0:0|0:3,0:0:0:0:
164,96,64397,6,0,B|158:51|158:51|190:-2,1,95.9999970703126,4|0,0:1|0:0,0:0:0:0:
256,69,64865,1,4,0:1:0:0:
327,7,65100,1,2,0:3:0:0:
327,7,65334,2,0,B|354:51|354:51|348:96,1,95.9999970703126,4|2,0:1|0:3,0:0:0:0:
296,176,65803,2,0,L|248:169,2,47.9999985351563,4|0|2,0:1|0:0|0:3,0:0:0:0:
384,217,66272,6,0,P|430:219|474:272,1,95.9999970703126,4|2,0:1|0:0,0:0:0:0:
392,312,66740,1,4,0:1:0:0:
384,217,66975,1,0,0:0:0:0:
305,265,67209,2,0,B|254:276|254:276|158:248,1,143.999995605469,0|0,3:0|0:0,0:0:0:0:
128,217,67678,2,0,P|82:219|38:272,1,95.9999970703126,8|4,0:0|0:1,0:0:0:0:
120,312,68147,5,4,0:0:0:0:
300,152,68615,1,2,0:0:0:0:
256,76,68850,1,2,0:0:0:0:
212,152,69084,2,0,L|152:168,2,40
300,152,69553,6,0,L|362:169,2,60.0000022888184,0|0|8,0:0|0:0|0:0,0:0:0:0:
161,40,82912,6,0,L|153:96,1,35.9999989013672,0|0,0:0|0:0,0:0:0:0:
149,122,83147,6,0,P|111:83|40:102,1,107.999996704102,6|2,0:0|0:0,0:0:0:0:
26,117,83615,2,0,P|37:173|46:211,1,71.9999978027344,2|2,0:0|0:3,0:0:0:0:
118,239,84084,2,0,L|125:193,2,35.9999989013672,8|4|4,0:3|0:3|0:3,0:0:0:0:
99,326,84553,6,0,B|151:356|151:356|236:343,1,120.000004577637,8|0,0:3|0:0,0:0:0:0:
410,248,85022,6,0,P|371:237|332:230,1,80,4|0,0:0|0:0,0:0:0:0:
255,272,85490,2,0,P|309:229|292:145,1,160,8|4,0:0|0:1,0:0:0:0:
219,104,86193,1,0,0:0:0:0:
130,97,86428,2,0,P|136:136|155:171,1,80,8|0,0:0|0:0,0:0:0:0:
91,280,86897,6,0,P|128:265|167:257,1,80,4|0,0:1|0:0,0:0:0:0:
255,272,87365,1,8,0:0:0:0:
344,257,87600,1,0,0:0:0:0:
344,257,87717,1,0,0:0:0:0:
344,257,87834,2,0,P|383:265|421:280,1,80,4|0,0:1|0:0,0:0:0:0:
313,344,88303,1,8,0:0:0:0:
313,344,88537,1,0,0:0:0:0:
255,272,88772,6,0,B|246:214|246:214|279:154,1,120,4|0,0:1|0:0,0:0:0:0:
301,124,89240,2,0,P|261:115|224:101,1,80,10|2,0:0|0:0,0:0:0:0:
141,131,89709,2,0,P|127:85|122:40,1,80,4|2,0:1|0:0,0:0:0:0:
224,101,90178,1,8,0:0:0:0:
224,101,90412,1,0,0:0:0:0:
122,166,90647,6,0,P|82:157|45:143,2,80,4|0|10,0:1|0:0|0:0,0:0:0:0:
167,241,91350,1,2,0:0:0:0:
251,216,91584,1,4,0:1:0:0:
272,301,91818,1,0,0:0:0:0:
188,328,92053,1,8,0:0:0:0:
167,241,92287,1,0,0:0:0:0:
251,216,92522,5,4,0:0:0:0:
311,280,92756,2,0,B|350:288|350:288|393:266,1,80,0|8,0:0|0:0,0:0:0:0:
459,221,93225,1,0,0:0:0:0:
482,136,93459,2,0,B|443:128|443:128|400:150,1,80,4|0,0:1|0:0,0:0:0:0:
334,195,93928,1,8,0:0:0:0:
303,112,94162,1,0,0:0:0:0:
209,112,94397,5,4,0:1:0:0:
178,195,94631,1,0,0:0:0:0:
209,112,94865,1,8,0:0:0:0:
178,195,95100,1,0,0:0:0:0:
104,146,95334,2,0,B|69:128|69:128|30:136,1,80,4|0,0:1|0:0,0:0:0:0:
56,220,95803,2,0,P|47:263|41:320,1,80,8|0,0:0|0:0,0:0:0:0:
124,348,96272,6,0,P|168:351|206:315,1,80,4|0,0:1|0:0,0:0:0:0:
257,266,96740,1,10,0:0:0:0:
257,263,96975,1,2,0:0:0:0:
390,348,97209,6,0,P|346:351|308:315,1,80,4|2,0:1|0:0,0:0:0:0:
257,266,97678,1,8,0:0:0:0:
257,263,97912,1,0,0:0:0:0:
308,191,98147,5,4,0:1:0:0:
391,164,98381,1,0,0:0:0:0:
476,182,98615,1,8,0:0:0:0:
393,212,98850,1,2,0:0:0:0:
323,158,99084,1,4,0:1:0:0:
334,70,99318,1,2,0:0:0:0:
334,70,99436,1,0,0:0:0:0:
334,70,99553,1,8,0:0:0:0:
404,124,99787,1,0,0:0:0:0:
393,212,100022,6,0,B|452:202|452:202|513:243,2,120.000004577637,4|8|0,0:0|0:2|0:0,0:0:0:0:
358,222,101193,5,2,0:0:0:0:
323,232,101428,5,8,0:0:0:0:
288,242,101662,6,0,L|240:253,1,30.0000011444092,2|0,0:0|0:0,0:0:0:0:
229,257,101897,6,0,P|201:240|163:236,1,60.0000022888184,0|0,0:0|0:0,0:0:0:0:
85,245,102365,2,0,P|40:289|34:352,1,120.000004577637,8|0,0:0|0:0,0:0:0:0:
121,328,103068,1,0,0:0:0:0:
107,238,103303,2,0,L|97:169,1,60.0000022888184,10|0,0:0|0:0,0:0:0:0:
83,89,103772,6,0,P|136:104|191:67,1,120.000004577637,0|10,0:0|0:0,0:0:0:0:
208,42,104475,5,2,0:0:0:0:
238,23,104709,5,2,0:0:0:0:
274,23,104943,5,0,0:0:0:0:
304,42,105178,5,10,0:0:0:0:
323,71,105412,6,0,L|311:127,1,30.0000011444092,2|0,0:0|0:0,0:0:0:0:
311,130,105647,6,0,P|322:164|324:208,1,60.0000022888184,0|0,0:0|0:0,0:0:0:0:
256,244,106115,1,8,0:0:0:0:
256,247,106350,1,2,0:0:0:0:
196,314,106584,2,0,B|184:344|184:344|192:386,1,60.0000022888184,0|0,0:0|0:0,0:0:0:0:
322,371,107053,2,0,B|328:344|328:344|316:314,1,60.0000022888184,8|0,0:0|0:0,0:0:0:0:
256,247,107522,5,4,0:1:0:0:
256,247,107990,2,0,L|156:229,1,80,8|0,0:0|0:0,0:0:0:0:
89,242,108459,2,0,L|167:256,1,80,4|2,0:1|0:0,0:0:0:0:
216,149,108928,1,8,0:0:0:0:
197,63,109162,2,0,L|137:75,1,40,2|0,0:0|0:0,0:0:0:0:
115,84,109397,6,0,P|114:142|137:172,1,80,4|0,0:1|0:0,0:0:0:0:
193,213,109865,1,8,0:0:0:0:
193,213,110100,1,0,0:0:0:0:
279,226,110334,2,0,P|338:215|396:202,1,120,4|0,0:1|0:0,0:0:0:0:
439,191,110803,2,0,P|424:256|417:295,1,80,10|0,0:0|0:0,0:0:0:0:
402,355,111272,5,4,0:1:0:0:
402,355,111506,2,0,B|367:335|367:335|304:346,1,80,0|8,0:0|0:0,0:0:0:0:
256,288,111975,1,2,0:0:0:0:
184,341,112209,1,2,0:0:0:0:
101,310,112443,1,2,0:0:0:0:
173,259,112678,1,8,0:0:0:0:
256,288,112912,1,0,0:0:0:0:
339,259,113147,5,8,0:1:0:0:
344,174,113381,2,0,P|305:177|273:201,1,80,2|0,2:0|2:0,0:0:0:0:
339,259,113850,1,0,2:0:0:0:
257,104,114084,6,0,P|222:99|176:91,1,60.0000022888184,2|0,0:0|0:0,0:0:0:0:
78,152,114553,6,0,P|136:145|207:129,1,120.000004577637,8|0,0:0|0:0,0:0:0:0:
365,34,115022,6,0,P|353:90|347:142,1,95.9999970703126,4|0,0:0|0:0,0:0:0:0:
256,196,115490,1,4,0:1:0:0:
163,128,115725,2,0,L|152:81,2,47.9999985351563,2|0|4,0:3|0:0|0:1,0:0:0:0:
256,60,116193,1,2,0:3:0:0:
256,60,116428,2,0,L|244:4,2,47.9999985351563,4|0|2,0:1|0:0|0:3,0:0:0:0:
172,225,116897,6,0,P|117:212|62:206,2,95.9999970703126,4|0|4,0:1|0:0|0:1,0:0:0:0:
256,272,117600,2,0,L|266:318,2,47.9999985351563,2|0|4,0:3|0:0|0:1,0:0:0:0:
170,316,118068,1,2,0:3:0:0:
170,316,118303,2,0,L|91:335,2,47.9999985351563,4|0|2,0:1|0:0|0:3,0:0:0:0:
340,225,118772,6,0,B|364:184|364:184|352:120,1,95.9999970703126,4|0,0:1|0:0,0:0:0:0:
304,55,119240,1,4,0:1:0:0:
207,55,119475,2,0,L|143:43,2,47.9999985351563,2|0|4,0:3|0:0|0:1,0:0:0:0:
156,136,119943,1,2,0:3:0:0:
156,136,120178,2,0,L|92:124,2,47.9999985351563,4|0|2,0:1|0:0|0:3,0:0:0:0:
256,168,120647,5,2,0:1:0:0:
256,171,120764,1,2,0:1:0:0:
256,174,120881,1,2,0:1:0:0:
355,136,121115,1,4,0:1:0:0:
438,184,121350,2,0,L|431:252,1,47.9999985351563,0|0,0:0|0:0,0:0:0:0:
415,276,121584,2,0,P|387:338|316:330,1,143.999995605469,0|0,3:0|0:0,0:0:0:0:
284,300,122053,2,0,P|292:247|303:186,1,95.9999970703126,8|4,0:0|0:1,0:0:0:0:
399,62,122522,6,0,P|472:45|515:40,2,95.9999970703126,4|0|4,0:0|0:0|0:1,0:0:0:0:
312,104,123225,2,0,L|303:151,2,47.9999985351563,2|0|4,0:3|0:0|0:1,0:0:0:0:
227,59,123693,1,2,0:3:0:0:
227,59,123928,2,0,L|216:-3,2,47.9999985351563,4|0|2,0:1|0:0|0:3,0:0:0:0:
304,204,124397,6,0,P|356:205|400:252,1,95.9999970703126,4|0,0:1|0:0,0:0:0:0:
319,297,124865,1,4,0:1:0:0:
208,204,125100,2,0,L|201:156,2,47.9999985351563,2|0|4,0:3|0:0|0:1,0:0:0:0:
193,297,125568,1,2,0:3:0:0:
193,297,125803,2,0,L|184:363,2,47.9999985351563,4|0|2,0:1|0:0|0:3,0:0:0:0:
126,163,126272,6,0,P|114:119|104:48,1,95.9999970703126,4|0,0:1|0:0,0:0:0:0:
184,14,126740,1,4,0:1:0:0:
256,76,126975,2,0,L|256:140,2,47.9999985351563,2|0|4,0:3|0:0|0:1,0:0:0:0:
339,35,127443,1,2,0:3:0:0:
339,35,127678,2,0,L|394:26,2,47.9999985351563,4|0|2,0:1|0:0|0:3,0:0:0:0:
270,190,128147,6,0,P|320:218|366:211,1,95.9999970703126,4|2,0:1|0:0,0:0:0:0:
449,190,128615,1,4,0:1:0:0:
423,97,128850,1,0,0:0:0:0:
336,125,129084,2,0,L|314:300,1,143.999995605469,0|0,3:0|0:0,0:0:0:0:
314,316,129553,2,0,P|264:288|218:295,1,95.9999970703126,8|4,0:0|0:1,0:0:0:0:
93,334,130022,6,0,P|45:324|-5:309,2,95.9999970703126,4|0|4,0:0|0:0|0:1,0:0:0:0:
141,250,130725,1,2,0:3:0:0:
141,250,130959,2,0,P|134:207|115:132,1,95.9999970703126,4|2,0:1|0:3,0:0:0:0:
81,68,131428,2,0,L|19:82,2,47.9999985351563,4|0|2,0:1|0:0|0:3,0:0:0:0:
216,20,131897,5,4,0:1:0:0:
294,75,132131,1,0,0:0:0:0:
246,158,132365,1,0,0:0:0:0:
317,222,132600,2,0,L|379:236,2,47.9999985351563,2|0|4,0:3|0:0|0:1,0:0:0:0:
273,307,133068,1,2,0:3:0:0:
273,307,133303,2,0,L|211:321,2,47.9999985351563,4|0|2,0:1|0:0|0:3,0:0:0:0:
416,345,133772,6,0,P|463:347|507:308,1,95.9999970703126,4|0,0:1|0:0,0:0:0:0:
434,249,134240,1,4,0:1:0:0:
434,249,134475,1,2,0:3:0:0:
367,179,134709,2,0,P|404:151|452:153,1,95.9999970703126,4|2,0:1|0:3,0:0:0:0:
434,249,135178,1,4,0:1:0:0:
434,249,135412,1,2,0:3:0:0:
342,279,135647,5,2,0:1:0:0:
342,279,135764,1,2,0:1:0:0:
342,279,135881,1,2,0:1:0:0:
256,236,136115,1,4,0:1:0:0:
170,279,136350,2,0,P|164:300|158:339,1,47.9999985351563,0|0,0:0|0:0,0:0:0:0:
159,373,136584,2,0,P|122:316|45:322,1,143.999995605469,0|0,3:0|0:0,0:0:0:0:
18,352,137053,2,0,P|10:302|-3:244,1,95.9999970703126,8|4,0:0|0:1,0:0:0:0:
93,126,137522,6,0,B|131:155|131:155|197:147,1,95.9999970703126,4|0,0:0|0:0,0:0:0:0:
273,134,137990,1,4,0:1:0:0:
341,66,138225,1,2,0:3:0:0:
341,66,138459,2,0,B|303:37|303:37|237:45,1,95.9999970703126,4|2,0:1|0:3,0:0:0:0:
161,60,138928,2,0,L|145:3,2,47.9999985351563,4|0|2,0:1|0:0|0:3,0:0:0:0:
273,134,139397,5,4,0:1:0:0:
343,201,139631,1,0,0:0:0:0:
251,226,139865,1,0,0:0:0:0:
179,158,140100,2,0,L|120:147,2,47.9999985351563,2|0|4,0:3|0:0|0:1,0:0:0:0:
160,252,140568,1,2,0:3:0:0:
160,252,140803,2,0,L|101:241,2,47.9999985351563,4|0|2,0:1|0:0|0:3,0:0:0:0:
324,294,141272,6,0,P|381:283|434:276,1,95.9999970703126,4|0,0:1|0:0,0:0:0:0:
508,311,141740,1,4,0:1:0:0:
434,373,141975,1,2,0:3:0:0:
418,277,142209,1,4,0:1:0:0:
402,181,142443,1,2,0:3:0:0:
476,119,142678,1,4,0:1:0:0:
492,215,142912,1,2,0:3:0:0:
418,277,143147,6,0,P|370:270|323:260,1,95.9999970703126,4|2,0:1|0:0,0:0:0:0:
231,285,143615,1,4,0:1:0:0:
256,192,143850,1,0,0:0:0:0:
195,117,144084,2,0,P|119:128|41:155,1,143.999995605469,0|0,3:0|0:0,0:0:0:0:
18,179,144553,2,0,B|10:229|10:229|46:278,1,95.9999970703126,8|4,0:0|0:1,0:0:0:0:
120,323,145022,5,4,0:0:0:0:
256,192,145139,12,0,146428,0:0:0:0:
392,61,147365,5,2,0:0:0:0:
387,96,147834,5,2,0:0:0:0:
382,131,148303,5,2,0:0:0:0:
338,332,148772,6,0,B|295:305|249:323|249:323|239:299|239:299|188:319|174:302|157:274|101:306,1,240.000009155274,4|0,0:1|0:0,0:0:0:0:
315,108,150412,1,2,0:0:0:0:
315,108,150647,6,0,B|289:89|256:74|256:74|323:65|371:39|371:39|399:55|438:69,1,240.000009155274,4|0,0:1|0:0,0:0:0:0:
193,213,152287,1,2,0:1:0:0:
193,213,152522,6,0,P|90:251|151:352,1,240.000009155274,4|0,0:1|0:0,0:0:0:0:
426,315,154162,1,2,0:0:0:0:
426,315,154397,6,0,B|415:290|395:270|395:270|413:246|412:205|412:205|380:188|358:150|376:91,1,240.000009155274,4|0,0:1|0:0,0:0:0:0:
417,27,155568,1,2,0:0:0:0:
350,88,155803,2,0,P|316:98|273:101,1,60.0000022888184,2|0,0:1|3:0,0:0:0:0:
212,144,156272,6,0,B|158:137|86:121|86:121|101:153|110:171|110:171|87:201|87:201|105:241,1,240.000009155274,4|0,0:1|0:0,0:0:0:0:
380,347,157912,1,2,0:0:0:0:
380,347,158147,6,0,P|420:247|319:213,1,240.000009155274,4|0,0:1|0:0,0:0:0:0:
77,334,159787,1,0,0:0:0:0:
77,334,160022,6,0,B|103:304|121:262|121:262|104:225|71:186|71:186|79:156|93:112,1,240.000009155274,4|0,0:1|0:0,0:0:0:0:
367,33,161662,1,2,0:0:0:0:
367,33,161897,6,0,B|372:84|337:108|291:97|291:97|334:138|331:181|314:215,1,240.000009155274,4|0,0:1|0:0,0:0:0:0:
260,273,163068,2,0,L|268:319,2,30.0000011444092,0|0|8,0:0|3:0|0:0,0:0:0:0:
235,170,163537,1,4,0:1:0:0:
235,170,163772,6,0,P|285:161|400:141,1,143.999995605469,4|0,0:0|0:0,0:0:0:0:
463,180,164475,1,0,0:0:0:0:
463,180,164709,1,0,0:0:0:0:
209,77,165178,1,0,3:0:0:0:
209,77,165647,6,0,P|221:147|234:218,1,143.999995605469,8|0,0:0|0:0,0:0:0:0:
189,301,166350,1,8,0:0:0:0:
99,273,166584,2,0,L|56:280,2,35.9999989013672,0|0|0,0:0|0:0|3:0,0:0:0:0:
145,191,167053,1,8,0:0:0:0:
339,347,167522,6,0,P|375:340|420:333,1,71.9999978027344,4|0,0:1|0:0,0:0:0:0:
409,334,167873,1,0,0:0:0:0:
409,334,167990,1,0,3:0:0:0:
485,280,168225,1,8,0:0:0:0:
445,195,168459,2,0,L|402:188,2,35.9999989013672,0|0|0,0:0|0:0|3:0,0:0:0:0:
508,125,168928,2,0,P|496:77|485:43,1,71.9999978027344,8|0,0:0|3:0,0:0:0:0:
406,11,169397,5,0,3:0:0:0:
345,79,169631,2,0,P|311:99|269:97,1,71.9999978027344,2|0,0:0|0:0,0:0:0:0:
286,6,170100,1,0,0:0:0:0:
387,145,170334,6,0,P|379:188|373:229,1,60.0000022888184,2|0,0:0|0:0,0:0:0:0:
481,313,170803,6,0,P|470:247|457:182,1,120.000004577637,8|0,0:0|0:0,0:0:0:0:
313,89,171272,6,0,P|266:77|209:65,1,95.9999970703126,4|0,0:0|0:0,0:0:0:0:
129,98,171740,1,4,0:1:0:0:
39,132,171975,1,2,0:3:0:0:
39,132,172209,2,0,P|38:182|69:220,1,95.9999970703126,4|2,0:1|0:3,0:0:0:0:
151,254,172678,2,0,L|162:205,2,47.9999985351563,4|0|2,0:1|0:0|0:3,0:0:0:0:
276,368,173147,6,0,P|303:329|301:282,1,95.9999970703126,4|0,0:1|0:0,0:0:0:0:
256,200,173615,1,4,0:1:0:0:
290,110,173850,1,2,0:3:0:0:
290,110,174084,2,0,P|332:76|388:85,1,95.9999970703126,4|2,0:1|0:3,0:0:0:0:
452,128,174553,2,0,L|467:64,2,47.9999985351563,4|0|2,0:1|0:0|0:3,0:0:0:0:
405,285,175022,6,0,P|354:276|298:265,1,95.9999970703126,4|0,0:1|0:0,0:0:0:0:
219,296,175490,1,4,0:1:0:0:
129,330,175725,1,2,0:3:0:0:
129,330,175959,2,0,P|100:292|103:246,1,95.9999970703126,4|2,0:1|0:3,0:0:0:0:
183,192,176428,2,0,L|235:201,2,47.9999985351563,4|0|2,0:1|0:0|0:3,0:0:0:0:
111,127,176897,5,2,0:1:0:0:
111,127,177014,1,2,0:1:0:0:
111,127,177131,1,2,0:1:0:0:
164,47,177365,1,4,0:1:0:0:
233,113,177600,1,0,0:0:0:0:
279,36,177834,2,0,P|339:26|433:16,1,143.999995605469,0|0,3:0|0:0,0:0:0:0:
464,9,178303,2,0,P|452:64|444:118,1,95.9999970703126,8|4,0:0|0:1,0:0:0:0:
394,232,178772,6,0,P|386:184|348:148,1,95.9999970703126,4|0,0:0|0:0,0:0:0:0:
299,230,179240,1,4,0:1:0:0:
243,308,179475,1,2,0:3:0:0:
243,308,179709,2,0,P|211:274|204:228,1,95.9999970703126,4|2,0:1|0:3,0:0:0:0:
237,138,180178,2,0,L|293:126,2,47.9999985351563,4|0|2,0:1|0:0|0:3,0:0:0:0:
64,178,180647,6,0,B|35:138|35:138|40:76,1,95.9999970703126,4|0,0:1|0:0,0:0:0:0:
132,111,181115,1,4,0:1:0:0:
200,44,181350,1,2,0:3:0:0:
200,44,181584,2,0,B|229:84|229:84|224:146,1,95.9999970703126,4|2,0:1|0:3,0:0:0:0:
207,224,182053,2,0,L|149:213,2,47.9999985351563,4|0|2,0:1|0:0|0:3,0:0:0:0:
352,318,182522,6,0,P|405:318|448:274,1,95.9999970703126,4|0,0:1|0:0,0:0:0:0:
474,204,182990,1,4,0:1:0:0:
493,109,183225,1,2,0:3:0:0:
493,109,183459,2,0,P|440:109|397:153,1,95.9999970703126,4|2,0:1|0:3,0:0:0:0:
375,221,183928,2,0,L|387:281,2,47.9999985351563,4|0|2,0:1|0:0|0:3,0:0:0:0:
335,58,184397,6,0,P|283:70|228:76,1,95.9999970703126,4|2,0:0|0:0,0:0:0:0:
151,110,184865,1,4,0:1:0:0:
161,14,185100,1,0,0:0:0:0:
227,171,185334,6,0,L|215:252,1,60.0000022888184,0|0,3:0|0:0,0:0:0:0:
91,299,185803,6,0,P|83:249|152:199,1,120.000004577637,8|4,0:0|0:1,0:0:0:0:
322,177,186272,6,0,P|379:188|430:200,1,95.9999970703126,4|0,0:0|0:0,0:0:0:0:
508,169,186740,1,4,0:1:0:0:
483,75,186975,2,0,L|469:13,2,47.9999985351563,2|0|4,0:3|0:0|0:1,0:0:0:0:
392,105,187443,1,2,0:3:0:0:
392,105,187678,2,0,L|382:57,2,47.9999985351563,4|0|2,0:1|0:0|0:3,0:0:0:0:
347,274,188147,6,0,P|307:300|237:284,1,95.9999970703126,4|0,0:1|0:0,0:0:0:0:
192,179,188615,2,0,P|239:177|279:203,1,95.9999970703126,0|2,0:0|0:3,0:0:0:0:
162,275,189084,1,4,0:1:0:0:
72,240,189318,1,2,0:3:0:0:
15,317,189553,1,4,0:1:0:0:
104,351,189787,1,2,0:3:0:0:
162,275,190022,6,0,P|148:209|133:163,1,95.9999970703126,4|0,0:1|0:0,0:0:0:0:
102,93,190490,1,4,0:1:0:0:
102,93,190725,1,2,0:3:0:0:
218,12,190959,2,0,P|205:58|196:106,1,95.9999970703126,4|2,0:1|0:3,0:0:0:0:
234,194,191428,1,4,0:1:0:0:
234,194,191662,1,2,0:3:0:0:
322,231,191897,5,2,0:1:0:0:
322,231,192014,1,2,0:1:0:0:
322,231,192131,1,2,0:1:0:0:
414,204,192365,1,4,0:1:0:0:
401,299,192600,1,0,0:0:0:0:
492,260,192834,2,0,B|453:200|453:200|466:105,1,143.999995605469,0|0,3:0|0:0,0:0:0:0:
472,80,193303,2,0,P|423:97|360:96,1,95.9999970703126,8|4,0:0|0:1,0:0:0:0:
213,40,193772,6,0,P|165:42|120:58,1,95.9999970703126,4|0,0:0|0:0,0:0:0:0:
45,117,194240,1,4,0:1:0:0:
14,208,194475,1,2,0:3:0:0:
14,208,194709,2,0,P|61:206|106:190,1,95.9999970703126,4|2,0:1|0:3,0:0:0:0:
187,137,195178,2,0,L|174:84,2,47.9999985351563,4|0|2,0:1|0:0|0:3,0:0:0:0:
270,266,195647,5,4,0:1:0:0:
251,360,195881,1,0,0:0:0:0:
179,295,196115,1,0,0:0:0:0:
270,266,196350,1,2,0:3:0:0:
361,237,196584,2,0,P|422:251|472:256,1,95.9999970703126,4|2,0:1|0:3,0:0:0:0:
509,359,197053,2,0,P|462:348|415:342,1,95.9999970703126,4|2,0:1|0:3,0:0:0:0:
322,208,197522,6,0,P|348:171|348:111,1,95.9999970703126,4|0,0:1|0:0,0:0:0:0:
305,37,197990,1,4,0:1:0:0:
207,37,198225,1,2,0:3:0:0:
207,37,198459,2,0,L|228:155,1,95.9999970703126,4|2,0:1|0:3,0:0:0:0:
241,225,198928,2,0,L|294:217,2,47.9999985351563,4|0|2,0:1|0:0|0:3,0:0:0:0:
94,312,199397,6,0,P|40:313|-3:267,1,95.9999970703126,4|2,0:1|0:0,0:0:0:0:
76,221,199865,1,4,0:1:0:0:
164,258,200100,1,0,0:0:0:0:
229,328,200334,2,0,P|302:317|381:306,1,143.999995605469,0|0,3:0|0:0,0:0:0:0:
399,267,200803,2,0,B|411:219|411:219|384:169,1,95.9999970703126,8|4,0:0|0:1,0:0:0:0:
328,123,201272,6,0,P|289:133|228:34,1,160,4|0,0:0|0:0,0:0:0:0:
316,30,201975,1,2,0:0:0:0:
316,30,202209,1,0,0:0:0:0:
328,123,202443,2,0,L|318:185,1,40,2|0,0:0|0:0,0:0:0:0:
313,210,202678,2,0,L|298:309,1,80,2|0,0:0|0:0,0:0:0:0:
243,366,203147,6,0,P|179:352|77:335,1,160,2|0,0:0|0:0,0:0:0:0:
5,283,203850,1,2,0:0:0:0:
36,192,204084,2,0,L|24:133,2,40,0|0|2,0:0|0:0|0:0,0:0:0:0:
116,244,204553,1,2,0:0:0:0:
85,336,204787,1,0,0:0:0:0:
116,244,205022,6,0,P|146:208|232:216,1,120,2|0,0:0|0:0,0:0:0:0:
255,231,205490,2,0,P|262:179|278:129,1,80,2|0,0:0|0:0,0:0:0:0:
268,56,205959,2,0,L|311:50,2,40,0|0|2,0:0|0:0|0:0,0:0:0:0:
171,28,206428,2,0,P|180:66|185:106,1,80,2|0,0:0|0:0,0:0:0:0:
269,152,206897,5,2,0:1:0:0:
269,152,207014,1,2,0:1:0:0:
269,152,207131,1,2,0:1:0:0:
355,111,207365,1,2,0:0:0:0:
442,151,207600,1,0,0:0:0:0:
442,151,207834,2,0,L|425:287,1,120,2|0,0:0|0:0,0:0:0:0:
421,318,208303,2,0,P|385:295|338:297,1,80,0|0,3:0|0:0,0:0:0:0:
260,333,208772,6,0,P|180:318|87:298,1,160,2|0,0:0|0:0,0:0:0:0:
10,327,209475,1,2,0:0:0:0:
35,234,209709,1,0,0:0:0:0:
64,142,209943,2,0,L|53:92,1,40,2|0,0:0|0:0,0:0:0:0:
44,55,210178,2,0,P|80:32|127:34,1,80,2|0,0:0|0:0,0:0:0:0:
206,64,210647,6,0,P|248:107|241:206,1,160,2|2,0:0|0:0,0:0:0:0:
179,273,211350,1,2,0:0:0:0:
272,293,211584,2,0,L|322:303,2,40,0|0|2,0:0|0:0|0:0,0:0:0:0:
179,273,212053,2,0,L|100:257,1,80,2|0,0:0|0:0,0:0:0:0:
47,177,212522,6,0,B|67:140|67:140|114:119|164:118,1,120,2|0,0:0|0:0,0:0:0:0:
189,116,212990,1,2,0:0:0:0:
273,162,213225,1,0,0:0:0:0:
366,183,213459,2,0,L|359:238,2,40,0|0|2,0:0|0:0|0:0,0:0:0:0:
462,177,213928,2,0,P|453:136|444:78,1,80,2|0,0:0|3:0,0:0:0:0:
364,11,214397,5,0,0:0:0:0:
364,11,214631,2,0,P|357:50|348:89,1,80,2|0,0:0|0:0,0:0:0:0:
366,183,215100,1,0,0:0:0:0:
274,153,215334,2,0,P|215:161|180:218,1,120,2|0,0:0|0:0,0:0:0:0:
178,255,215803,2,0,P|189:314|200:350,1,80,0|4,3:0|0:1,0:0:0:0:
285,368,216272,6,0,P|307:333|302:289,1,80,0|0,0:0|0:0,0:0:0:0:
