osu file format v14

[General]
AudioFilename: audio.mp3
AudioLeadIn: 0
PreviewTime: 51496
Countdown: 0
SampleSet: Normal
StackLeniency: 0.7
Mode: 1
LetterboxInBreaks: 0
WidescreenStoryboard: 1

[Editor]
DistanceSpacing: 0.5
BeatDivisor: 4
GridSize: 32
TimelineZoom: 0.8999997

[Metadata]
Title:Give me a break Stop now
TitleUnicode:ギミアブレスタッナウ
Artist:REOL
ArtistUnicode:れをる
Creator:Alepat
Version:Oni
Source:
Tags:Σ Sigma ギガ giga お菊 okiku Toshitaka Shinoda Amana Ijigen
BeatmapID:1159785
BeatmapSetID:547558

[Difficulty]
HPDrainRate:6
CircleSize:5
OverallDifficulty:6
ApproachRate:6
SliderMultiplier:1.4
SliderTickRate:1

[Events]
//Background and Video events
0,0,"bg.jpg",0,120
//Break Periods
//Storyboard Layer 0 (Background)
//Storyboard Layer 1 (Fail)
//Storyboard Layer 2 (Pass)
//Storyboard Layer 3 (Foreground)
//Storyboard Sound Samples

[TimingPoints]
637,468.75,4,1,0,70,1,0
38371,-131.578947368421,4,1,0,40,0,0
45637,-100,4,1,0,70,0,0
53137,-100,4,1,0,70,0,1
68137,-100,4,1,0,70,0,0
100246,-131.578947368421,4,1,0,40,0,0
107512,-100,4,1,0,70,0,0
115012,-100,4,1,0,70,0,1
145012,-100,4,1,0,70,0,0
164465,-131.578947368421,4,1,0,60,0,0
171262,-100,4,1,0,70,0,1
201262,-100,4,1,0,70,0,0

[HitObjects]
256,192,637,5,0,0:0:0:0:
256,192,988,1,0,0:0:0:0:
256,192,1105,1,8,0:0:0:0:
256,192,1340,1,8,0:0:0:0:
256,192,1574,1,8,0:0:0:0:
256,192,1808,1,8,0:0:0:0:
256,192,2043,1,0,0:0:0:0:
256,192,2277,1,8,0:0:0:0:
256,192,2394,1,0,0:0:0:0:
256,192,2512,1,0,0:0:0:0:
256,192,2863,1,0,0:0:0:0:
256,192,2980,1,8,0:0:0:0:
256,192,3215,1,8,0:0:0:0:
256,192,3449,1,0,0:0:0:0:
256,192,3566,1,0,0:0:0:0:
256,192,3683,1,8,0:0:0:0:
256,192,3918,1,8,0:0:0:0:
256,192,4152,1,0,0:0:0:0:
256,192,4387,1,0,0:0:0:0:
256,192,4738,1,8,0:0:0:0:
256,192,4855,1,8,0:0:0:0:
256,192,5090,1,8,0:0:0:0:
256,192,5324,1,8,0:0:0:0:
256,192,5558,1,8,0:0:0:0:
256,192,5793,1,0,0:0:0:0:
256,192,6027,1,8,0:0:0:0:
256,192,6144,1,0,0:0:0:0:
256,192,6262,1,0,0:0:0:0:
256,192,6496,1,8,0:0:0:0:
256,192,6613,1,0,0:0:0:0:
256,192,6730,1,8,0:0:0:0:
256,192,6965,1,0,0:0:0:0:
256,192,7433,1,0,0:0:0:0:
256,192,7551,1,0,0:0:0:0:
256,192,7902,1,0,0:0:0:0:
256,192,8136,1,4,0:0:0:0:
256,192,8371,1,0,0:0:0:0:
256,192,8488,1,0,0:0:0:0:
256,192,8605,1,8,0:0:0:0:
256,192,8840,1,0,0:0:0:0:
256,192,9074,1,0,0:0:0:0:
256,192,9308,1,8,0:0:0:0:
256,192,9543,1,0,0:0:0:0:
256,192,9777,1,8,0:0:0:0:
256,192,10012,1,0,0:0:0:0:
256,192,10246,1,0,0:0:0:0:
256,192,10363,1,0,0:0:0:0:
256,192,10480,1,8,0:0:0:0:
256,192,10715,1,0,0:0:0:0:
256,192,10949,1,8,0:0:0:0:
256,192,11418,1,0,0:0:0:0:
256,192,11652,1,8,0:0:0:0:
256,192,11887,1,0,0:0:0:0:
256,192,12355,1,0,0:0:0:0:
256,192,12590,1,8,0:0:0:0:
256,192,12824,1,0,0:0:0:0:
256,192,13058,1,8,0:0:0:0:
256,192,13293,1,8,0:0:0:0:
256,192,13527,1,0,0:0:0:0:
256,192,13762,1,0,0:0:0:0:
256,192,13996,1,8,0:0:0:0:
256,192,14230,1,0,0:0:0:0:
256,192,14465,1,8,0:0:0:0:
256,192,14933,1,8,0:0:0:0:
256,192,15168,1,0,0:0:0:0:
256,192,15402,1,8,0:0:0:0:
256,192,15637,1,8,0:0:0:0:
256,192,15871,1,0,0:0:0:0:
256,192,15988,1,8,0:0:0:0:
256,192,16105,1,8,0:0:0:0:
256,192,16340,1,0,0:0:0:0:
256,192,16574,1,8,0:0:0:0:
256,192,16808,1,0,0:0:0:0:
256,192,16926,1,0,0:0:0:0:
256,192,17043,1,8,0:0:0:0:
256,192,17277,1,0,0:0:0:0:
256,192,17512,1,8,0:0:0:0:
256,192,17746,1,0,0:0:0:0:
256,192,17863,1,0,0:0:0:0:
256,192,17980,1,8,0:0:0:0:
256,192,18215,1,8,0:0:0:0:
256,192,18449,1,8,0:0:0:0:
256,192,18918,1,8,0:0:0:0:
256,192,19152,1,0,0:0:0:0:
256,192,19387,1,8,0:0:0:0:
256,192,19855,1,0,0:0:0:0:
256,192,19972,1,0,0:0:0:0:
256,192,20090,1,0,0:0:0:0:
256,192,20324,1,0,0:0:0:0:
256,192,20558,1,8,0:0:0:0:
256,192,20793,1,0,0:0:0:0:
256,192,21027,1,0,0:0:0:0:
256,192,21262,1,0,0:0:0:0:
256,192,21496,1,8,0:0:0:0:
256,192,21730,1,0,0:0:0:0:
256,192,21808,1,0,0:0:0:0:
256,192,21887,1,0,0:0:0:0:
256,192,21965,1,0,0:0:0:0:
256,192,22199,1,0,0:0:0:0:
256,192,22433,1,8,0:0:0:0:
256,192,22668,1,8,0:0:0:0:
256,192,23137,1,4,0:0:0:0:
256,192,23605,1,8,0:0:0:0:
256,192,23840,1,0,0:0:0:0:
256,192,23918,1,0,0:0:0:0:
256,192,23996,1,0,0:0:0:0:
256,192,24074,1,0,0:0:0:0:
256,192,24308,1,0,0:0:0:0:
256,192,24543,1,8,0:0:0:0:
256,192,24777,1,0,0:0:0:0:
256,192,25012,1,8,0:0:0:0:
256,192,25246,1,8,0:0:0:0:
256,192,25715,1,8,0:0:0:0:
256,192,25832,1,0,0:0:0:0:
256,192,25949,1,8,0:0:0:0:
256,192,26066,1,8,0:0:0:0:
256,192,26183,1,0,0:0:0:0:
256,192,26418,1,8,0:0:0:0:
256,192,26652,1,0,0:0:0:0:
256,192,26887,1,8,0:0:0:0:
256,192,27355,1,0,0:0:0:0:
256,192,27590,1,0,0:0:0:0:
256,192,27824,1,8,0:0:0:0:
256,192,28293,1,0,0:0:0:0:
256,192,28527,1,0,0:0:0:0:
256,192,28762,1,8,0:0:0:0:
256,192,28996,1,0,0:0:0:0:
256,192,29113,1,0,0:0:0:0:
256,192,29230,1,8,0:0:0:0:
256,192,29465,1,0,0:0:0:0:
256,192,29582,1,0,0:0:0:0:
256,192,29699,1,8,0:0:0:0:
256,192,29933,1,8,0:0:0:0:
256,192,30168,1,0,0:0:0:0:
256,192,30402,1,8,0:0:0:0:
256,192,30637,1,8,0:0:0:0:
256,192,31105,1,8,0:0:0:0:
256,192,31340,1,0,0:0:0:0:
256,192,31418,1,0,0:0:0:0:
256,192,31496,1,0,0:0:0:0:
256,192,31574,1,0,0:0:0:0:
256,192,31808,1,0,0:0:0:0:
256,192,32043,1,8,0:0:0:0:
256,192,32277,1,0,0:0:0:0:
256,192,32512,1,8,0:0:0:0:
256,192,32746,1,8,0:0:0:0:
256,192,33215,1,0,0:0:0:0:
256,192,33332,1,0,0:0:0:0:
256,192,33449,1,0,0:0:0:0:
256,192,33566,1,0,0:0:0:0:
256,192,33683,1,8,0:0:0:0:
256,192,33918,1,8,0:0:0:0:
256,192,34152,1,0,0:0:0:0:
256,192,34387,1,8,0:0:0:0:
256,192,34621,1,8,0:0:0:0:
256,192,34855,1,0,0:0:0:0:
256,192,35090,1,0,0:0:0:0:
256,192,35324,1,8,0:0:0:0:
256,192,35558,1,0,0:0:0:0:
256,192,35676,1,0,0:0:0:0:
256,192,35793,1,0,0:0:0:0:
256,192,36027,1,0,0:0:0:0:
256,192,36144,1,0,0:0:0:0:
256,192,36262,1,8,0:0:0:0:
256,192,36496,1,0,0:0:0:0:
256,192,36730,1,8,0:0:0:0:
256,192,36965,1,0,0:0:0:0:
256,192,37199,1,8,0:0:0:0:
256,192,38137,1,4,0:0:0:0:
256,192,38371,1,0,0:0:0:0:
256,192,38488,1,0,0:0:0:0:
256,192,38605,1,0,0:0:0:0:
256,192,38840,1,0,0:0:0:0:
256,192,39074,1,0,0:0:0:0:
256,192,39308,1,8,0:0:0:0:
256,192,40246,1,8,0:0:0:0:
256,192,40480,1,8,0:0:0:0:
256,192,40949,1,8,0:0:0:0:
256,192,41183,1,8,0:0:0:0:
256,192,41301,1,0,0:0:0:0:
256,192,41418,1,8,0:0:0:0:
256,192,41652,1,0,0:0:0:0:
256,192,41887,1,0,0:0:0:0:
256,192,42121,1,8,0:0:0:0:
256,192,42355,1,8,0:0:0:0:
256,192,42589,1,0,0:0:0:0:
256,192,42824,1,8,0:0:0:0:
256,192,43058,1,0,0:0:0:0:
256,192,43293,1,8,0:0:0:0:
256,192,43527,1,0,0:0:0:0:
256,192,43996,1,8,0:0:0:0:
256,192,44230,1,8,0:0:0:0:
256,192,44465,1,0,0:0:0:0:
256,192,44699,1,8,0:0:0:0:
256,192,44933,1,0,0:0:0:0:
256,192,45168,1,8,0:0:0:0:
256,192,45637,1,4,0:0:0:0:
256,192,45871,1,0,0:0:0:0:
256,192,45988,1,0,0:0:0:0:
256,192,46105,1,8,0:0:0:0:
256,192,46340,1,0,0:0:0:0:
256,192,46574,1,0,0:0:0:0:
256,192,46808,1,8,0:0:0:0:
256,192,47512,1,0,0:0:0:0:
256,192,47746,1,0,0:0:0:0:
256,192,47863,1,0,0:0:0:0:
256,192,47980,1,8,0:0:0:0:
256,192,48215,1,0,0:0:0:0:
256,192,48449,1,8,0:0:0:0:
256,192,48683,1,8,0:0:0:0:
256,192,48801,1,0,0:0:0:0:
256,192,48918,1,8,0:0:0:0:
256,192,49152,1,0,0:0:0:0:
256,192,49387,1,0,0:0:0:0:
256,192,49621,1,0,0:0:0:0:
256,192,49738,1,0,0:0:0:0:
256,192,49855,1,8,0:0:0:0:
256,192,50090,1,0,0:0:0:0:
256,192,50324,1,8,0:0:0:0:
256,192,50558,1,8,0:0:0:0:
256,192,50793,1,0,0:0:0:0:
256,192,51027,1,8,0:0:0:0:
256,192,51262,1,8,0:0:0:0:
256,192,51496,12,0,52668,0:0:0:0:
256,192,53137,5,4,0:0:0:0:
256,192,53605,1,0,0:0:0:0:
256,192,53722,1,0,0:0:0:0:
256,192,53840,1,8,0:0:0:0:
256,192,54074,1,8,0:0:0:0:
256,192,54308,1,8,0:0:0:0:
256,192,54543,1,0,0:0:0:0:
256,192,55012,1,0,0:0:0:0:
256,192,55480,1,0,0:0:0:0:
256,192,55597,1,0,0:0:0:0:
256,192,55715,1,8,0:0:0:0:
256,192,55949,1,8,0:0:0:0:
256,192,56183,1,8,0:0:0:0:
256,192,56418,1,0,0:0:0:0:
256,192,56887,1,0,0:0:0:0:
256,192,57355,5,0,0:0:0:0:
256,192,57472,1,0,0:0:0:0:
256,192,57590,1,8,0:0:0:0:
256,192,57824,1,8,0:0:0:0:
256,192,58058,1,8,0:0:0:0:
256,192,58293,1,0,0:0:0:0:
256,192,58762,1,8,0:0:0:0:
256,192,58879,1,8,0:0:0:0:
256,192,58996,1,8,0:0:0:0:
256,192,59230,1,8,0:0:0:0:
256,192,59465,1,0,0:0:0:0:
256,192,59699,1,8,0:0:0:0:
256,192,60168,1,0,0:0:0:0:
256,192,60637,1,4,0:0:0:0:
256,192,61105,1,0,0:0:0:0:
256,192,61222,1,0,0:0:0:0:
256,192,61340,1,8,0:0:0:0:
256,192,61574,1,8,0:0:0:0:
256,192,61808,1,8,0:0:0:0:
256,192,62043,1,0,0:0:0:0:
256,192,62512,1,0,0:0:0:0:
256,192,62980,1,0,0:0:0:0:
256,192,63097,1,0,0:0:0:0:
256,192,63215,1,8,0:0:0:0:
256,192,63449,1,8,0:0:0:0:
256,192,63683,1,8,0:0:0:0:
256,192,63918,1,0,0:0:0:0:
256,192,64387,1,0,0:0:0:0:
256,192,64855,1,0,0:0:0:0:
256,192,64972,1,0,0:0:0:0:
256,192,65090,1,8,0:0:0:0:
256,192,65324,1,8,0:0:0:0:
256,192,65558,1,8,0:0:0:0:
256,192,65793,1,0,0:0:0:0:
256,192,66262,1,0,0:0:0:0:
256,192,66496,1,8,0:0:0:0:
256,192,66730,1,0,0:0:0:0:
256,192,66965,1,0,0:0:0:0:
256,192,67199,1,8,0:0:0:0:
256,192,67668,1,0,0:0:0:0:
256,192,68137,1,12,0:0:0:0:
256,192,68605,1,8,0:0:0:0:
256,192,68840,1,8,0:0:0:0:
256,192,69074,1,8,0:0:0:0:
256,192,69191,1,8,0:0:0:0:
256,192,69308,1,8,0:0:0:0:
256,192,69543,1,8,0:0:0:0:
256,192,70012,1,12,0:0:0:0:
256,192,70246,1,0,0:0:0:0:
256,192,70480,1,8,0:0:0:0:
256,192,70715,1,8,0:0:0:0:
256,192,70832,1,8,0:0:0:0:
256,192,70949,1,0,0:0:0:0:
256,192,71066,1,0,0:0:0:0:
256,192,71183,1,8,0:0:0:0:
256,192,71652,1,0,0:0:0:0:
256,192,71887,1,8,0:0:0:0:
256,192,72121,1,0,0:0:0:0:
256,192,72355,1,8,0:0:0:0:
256,192,72590,1,8,0:0:0:0:
256,192,72707,1,8,0:0:0:0:
256,192,72824,1,0,0:0:0:0:
256,192,72941,1,8,0:0:0:0:
256,192,73058,1,0,0:0:0:0:
256,192,73293,1,8,0:0:0:0:
256,192,73527,1,8,0:0:0:0:
256,192,73762,1,8,0:0:0:0:
256,192,73996,1,8,0:0:0:0:
256,192,74113,1,8,0:0:0:0:
256,192,74230,1,0,0:0:0:0:
256,192,74465,1,0,0:0:0:0:
256,192,74582,1,0,0:0:0:0:
256,192,74699,1,8,0:0:0:0:
256,192,74816,1,0,0:0:0:0:
256,192,74933,1,8,0:0:0:0:
256,192,75168,1,8,0:0:0:0:
256,192,75402,1,8,0:0:0:0:
256,192,75637,1,8,0:0:0:0:
256,192,75754,1,0,0:0:0:0:
256,192,75988,1,8,0:0:0:0:
256,192,76340,1,8,0:0:0:0:
256,192,76691,1,0,0:0:0:0:
256,192,76808,1,8,0:0:0:0:
256,192,77043,1,8,0:0:0:0:
256,192,77512,1,12,0:0:0:0:
256,192,77746,1,8,0:0:0:0:
256,192,78215,1,0,0:0:0:0:
256,192,78449,1,0,0:0:0:0:
256,192,78683,1,8,0:0:0:0:
256,192,79152,1,0,0:0:0:0:
256,192,79387,1,0,0:0:0:0:
256,192,79621,1,0,0:0:0:0:
256,192,80090,1,0,0:0:0:0:
256,192,80324,1,0,0:0:0:0:
256,192,80558,1,8,0:0:0:0:
256,192,81027,1,0,0:0:0:0:
256,192,81262,1,8,0:0:0:0:
256,192,81496,1,0,0:0:0:0:
256,192,81730,1,8,0:0:0:0:
256,192,81965,1,8,0:0:0:0:
256,192,82199,1,8,0:0:0:0:
256,192,82433,1,8,0:0:0:0:
256,192,82668,1,8,0:0:0:0:
256,192,83137,1,4,0:0:0:0:
256,192,83488,1,8,0:0:0:0:
256,192,83605,1,8,0:0:0:0:
256,192,83840,1,0,0:0:0:0:
256,192,84074,1,8,0:0:0:0:
256,192,84191,1,0,0:0:0:0:
256,192,84308,1,0,0:0:0:0:
256,192,84543,1,8,0:0:0:0:
256,192,85012,1,4,0:0:0:0:
256,192,85480,1,8,0:0:0:0:
256,192,85715,1,0,0:0:0:0:
256,192,85793,1,0,0:0:0:0:
256,192,85871,1,0,0:0:0:0:
256,192,85949,1,0,0:0:0:0:
256,192,86183,1,0,0:0:0:0:
256,192,86418,1,8,0:0:0:0:
256,192,86652,1,0,0:0:0:0:
256,192,86887,1,8,0:0:0:0:
256,192,87121,1,8,0:0:0:0:
256,192,87590,1,0,0:0:0:0:
256,192,87707,1,0,0:0:0:0:
256,192,87824,1,8,0:0:0:0:
256,192,88058,1,8,0:0:0:0:
256,192,88293,1,0,0:0:0:0:
256,192,88527,1,0,0:0:0:0:
256,192,88762,1,8,0:0:0:0:
256,192,89230,1,0,0:0:0:0:
256,192,89465,1,8,0:0:0:0:
256,192,89699,1,0,0:0:0:0:
256,192,90168,1,0,0:0:0:0:
256,192,90402,1,8,0:0:0:0:
256,192,90637,1,0,0:0:0:0:
256,192,90871,1,0,0:0:0:0:
256,192,90988,1,0,0:0:0:0:
256,192,91105,1,0,0:0:0:0:
256,192,91340,1,0,0:0:0:0:
256,192,91574,1,0,0:0:0:0:
256,192,91808,1,8,0:0:0:0:
256,192,92043,1,8,0:0:0:0:
256,192,92277,1,0,0:0:0:0:
256,192,92512,1,4,0:0:0:0:
256,192,92746,1,8,0:0:0:0:
256,192,93215,1,0,0:0:0:0:
256,192,93293,1,0,0:0:0:0:
256,192,93371,1,0,0:0:0:0:
256,192,93449,1,0,0:0:0:0:
256,192,93683,1,8,0:0:0:0:
256,192,93918,1,8,0:0:0:0:
256,192,94152,1,0,0:0:0:0:
256,192,94387,1,8,0:0:0:0:
256,192,94621,1,8,0:0:0:0:
256,192,95090,1,8,0:0:0:0:
256,192,95324,1,0,0:0:0:0:
256,192,95441,1,0,0:0:0:0:
256,192,95558,1,8,0:0:0:0:
256,192,95793,1,8,0:0:0:0:
256,192,96262,1,8,0:0:0:0:
256,192,96496,1,0,0:0:0:0:
256,192,96613,1,0,0:0:0:0:
256,192,96730,1,8,0:0:0:0:
256,192,96965,1,8,0:0:0:0:
256,192,97199,1,8,0:0:0:0:
256,192,97433,1,8,0:0:0:0:
256,192,97668,1,0,0:0:0:0:
256,192,97902,1,8,0:0:0:0:
256,192,98137,1,8,0:0:0:0:
256,192,98371,1,0,0:0:0:0:
256,192,98605,1,8,0:0:0:0:
256,192,98840,1,0,0:0:0:0:
256,192,99074,1,8,0:0:0:0:
256,192,99543,1,8,0:0:0:0:
256,192,100012,1,4,0:0:0:0:
256,192,100246,1,0,0:0:0:0:
256,192,100363,1,0,0:0:0:0:
256,192,100480,1,8,0:0:0:0:
256,192,100715,1,8,0:0:0:0:
256,192,100949,1,0,0:0:0:0:
256,192,101183,1,8,0:0:0:0:
256,192,101418,1,8,0:0:0:0:
256,192,102121,1,0,0:0:0:0:
256,192,102355,1,8,0:0:0:0:
256,192,102824,1,8,0:0:0:0:
256,192,103058,1,8,0:0:0:0:
256,192,103176,1,0,0:0:0:0:
256,192,103293,1,8,0:0:0:0:
256,192,103527,1,0,0:0:0:0:
256,192,103762,1,0,0:0:0:0:
256,192,103996,1,0,0:0:0:0:
256,192,104230,1,8,0:0:0:0:
256,192,104465,1,8,0:0:0:0:
256,192,104699,1,0,0:0:0:0:
256,192,104933,1,8,0:0:0:0:
256,192,105168,1,0,0:0:0:0:
256,192,105402,1,8,0:0:0:0:
256,192,105871,1,0,0:0:0:0:
256,192,106105,1,8,0:0:0:0:
256,192,106340,1,8,0:0:0:0:
256,192,106574,1,8,0:0:0:0:
256,192,107043,1,8,0:0:0:0:
256,192,107512,1,4,0:0:0:0:
256,192,107746,1,0,0:0:0:0:
256,192,107863,1,0,0:0:0:0:
256,192,107980,1,8,0:0:0:0:
256,192,108215,1,8,0:0:0:0:
256,192,108449,1,0,0:0:0:0:
256,192,108683,1,8,0:0:0:0:
256,192,108918,1,8,0:0:0:0:
256,192,109387,1,0,0:0:0:0:
256,192,109621,1,8,0:0:0:0:
256,192,109855,1,8,0:0:0:0:
256,192,110090,1,0,0:0:0:0:
256,192,110324,1,8,0:0:0:0:
256,192,110558,1,8,0:0:0:0:
256,192,110676,1,0,0:0:0:0:
256,192,110793,1,8,0:0:0:0:
256,192,111027,1,0,0:0:0:0:
256,192,111262,1,0,0:0:0:0:
256,192,111496,1,0,0:0:0:0:
256,192,111613,1,0,0:0:0:0:
256,192,111730,1,8,0:0:0:0:
256,192,111965,1,8,0:0:0:0:
256,192,112199,1,8,0:0:0:0:
256,192,112433,1,8,0:0:0:0:
256,192,112668,1,0,0:0:0:0:
256,192,112902,1,8,0:0:0:0:
256,192,113137,1,8,0:0:0:0:
256,192,113371,12,0,114543,0:0:0:0:
256,192,115012,5,4,0:0:0:0:
256,192,115480,1,0,0:0:0:0:
256,192,115597,1,0,0:0:0:0:
256,192,115715,1,8,0:0:0:0:
256,192,115949,1,8,0:0:0:0:
256,192,116183,1,8,0:0:0:0:
256,192,116418,1,0,0:0:0:0:
256,192,116887,1,0,0:0:0:0:
256,192,117355,1,0,0:0:0:0:
256,192,117472,1,0,0:0:0:0:
256,192,117590,1,8,0:0:0:0:
256,192,117824,1,8,0:0:0:0:
256,192,118058,1,8,0:0:0:0:
256,192,118293,1,0,0:0:0:0:
256,192,118762,1,0,0:0:0:0:
256,192,119230,1,0,0:0:0:0:
256,192,119347,1,0,0:0:0:0:
256,192,119465,1,8,0:0:0:0:
256,192,119699,1,8,0:0:0:0:
256,192,119933,1,8,0:0:0:0:
256,192,120168,1,0,0:0:0:0:
256,192,120637,1,8,0:0:0:0:
256,192,120754,1,8,0:0:0:0:
256,192,120871,1,8,0:0:0:0:
256,192,121105,1,8,0:0:0:0:
256,192,121340,1,0,0:0:0:0:
256,192,121574,1,8,0:0:0:0:
256,192,122043,1,0,0:0:0:0:
256,192,122512,1,4,0:0:0:0:
256,192,122980,1,0,0:0:0:0:
256,192,123097,1,0,0:0:0:0:
256,192,123215,1,8,0:0:0:0:
256,192,123449,1,8,0:0:0:0:
256,192,123683,1,8,0:0:0:0:
256,192,123918,1,0,0:0:0:0:
256,192,124387,1,0,0:0:0:0:
256,192,124855,1,0,0:0:0:0:
256,192,124972,1,0,0:0:0:0:
256,192,125090,1,8,0:0:0:0:
256,192,125324,1,8,0:0:0:0:
256,192,125558,1,8,0:0:0:0:
256,192,125793,1,0,0:0:0:0:
256,192,126262,1,0,0:0:0:0:
256,192,126730,1,0,0:0:0:0:
256,192,126847,1,0,0:0:0:0:
256,192,126965,1,8,0:0:0:0:
256,192,127199,1,8,0:0:0:0:
256,192,127433,1,8,0:0:0:0:
256,192,127668,1,0,0:0:0:0:
256,192,128137,1,0,0:0:0:0:
256,192,128371,1,8,0:0:0:0:
256,192,128605,1,0,0:0:0:0:
256,192,128840,1,0,0:0:0:0:
256,192,129074,1,8,0:0:0:0:
256,192,129543,1,0,0:0:0:0:
256,192,130012,1,4,0:0:0:0:
256,192,130480,1,8,0:0:0:0:
256,192,130597,1,8,0:0:0:0:
256,192,130715,1,0,0:0:0:0:
256,192,130949,1,8,0:0:0:0:
256,192,131183,1,0,0:0:0:0:
256,192,131418,1,8,0:0:0:0:
256,192,131887,1,0,0:0:0:0:
256,192,132121,1,8,0:0:0:0:
256,192,132238,1,8,0:0:0:0:
256,192,132355,1,0,0:0:0:0:
256,192,132590,1,0,0:0:0:0:
256,192,132824,1,8,0:0:0:0:
256,192,133058,1,0,0:0:0:0:
256,192,133293,1,8,0:0:0:0:
256,192,133762,1,0,0:0:0:0:
256,192,133996,1,0,0:0:0:0:
256,192,134113,1,0,0:0:0:0:
256,192,134230,1,8,0:0:0:0:
256,192,134465,1,0,0:0:0:0:
256,192,134699,1,8,0:0:0:0:
256,192,134933,1,0,0:0:0:0:
256,192,135168,1,8,0:0:0:0:
256,192,135402,1,8,0:0:0:0:
256,192,135637,1,8,0:0:0:0:
256,192,135754,1,8,0:0:0:0:
256,192,135871,1,8,0:0:0:0:
256,192,136105,1,8,0:0:0:0:
256,192,136340,1,0,0:0:0:0:
256,192,136574,1,8,0:0:0:0:
256,192,137043,1,0,0:0:0:0:
256,192,137512,1,4,0:0:0:0:
256,192,137980,1,8,0:0:0:0:
256,192,138097,1,8,0:0:0:0:
256,192,138215,1,0,0:0:0:0:
256,192,138449,1,8,0:0:0:0:
256,192,138683,1,0,0:0:0:0:
256,192,138918,1,8,0:0:0:0:
256,192,139387,1,0,0:0:0:0:
256,192,139621,1,8,0:0:0:0:
256,192,139738,1,8,0:0:0:0:
256,192,139855,1,0,0:0:0:0:
256,192,140090,1,0,0:0:0:0:
256,192,140324,1,8,0:0:0:0:
256,192,140558,1,0,0:0:0:0:
256,192,140793,1,8,0:0:0:0:
256,192,141262,1,0,0:0:0:0:
256,192,141496,1,0,0:0:0:0:
256,192,141613,1,0,0:0:0:0:
256,192,141730,1,8,0:0:0:0:
256,192,141965,1,0,0:0:0:0:
256,192,142199,1,8,0:0:0:0:
256,192,142433,1,0,0:0:0:0:
256,192,142668,1,8,0:0:0:0:
256,192,142902,1,8,0:0:0:0:
256,192,143137,1,0,0:0:0:0:
256,192,143371,1,8,0:0:0:0:
256,192,143605,1,0,0:0:0:0:
256,192,143840,1,0,0:0:0:0:
256,192,144074,1,8,0:0:0:0:
256,192,144543,1,0,0:0:0:0:
256,192,145012,1,4,0:0:0:0:
256,192,147355,1,8,0:0:0:0:
256,192,147824,1,0,0:0:0:0:
256,192,148293,1,8,0:0:0:0:
256,192,148527,1,0,0:0:0:0:
256,192,148644,1,0,0:0:0:0:
256,192,148762,1,8,0:0:0:0:
256,192,148996,1,0,0:0:0:0:
256,192,149113,1,0,0:0:0:0:
256,192,149230,1,8,0:0:0:0:
256,192,149465,1,0,0:0:0:0:
256,192,149582,1,8,0:0:0:0:
256,192,149699,1,0,0:0:0:0:
256,192,149933,1,8,0:0:0:0:
256,192,150051,1,8,0:0:0:0:
256,192,150168,1,0,0:0:0:0:
256,192,150285,1,8,0:0:0:0:
256,192,150519,1,8,0:0:0:0:
256,192,150637,1,0,0:0:0:0:
256,192,150871,1,8,0:0:0:0:
256,192,150988,1,0,0:0:0:0:
256,192,151105,1,8,0:0:0:0:
256,192,151340,1,0,0:0:0:0:
256,192,151457,1,0,0:0:0:0:
256,192,151574,1,8,0:0:0:0:
256,192,151808,1,8,0:0:0:0:
256,192,151926,1,8,0:0:0:0:
256,192,152043,1,8,0:0:0:0:
256,192,152277,1,0,0:0:0:0:
256,192,152512,1,8,0:0:0:0:
256,192,152629,1,8,0:0:0:0:
256,192,152746,1,0,0:0:0:0:
256,192,152863,1,0,0:0:0:0:
256,192,152980,1,8,0:0:0:0:
256,192,153097,1,0,0:0:0:0:
256,192,153215,1,8,0:0:0:0:
256,192,153449,5,8,0:0:0:0:
256,192,153566,1,8,0:0:0:0:
256,192,153683,1,0,0:0:0:0:
256,192,153801,1,8,0:0:0:0:
256,192,153918,1,0,0:0:0:0:
256,192,154035,1,0,0:0:0:0:
256,192,154152,1,8,0:0:0:0:
256,192,154387,1,0,0:0:0:0:
256,192,154621,1,0,0:0:0:0:
256,192,154738,1,0,0:0:0:0:
256,192,154855,1,8,0:0:0:0:
256,192,155090,1,8,0:0:0:0:
256,192,155207,1,0,0:0:0:0:
256,192,155324,1,8,0:0:0:0:
256,192,155441,1,8,0:0:0:0:
256,192,155558,1,0,0:0:0:0:
256,192,155793,1,8,0:0:0:0:
256,192,156027,1,8,0:0:0:0:
256,192,156144,1,0,0:0:0:0:
256,192,156262,1,8,0:0:0:0:
256,192,156379,1,8,0:0:0:0:
256,192,156496,1,0,0:0:0:0:
256,192,156613,1,0,0:0:0:0:
256,192,156730,1,8,0:0:0:0:
256,192,156965,1,8,0:0:0:0:
256,192,157082,1,8,0:0:0:0:
256,192,157199,1,8,0:0:0:0:
256,192,157316,1,0,0:0:0:0:
256,192,157551,1,0,0:0:0:0:
256,192,157668,1,0,0:0:0:0:
256,192,157902,1,0,0:0:0:0:
256,192,158019,1,0,0:0:0:0:
256,192,158137,1,8,0:0:0:0:
256,192,158371,1,0,0:0:0:0:
256,192,158488,1,0,0:0:0:0:
256,192,158606,1,8,0:0:0:0:
256,192,158723,1,8,0:0:0:0:
256,192,158840,1,0,0:0:0:0:
256,192,158957,1,0,0:0:0:0:
256,192,159074,1,8,0:0:0:0:
256,192,159191,1,8,0:0:0:0:
256,192,159308,1,8,0:0:0:0:
256,192,159426,1,8,0:0:0:0:
256,192,159543,1,0,0:0:0:0:
256,192,159660,1,8,0:0:0:0:
256,192,159777,1,0,0:0:0:0:
256,192,159894,1,0,0:0:0:0:
256,192,160012,1,8,0:0:0:0:
256,192,160245,1,0,0:0:0:0:
256,192,160362,1,0,0:0:0:0:
256,192,160479,1,8,0:0:0:0:
256,192,160597,1,8,0:0:0:0:
256,192,160832,1,0,0:0:0:0:
256,192,160949,1,8,0:0:0:0:
256,192,161066,1,8,0:0:0:0:
256,192,161183,1,0,0:0:0:0:
256,192,161301,1,0,0:0:0:0:
256,192,161418,1,8,0:0:0:0:
256,192,161535,1,8,0:0:0:0:
256,192,161652,1,0,0:0:0:0:
256,192,161769,1,0,0:0:0:0:
256,192,161887,1,8,0:0:0:0:
256,192,162004,1,8,0:0:0:0:
256,192,162238,1,0,0:0:0:0:
256,192,162355,1,8,0:0:0:0:
256,192,162472,1,8,0:0:0:0:
256,192,162707,1,0,0:0:0:0:
256,192,162824,1,8,0:0:0:0:
256,192,163176,1,8,0:0:0:0:
256,192,163527,1,0,0:0:0:0:
256,192,163762,1,4,0:0:0:0:
256,192,164465,1,8,0:0:0:0:
256,192,164699,1,0,0:0:0:0:
256,192,165168,1,0,0:0:0:0:
256,192,165246,1,0,0:0:0:0:
256,192,165324,1,0,0:0:0:0:
256,192,165402,1,0,0:0:0:0:
256,192,165637,1,0,0:0:0:0:
256,192,166340,1,8,0:0:0:0:
256,192,166574,1,0,0:0:0:0:
256,192,166691,1,0,0:0:0:0:
256,192,166808,1,8,0:0:0:0:
256,192,167043,1,8,0:0:0:0:
256,192,167512,1,0,0:0:0:0:
256,192,167863,1,8,0:0:0:0:
256,192,167980,1,8,0:0:0:0:
256,192,168215,1,8,0:0:0:0:
256,192,168449,1,0,0:0:0:0:
256,192,168566,1,0,0:0:0:0:
256,192,168683,1,8,0:0:0:0:
256,192,168918,1,8,0:0:0:0:
256,192,169387,1,0,0:0:0:0:
256,192,169621,12,0,170793,0:0:0:0:
256,192,171262,5,4,0:0:0:0:
256,192,171730,1,0,0:0:0:0:
256,192,171847,1,0,0:0:0:0:
256,192,171965,1,8,0:0:0:0:
256,192,172199,1,0,0:0:0:0:
256,192,172433,1,8,0:0:0:0:
256,192,172668,1,8,0:0:0:0:
256,192,172902,1,0,0:0:0:0:
256,192,173137,1,0,0:0:0:0:
256,192,173605,1,0,0:0:0:0:
256,192,173722,1,0,0:0:0:0:
256,192,173840,1,8,0:0:0:0:
256,192,174074,1,0,0:0:0:0:
256,192,174308,1,8,0:0:0:0:
256,192,174543,1,8,0:0:0:0:
256,192,174777,1,0,0:0:0:0:
256,192,175012,1,0,0:0:0:0:
256,192,175715,1,8,0:0:0:0:
256,192,175949,1,0,0:0:0:0:
256,192,176066,1,0,0:0:0:0:
256,192,176183,1,8,0:0:0:0:
256,192,176418,1,8,0:0:0:0:
256,192,176652,1,8,0:0:0:0:
256,192,176887,1,8,0:0:0:0:
256,192,177004,1,8,0:0:0:0:
256,192,177121,1,8,0:0:0:0:
256,192,177355,1,8,0:0:0:0:
256,192,177590,1,0,0:0:0:0:
256,192,177824,1,8,0:0:0:0:
256,192,178293,1,0,0:0:0:0:
256,192,178762,1,4,0:0:0:0:
256,192,179230,1,8,0:0:0:0:
256,192,179465,1,8,0:0:0:0:
256,192,179699,1,0,0:0:0:0:
256,192,179933,1,0,0:0:0:0:
256,192,180051,1,0,0:0:0:0:
256,192,180168,1,8,0:0:0:0:
256,192,180402,1,0,0:0:0:0:
256,192,180637,1,0,0:0:0:0:
256,192,181105,1,8,0:0:0:0:
256,192,181340,1,8,0:0:0:0:
256,192,181574,1,0,0:0:0:0:
256,192,181808,1,0,0:0:0:0:
256,192,181926,1,0,0:0:0:0:
256,192,182043,1,8,0:0:0:0:
256,192,182277,1,0,0:0:0:0:
256,192,182512,1,0,0:0:0:0:
256,192,182980,1,8,0:0:0:0:
256,192,183215,1,8,0:0:0:0:
256,192,183449,1,0,0:0:0:0:
256,192,183683,1,0,0:0:0:0:
256,192,183801,1,0,0:0:0:0:
256,192,183918,1,8,0:0:0:0:
256,192,184152,1,0,0:0:0:0:
256,192,184387,1,0,0:0:0:0:
256,192,184621,1,8,0:0:0:0:
256,192,184855,1,0,0:0:0:0:
256,192,185090,1,0,0:0:0:0:
256,192,185324,1,8,0:0:0:0:
256,192,185793,1,0,0:0:0:0:
256,192,186262,1,4,0:0:0:0:
256,192,186730,1,8,0:0:0:0:
256,192,186847,1,8,0:0:0:0:
256,192,186965,1,0,0:0:0:0:
256,192,187199,1,8,0:0:0:0:
256,192,187433,1,0,0:0:0:0:
256,192,187668,1,8,0:0:0:0:
256,192,188137,1,0,0:0:0:0:
256,192,188371,1,8,0:0:0:0:
256,192,188488,1,8,0:0:0:0:
256,192,188605,1,0,0:0:0:0:
256,192,188840,1,0,0:0:0:0:
256,192,189074,1,8,0:0:0:0:
256,192,189308,1,0,0:0:0:0:
256,192,189543,1,8,0:0:0:0:
256,192,190012,1,0,0:0:0:0:
256,192,190246,1,0,0:0:0:0:
256,192,190363,1,0,0:0:0:0:
256,192,190480,1,8,0:0:0:0:
256,192,190715,1,0,0:0:0:0:
256,192,190949,1,8,0:0:0:0:
256,192,191183,1,0,0:0:0:0:
256,192,191418,1,8,0:0:0:0:
256,192,191652,1,8,0:0:0:0:
256,192,191887,1,8,0:0:0:0:
256,192,192004,1,8,0:0:0:0:
256,192,192121,1,8,0:0:0:0:
256,192,192355,1,8,0:0:0:0:
256,192,192590,1,0,0:0:0:0:
256,192,192824,1,8,0:0:0:0:
256,192,193293,1,0,0:0:0:0:
256,192,193762,1,4,0:0:0:0:
256,192,194230,1,8,0:0:0:0:
256,192,194347,1,8,0:0:0:0:
256,192,194465,1,0,0:0:0:0:
256,192,194699,1,8,0:0:0:0:
256,192,194933,1,0,0:0:0:0:
256,192,195168,1,8,0:0:0:0:
256,192,195637,1,0,0:0:0:0:
256,192,195871,1,8,0:0:0:0:
256,192,195988,1,8,0:0:0:0:
256,192,196105,1,0,0:0:0:0:
256,192,196340,1,0,0:0:0:0:
256,192,196574,1,8,0:0:0:0:
256,192,196808,1,0,0:0:0:0:
256,192,197043,1,8,0:0:0:0:
256,192,197512,1,0,0:0:0:0:
256,192,197746,1,0,0:0:0:0:
256,192,197863,1,0,0:0:0:0:
256,192,197980,1,8,0:0:0:0:
256,192,198215,1,0,0:0:0:0:
256,192,198449,1,8,0:0:0:0:
256,192,198683,1,0,0:0:0:0:
256,192,198918,1,8,0:0:0:0:
256,192,199152,1,8,0:0:0:0:
256,192,199387,1,0,0:0:0:0:
256,192,199621,1,8,0:0:0:0:
256,192,199855,1,0,0:0:0:0:
256,192,200090,1,0,0:0:0:0:
256,192,200324,1,8,0:0:0:0:
256,192,200793,1,0,0:0:0:0:
256,192,201262,1,12,0:0:0:0:
256,192,201730,1,0,0:0:0:0:
256,192,201965,1,8,0:0:0:0:
256,192,202199,1,0,0:0:0:0:
256,192,202433,1,8,0:0:0:0:
256,192,202668,1,8,0:0:0:0:
256,192,203137,1,8,0:0:0:0:
256,192,203605,1,8,0:0:0:0:
256,192,203840,1,8,0:0:0:0:
256,192,204308,1,8,0:0:0:0:
256,192,204543,1,8,0:0:0:0:
256,192,205012,1,8,0:0:0:0:
256,192,205363,1,8,0:0:0:0:
256,192,205480,1,8,0:0:0:0:
256,192,205715,1,8,0:0:0:0:
256,192,205949,1,8,0:0:0:0:
256,192,206066,1,8,0:0:0:0:
256,192,206183,1,8,0:0:0:0:
256,192,206418,1,8,0:0:0:0:
256,192,206887,1,8,0:0:0:0:
256,192,207004,1,8,0:0:0:0:
256,192,207121,1,8,0:0:0:0:
256,192,207355,1,8,0:0:0:0:
256,192,207590,1,0,0:0:0:0:
256,192,207824,1,8,0:0:0:0:
256,192,208293,1,0,0:0:0:0:
256,192,208762,1,12,0:0:0:0:
256,192,209230,1,0,0:0:0:0:
256,192,209465,1,8,0:0:0:0:
256,192,209699,1,0,0:0:0:0:
256,192,209933,1,8,0:0:0:0:
256,192,210168,1,8,0:0:0:0:
256,192,210637,1,8,0:0:0:0:
256,192,211105,1,8,0:0:0:0:
256,192,211340,1,8,0:0:0:0:
256,192,211808,1,8,0:0:0:0:
256,192,212043,1,8,0:0:0:0:
256,192,212512,1,8,0:0:0:0:
256,192,212863,1,8,0:0:0:0:
256,192,212980,1,8,0:0:0:0:
256,192,213215,1,8,0:0:0:0:
256,192,213449,1,8,0:0:0:0:
256,192,213566,1,8,0:0:0:0:
256,192,213683,1,8,0:0:0:0:
256,192,213918,1,8,0:0:0:0:
256,192,214387,1,0,0:0:0:0:
256,192,214621,1,8,0:0:0:0:
256,192,214855,1,0,0:0:0:0:
256,192,215090,1,0,0:0:0:0:
256,192,215324,1,8,0:0:0:0:
256,192,215793,1,0,0:0:0:0:
256,192,216262,1,4,0:0:0:0:
