osu file format v14

[General]
AudioFilename: audio.mp3
AudioLeadIn: 0
PreviewTime: 51496
Countdown: 0
SampleSet: Normal
StackLeniency: 0.7
Mode: 1
LetterboxInBreaks: 0
WidescreenStoryboard: 1

[Editor]
DistanceSpacing: 0.5
BeatDivisor: 2
GridSize: 32
TimelineZoom: 1

[Metadata]
Title:Give me a break Stop now
TitleUnicode:ギミアブレスタッナウ
Artist:REOL
ArtistUnicode:れをる
Creator:Alepat
Version:Futsuu
Source:
Tags:Σ Sigma ギガ giga お菊 okiku Toshitaka Shinoda Amana Ijigen
BeatmapID:1159782
BeatmapSetID:547558

[Difficulty]
HPDrainRate:5
CircleSize:5
OverallDifficulty:4
ApproachRate:4
SliderMultiplier:1.4
SliderTickRate:1

[Events]
//Background and Video events
0,0,"bg.jpg",0,120
//Break Periods
//Storyboard Layer 0 (Background)
//Storyboard Layer 1 (Fail)
//Storyboard Layer 2 (Pass)
//Storyboard Layer 3 (Foreground)
//Storyboard Sound Samples

[TimingPoints]
637,468.75,4,1,0,70,1,0
38137,-108.695652173913,4,1,0,40,0,0
39074,-119.047619047619,4,1,0,40,0,0
40012,-131.578947368421,4,1,0,40,0,0
44699,-119.047619047619,4,1,0,50,0,0
45168,-108.695652173913,4,1,0,60,0,0
45637,-100,4,1,0,70,0,0
53137,-100,4,1,0,70,0,1
68137,-100,4,1,0,70,0,0
100012,-108.695652173913,4,1,0,40,0,0
100949,-119.047619047619,4,1,0,40,0,0
101887,-131.578947368421,4,1,0,40,0,0
106574,-119.047619047619,4,1,0,50,0,0
107043,-108.695652173913,4,1,0,60,0,0
107512,-100,4,1,0,70,0,0
115012,-100,4,1,0,70,0,1
145012,-100,4,1,0,70,0,0
164699,-131.578947368421,4,1,0,60,0,0
171262,-100,4,1,0,70,0,1
201262,-100,4,1,0,70,0,0

[HitObjects]
256,192,637,5,0,0:0:0:0:
256,192,1574,1,8,0:0:0:0:
256,192,2512,1,0,0:0:0:0:
256,192,3449,1,8,0:0:0:0:
256,192,3918,1,8,0:0:0:0:
256,192,4387,1,0,0:0:0:0:
256,192,5324,1,8,0:0:0:0:
256,192,6262,1,0,0:0:0:0:
256,192,6730,1,0,0:0:0:0:
256,192,7668,1,0,0:0:0:0:
256,192,8137,1,4,0:0:0:0:
256,192,8605,1,8,0:0:0:0:
256,192,9074,1,0,0:0:0:0:
256,192,10012,1,0,0:0:0:0:
256,192,10480,1,8,0:0:0:0:
256,192,10949,1,0,0:0:0:0:
256,192,11887,1,0,0:0:0:0:
256,192,12824,1,0,0:0:0:0:
256,192,13293,1,8,0:0:0:0:
256,192,13762,1,0,0:0:0:0:
256,192,14230,1,8,0:0:0:0:
256,192,14465,1,8,0:0:0:0:
256,192,14699,1,8,0:0:0:0:
256,192,15168,1,0,0:0:0:0:
256,192,15637,1,4,0:0:0:0:
256,192,16574,1,0,0:0:0:0:
256,192,17043,1,0,0:0:0:0:
256,192,17277,1,0,0:0:0:0:
256,192,17512,1,8,0:0:0:0:
256,192,17980,1,8,0:0:0:0:
256,192,18449,1,8,0:0:0:0:
256,192,18918,1,0,0:0:0:0:
256,192,19387,1,8,0:0:0:0:
256,192,19855,1,0,0:0:0:0:
256,192,20090,1,0,0:0:0:0:
256,192,20324,1,8,0:0:0:0:
256,192,21027,1,8,0:0:0:0:
256,192,21262,1,8,0:0:0:0:
256,192,21730,1,0,0:0:0:0:
256,192,22199,1,8,0:0:0:0:
256,192,22668,1,8,0:0:0:0:
256,192,23137,1,4,0:0:0:0:
256,192,24074,1,0,0:0:0:0:
256,192,24543,1,0,0:0:0:0:
256,192,25012,1,8,0:0:0:0:
256,192,25246,1,8,0:0:0:0:
256,192,25949,1,0,0:0:0:0:
256,192,26418,1,0,0:0:0:0:
256,192,26887,1,8,0:0:0:0:
256,192,27355,1,0,0:0:0:0:
256,192,27590,1,0,0:0:0:0:
256,192,27824,1,8,0:0:0:0:
256,192,28293,1,0,0:0:0:0:
256,192,28527,1,0,0:0:0:0:
256,192,28762,1,8,0:0:0:0:
256,192,29230,1,0,0:0:0:0:
256,192,29699,1,8,0:0:0:0:
256,192,30168,1,8,0:0:0:0:
256,192,30637,1,4,0:0:0:0:
256,192,31574,1,0,0:0:0:0:
256,192,32043,1,0,0:0:0:0:
256,192,32511,1,8,0:0:0:0:
256,192,32746,1,8,0:0:0:0:
256,192,33449,1,0,0:0:0:0:
256,192,33918,1,0,0:0:0:0:
256,192,34387,1,8,0:0:0:0:
256,192,34855,5,0,0:0:0:0:
256,192,35090,1,0,0:0:0:0:
256,192,35324,1,8,0:0:0:0:
256,192,35793,1,0,0:0:0:0:
256,192,36262,1,12,0:0:0:0:
256,192,36730,1,12,0:0:0:0:
256,192,37199,1,12,0:0:0:0:
256,192,38137,1,4,0:0:0:0:
256,192,39074,1,0,0:0:0:0:
256,192,40012,1,0,0:0:0:0:
256,192,40949,1,0,0:0:0:0:
256,192,41887,1,0,0:0:0:0:
256,192,42355,1,8,0:0:0:0:
256,192,42824,1,8,0:0:0:0:
256,192,43293,1,8,0:0:0:0:
256,192,44230,1,8,0:0:0:0:
256,192,44699,1,8,0:0:0:0:
256,192,45168,1,8,0:0:0:0:
256,192,45637,1,4,0:0:0:0:
256,192,46105,1,8,0:0:0:0:
256,192,46574,1,0,0:0:0:0:
256,192,47043,1,8,0:0:0:0:
256,192,47512,1,0,0:0:0:0:
256,192,47980,1,8,0:0:0:0:
256,192,48449,1,8,0:0:0:0:
256,192,49387,1,0,0:0:0:0:
256,192,49855,1,8,0:0:0:0:
256,192,50090,1,8,0:0:0:0:
256,192,50324,1,8,0:0:0:0:
256,192,50793,1,8,0:0:0:0:
256,192,51262,1,0,0:0:0:0:
256,192,51730,12,4,52668,0:0:0:0:
256,192,53137,5,4,0:0:0:0:
256,192,53840,1,8,0:0:0:0:
256,192,54308,1,8,0:0:0:0:
256,192,54777,1,8,0:0:0:0:
256,192,55012,1,0,0:0:0:0:
256,192,55715,1,8,0:0:0:0:
256,192,56183,1,8,0:0:0:0:
256,192,56652,1,8,0:0:0:0:
256,192,56887,1,0,0:0:0:0:
256,192,57590,1,8,0:0:0:0:
256,192,58058,1,8,0:0:0:0:
256,192,58527,1,8,0:0:0:0:
256,192,58762,1,8,0:0:0:0:
256,192,59699,1,8,0:0:0:0:
256,192,60637,1,4,0:0:0:0:
256,192,61340,1,8,0:0:0:0:
256,192,61808,1,8,0:0:0:0:
256,192,62277,1,8,0:0:0:0:
256,192,62512,1,0,0:0:0:0:
256,192,63215,1,8,0:0:0:0:
256,192,63683,1,8,0:0:0:0:
256,192,64152,1,8,0:0:0:0:
256,192,64387,1,0,0:0:0:0:
256,192,65090,1,8,0:0:0:0:
256,192,65558,1,8,0:0:0:0:
256,192,66027,1,8,0:0:0:0:
256,192,66262,1,0,0:0:0:0:
256,192,67199,1,8,0:0:0:0:
256,192,68137,1,4,0:0:0:0:
256,192,69074,1,8,0:0:0:0:
256,192,69543,1,8,0:0:0:0:
256,192,70012,1,12,0:0:0:0:
256,192,70480,1,8,0:0:0:0:
256,192,70949,1,8,0:0:0:0:
256,192,71652,1,8,0:0:0:0:
256,192,71887,1,8,0:0:0:0:
256,192,72355,1,8,0:0:0:0:
256,192,72824,1,8,0:0:0:0:
256,192,73293,1,8,0:0:0:0:
256,192,73527,1,0,0:0:0:0:
256,192,73762,1,8,0:0:0:0:
256,192,74230,1,8,0:0:0:0:
256,192,74699,1,0,0:0:0:0:
256,192,74933,1,0,0:0:0:0:
256,192,75168,1,8,0:0:0:0:
256,192,75637,1,0,0:0:0:0:
256,192,76105,1,8,0:0:0:0:
256,192,77043,1,8,0:0:0:0:
256,192,77512,1,12,0:0:0:0:
256,192,78449,1,0,0:0:0:0:
256,192,78683,1,8,0:0:0:0:
256,192,79387,1,0,0:0:0:0:
256,192,79621,1,0,0:0:0:0:
256,192,80324,1,0,0:0:0:0:
256,192,80558,1,8,0:0:0:0:
256,192,81262,1,0,0:0:0:0:
256,192,81730,1,0,0:0:0:0:
256,192,82199,1,8,0:0:0:0:
256,192,82668,1,8,0:0:0:0:
256,192,83137,1,4,0:0:0:0:
256,192,83605,1,8,0:0:0:0:
256,192,84074,1,0,0:0:0:0:
256,192,84308,1,0,0:0:0:0:
256,192,84543,1,8,0:0:0:0:
256,192,85012,1,4,0:0:0:0:
256,192,85949,1,0,0:0:0:0:
256,192,86418,1,8,0:0:0:0:
256,192,86887,1,8,0:0:0:0:
256,192,87120,1,8,0:0:0:0:
256,192,87824,1,0,0:0:0:0:
256,192,88293,1,8,0:0:0:0:
256,192,88762,1,0,0:0:0:0:
256,192,89230,1,0,0:0:0:0:
256,192,89465,1,8,0:0:0:0:
256,192,89699,1,0,0:0:0:0:
256,192,90168,1,0,0:0:0:0:
256,192,90402,1,8,0:0:0:0:
256,192,90637,1,0,0:0:0:0:
256,192,91105,1,0,0:0:0:0:
256,192,91574,1,0,0:0:0:0:
256,192,92043,1,8,0:0:0:0:
256,192,92512,1,4,0:0:0:0:
256,192,93449,1,0,0:0:0:0:
256,192,93918,1,8,0:0:0:0:
256,192,94387,1,8,0:0:0:0:
256,192,94621,1,8,0:0:0:0:
256,192,95324,1,0,0:0:0:0:
256,192,95793,1,8,0:0:0:0:
256,192,96262,1,8,0:0:0:0:
256,192,96730,1,8,0:0:0:0:
256,192,96965,1,8,0:0:0:0:
256,192,97199,1,8,0:0:0:0:
256,192,97668,1,8,0:0:0:0:
256,192,98137,1,12,0:0:0:0:
256,192,98605,1,12,0:0:0:0:
256,192,99074,1,12,0:0:0:0:
256,192,100012,1,4,0:0:0:0:
256,192,100949,1,0,0:0:0:0:
256,192,101887,1,0,0:0:0:0:
256,192,102824,1,0,0:0:0:0:
256,192,103762,1,0,0:0:0:0:
256,192,104230,1,8,0:0:0:0:
256,192,104699,1,0,0:0:0:0:
256,192,105168,1,0,0:0:0:0:
256,192,106105,1,8,0:0:0:0:
256,192,106574,1,8,0:0:0:0:
256,192,107043,1,8,0:0:0:0:
256,192,107512,1,4,0:0:0:0:
256,192,107980,1,8,0:0:0:0:
256,192,108449,1,0,0:0:0:0:
256,192,108918,1,8,0:0:0:0:
256,192,109387,1,0,0:0:0:0:
256,192,109855,1,8,0:0:0:0:
256,192,110324,1,8,0:0:0:0:
256,192,111262,1,0,0:0:0:0:
256,192,111730,1,8,0:0:0:0:
256,192,111965,1,8,0:0:0:0:
256,192,112199,1,8,0:0:0:0:
256,192,112668,1,8,0:0:0:0:
256,192,113137,1,0,0:0:0:0:
256,192,113605,12,4,114543,0:0:0:0:
256,192,115012,5,4,0:0:0:0:
256,192,115715,1,8,0:0:0:0:
256,192,116183,1,8,0:0:0:0:
256,192,116652,1,8,0:0:0:0:
256,192,116887,1,0,0:0:0:0:
256,192,117590,1,8,0:0:0:0:
256,192,118058,1,8,0:0:0:0:
256,192,118527,1,8,0:0:0:0:
256,192,118762,1,0,0:0:0:0:
256,192,119465,1,8,0:0:0:0:
256,192,119933,1,8,0:0:0:0:
256,192,120402,1,8,0:0:0:0:
256,192,120637,1,8,0:0:0:0:
256,192,121574,1,8,0:0:0:0:
256,192,122512,1,0,0:0:0:0:
256,192,123215,1,8,0:0:0:0:
256,192,123683,1,8,0:0:0:0:
256,192,124152,1,8,0:0:0:0:
256,192,124387,1,0,0:0:0:0:
256,192,125090,1,8,0:0:0:0:
256,192,125558,1,8,0:0:0:0:
256,192,126027,1,8,0:0:0:0:
256,192,126262,1,0,0:0:0:0:
256,192,126965,1,8,0:0:0:0:
256,192,127433,1,8,0:0:0:0:
256,192,127902,1,8,0:0:0:0:
256,192,128137,1,0,0:0:0:0:
256,192,129074,1,8,0:0:0:0:
256,192,130012,1,4,0:0:0:0:
256,192,130480,1,8,0:0:0:0:
256,192,130715,1,8,0:0:0:0:
256,192,130949,1,8,0:0:0:0:
256,192,131418,1,8,0:0:0:0:
256,192,131887,1,0,0:0:0:0:
256,192,132355,1,8,0:0:0:0:
256,192,132590,1,8,0:0:0:0:
256,192,132824,1,8,0:0:0:0:
256,192,133293,1,8,0:0:0:0:
256,192,133762,1,0,0:0:0:0:
256,192,134230,1,8,0:0:0:0:
256,192,134465,1,8,0:0:0:0:
256,192,134699,1,8,0:0:0:0:
256,192,135168,1,8,0:0:0:0:
256,192,135637,1,8,0:0:0:0:
256,192,136574,1,8,0:0:0:0:
256,192,137512,1,4,0:0:0:0:
256,192,137980,1,8,0:0:0:0:
256,192,138215,1,8,0:0:0:0:
256,192,138449,1,8,0:0:0:0:
256,192,138918,1,8,0:0:0:0:
256,192,139387,1,0,0:0:0:0:
256,192,139855,1,8,0:0:0:0:
256,192,140090,1,8,0:0:0:0:
256,192,140324,1,8,0:0:0:0:
256,192,140793,1,8,0:0:0:0:
256,192,141262,1,0,0:0:0:0:
256,192,141730,1,8,0:0:0:0:
256,192,142199,1,8,0:0:0:0:
256,192,142668,1,8,0:0:0:0:
256,192,142902,1,8,0:0:0:0:
256,192,143137,1,0,0:0:0:0:
256,192,144074,1,8,0:0:0:0:
256,192,145012,1,4,0:0:0:0:
256,192,147355,1,8,0:0:0:0:
256,192,147824,1,0,0:0:0:0:
256,192,148293,1,8,0:0:0:0:
256,192,148762,1,0,0:0:0:0:
256,192,149230,1,0,0:0:0:0:
256,192,149465,1,8,0:0:0:0:
256,192,149699,1,0,0:0:0:0:
256,192,150637,1,0,0:0:0:0:
256,192,151105,1,0,0:0:0:0:
256,192,151340,1,8,0:0:0:0:
256,192,151574,1,0,0:0:0:0:
256,192,152043,1,8,0:0:0:0:
256,192,152512,1,4,0:0:0:0:
256,192,152980,1,0,0:0:0:0:
256,192,153215,1,8,0:0:0:0:
256,192,153449,1,0,0:0:0:0:
256,192,154387,1,0,0:0:0:0:
256,192,154855,1,0,0:0:0:0:
256,192,155090,1,8,0:0:0:0:
256,192,155324,1,0,0:0:0:0:
256,192,155793,1,8,0:0:0:0:
256,192,156262,1,4,0:0:0:0:
256,192,156730,1,8,0:0:0:0:
256,192,157199,1,0,0:0:0:0:
256,192,158137,1,0,0:0:0:0:
256,192,158605,1,0,0:0:0:0:
256,192,158840,1,8,0:0:0:0:
256,192,159074,1,0,0:0:0:0:
256,192,159543,1,8,0:0:0:0:
256,192,160012,1,0,0:0:0:0:
256,192,160480,1,8,0:0:0:0:
256,192,160949,1,8,0:0:0:0:
256,192,161418,1,8,0:0:0:0:
256,192,161652,1,0,0:0:0:0:
256,192,161887,1,8,0:0:0:0:
256,192,162355,1,8,0:0:0:0:
256,192,162824,1,12,0:0:0:0:
256,192,163293,1,12,0:0:0:0:
256,192,163762,1,4,0:0:0:0:
256,192,164699,1,0,0:0:0:0:
256,192,165637,1,0,0:0:0:0:
256,192,166340,1,8,0:0:0:0:
256,192,167043,1,8,0:0:0:0:
256,192,167512,1,0,0:0:0:0:
256,192,168215,1,8,0:0:0:0:
256,192,168918,1,8,0:0:0:0:
256,192,169387,1,0,0:0:0:0:
256,192,169855,12,4,170793,0:0:0:0:
256,192,171262,5,4,0:0:0:0:
256,192,171965,1,8,0:0:0:0:
256,192,172433,1,8,0:0:0:0:
256,192,172902,1,8,0:0:0:0:
256,192,173137,1,0,0:0:0:0:
256,192,173840,1,8,0:0:0:0:
256,192,174543,1,8,0:0:0:0:
256,192,175012,1,0,0:0:0:0:
256,192,175480,1,8,0:0:0:0:
256,192,175949,1,8,0:0:0:0:
256,192,176183,1,8,0:0:0:0:
256,192,176418,1,8,0:0:0:0:
256,192,176887,1,8,0:0:0:0:
256,192,177824,1,8,0:0:0:0:
256,192,178762,1,4,0:0:0:0:
256,192,179465,1,8,0:0:0:0:
256,192,179933,1,8,0:0:0:0:
256,192,180402,1,8,0:0:0:0:
256,192,180637,1,0,0:0:0:0:
256,192,181340,1,8,0:0:0:0:
256,192,181808,1,8,0:0:0:0:
256,192,182277,1,8,0:0:0:0:
256,192,182512,1,0,0:0:0:0:
256,192,183215,1,8,0:0:0:0:
256,192,183683,1,8,0:0:0:0:
256,192,184152,1,8,0:0:0:0:
256,192,184387,1,0,0:0:0:0:
256,192,185324,1,8,0:0:0:0:
256,192,186262,1,4,0:0:0:0:
256,192,186730,1,8,0:0:0:0:
256,192,186965,1,8,0:0:0:0:
256,192,187199,1,8,0:0:0:0:
256,192,187668,1,8,0:0:0:0:
256,192,188137,1,0,0:0:0:0:
256,192,188605,1,8,0:0:0:0:
256,192,188840,1,8,0:0:0:0:
256,192,189074,1,8,0:0:0:0:
256,192,189543,1,8,0:0:0:0:
256,192,190012,1,0,0:0:0:0:
256,192,190480,1,8,0:0:0:0:
256,192,190949,1,8,0:0:0:0:
256,192,191183,1,8,0:0:0:0:
256,192,191418,1,8,0:0:0:0:
256,192,191887,1,8,0:0:0:0:
256,192,192824,1,8,0:0:0:0:
256,192,193762,1,4,0:0:0:0:
256,192,194230,1,8,0:0:0:0:
256,192,194465,1,8,0:0:0:0:
256,192,194699,1,8,0:0:0:0:
256,192,195168,1,8,0:0:0:0:
256,192,195637,1,0,0:0:0:0:
256,192,196105,1,8,0:0:0:0:
256,192,196340,1,8,0:0:0:0:
256,192,196574,1,8,0:0:0:0:
256,192,197043,1,8,0:0:0:0:
256,192,197512,1,0,0:0:0:0:
256,192,197980,1,8,0:0:0:0:
256,192,198449,1,8,0:0:0:0:
256,192,198918,1,8,0:0:0:0:
256,192,199152,1,8,0:0:0:0:
256,192,199387,1,0,0:0:0:0:
256,192,200324,1,8,0:0:0:0:
256,192,201262,1,12,0:0:0:0:
256,192,201965,1,8,0:0:0:0:
256,192,202433,1,8,0:0:0:0:
256,192,202668,1,8,0:0:0:0:
256,192,203137,1,8,0:0:0:0:
256,192,203605,1,8,0:0:0:0:
256,192,203840,1,8,0:0:0:0:
256,192,204308,1,8,0:0:0:0:
256,192,204543,1,8,0:0:0:0:
256,192,205012,1,8,0:0:0:0:
256,192,205480,1,8,0:0:0:0:
256,192,205715,1,8,0:0:0:0:
256,192,206183,1,8,0:0:0:0:
256,192,206418,1,8,0:0:0:0:
256,192,206887,1,8,0:0:0:0:
256,192,207824,1,8,0:0:0:0:
256,192,208762,1,12,0:0:0:0:
256,192,209465,1,8,0:0:0:0:
256,192,209933,1,8,0:0:0:0:
256,192,210168,1,8,0:0:0:0:
256,192,210637,1,8,0:0:0:0:
256,192,211105,1,8,0:0:0:0:
256,192,211340,1,8,0:0:0:0:
256,192,211808,1,8,0:0:0:0:
256,192,212043,1,8,0:0:0:0:
256,192,212512,1,8,0:0:0:0:
256,192,212980,1,8,0:0:0:0:
256,192,213215,1,8,0:0:0:0:
256,192,213683,1,8,0:0:0:0:
256,192,213918,1,8,0:0:0:0:
256,192,214387,1,0,0:0:0:0:
256,192,215324,1,8,0:0:0:0:
256,192,216262,1,4,0:0:0:0:
