osu file format v14

[General]
AudioFilename: audio.mp3
AudioLeadIn: 0
PreviewTime: 43522
Countdown: 0
SampleSet: Normal
StackLeniency: 0.2
Mode: 1
LetterboxInBreaks: 0
WidescreenStoryboard: 0

[Editor]
Bookmarks: 14545,29090,42727,43636,58181,72727,80000,94545,108181,109090,123636,138181,152727,166363,167272,181818,196363
DistanceSpacing: 0.1
BeatDivisor: 2
GridSize: 8
TimelineZoom: 0.6

[Metadata]
Title:Echo
TitleUnicode:Echo
Artist:REOL
ArtistUnicode:REOL
Creator:Remus
Version:Muzukashii
Source:
Tags:saxarok electronic english j-pop giga-p
BeatmapID:2546619
BeatmapSetID:829599

[Difficulty]
HPDrainRate:6
CircleSize:2
OverallDifficulty:2.5
ApproachRate:10
SliderMultiplier:1.4
SliderTickRate:1

[Events]
//Background and Video events
0,0,"bg.jpg",0,125
//Break Periods
2,164745,166822
//Storyboard Layer 0 (Background)
//Storyboard Layer 1 (Fail)
//Storyboard Layer 2 (Pass)
//Storyboard Layer 3 (Foreground)
//Storyboard Layer 4 (Overlay)
//Storyboard Sound Samples

[TimingPoints]
0,454.545454545455,4,1,0,100,1,0
43636,-100,4,1,0,100,0,1
57272,-100,4,1,0,100,0,0
58181,-100,4,1,0,100,0,1
72727,-100,4,1,0,100,0,0
109090,-100,4,1,0,100,0,1
122727,-100,4,1,0,100,0,0
123636,-100,4,1,0,100,0,1
138181,-100,4,1,0,100,0,0
167272,-100,4,1,0,100,0,1
180909,-100,4,1,0,100,0,0
181818,-100,4,1,0,100,0,1
196363,-100,4,1,0,100,0,0

[Colours]
Combo1 : 229,229,229
Combo2 : 0,174,174
Combo3 : 0,125,125
Combo4 : 0,0,138

[HitObjects]
256,192,0,5,0,0:0:0:0:
256,192,909,1,8,0:0:0:0:
256,192,1818,1,0,0:0:0:0:
256,192,2727,1,8,0:0:0:0:
256,192,3636,1,0,0:0:0:0:
256,192,4545,1,8,0:0:0:0:
256,192,5454,1,0,0:0:0:0:
256,192,6136,1,0,0:0:0:0:
256,192,6363,1,8,0:0:0:0:
256,192,7272,1,0,0:0:0:0:
256,192,8181,1,8,0:0:0:0:
256,192,9090,1,0,0:0:0:0:
256,192,10000,1,8,0:0:0:0:
256,192,10909,1,0,0:0:0:0:
256,192,11818,1,8,0:0:0:0:
256,192,12727,1,0,0:0:0:0:
256,192,13409,1,8,0:0:0:0:
256,192,13636,1,0,0:0:0:0:
256,192,14545,1,0,0:0:0:0:
256,192,15454,1,8,0:0:0:0:
256,192,15909,1,8,0:0:0:0:
256,192,16363,1,0,0:0:0:0:
256,192,17272,1,8,0:0:0:0:
256,192,17727,1,8,0:0:0:0:
256,192,18181,1,0,0:0:0:0:
256,192,19090,1,8,0:0:0:0:
256,192,19545,1,0,0:0:0:0:
256,192,20000,1,0,0:0:0:0:
256,192,20681,1,0,0:0:0:0:
256,192,20909,1,8,0:0:0:0:
256,192,21818,1,0,0:0:0:0:
256,192,22727,1,8,0:0:0:0:
256,192,23181,1,8,0:0:0:0:
256,192,23636,1,0,0:0:0:0:
248,192,24545,1,8,0:0:0:0:
256,200,25000,1,8,0:0:0:0:
256,200,25454,1,0,0:0:0:0:
256,208,26363,1,8,0:0:0:0:
256,208,26818,1,0,0:0:0:0:
256,208,27272,1,8,0:0:0:0:
256,208,27954,1,0,0:0:0:0:
256,208,28181,1,8,0:0:0:0:
264,192,28636,1,0,0:0:0:0:
264,192,29090,1,8,0:0:0:0:
256,192,29772,1,0,0:0:0:0:
256,192,30000,1,8,0:0:0:0:
256,192,30681,1,8,0:0:0:0:
256,192,30909,1,0,0:0:0:0:
256,192,31590,1,0,0:0:0:0:
256,192,31818,1,8,0:0:0:0:
256,192,32500,1,0,0:0:0:0:
256,192,32727,1,0,0:0:0:0:
256,192,33409,1,0,0:0:0:0:
256,192,33636,1,8,0:0:0:0:
256,192,34318,1,0,0:0:0:0:
256,192,34545,1,0,0:0:0:0:
256,192,35227,1,0,0:0:0:0:
256,192,35454,1,8,0:0:0:0:
256,192,35909,1,8,0:0:0:0:
256,192,36363,1,0,0:0:0:0:
256,192,36590,1,0,0:0:0:0:
256,192,37272,1,8,0:0:0:0:
256,192,37727,1,8,0:0:0:0:
256,192,38181,1,0,0:0:0:0:
256,192,38409,1,0,0:0:0:0:
256,192,39090,1,8,0:0:0:0:
256,192,39545,1,8,0:0:0:0:
256,192,40000,1,0,0:0:0:0:
256,192,40681,1,0,0:0:0:0:
256,192,40909,1,8,0:0:0:0:
256,192,41818,1,0,0:0:0:0:
256,192,42500,1,0,0:0:0:0:
256,192,42727,1,8,0:0:0:0:
256,192,43636,5,8,0:0:0:0:
256,192,43863,1,0,0:0:0:0:
256,192,44318,1,0,0:0:0:0:
256,192,44545,1,8,0:0:0:0:
256,192,45227,1,0,0:0:0:0:
256,192,45454,1,8,0:0:0:0:
256,192,45681,1,8,0:0:0:0:
256,192,46136,1,0,0:0:0:0:
256,192,46363,1,8,0:0:0:0:
256,200,47272,1,0,0:0:0:0:
256,200,47500,1,0,0:0:0:0:
256,192,47954,1,0,0:0:0:0:
256,192,48181,1,8,0:0:0:0:
256,192,48863,1,0,0:0:0:0:
256,192,49090,1,0,0:0:0:0:
256,192,49772,1,8,0:0:0:0:
256,192,50000,1,0,0:0:0:0:
256,184,50454,1,8,0:0:0:0:
256,184,50909,1,0,0:0:0:0:
256,192,51136,1,0,0:0:0:0:
256,192,51590,1,0,0:0:0:0:
256,192,51818,1,8,0:0:0:0:
256,192,52727,1,0,0:0:0:0:
256,192,52954,1,0,0:0:0:0:
248,192,53409,1,0,0:0:0:0:
248,192,53636,1,8,0:0:0:0:
248,192,54090,1,0,0:0:0:0:
248,192,54545,1,8,0:0:0:0:
248,192,54772,1,0,0:0:0:0:
256,192,55227,1,0,0:0:0:0:
256,192,55454,1,8,0:0:0:0:
256,192,56363,1,8,0:0:0:0:
256,192,56590,1,0,0:0:0:0:
256,192,57045,1,0,0:0:0:0:
256,192,57272,1,8,0:0:0:0:
248,192,57727,1,0,0:0:0:0:
256,192,58181,1,8,0:0:0:0:
256,192,58409,1,8,0:0:0:0:
256,192,58863,1,0,0:0:0:0:
256,192,59090,1,8,0:0:0:0:
256,192,60000,1,8,0:0:0:0:
256,192,60227,1,0,0:0:0:0:
256,192,60681,1,0,0:0:0:0:
256,192,60909,1,8,0:0:0:0:
256,192,61818,1,0,0:0:0:0:
256,192,62045,1,0,0:0:0:0:
256,200,62500,1,0,0:0:0:0:
256,200,62727,1,8,0:0:0:0:
256,200,63409,1,0,0:0:0:0:
256,200,63636,1,8,0:0:0:0:
256,200,64318,1,0,0:0:0:0:
256,200,64545,1,8,0:0:0:0:
256,192,64772,1,8,0:0:0:0:
256,192,65227,1,0,0:0:0:0:
256,192,65454,1,8,0:0:0:0:
256,192,65909,1,0,0:0:0:0:
256,192,66363,1,8,0:0:0:0:
256,200,67045,1,0,0:0:0:0:
256,200,67272,1,8,0:0:0:0:
256,200,67727,1,0,0:0:0:0:
256,200,68181,1,8,0:0:0:0:
256,200,68863,1,8,0:0:0:0:
256,200,69090,1,0,0:0:0:0:
256,200,69545,1,0,0:0:0:0:
256,200,70000,1,8,0:0:0:0:
256,200,70227,1,0,0:0:0:0:
256,200,70909,1,8,0:0:0:0:
256,200,71136,1,0,0:0:0:0:
256,200,71590,1,0,0:0:0:0:
256,200,71818,1,8,0:0:0:0:
256,200,73636,1,8,0:0:0:0:
256,200,75454,1,8,0:0:0:0:
256,200,77272,1,8,0:0:0:0:
256,200,79090,1,8,0:0:0:0:
256,192,80000,1,0,0:0:0:0:
256,192,80909,1,8,0:0:0:0:
256,192,81364,1,8,0:0:0:0:
256,192,81818,1,0,0:0:0:0:
256,192,82727,1,8,0:0:0:0:
256,192,83182,1,8,0:0:0:0:
256,192,83636,1,0,0:0:0:0:
256,192,84545,1,8,0:0:0:0:
256,192,85000,1,0,0:0:0:0:
256,192,85455,1,0,0:0:0:0:
256,192,86136,1,0,0:0:0:0:
256,192,86364,1,8,0:0:0:0:
256,192,87273,1,0,0:0:0:0:
256,192,88182,1,8,0:0:0:0:
256,192,88636,1,8,0:0:0:0:
256,192,89091,1,0,0:0:0:0:
248,192,90000,1,8,0:0:0:0:
256,200,90455,1,8,0:0:0:0:
256,200,90909,1,0,0:0:0:0:
256,208,91818,1,8,0:0:0:0:
256,208,92273,1,0,0:0:0:0:
256,208,92727,1,8,0:0:0:0:
256,208,93409,1,0,0:0:0:0:
256,208,93636,1,8,0:0:0:0:
264,192,94091,1,0,0:0:0:0:
264,192,94545,1,8,0:0:0:0:
256,192,95227,1,0,0:0:0:0:
256,192,95454,1,8,0:0:0:0:
256,192,96363,1,8,0:0:0:0:
256,192,97045,1,0,0:0:0:0:
256,192,97272,1,8,0:0:0:0:
264,192,97727,1,8,0:0:0:0:
264,192,98181,1,0,0:0:0:0:
256,192,98863,1,0,0:0:0:0:
264,192,99090,1,8,0:0:0:0:
264,192,100000,1,0,0:0:0:0:
264,192,100681,1,0,0:0:0:0:
264,192,100909,1,8,0:0:0:0:
264,192,101818,1,0,0:0:0:0:
264,192,102272,1,0,0:0:0:0:
264,192,102727,1,8,0:0:0:0:
264,192,103636,1,0,0:0:0:0:
264,192,104090,1,0,0:0:0:0:
264,192,104545,1,8,0:0:0:0:
264,192,105454,1,0,0:0:0:0:
264,192,106363,1,8,0:0:0:0:
264,192,107272,1,0,0:0:0:0:
264,192,108181,1,8,0:0:0:0:
256,192,109090,5,8,0:0:0:0:
256,192,109317,1,0,0:0:0:0:
256,192,109772,1,0,0:0:0:0:
256,192,109999,1,8,0:0:0:0:
256,192,110681,1,0,0:0:0:0:
256,192,110908,1,8,0:0:0:0:
256,192,111135,1,8,0:0:0:0:
256,192,111590,1,0,0:0:0:0:
256,192,111817,1,8,0:0:0:0:
256,200,112726,1,0,0:0:0:0:
256,200,112954,1,0,0:0:0:0:
256,192,113408,1,0,0:0:0:0:
256,192,113635,1,8,0:0:0:0:
256,192,114317,1,0,0:0:0:0:
256,192,114544,1,0,0:0:0:0:
256,192,115226,1,8,0:0:0:0:
256,192,115454,1,0,0:0:0:0:
256,184,115908,1,8,0:0:0:0:
256,184,116363,1,0,0:0:0:0:
256,192,116590,1,0,0:0:0:0:
256,192,117044,1,0,0:0:0:0:
256,192,117272,1,8,0:0:0:0:
256,192,118181,1,0,0:0:0:0:
256,192,118408,1,0,0:0:0:0:
248,192,118863,1,0,0:0:0:0:
248,192,119090,1,8,0:0:0:0:
248,192,119544,1,0,0:0:0:0:
248,192,119999,1,8,0:0:0:0:
248,192,120226,1,0,0:0:0:0:
256,192,120681,1,0,0:0:0:0:
256,192,120908,1,8,0:0:0:0:
256,192,121817,1,8,0:0:0:0:
256,192,122044,1,0,0:0:0:0:
256,192,122499,1,0,0:0:0:0:
256,192,122726,1,8,0:0:0:0:
248,192,123181,1,0,0:0:0:0:
256,192,123635,1,8,0:0:0:0:
256,192,123863,1,8,0:0:0:0:
256,192,124317,1,0,0:0:0:0:
256,192,124544,1,8,0:0:0:0:
256,192,125454,1,8,0:0:0:0:
256,192,125681,1,0,0:0:0:0:
256,192,126135,1,0,0:0:0:0:
256,192,126363,1,8,0:0:0:0:
256,192,127272,1,0,0:0:0:0:
256,192,127499,1,0,0:0:0:0:
256,200,127954,1,0,0:0:0:0:
256,200,128181,1,8,0:0:0:0:
256,200,128863,1,0,0:0:0:0:
256,200,129090,1,8,0:0:0:0:
256,200,129772,1,0,0:0:0:0:
256,200,129999,1,8,0:0:0:0:
256,192,130226,1,8,0:0:0:0:
256,192,130681,1,0,0:0:0:0:
256,192,130908,1,8,0:0:0:0:
256,192,131363,1,0,0:0:0:0:
256,192,131817,1,8,0:0:0:0:
256,200,132499,1,0,0:0:0:0:
256,200,132726,1,8,0:0:0:0:
256,200,133181,1,0,0:0:0:0:
256,200,133635,1,8,0:0:0:0:
256,200,134317,1,8,0:0:0:0:
256,200,134544,1,0,0:0:0:0:
256,200,134999,1,0,0:0:0:0:
256,200,135454,1,8,0:0:0:0:
256,200,135681,1,0,0:0:0:0:
256,200,136363,1,8,0:0:0:0:
256,200,136590,1,0,0:0:0:0:
256,200,137044,1,0,0:0:0:0:
256,200,137272,1,8,0:0:0:0:
256,192,138181,1,0,0:0:0:0:
256,192,139090,1,8,0:0:0:0:
256,192,140909,1,8,0:0:0:0:
256,192,141818,1,0,0:0:0:0:
256,192,142727,1,8,0:0:0:0:
256,192,144545,1,8,0:0:0:0:
256,192,145454,1,0,0:0:0:0:
256,192,146363,1,8,0:0:0:0:
256,192,148181,1,8,0:0:0:0:
256,192,149090,1,0,0:0:0:0:
256,192,150000,1,8,0:0:0:0:
256,192,151818,1,8,0:0:0:0:
256,192,152727,1,0,0:0:0:0:
256,192,153409,1,0,0:0:0:0:
256,192,153636,1,8,0:0:0:0:
256,192,154545,1,0,0:0:0:0:
256,192,155454,1,8,0:0:0:0:
256,192,156363,1,0,0:0:0:0:
256,192,157045,1,0,0:0:0:0:
256,192,157272,1,8,0:0:0:0:
256,192,158181,1,0,0:0:0:0:
256,192,159090,1,8,0:0:0:0:
256,192,160000,1,0,0:0:0:0:
256,192,160681,1,0,0:0:0:0:
256,192,160909,1,8,0:0:0:0:
256,192,161818,1,0,0:0:0:0:
256,192,162727,1,8,0:0:0:0:
256,192,163636,1,0,0:0:0:0:
256,192,164318,1,0,0:0:0:0:
256,192,164545,1,8,0:0:0:0:
256,192,167272,5,8,0:0:0:0:
256,192,167499,1,0,0:0:0:0:
256,192,167954,1,0,0:0:0:0:
256,192,168181,1,8,0:0:0:0:
256,192,168409,1,0,0:0:0:0:
256,192,168863,1,0,0:0:0:0:
256,192,169090,1,8,0:0:0:0:
256,192,169317,1,8,0:0:0:0:
256,192,169772,1,0,0:0:0:0:
256,192,169999,1,8,0:0:0:0:
256,200,170908,1,0,0:0:0:0:
256,200,171136,1,0,0:0:0:0:
256,192,171590,1,0,0:0:0:0:
256,192,171817,1,8,0:0:0:0:
264,200,172045,1,8,0:0:0:0:
256,192,172499,1,8,0:0:0:0:
256,192,172726,1,0,0:0:0:0:
256,192,173408,1,0,0:0:0:0:
256,192,173636,1,8,0:0:0:0:
256,184,174090,1,8,0:0:0:0:
256,184,174545,1,0,0:0:0:0:
256,192,174772,1,0,0:0:0:0:
256,192,175226,1,0,0:0:0:0:
256,192,175454,1,8,0:0:0:0:
256,192,175681,1,8,0:0:0:0:
256,192,176363,1,0,0:0:0:0:
256,192,176590,1,0,0:0:0:0:
248,192,177045,1,0,0:0:0:0:
248,192,177272,1,8,0:0:0:0:
248,192,177726,1,0,0:0:0:0:
248,192,178181,1,8,0:0:0:0:
248,192,178408,1,0,0:0:0:0:
256,192,178863,1,0,0:0:0:0:
256,192,179090,1,8,0:0:0:0:
256,192,179318,1,0,0:0:0:0:
256,192,179999,1,8,0:0:0:0:
256,192,180226,1,0,0:0:0:0:
256,192,180681,1,0,0:0:0:0:
256,192,180908,1,8,0:0:0:0:
256,192,181817,1,8,0:0:0:0:
256,192,182045,1,8,0:0:0:0:
256,192,182499,1,0,0:0:0:0:
256,192,182726,1,8,0:0:0:0:
256,192,182954,1,0,0:0:0:0:
256,192,183409,1,8,0:0:0:0:
256,192,183636,1,8,0:0:0:0:
256,192,183863,1,0,0:0:0:0:
256,192,184317,1,0,0:0:0:0:
256,192,184545,1,8,0:0:0:0:
256,192,185454,1,0,0:0:0:0:
256,192,185681,1,0,0:0:0:0:
256,200,186136,1,0,0:0:0:0:
256,200,186363,1,8,0:0:0:0:
248,192,186590,1,8,0:0:0:0:
256,200,187045,1,0,0:0:0:0:
256,200,187272,1,8,0:0:0:0:
248,192,187727,1,8,0:0:0:0:
256,200,187954,1,0,0:0:0:0:
256,200,188181,1,8,0:0:0:0:
256,192,188408,1,8,0:0:0:0:
256,192,188863,1,0,0:0:0:0:
256,192,189090,1,8,0:0:0:0:
256,192,189545,1,0,0:0:0:0:
256,192,189999,1,8,0:0:0:0:
256,200,190681,1,0,0:0:0:0:
256,200,190908,1,8,0:0:0:0:
256,200,191363,1,0,0:0:0:0:
256,200,191817,1,8,0:0:0:0:
256,200,192499,1,8,0:0:0:0:
256,200,192726,1,0,0:0:0:0:
256,200,193181,1,0,0:0:0:0:
256,200,193636,1,8,0:0:0:0:
256,200,193863,1,0,0:0:0:0:
248,192,194090,1,8,0:0:0:0:
256,200,194545,1,0,0:0:0:0:
256,200,194772,1,0,0:0:0:0:
256,200,195226,1,0,0:0:0:0:
256,200,195454,1,8,0:0:0:0:
264,192,196363,1,0,0:0:0:0:
264,192,197272,1,8,0:0:0:0:
264,192,198181,1,0,0:0:0:0:
264,192,199090,1,8,0:0:0:0:
264,192,200000,1,0,0:0:0:0:
264,192,200909,1,8,0:0:0:0:
264,192,201818,1,0,0:0:0:0:
264,192,202727,1,8,0:0:0:0:
264,192,203181,1,8,0:0:0:0:
264,192,203636,1,0,0:0:0:0:
264,192,204545,1,8,0:0:0:0:
264,192,205454,1,0,0:0:0:0:
264,192,206363,1,8,0:0:0:0:
264,192,207272,1,0,0:0:0:0:
264,192,208181,1,8,0:0:0:0:
264,192,209090,1,0,0:0:0:0:
264,192,210000,1,8,0:0:0:0:
