osu file format v14

[General]
AudioFilename: audio.mp3
AudioLeadIn: 0
PreviewTime: -1
Countdown: 0
SampleSet: Soft
StackLeniency: 0.7
Mode: 0
LetterboxInBreaks: 0
WidescreenStoryboard: 1

[Editor]
Bookmarks: 43285,47142,135856,149571,163285,168428,176999,211285
DistanceSpacing: 0.3
BeatDivisor: 4
GridSize: 4
TimelineZoom: 1.9

[Metadata]
Title:ECHO
TitleUnicode:ECHO
Artist:REOL
ArtistUnicode:REOL
Creator:R4UP1
Version:Original old
Source:
Tags:Japanese Hentai Tentacleporn rrtyui cookiezi gangbang Hiroshima Nagasaki Mitsubishi Toyota
BeatmapID:1749096
BeatmapSetID:835074

[Difficulty]
HPDrainRate:5
CircleSize:3.5
OverallDifficulty:8
ApproachRate:9.6
SliderMultiplier:2.8
SliderTickRate:1

[Events]
//Background and Video events
0,0,"Echo.png",0,0
//Break Periods
2,67485,73633
2,159842,210776
2,214270,224062
//Storyboard Layer 0 (Background)
//Storyboard Layer 1 (Fail)
//Storyboard Layer 2 (Pass)
//Storyboard Layer 3 (Foreground)
//Storyboard Sound Samples

[TimingPoints]
482,428.571428571429,4,2,0,5,1,0
482,-500,4,2,0,5,0,0
5571,428.571428571429,4,2,0,40,1,0
6428,-166.666666666667,4,2,0,40,0,0
12428,-125,4,2,0,60,0,0
16713,-166.666666666667,4,2,0,60,0,0
18213,-125,4,2,0,60,0,0
38999,-76.9230769230769,4,2,0,60,0,0
39856,-71.4285714285714,4,2,0,60,0,1
43285,-71.4285714285714,4,2,0,60,0,1
43713,-76.9230769230769,4,2,0,60,0,1
44142,-83.3333333333333,4,2,0,60,0,1
44571,-90.9090909090909,4,2,0,60,0,1
44999,-100,4,2,0,60,0,1
45428,-111.111111111111,4,2,0,60,0,1
45856,-125,4,2,0,60,0,1
46285,-200,4,2,0,60,0,1
46713,-71.4285714285714,4,2,0,60,0,1
49713,-200,4,2,0,60,0,1
50142,-71.4285714285714,4,2,0,60,0,1
61713,-66.6666666666667,4,2,0,60,0,1
62142,-58.8235294117647,4,2,0,60,0,1
62571,-200,4,2,0,60,0,1
62999,-66.6666666666667,4,2,0,60,0,1
63856,-111.111111111111,4,2,0,60,0,1
65785,-76.9230769230769,4,2,0,60,0,1
67285,-76.9230769230769,4,2,0,60,0,0
74142,-133.333333333333,4,2,0,60,0,0
74142,-133.333333333333,4,2,0,60,0,0
80999,-142.857142857143,4,2,0,60,0,0
81428,-100,4,2,0,60,0,0
87856,-111.111111111111,4,2,0,60,0,0
94713,-55.5555555555556,4,2,0,60,0,1
99856,-200,4,2,0,60,0,1
100285,-55.5555555555556,4,2,0,60,0,1
106713,-100,4,2,0,60,0,0
107571,-166.666666666667,4,2,0,60,0,0
108428,-50,4,2,0,60,0,1
108642,-142.857142857143,4,2,0,60,0,1
110142,-50,4,2,0,60,0,1
110356,-142.857142857143,4,2,0,60,0,1
111856,-50,4,2,0,60,0,1
112070,-142.857142857143,4,2,0,60,0,1
113356,-100,4,2,0,60,0,1
115285,-50,4,2,0,60,0,1
115499,-142.857142857143,4,2,0,60,0,1
116999,-50,4,2,0,60,0,1
117213,-142.857142857143,4,2,0,60,0,1
118713,-50,4,2,0,60,0,1
118927,-142.857142857143,4,2,0,60,0,1
120428,-100,4,2,0,60,0,1
122142,-125,4,2,0,60,0,0
123856,-200,4,2,0,60,0,0
124285,-142.857142857143,4,2,0,60,0,0
124713,-166.666666666667,4,2,0,60,0,0
125571,-125,4,2,0,60,0,0
127285,-200,4,2,0,60,0,0
128571,-333.333333333333,4,2,0,60,0,0
128999,-83.3333333333333,4,2,0,60,0,1
134142,-71.4285714285714,4,2,0,60,0,1
135856,-166.666666666667,4,2,0,60,0,0
142285,-125,4,2,0,60,0,0
142713,-142.857142857143,4,2,0,60,0,0
176999,-100,4,2,0,60,0,1
209356,-100,4,2,0,60,0,0
211285,-100,4,2,0,60,0,1
211285,-100,4,2,0,60,0,0
224999,-161.290322580645,4,2,0,60,0,0
228642,-161.290322580645,4,2,0,5,0,0
231321,-500,4,1,0,5,0,0

[Colours]
Combo1 : 0,0,0
Combo2 : 255,255,255

[HitObjects]
256,192,482,5,0,0:0:0:0:
256,192,1017,12,0,5196,0:0:0:0:
244,48,5571,5,0,0:0:0:0:
324,76,5785,1,0,0:0:0:0:
368,148,5999,1,0,0:0:0:0:
360,64,6213,1,0,0:0:0:0:
352,240,6428,5,0,0:0:0:0:
404,156,6642,1,0,0:0:0:0:
232,220,6856,5,0,0:0:0:0:
324,260,7071,1,0,0:0:0:0:
416,296,7285,2,0,P|460:280|492:244,1,83.9999974365235
416,212,7713,2,0,P|440:180|444:132,1,83.9999974365235
137,137,8142,6,0,P|143:178|168:212,1,83.9999974365235
167,295,8570,2,0,P|128:282|98:254,1,83.9999974365235
259,255,8999,5,0,0:0:0:0:
351,215,9213,1,0,0:0:0:0:
167,295,9428,5,0,0:0:0:0:
259,255,9642,1,0,0:0:0:0:
351,215,9856,2,0,P|383:180|399:139,1,83.9999974365235
203,194,10285,2,0,P|225:229|259:254,1,83.9999974365235
460,254,10713,5,0,0:0:0:0:
460,254,10928,1,0,0:0:0:0:
232,96,11142,6,0,P|192:124|176:160,1,83.9999974365235
324,218,11571,2,0,P|356:252|372:300,1,83.9999974365235
256,172,11999,6,0,B|292:204|292:204|328:220,1,83.9999974365235
172,120,12428,6,0,P|224:168|236:224,1,112
76,144,12749,5,0,0:0:0:0:
108,72,12856,2,0,P|160:40|232:60,1,112
352,88,13178,5,0,0:0:0:0:
380,164,13285,2,0,B|370:208|370:208|328:276,1,112
464,300,13606,1,0,0:0:0:0:
384,336,13713,1,0,0:0:0:0:
472,208,13928,5,0,0:0:0:0:
432,288,14035,1,0,0:0:0:0:
348,316,14142,2,0,P|288:308|240:268,1,112
289,124,14463,5,0,0:0:0:0:
320,199,14570,2,0,P|290:251|235:281,1,112
118,142,14892,5,0,0:0:0:0:
185,96,14999,2,0,P|244:98|297:132,1,112
142,220,15321,5,0,0:0:0:0:
118,142,15428,1,0,0:0:0:0:
440,136,15642,5,0,0:0:0:0:
472,207,15749,1,0,0:0:0:0:
426,270,15856,2,0,P|383:293|315:281,1,112
64,160,16178,5,0,0:0:0:0:
117,96,16285,2,0,B|168:132|168:132|186:179,1,112
64,160,16713,6,0,L|76:272,1,83.9999974365235
196,96,17142,2,0,L|184:208,1,83.9999974365235
240,16,17571,1,0,0:0:0:0:
456,184,17785,1,0,0:0:0:0:
456,184,18213,6,0,P|352:209|332:324,1,224
256,40,18856,2,0,L|240:160,1,112
232,236,19178,1,0,0:0:0:0:
164,100,19285,6,0,L|225:337,1,224
356,180,19928,1,0,0:0:0:0:
220,316,20142,6,0,P|96:300|64:200,1,224
256,96,20785,1,0,0:0:0:0:
420,336,20999,6,0,L|440:216,1,112
420,336,21642,2,0,P|312:320|284:216,1,224
416,192,22285,1,0,0:0:0:0:
512,64,22499,6,0,L|472:120,1,56
416,192,22713,2,0,B|380:152|380:152|360:88,1,112
153,309,23142,2,0,B|189:269|189:269|209:205,1,112
416,192,23571,6,0,P|312:236|204:212,1,224
182,70,24213,6,0,P|206:46|242:30,1,56
257,124,24428,2,0,P|245:184|191:216,1,112
257,124,25071,6,0,B|266:218|178:258|86:226|42:126|106:62|106:62|182:74|182:74|218:34|274:26|314:54,1,560
365,112,26249,5,0,0:0:0:0:
353,137,26356,1,0,0:0:0:0:
438,55,26463,5,0,0:0:0:0:
451,98,26571,1,0,0:0:0:0:
460,141,26678,1,0,0:0:0:0:
461,185,26785,2,0,L|446:252,1,56
165,165,26999,5,0,0:0:0:0:
141,214,27106,1,0,0:0:0:0:
149,269,27213,1,0,0:0:0:0:
185,311,27320,1,0,0:0:0:0:
238,325,27427,1,0,0:0:0:0:
291,308,27534,1,0,0:0:0:0:
325,265,27642,2,0,P|328:233|322:201,1,56
140,158,27856,2,0,P|137:190|143:222,1,56
380,344,28071,5,0,0:0:0:0:
418,303,28178,1,0,0:0:0:0:
434,250,28285,1,0,0:0:0:0:
425,196,28392,1,0,0:0:0:0:
392,151,28499,1,0,0:0:0:0:
343,125,28606,1,0,0:0:0:0:
288,125,28713,1,0,0:0:0:0:
238,149,28821,1,0,0:0:0:0:
204,193,28928,2,0,P|209:233|228:268,1,56
152,128,29142,2,0,P|127:159|116:196,1,56
160,44,29356,2,0,P|119:49|85:67,1,56
204,193,29571,5,0,0:0:0:0:
236,196,29678,1,0,0:0:0:0:
268,192,29785,1,0,0:0:0:0:
296,176,29892,1,0,0:0:0:0:
324,157,29999,2,0,P|338:133|344:99,1,56
461,197,30213,5,0,0:0:0:0:
461,197,30321,1,0,0:0:0:0:
461,197,30428,1,0,0:0:0:0:
454,241,30535,1,0,0:0:0:0:
433,280,30642,1,0,0:0:0:0:
392,299,30749,1,0,0:0:0:0:
347,302,30856,1,0,0:0:0:0:
304,288,30963,1,0,0:0:0:0:
267,261,31071,2,0,P|254:236|253:200,1,56
80,192,31285,5,0,0:0:0:0:
80,192,31392,1,0,0:0:0:0:
80,192,31499,2,0,L|100:260,1,56
352,48,31713,1,0,0:0:0:0:
352,48,31821,1,0,0:0:0:0:
352,48,31928,2,0,L|336:128,1,56
256,340,32142,6,0,L|256:284,1,56
256,88,32356,2,0,L|256:144,1,56
104,284,32571,2,0,P|122:256|156:232,1,56
408,284,32785,2,0,P|389:256|356:232,1,56
256,192,32999,5,0,0:0:0:0:
256,192,33106,1,0,0:0:0:0:
256,192,33213,1,0,0:0:0:0:
256,192,33321,1,0,0:0:0:0:
200,220,33428,1,0,0:0:0:0:
145,228,33535,1,0,0:0:0:0:
104,188,33642,2,0,L|79:256,3,56
69,102,34071,6,0,L|20:128,1,56
184,124,34285,2,0,L|220:166,1,56
140,44,34499,2,0,P|169:30|200:28,1,56
328,80,34713,5,0,0:0:0:0:
334,95,34820,1,0,0:0:0:0:
340,111,34927,1,0,0:0:0:0:
346,126,35034,1,0,0:0:0:0:
400,120,35141,1,0,0:0:0:0:
388,168,35248,1,0,0:0:0:0:
376,216,35356,2,0,L|401:279,3,56
258,255,35785,6,0,L|238:311,1,56
164,202,35999,2,0,L|118:240,1,56
114,109,36213,2,0,L|55:119,1,56
200,16,36428,5,0,0:0:0:0:
282,25,36535,1,0,0:0:0:0:
346,77,36642,1,0,0:0:0:0:
374,155,36749,1,0,0:0:0:0:
356,236,36856,1,0,0:0:0:0:
299,296,36963,1,0,0:0:0:0:
218,316,37070,1,0,0:0:0:0:
139,291,37177,1,0,0:0:0:0:
85,228,37285,5,0,0:0:0:0:
135,205,37392,1,0,0:0:0:0:
160,156,37499,1,0,0:0:0:0:
147,102,37606,1,0,0:0:0:0:
104,69,37713,1,0,0:0:0:0:
49,70,37820,1,0,0:0:0:0:
7,106,37928,2,0,P|-3:135|0:164,1,56
160,156,38142,5,0,0:0:0:0:
221,91,38249,1,0,0:0:0:0:
311,88,38356,1,0,0:0:0:0:
376,150,38463,1,0,0:0:0:0:
378,239,38571,1,0,0:0:0:0:
316,304,38678,1,0,0:0:0:0:
227,307,38785,1,0,0:0:0:0:
162,245,38892,1,0,0:0:0:0:
160,156,38999,6,0,B|183:153|201:136|201:136|236:143|236:143|273:87|366:101|395:162|358:242|293:237|260:209,1,363.999983337403
192,88,39642,1,0,0:0:0:0:
448,60,39856,6,0,L|424:272,1,195.999994018555
64,60,40285,2,0,L|88:272,1,195.999994018555
448,80,40713,6,0,L|424:292,1,195.999994018555
64,80,41142,2,0,L|88:292,1,195.999994018555
448,100,41571,6,0,L|424:312,1,195.999994018555
64,100,42000,2,0,L|88:312,1,195.999994018555
448,120,42428,6,0,L|424:332,1,195.999994018555
64,120,42857,2,0,L|88:332,1,195.999994018555
352,108,43285,6,0,P|256:76|156:116,1,195.999994018555
212,308,43713,2,0,P|312:287|368:220,1,181.999991668702
228,60,44142,2,0,P|153:127|137:205,1,167.999994873047
341,290,44571,2,0,P|373:194|352:128,1,154.000004699707
134,148,44999,2,0,P|154:247|192:284,1,140
384,168,45428,2,0,P|317:92|280:80,1,125.999996154785
158,276,45856,2,0,P|254:308|276:304,1,112
72,272,46285,6,0,L|96:348,1,70
198,84,46713,6,0,L|158:276,1,195.999994018555
256,8,47142,2,0,B|282:60|282:60|296:208,1,195.999994018555
120,120,47463,5,0,0:0:0:0:
100,141,47571,2,0,B|73:168|73:168|145:240|233:188,1,195.999994018555
376,144,47892,5,0,0:0:0:0:
383,116,47999,2,0,P|271:140|207:212,1,195.999994018555
256,284,48320,1,0,0:0:0:0:
188,348,48428,6,0,B|156:332|156:332|118:334|118:334|84:268|12:268,1,195.999994018555
324,348,48856,2,0,B|355:332|355:332|393:334|393:334|428:268|500:268,1,195.999994018555
256,56,49285,2,0,B|244:100|244:100|260:132|260:132|246:163|246:163|276:208|248:252,1,195.999994018555
352,64,49713,6,0,B|344:108|344:108|356:124|356:124|336:172,1,105
340,161,50142,6,0,B|389:246|389:246|420:352,1,195.999994018555
171,161,50571,2,0,B|122:246|122:246|92:352,1,195.999994018555
384,88,50999,2,0,B|456:200|456:200|480:268,1,195.999994018555
128,88,51428,2,0,B|56:200|56:200|32:268,1,195.999994018555
468,156,51856,5,0,0:0:0:0:
44,156,52071,1,0,0:0:0:0:
364,320,52285,5,0,0:0:0:0:
256,48,52499,1,0,0:0:0:0:
148,320,52713,2,0,P|60:280|16:168,1,195.999994018555
152,100,53035,5,0,0:0:0:0:
205,215,53142,1,0,0:0:0:0:
360,100,53356,5,0,0:0:0:0:
307,215,53463,1,0,0:0:0:0:
256,332,53571,2,0,P|360:332|420:260,2,195.999994018555
417,267,54213,2,0,P|496:228|360:228,1,391.99998803711
256,332,54749,1,0,0:0:0:0:
256,284,54856,1,0,0:0:0:0:
256,72,55071,1,0,0:0:0:0:
256,332,55285,6,0,P|152:332|92:260,2,195.999994018555
94,267,55927,2,0,P|16:228|152:228,1,391.99998803711
256,332,56463,1,0,0:0:0:0:
256,284,56570,1,0,0:0:0:0:
376,64,56785,6,0,P|412:116|420:156,1,97.9999970092774
376,64,56999,2,0,P|300:136|200:132,1,195.999994018555
108,72,57428,2,0,B|212:136|212:136|256:224,1,195.999994018555
264,32,57856,1,0,0:0:0:0:
192,268,58071,5,0,0:0:0:0:
131,332,58178,1,0,0:0:0:0:
44,350,58285,1,0,0:0:0:0:
320,268,58499,5,0,0:0:0:0:
381,332,58606,1,0,0:0:0:0:
424,256,58713,2,0,B|436:184|436:184|402:119|402:119|361:83,1,195.999994018555
256,64,59035,1,0,0:0:0:0:
148,86,59142,2,0,B|110:118|110:118|76:183|76:183|88:255,1,195.999994018555
309,335,59571,6,0,P|233:195|221:347,1,391.99998803711
256,273,60106,2,0,L|256:168,1,97.9999970092774
360,52,60428,6,0,B|428:128|428:128|416:220|416:220|442:314|442:314|388:292|368:220,1,391.99998803711
136,244,61071,5,0,0:0:0:0:
256,184,61178,1,0,0:0:0:0:
376,244,61285,2,0,B|340:280|340:280|288:288|288:288|256:324|192:324,1,195.999994018555
64,96,61713,6,0,B|81:76|104:72|104:72|120:56|120:56|178:56|178:56|215:32|268:36,1,210.000008010865
437,313,62142,6,0,B|367:332|367:332|268:314|268:314|243:327|183:321,1,238.00000453949
420,100,62571,6,0,P|456:124|416:152,1,105
420,100,62999,6,0,B|344:120|344:120|292:112|292:112|204:136,1,210.000008010865
140,284,63428,6,0,B|108:312|108:312|188:296,1,105.000004005432
308,268,63642,1,0,0:0:0:0:
29,252,63856,6,0,P|72:287|140:283,1,125.999996154785
164,112,64178,2,0,P|117:142|100:207,1,125.999996154785
274,105,64499,6,0,B|218:77|218:77|132:88|132:88|164:112,2,188.999994232178
328,248,65356,1,0,0:0:0:0:
464,64,65571,6,0,L|472:24,2,31.4999990386963
481,144,65785,6,0,B|443:178|443:178|425:106|425:106|465:62,1,181.999991668702
481,144,66106,2,0,B|504:184|504:184|496:240,1,90.9999958343508
112,92,66428,5,0,0:0:0:0:
108,200,66535,1,0,0:0:0:0:
104,308,66642,1,0,0:0:0:0:
112,92,66856,6,0,B|57:133|57:133|26:96|61:59,1,136.499993751526
112,92,67071,2,0,B|153:113|153:113|193:188|261:192,1,181.999991668702
337,97,74142,6,0,P|358:149|361:205,1,105.000004005432
149,198,74571,2,0,B|91:197|91:197|44:206,1,105.000004005432
362,198,74999,2,0,B|420:197|420:197|466:206,1,105.000004005432
150,197,75428,2,0,P|154:145|175:97,1,105.000004005432
300,60,75856,6,0,B|340:68|340:68|368:60|368:60|404:80,1,105.000004005432
168,224,76285,2,0,B|128:232|128:232|100:224|100:224|64:244,1,105.000004005432
352,296,76713,2,0,B|416:304|416:304|468:296,2,105.000004005432
352,296,77356,1,0,0:0:0:0:
192,112,77571,6,0,B|160:104|124:72|124:72|124:132|80:128|100:212,1,210.000008010865
320,112,78428,6,0,B|352:104|388:72|388:72|388:132|432:128|412:212,1,210.000008010865
236,264,79285,5,0,0:0:0:0:
236,316,79392,1,0,0:0:0:0:
276,316,79499,1,0,0:0:0:0:
276,264,79606,1,0,0:0:0:0:
223,264,79713,1,0,0:0:0:0:
170,264,79821,1,0,0:0:0:0:
132,301,79928,6,0,B|97:315|76:348|76:348|32:320|40:264,1,157.500006008148
120,144,80571,1,0,0:0:0:0:
120,144,80785,1,0,0:0:0:0:
452,72,80999,6,0,B|384:100|384:100|424:108,1,97.9999970092774
344,20,81428,1,0,0:0:0:0:
308,40,81535,1,0,0:0:0:0:
296,80,81642,1,0,0:0:0:0:
161,41,81856,6,0,L|295:79,1,140
137,153,82285,2,0,B|81:137|81:137|49:41,1,140
137,153,82713,6,0,B|167:223|167:223|161:157,1,140
179,261,83035,1,0,0:0:0:0:
187,288,83142,1,0,0:0:0:0:
195,315,83249,1,0,0:0:0:0:
428,96,83571,6,0,P|368:132|288:128,1,140
72,216,83999,2,0,P|126:171|149:95,1,140
180,260,84428,6,0,B|216:332|216:332|276:368,1,140
384,184,84749,2,0,B|312:220|312:220|276:280,1,140
149,107,85178,6,0,P|185:123|209:147,1,70
72,216,85499,1,0,0:0:0:0:
452,72,85713,1,0,0:0:0:0:
72,216,86142,6,0,B|92:296|92:296|140:352,1,140
440,216,86571,2,0,B|420:296|420:296|372:352,1,140
256,192,86999,6,0,P|256:284|258:192,1,280
256,240,87856,5,0,0:0:0:0:
72,92,88071,5,0,0:0:0:0:
40,68,88178,2,0,B|80:136|24:136|76:200,1,125.999996154785
440,92,88606,5,0,0:0:0:0:
472,68,88713,2,0,B|432:136|488:136|436:200,1,125.999996154785
211,161,89142,6,0,B|256:114|256:114|302:167,1,125.999996154785
256,32,89571,1,0,0:0:0:0:
256,304,89892,1,0,0:0:0:0:
147,269,90213,6,0,B|187:233|187:233|228:144,1,125.999996154785
365,269,90642,2,0,B|325:233|325:233|283:144,1,125.999996154785
256,100,91071,1,0,0:0:0:0:
256,336,91285,5,0,0:0:0:0:
256,336,91606,2,0,L|256:273,1,62.9999980773926
256,100,91928,1,0,0:0:0:0:
48,135,92142,6,0,B|112:136|112:136|168:168,1,125.999996154785
463,135,92571,2,0,B|400:136|400:136|344:168,1,125.999996154785
204,296,92999,6,0,P|129:341|52:284,2,188.999994232178
308,296,93856,2,0,P|382:341|460:284,2,188.999994232178
295,32,94713,6,0,B|347:92|347:92|383:268,1,251.999992309571
217,32,95142,2,0,B|165:92|165:92|129:268,1,251.999992309571
80,56,95571,2,0,B|184:156|184:156|252:248,1,251.999992309571
432,56,95999,2,0,B|328:156|328:156|260:248,1,251.999992309571
80,56,96428,6,0,B|67:127|67:127|45:175|45:175|50:230|50:230|18:256|7:309,1,251.999992309571
432,56,96856,2,0,B|444:127|444:127|466:175|466:175|461:230|461:230|493:256|504:309,1,251.999992309571
68,124,97285,2,0,B|96:204|96:204|136:252|136:252|144:316|144:316|180:352,1,251.999992309571
444,124,97713,2,0,B|416:204|416:204|376:252|376:252|368:316|368:316|332:352,1,251.999992309571
256,44,98142,6,0,B|248:112|248:112|268:176|268:176|248:248|248:248|256:296,1,251.999992309571
100,98,98571,6,0,B|130:161|130:161|156:179|156:179|191:243|191:243|253:288,1,251.999992309571
407,98,98999,2,0,B|376:161|376:161|350:179|350:179|315:243|315:243|253:288,1,251.999992309571
16,176,99428,6,0,P|48:104|220:52,1,251.999992309571
388,216,99856,6,0,B|426:250|426:250|414:225,1,70
388,216,100285,5,0,0:0:0:0:
144,80,100499,1,0,0:0:0:0:
284,344,100713,1,0,0:0:0:0:
288,44,100928,1,0,0:0:0:0:
80,308,101142,1,0,0:0:0:0:
496,208,101356,1,0,0:0:0:0:
106,71,101571,6,0,B|74:135|74:135|90:195|90:195|62:243|62:279|90:327,1,251.999992309571
464,60,101999,6,0,P|417:178|392:312,1,251.999992309571
48,60,102428,2,0,P|94:178|120:312,1,251.999992309571
476,128,102856,2,0,B|388:248|388:248|352:344,1,251.999992309571
36,128,103285,2,0,B|124:248|124:248|160:344,1,251.999992309571
420,52,103713,5,0,0:0:0:0:
48,288,103928,1,0,0:0:0:0:
422,145,104142,5,0,0:0:0:0:
72,191,104357,1,0,0:0:0:0:
371,228,104571,5,0,0:0:0:0:
148,121,104786,1,0,0:0:0:0:
371,228,104999,6,0,B|421:242|447:272|447:272|360:285|360:285|312:266|287:232,1,251.999992309571
473,21,105428,6,0,L|445:285,1,251.999992309571
381,61,105856,2,0,L|353:325,1,251.999992309571
291,98,106285,2,0,L|263:362,1,251.999992309571
119,66,106713,5,0,0:0:0:0:
130,48,107035,1,0,0:0:0:0:
149,41,107356,1,0,0:0:0:0:
411,100,107571,6,0,P|373:134|406:90,1,167.999994873047
405,89,108428,6,0,P|248:112|140:184,1,280
405,89,108856,6,0,P|457:105|505:149,1,97.9999970092774
409,169,109285,2,0,P|452:201|482:259,1,97.9999970092774
381,241,109713,2,0,P|410:286|419:351,1,97.9999970092774
381,241,110142,6,0,B|256:200|256:200|104:184,1,280
381,241,110571,6,0,L|380:140,1,97.9999970092774
256,200,110999,2,0,L|256:88,1,97.9999970092774
131,241,111428,2,0,L|132:140,1,97.9999970092774
131,241,111856,6,0,P|256:312|392:336,1,280
61,307,112285,6,0,P|100:280|131:240,1,97.9999970092774
112,104,112713,2,0,P|72:130|42:171,1,97.9999970092774
112,104,113142,2,0,P|149:132|197:149,1,97.9999970092774
256,100,113410,6,0,L|256:52,2,35
332,72,113571,2,0,L|332:188,1,105
392,240,113785,2,0,B|408:199|408:199|408:92,1,140
308,252,114106,1,0,0:0:0:0:
73,76,114321,6,0,L|108:144,1,70
163,46,114535,1,0,0:0:0:0:
57,213,114642,1,0,0:0:0:0:
57,213,114856,6,0,P|100:251|166:256,1,105
247,213,115071,2,0,L|291:188,2,35
142,156,115285,6,0,B|298:171|298:171|433:203,1,280
142,156,115713,6,0,B|96:126|96:126|74:83,1,97.9999970092774
211,107,116142,2,0,B|181:60|181:60|178:12,1,97.9999970092774
301,107,116571,2,0,B|330:60|330:60|333:12,1,97.9999970092774
256,32,116999,6,0,L|256:316,1,280
348,104,117428,6,0,L|444:168,1,97.9999970092774
164,180,117856,2,0,L|68:244,1,97.9999970092774
348,244,118285,2,0,L|444:308,1,97.9999970092774
348,244,118713,6,0,P|248:276|80:232,1,280
331,158,119142,6,0,P|387:166|427:206,1,97.9999970092774
368,328,119571,2,0,P|312:320|272:280,1,97.9999970092774
196,344,119999,2,0,P|181:289|202:236,1,97.9999970092774
417,191,120428,6,0,P|365:215|321:187,1,105
276,112,120642,2,0,P|328:88|372:116,1,105
326,194,120856,2,0,P|274:218|230:190,1,105
185,115,121071,2,0,P|237:91|281:119,1,105
235,197,121285,6,0,B|201:259|201:259|168:196,1,140
168,197,121713,2,0,B|134:259|134:259|101:196,1,140
368,292,122142,6,0,B|420:284|444:316|444:316|404:328,1,112
307,350,122463,2,0,P|285:288|309:232,1,112
452,204,122892,5,0,0:0:0:0:
328,364,122999,1,0,0:0:0:0:
208,40,123213,1,0,0:0:0:0:
208,40,123428,2,0,L|188:156,1,112
376,0,123856,6,0,L|388:72,1,70
280,188,124285,2,0,L|296:91,1,97.9999970092774
458,129,124713,2,0,P|422:157|370:161,1,83.9999974365235
313,7,125142,2,0,P|353:27|379:73,1,83.9999974365235
304,288,125571,6,0,L|224:304,1,56
328,252,125892,2,0,L|248:268,1,56
96,304,126213,1,0,0:0:0:0:
96,304,126428,2,0,B|68:256|68:256|60:188,1,112
416,304,126856,2,0,B|444:256|444:256|452:188,1,112
256,48,127285,5,0,0:0:0:0:
256,68,127606,1,0,0:0:0:0:
256,88,127928,1,0,0:0:0:0:
256,108,128142,2,0,L|256:192,1,70
344,76,128571,6,0,P|364:112|364:148,1,62.9999980773926
344,76,128999,6,0,P|408:136|452:212,1,167.999994873047
168,76,129428,2,0,P|104:136|60:212,1,167.999994873047
440,56,129856,6,0,P|423:142|381:219,1,167.999994873047
72,56,130285,2,0,P|88:142|130:219,1,167.999994873047
464,176,130713,6,0,B|380:160|380:160|300:120,1,167.999994873047
48,176,131142,2,0,B|132:160|132:160|212:120,1,167.999994873047
444,288,131571,6,0,B|396:256|396:256|340:152,1,167.999994873047
68,288,131999,2,0,B|116:256|116:256|172:152,1,167.999994873047
256,28,132428,5,0,0:0:0:0:
256,112,132535,1,0,0:0:0:0:
256,196,132642,1,0,0:0:0:0:
456,64,132856,6,0,L|424:240,1,167.999994873047
56,64,133285,2,0,L|88:240,1,167.999994873047
428,320,133713,5,0,0:0:0:0:
256,28,133928,1,0,0:0:0:0:
84,320,134142,1,0,0:0:0:0:
256,192,134249,12,0,135428,0:0:0:0:
456,76,135856,6,0,L|440:128,1,41.9999987182618
376,80,136071,2,0,L|360:132,1,41.9999987182618
296,84,136285,2,0,L|280:136,1,41.9999987182618
256,197,136499,2,0,L|240:249,1,41.9999987182618
192,320,136713,6,0,P|172:316|152:304,1,41.9999987182618
144,336,136928,2,0,P|129:321|120:299,1,41.9999987182618
96,324,137142,2,0,P|92:303|97:280,1,41.9999987182618
64,288,137356,2,0,P|73:269|89:253,1,41.9999987182618
152,204,137571,5,0,0:0:0:0:
175,221,137678,1,0,0:0:0:0:
203,231,137785,1,0,0:0:0:0:
232,233,137892,1,0,0:0:0:0:
261,227,137999,5,0,0:0:0:0:
293,177,138106,1,0,0:0:0:0:
260,128,138213,1,0,0:0:0:0:
202,140,138320,1,0,0:0:0:0:
191,199,138428,2,0,L|240:220,1,41.9999987182618
80,150,138642,2,0,L|128:170,1,41.9999987182618
40,80,138856,6,0,L|52:184,1,83.9999974365235
64,272,139178,1,0,0:0:0:0:
72,296,139285,6,0,L|76:348,1,41.9999987182618
196,296,139499,2,0,L|156:324,1,41.9999987182618
316,296,139713,2,0,L|356:324,1,41.9999987182618
256,232,139928,2,0,L|256:176,1,41.9999987182618
256,40,140142,5,0,0:0:0:0:
256,52,140249,1,0,0:0:0:0:
256,64,140356,1,0,0:0:0:0:
256,76,140463,1,0,0:0:0:0:
256,88,140571,2,0,L|304:108,1,41.9999987182618
256,176,140785,2,0,L|256:220,1,41.9999987182618
320,320,140999,6,0,P|340:316|360:304,1,41.9999987182618
368,336,141214,2,0,P|382:321|391:299,1,41.9999987182618
416,324,141428,2,0,P|419:303|414:280,1,41.9999987182618
448,288,141642,2,0,P|438:269|422:253,1,41.9999987182618
348,236,141856,2,0,L|348:176,3,41.9999987182618
424,116,142285,6,0,B|500:116|500:116|468:80|416:80,1,168
344,124,142713,5,0,0:0:0:0:
332,132,142821,1,0,0:0:0:0:
344,144,142928,1,0,0:0:0:0:
332,152,143035,1,0,0:0:0:0:
340,164,143142,2,0,L|300:216,1,48.9999985046387
348,212,143356,2,0,L|308:264,1,48.9999985046387
72,160,143571,5,0,0:0:0:0:
85,163,143678,1,0,0:0:0:0:
99,167,143785,1,0,0:0:0:0:
114,175,143892,1,0,0:0:0:0:
126,184,143999,2,0,P|154:208|173:214,1,48.9999985046387
247,144,144213,2,0,P|218:119|199:113,1,48.9999985046387
108,324,144428,5,0,0:0:0:0:
132,333,144535,1,0,0:0:0:0:
159,337,144642,1,0,0:0:0:0:
184,337,144749,1,0,0:0:0:0:
240,280,144856,1,0,0:0:0:0:
264,281,144963,1,0,0:0:0:0:
287,288,145070,1,0,0:0:0:0:
308,300,145177,1,0,0:0:0:0:
360,360,145285,5,0,0:0:0:0:
412,326,145392,1,0,0:0:0:0:
421,265,145499,1,0,0:0:0:0:
381,218,145606,1,0,0:0:0:0:
320,204,145713,5,0,0:0:0:0:
321,188,145821,1,0,0:0:0:0:
321,172,145928,1,0,0:0:0:0:
321,156,146035,1,0,0:0:0:0:
321,140,146142,2,0,L|321:76,1,48.9999985046387
220,28,146356,2,0,L|220:92,1,48.9999985046387
340,160,146571,2,0,L|340:96,1,48.9999985046387
200,8,146785,2,0,L|200:72,1,48.9999985046387
196,240,146999,6,0,P|176:216|152:200,1,48.9999985046387
64,248,147213,2,0,P|84:272|108:288,1,48.9999985046387
294,283,147428,2,0,P|313:267|328:248,1,48.9999985046387
230,205,147642,2,0,P|210:220|195:239,1,48.9999985046387
184,332,147856,5,0,0:0:0:0:
184,341,147963,1,0,0:0:0:0:
184,351,148070,1,0,0:0:0:0:
184,361,148177,1,0,0:0:0:0:
260,312,148285,5,0,0:0:0:0:
260,321,148392,1,0,0:0:0:0:
260,331,148499,1,0,0:0:0:0:
260,341,148606,1,0,0:0:0:0:
336,360,148713,6,0,L|384:332,3,48.9999985046387
376,300,149142,2,0,L|424:272,3,48.9999985046387
460,100,149571,5,0,0:0:0:0:
440,102,149678,1,0,0:0:0:0:
422,109,149785,1,0,0:0:0:0:
405,119,149892,1,0,0:0:0:0:
256,48,149999,1,0,0:0:0:0:
256,48,150213,1,0,0:0:0:0:
52,100,150428,5,0,0:0:0:0:
71,102,150535,1,0,0:0:0:0:
89,109,150642,1,0,0:0:0:0:
106,119,150749,1,0,0:0:0:0:
256,48,150856,1,0,0:0:0:0:
256,48,151071,1,0,0:0:0:0:
40,344,151285,5,0,0:0:0:0:
51,327,151392,1,0,0:0:0:0:
64,313,151499,1,0,0:0:0:0:
79,301,151606,1,0,0:0:0:0:
256,336,151713,1,0,0:0:0:0:
256,336,151928,1,0,0:0:0:0:
472,344,152142,5,0,0:0:0:0:
460,327,152249,1,0,0:0:0:0:
447,313,152356,1,0,0:0:0:0:
432,301,152463,1,0,0:0:0:0:
256,336,152570,1,0,0:0:0:0:
256,336,152785,1,0,0:0:0:0:
376,132,152999,5,0,0:0:0:0:
362,118,153106,1,0,0:0:0:0:
349,104,153213,1,0,0:0:0:0:
337,88,153320,1,0,0:0:0:0:
470,132,153427,1,0,0:0:0:0:
470,132,153642,1,0,0:0:0:0:
136,132,153856,5,0,0:0:0:0:
150,118,153963,1,0,0:0:0:0:
163,104,154070,1,0,0:0:0:0:
175,88,154177,1,0,0:0:0:0:
42,132,154284,1,0,0:0:0:0:
42,132,154499,1,0,0:0:0:0:
336,208,154713,6,0,L|380:228,1,48.9999985046387
176,208,154928,2,0,L|132:228,1,48.9999985046387
256,100,155142,2,0,L|256:216,1,97.9999970092774
328,324,155571,5,0,0:0:0:0:
343,312,155678,1,0,0:0:0:0:
359,300,155785,1,0,0:0:0:0:
375,288,155892,1,0,0:0:0:0:
328,324,155999,2,0,P|276:316|220:332,1,97.9999970092774
80,372,156428,5,0,0:0:0:0:
62,362,156535,1,0,0:0:0:0:
48,349,156642,1,0,0:0:0:0:
37,333,156749,1,0,0:0:0:0:
112,200,156856,2,0,L|112:304,1,97.9999970092774
432,372,157285,5,0,0:0:0:0:
449,362,157392,1,0,0:0:0:0:
463,349,157499,1,0,0:0:0:0:
474,333,157606,1,0,0:0:0:0:
400,200,157713,2,0,L|400:304,1,97.9999970092774
96,128,158142,6,0,L|148:140,1,48.9999985046387
360,128,158356,2,0,L|312:116,1,48.9999985046387
80,156,158571,2,0,L|180:180,1,97.9999970092774
416,128,158999,6,0,L|364:140,1,48.9999985046387
152,128,159213,2,0,L|199:116,1,48.9999985046387
432,156,159428,2,0,L|332:180,1,97.9999970092774
213,160,211285,6,0,L|197:304,1,140
440,136,211713,2,0,B|348:84|348:84|296:84,1,140
72,248,212142,2,0,B|164:300|164:300|216:300,1,140
270,8,212571,6,0,B|199:62|199:62|191:116,1,140
241,375,212999,2,0,B|312:321|312:321|320:267,1,140
86,121,213428,6,0,B|120:188|120:188|192:216,1,140
425,262,213856,2,0,B|392:196|392:196|320:168,1,140
97,336,224571,6,0,B|196:336|196:336|244:312,1,140
200,128,224999,6,0,B|96:128|96:128|96:336|96:336|416:336|416:336|416:128|416:128|240:128|240:128|168:44|168:44|336:44|336:44|272:120,1,1388.79994490235
256,192,228642,12,0,230142,0:0:0:0:
256,192,231321,6,0,L|256:240,1,42
