osu file format v14

[General]
AudioFilename: audio.mp3
AudioLeadIn: 0
PreviewTime: 46026
Countdown: 0
SampleSet: Soft
StackLeniency: 0.7
Mode: 0
LetterboxInBreaks: 0
WidescreenStoryboard: 0

[Editor]
DistanceSpacing: 1
BeatDivisor: 4
GridSize: 4
TimelineZoom: 1

[Metadata]
Title:DetaramE KiddinG
TitleUnicode:DetaramE KiddinG
Artist:REOL
ArtistUnicode:REOL
Creator:Janpai
Version:Normal
Source:
Tags:Σ Sigma れをる ギガ Giga お菊 Okiku Hazu-
BeatmapID:1111573
BeatmapSetID:523609

[Difficulty]
HPDrainRate:4
CircleSize:3.5
OverallDifficulty:4
ApproachRate:5
SliderMultiplier:2
SliderTickRate:2

[Events]
//Background and Video events
0,0,"DK BG.jpg",0,0
//Break Periods
//Storyboard Layer 0 (Background)
//Storyboard Layer 1 (Fail)
//Storyboard Layer 2 (Pass)
//Storyboard Layer 3 (Foreground)
//Storyboard Sound Samples

[TimingPoints]
616,821.917808219178,4,2,1,40,1,0
5958,-100,4,2,0,60,0,0
7191,-100,4,2,1,60,0,0
33492,-100,4,2,1,50,0,0
40068,-100,4,2,1,70,0,0
46643,-100,4,2,2,80,0,1
72944,-100,4,2,1,60,0,0

[Colours]
Combo1 : 240,196,136
Combo2 : 115,15,50
Combo3 : 166,136,136
Combo4 : 128,128,128

[HitObjects]
23,106,616,6,0,P|61:84|128:92,1,100,8|8,0:0|0:0,0:0:0:0:
157,114,1232,1,0,0:0:0:0:
191,149,1437,2,0,L|296:145,1,100,8|8,0:0|0:0,0:0:0:0:
384,108,2259,2,0,P|397:159|402:229,2,100,8|8|8,0:0|0:0|0:0,0:0:0:0:
311,38,3492,1,8,0:0:0:0:
234,102,3903,6,0,B|193:116|193:116|120:105,1,100,8|8,0:0|0:0,0:0:0:0:
87,99,4520,1,0,0:0:0:0:
37,94,4725,2,0,P|39:144|48:201,1,100,8|8,0:0|0:0,0:0:0:0:
120,261,5547,1,2,0:0:0:0:
194,193,5958,2,0,L|247:187,1,50,8|8,0:0|0:0,0:0:0:0:
293,187,6369,2,0,P|307:234|302:291,1,100,8|8,0:0|0:0,0:0:0:0:
218,337,7191,6,0,L|98:336,1,100,6|0,0:0|0:0,0:0:0:0:
68,330,7807,1,2,0:0:0:0:
22,308,8013,2,0,P|6:256|31:201,1,100,8|2,0:0|0:0,0:0:0:0:
94,147,8835,1,0,0:0:0:0:
94,147,9040,2,0,L|76:81,2,50,2|8|0,0:0|0:3|0:0,0:0:0:0:
113,193,9657,2,0,L|212:183,1,100,8|0,0:0|0:0,0:0:0:0:
296,239,10479,6,0,P|309:204|299:136,1,100,2|0,0:0|0:0,0:0:0:0:
273,101,11095,1,2,0:0:0:0:
239,64,11300,2,0,L|362:66,1,100,8|2,0:0|0:0,0:0:0:0:
437,99,12122,1,0,0:0:0:0:
437,99,12328,2,0,L|427:46,2,50,2|8|0,0:0|0:3|0:0,0:0:0:0:
464,140,12944,2,0,L|445:245,1,100,8|0,0:0|0:0,0:0:0:0:
403,329,13766,6,0,L|338:325,1,50,2|0,0:0|0:0,0:0:0:0:
306,344,14177,2,0,L|241:348,1,50,0|2,0:0|0:0,0:0:0:0:
206,354,14588,1,8,0:0:0:0:
116,309,14999,1,2,0:0:0:0:
36,247,15410,2,0,P|24:213|25:181,1,50,0|2,0:0|0:0,0:0:0:0:
47,155,15821,2,0,P|59:121|58:89,1,50,8|0,0:3|0:0,0:0:0:0:
58,57,16232,1,8,0:0:0:0:
147,102,16643,1,0,0:0:0:0:
227,42,17054,6,0,L|328:31,1,100,2|0,0:0|0:0,0:0:0:0:
376,28,17670,1,2,0:0:0:0:
425,24,17876,2,0,B|444:67|444:67|434:132,1,100,8|2,0:0|0:0,0:0:0:0:
424,168,18492,1,0,0:0:0:0:
409,215,18698,2,0,L|300:210,2,100,0|8|8,0:0|0:3|0:0,0:0:0:0:
478,287,19931,1,2,0:3:0:0:
407,358,20342,6,0,P|367:346|294:374,1,100,6|0,0:0|0:0,0:0:0:0:
212,369,21163,2,0,L|201:260,1,100,8|2,0:0|0:0,0:0:0:0:
194,219,21780,1,0,0:0:0:0:
182,170,21985,2,0,P|132:171|90:145,1,100,0|8,0:0|0:3,0:0:0:0:
38,59,22807,2,0,L|140:46,1,100,8|0,0:0|0:0,0:0:0:0:
236,34,23629,6,0,B|286:21|286:21|341:30,1,100,2|0,0:0|0:0,0:0:0:0:
430,54,24451,2,0,P|423:108|422:168,1,100,8|2,0:0|0:0,0:0:0:0:
415,203,25068,1,0,0:0:0:0:
397,249,25273,2,0,P|352:221|297:221,1,100,0|8,0:0|0:3,0:0:0:0:
208,241,26095,2,0,L|98:244,1,100,8|0,0:0|0:0,0:0:0:0:
40,317,26917,5,6,0:0:0:0:
129,360,27328,2,0,L|181:359,1,50,0|0,0:0|0:0,0:0:0:0:
229,356,27739,2,0,P|258:335|333:346,1,100,8|2,0:0|0:0,0:0:0:0:
363,362,28355,1,0,0:0:0:0:
410,346,28561,2,0,P|416:289|411:243,1,100,0|8,0:0|0:3,0:0:0:0:
406,146,29383,2,0,L|292:139,1,100,8|0,0:0|0:0,0:0:0:0:
215,183,30205,6,0,L|209:116,1,50,2|0,0:0|0:0,0:0:0:0:
202,83,30615,2,0,P|163:65|92:87,1,100,0|8,0:0|0:0,0:0:0:0:
53,158,31437,1,2,0:0:0:0:
132,219,31848,2,0,L|142:281,2,50,0|2|8,0:0|0:0|0:3,0:0:0:0:
148,171,32465,1,0,0:0:0:0:
166,124,32670,2,0,B|201:112|201:112|278:119,1,100,8|2,0:0|0:3,0:0:0:0:
356,155,33492,6,0,B|384:84|328:84|351:-2,2,150,12|8|8,0:0|0:0|0:0,0:0:0:0:
397,246,35136,2,0,L|460:242,2,50,8|0|0,0:0|0:0|0:0,0:0:0:0:
361,281,35752,1,8,0:0:0:0:
326,317,35958,2,8,P|282:335|222:326,1,100,8|8,0:0|0:0,0:0:0:0:
155,262,36780,6,0,P|130:236|20:236,2,150,8|8|8,0:0|0:0|0:0,0:0:0:0:
230,329,38424,2,0,P|226:361|229:388,2,50,8|0|0,0:0|0:0|0:0,0:0:0:0:
248,282,39040,1,8,0:0:0:0:
263,234,39246,2,0,L|370:229,1,100,8|8,0:0|0:0,0:0:0:0:
450,278,40068,5,8,0:3:0:0:
480,182,40479,2,0,L|478:115,1,50,8|0,0:0|0:0,0:0:0:0:
477,82,40889,2,0,P|432:55|373:57,1,100,8|8,0:0|0:0,0:0:0:0:
338,72,41506,1,4,0:3:0:0:
298,102,41711,5,4,0:3:0:0:
243,185,42122,2,0,P|211:190|177:184,1,50,8|0,0:0|0:0,0:0:0:0:
146,171,42533,2,0,L|154:278,1,100,8|8,0:0|0:0,0:0:0:0:
256,192,43355,12,6,44999,0:0:0:0:
432,114,46026,6,0,L|419:56,2,50,0|0|8,0:0|0:0|0:3,0:0:0:0:
439,164,46643,6,0,P|391:158|339:192,1,100,6|0,0:0|0:0,0:0:0:0:
315,220,47259,1,2,0:0:0:0:
285,260,47465,2,0,L|164:256,1,100,8|2,0:0|0:0,0:0:0:0:
134,256,48081,1,0,0:0:0:0:
85,241,48287,2,0,B|64:192|64:192|71:131,2,100,0|8|8,0:0|0:3|0:0,0:0:0:0:
160,175,49520,2,0,L|222:175,1,50,0|2,0:0|0:0,0:0:0:0:
259,179,49931,6,0,B|285:150|285:150|287:76,1,100,2|0,0:0|0:0,0:0:0:0:
273,40,50547,1,2,0:0:0:0:
318,19,50752,2,0,L|434:13,1,100,8|2,0:0|0:0,0:0:0:0:
468,15,51369,1,0,0:0:0:0:
498,54,51574,2,0,P|508:92|510:159,2,100,0|8|8,0:0|0:3|0:0,0:0:0:0:
425,123,52807,2,0,P|391:124|365:122,1,50,0|2,0:0|0:0,0:0:0:0:
324,121,53218,5,6,0:0:0:0:
263,200,53629,2,0,P|229:199|203:201,1,50,0|2,0:0|0:0,0:0:0:0:
164,211,54040,2,0,P|115:201|80:150,1,100,8|2,0:0|0:0,0:0:0:0:
145,84,54862,2,0,L|136:24,2,50,0|2|8,0:0|0:0|0:3,0:0:0:0:
178,121,55479,2,0,B|232:105|232:105|293:116,1,100,0|0,0:0|0:0,0:0:0:0:
310,147,56095,2,0,L|367:147,1,50,0|2,0:0|0:0,0:0:0:0:
412,152,56506,5,2,0:0:0:0:
492,91,56917,1,0,0:0:0:0:
500,190,57328,2,0,L|508:244,1,50,8|0,0:0|0:0,0:0:0:0:
495,288,57739,2,0,P|468:299|435:301,1,50,2|0,0:0|0:0,0:0:0:0:
397,303,58150,1,0,0:0:0:0:
298,284,58561,2,0,L|226:285,1,50,8|0,0:3|0:0,0:0:0:0:
197,287,58972,2,0,P|174:252|178:194,1,100,8|2,0:0|0:0,0:0:0:0:
205,154,59588,1,0,0:0:0:0:
224,107,59794,6,0,P|184:109|125:104,1,100,6|0,0:0|0:0,0:0:0:0:
78,84,60410,1,2,0:0:0:0:
34,109,60615,2,0,L|38:220,1,100,8|2,0:0|0:0,0:0:0:0:
41,259,61232,1,0,0:0:0:0:
50,308,61437,2,0,P|100:319|159:293,2,100,0|8|8,0:0|0:3|0:0,0:0:0:0:
96,219,62670,2,0,L|153:210,1,50,0|2,0:0|0:0,0:0:0:0:
184,179,63081,6,0,B|224:164|224:164|300:172,1,100,2|0,0:0|0:0,0:0:0:0:
328,185,63698,1,2,0:0:0:0:
374,202,63903,2,0,L|387:311,1,100,8|2,0:0|0:0,0:0:0:0:
365,347,64520,1,0,0:0:0:0:
317,332,64725,2,0,B|271:318|271:353|208:335,2,100,0|8|8,0:0|0:3|0:0,0:0:0:0:
310,231,65958,2,0,P|279:223|248:224,1,50,0|2,0:0|0:0,0:0:0:0:
211,230,66369,5,6,0:0:0:0:
138,161,66780,2,0,L|134:106,1,50,0|2,0:0|0:0,0:0:0:0:
128,61,67191,2,0,L|256:35,1,100,8|2,0:0|0:0,0:0:0:0:
309,96,68013,2,0,L|305:145,2,50,0|2|8,0:0|0:0|0:3,0:0:0:0:
319,47,68629,2,0,P|374:32|424:43,1,100,0|0,0:0|0:0,0:0:0:0:
463,54,69246,1,0,0:0:0:0:
508,143,69657,5,2,0:0:0:0:
461,232,70068,1,0,0:0:0:0:
414,320,70479,2,0,L|358:331,1,50,8|0,0:0|0:0,0:0:0:0:
323,357,70889,2,0,L|267:346,1,50,2|0,0:0|0:0,0:0:0:0:
224,337,71300,2,0,L|209:225,2,100,0|8|8,0:0|0:3|0:0,0:0:0:0:
130,372,72533,1,2,0:0:0:0:
43,322,72944,1,6,0:0:0:0:
39,122,73766,6,0,L|98:110,1,50,4|0,0:3|0:0,0:0:0:0:
